  0
SECTION
  2
HEADER
  9
$ACADVER
  1
AC1018
  9
$ACADMAINTVER
 70
   104
  9
$DWGCODEPAGE
  3
ANSI_936
  9
$LASTSAVEDBY
  1
ZGW
  9
$INSBASE
 10
0.0
 20
0.0
 30
0.0
  9
$EXTMIN
 10
841.6369094214788
 20
808.6542403913981
 30
0.0
  9
$EXTMAX
 10
1852.437952078062
 20
1937.165918748253
 30
0.0
  9
$LIMMIN
 10
0.0
 20
0.0
  9
$LIMMAX
 10
420.0
 20
297.0
  9
$ORTHOMODE
 70
     1
  9
$REGENMODE
 70
     1
  9
$FILLMODE
 70
     1
  9
$QTEXTMODE
 70
     0
  9
$MIRRTEXT
 70
     0
  9
$LTSCALE
 40
1.0
  9
$ATTMODE
 70
     1
  9
$TEXTSIZE
 40
2.5
  9
$TRACEWID
 40
1.0
  9
$TEXTSTYLE
  7
Standard
  9
$CLAYER
  8
0
  9
$CELTYPE
  6
ByLayer
  9
$CECOLOR
 62
   256
  9
$CELTSCALE
 40
1.0
  9
$DISPSILH
 70
     0
  9
$DIMSCALE
 40
1.0
  9
$DIMASZ
 40
2.5
  9
$DIMEXO
 40
0.625
  9
$DIMDLI
 40
3.75
  9
$DIMRND
 40
0.0
  9
$DIMDLE
 40
0.0
  9
$DIMEXE
 40
1.25
  9
$DIMTP
 40
0.0
  9
$DIMTM
 40
0.0
  9
$DIMTXT
 40
2.5
  9
$DIMCEN
 40
2.5
  9
$DIMTSZ
 40
0.0
  9
$DIMTOL
 70
     0
  9
$DIMLIM
 70
     0
  9
$DIMTIH
 70
     0
  9
$DIMTOH
 70
     0
  9
$DIMSE1
 70
     0
  9
$DIMSE2
 70
     0
  9
$DIMTAD
 70
     1
  9
$DIMZIN
 70
     8
  9
$DIMBLK
  1

  9
$DIMASO
 70
     1
  9
$DIMSHO
 70
     1
  9
$DIMPOST
  1

  9
$DIMAPOST
  1

  9
$DIMALT
 70
     0
  9
$DIMALTD
 70
     3
  9
$DIMALTF
 40
0.03937007874016
  9
$DIMLFAC
 40
1.0
  9
$DIMTOFL
 70
     1
  9
$DIMTVP
 40
0.0
  9
$DIMTIX
 70
     0
  9
$DIMSOXD
 70
     0
  9
$DIMSAH
 70
     0
  9
$DIMBLK1
  1

  9
$DIMBLK2
  1

  9
$DIMSTYLE
  2
ISO-25
  9
$DIMCLRD
 70
     0
  9
$DIMCLRE
 70
     0
  9
$DIMCLRT
 70
     0
  9
$DIMTFAC
 40
1.0
  9
$DIMGAP
 40
0.625
  9
$DIMJUST
 70
     0
  9
$DIMSD1
 70
     0
  9
$DIMSD2
 70
     0
  9
$DIMTOLJ
 70
     0
  9
$DIMTZIN
 70
     8
  9
$DIMALTZ
 70
     0
  9
$DIMALTTZ
 70
     0
  9
$DIMUPT
 70
     0
  9
$DIMDEC
 70
     2
  9
$DIMTDEC
 70
     2
  9
$DIMALTU
 70
     2
  9
$DIMALTTD
 70
     3
  9
$DIMTXSTY
  7
Standard
  9
$DIMAUNIT
 70
     0
  9
$DIMADEC
 70
     0
  9
$DIMALTRND
 40
0.0
  9
$DIMAZIN
 70
     0
  9
$DIMDSEP
 70
    44
  9
$DIMATFIT
 70
     3
  9
$DIMFRAC
 70
     0
  9
$DIMLDRBLK
  1

  9
$DIMLUNIT
 70
     2
  9
$DIMLWD
 70
    -2
  9
$DIMLWE
 70
    -2
  9
$DIMTMOVE
 70
     0
  9
$LUNITS
 70
     2
  9
$LUPREC
 70
     4
  9
$SKETCHINC
 40
1.0
  9
$FILLETRAD
 40
18.0
  9
$AUNITS
 70
     0
  9
$AUPREC
 70
     0
  9
$MENU
  1
.
  9
$ELEVATION
 40
0.0
  9
$PELEVATION
 40
0.0
  9
$THICKNESS
 40
0.0
  9
$LIMCHECK
 70
     0
  9
$CHAMFERA
 40
0.0
  9
$CHAMFERB
 40
0.0
  9
$CHAMFERC
 40
0.0
  9
$CHAMFERD
 40
0.0
  9
$SKPOLY
 70
     0
  9
$TDCREATE
 40
2460242.686603079
  9
$TDUCREATE
 40
2460242.353269746
  9
$TDUPDATE
 40
2460243.393809121
  9
$TDUUPDATE
 40
2460243.060475787
  9
$TDINDWG
 40
0.0473812616
  9
$TDUSRTIMER
 40
0.0473802778
  9
$USRTIMER
 70
     1
  9
$ANGBASE
 50
0.0
  9
$ANGDIR
 70
     0
  9
$PDMODE
 70
     0
  9
$PDSIZE
 40
0.0
  9
$PLINEWID
 40
0.0
  9
$SPLFRAME
 70
     0
  9
$SPLINETYPE
 70
     6
  9
$SPLINESEGS
 70
     8
  9
$HANDSEED
  5
ADE
  9
$SURFTAB1
 70
     6
  9
$SURFTAB2
 70
     6
  9
$SURFTYPE
 70
     6
  9
$SURFU
 70
     6
  9
$SURFV
 70
     6
  9
$UCSBASE
  2

  9
$UCSNAME
  2

  9
$UCSORG
 10
0.0
 20
0.0
 30
0.0
  9
$UCSXDIR
 10
1.0
 20
0.0
 30
0.0
  9
$UCSYDIR
 10
0.0
 20
1.0
 30
0.0
  9
$UCSORTHOREF
  2

  9
$UCSORTHOVIEW
 70
     0
  9
$UCSORGTOP
 10
0.0
 20
0.0
 30
0.0
  9
$UCSORGBOTTOM
 10
0.0
 20
0.0
 30
0.0
  9
$UCSORGLEFT
 10
0.0
 20
0.0
 30
0.0
  9
$UCSORGRIGHT
 10
0.0
 20
0.0
 30
0.0
  9
$UCSORGFRONT
 10
0.0
 20
0.0
 30
0.0
  9
$UCSORGBACK
 10
0.0
 20
0.0
 30
0.0
  9
$PUCSBASE
  2

  9
$PUCSNAME
  2

  9
$PUCSORG
 10
0.0
 20
0.0
 30
0.0
  9
$PUCSXDIR
 10
1.0
 20
0.0
 30
0.0
  9
$PUCSYDIR
 10
0.0
 20
1.0
 30
0.0
  9
$PUCSORTHOREF
  2

  9
$PUCSORTHOVIEW
 70
     0
  9
$PUCSORGTOP
 10
0.0
 20
0.0
 30
0.0
  9
$PUCSORGBOTTOM
 10
0.0
 20
0.0
 30
0.0
  9
$PUCSORGLEFT
 10
0.0
 20
0.0
 30
0.0
  9
$PUCSORGRIGHT
 10
0.0
 20
0.0
 30
0.0
  9
$PUCSORGFRONT
 10
0.0
 20
0.0
 30
0.0
  9
$PUCSORGBACK
 10
0.0
 20
0.0
 30
0.0
  9
$USERI1
 70
     0
  9
$USERI2
 70
     0
  9
$USERI3
 70
     0
  9
$USERI4
 70
     0
  9
$USERI5
 70
     0
  9
$USERR1
 40
0.0
  9
$USERR2
 40
0.0
  9
$USERR3
 40
0.0
  9
$USERR4
 40
0.0
  9
$USERR5
 40
0.0
  9
$WORLDVIEW
 70
     1
  9
$SHADEDGE
 70
     3
  9
$SHADEDIF
 70
    70
  9
$TILEMODE
 70
     1
  9
$MAXACTVP
 70
    64
  9
$PINSBASE
 10
0.0
 20
0.0
 30
0.0
  9
$PLIMCHECK
 70
     0
  9
$PEXTMIN
 10
25.69999999999999
 20
19.5
 30
0.0
  9
$PEXTMAX
 10
231.3
 20
175.5
 30
0.0
  9
$PLIMMIN
 10
-20.0
 20
-7.5
  9
$PLIMMAX
 10
277.0
 20
202.5
  9
$UNITMODE
 70
     0
  9
$VISRETAIN
 70
     1
  9
$PLINEGEN
 70
     0
  9
$PSLTSCALE
 70
     1
  9
$TREEDEPTH
 70
  3020
  9
$CMLSTYLE
  2
Standard
  9
$CMLJUST
 70
     0
  9
$CMLSCALE
 40
20.0
  9
$PROXYGRAPHICS
 70
     1
  9
$MEASUREMENT
 70
     1
  9
$CELWEIGHT
370
    -1
  9
$ENDCAPS
280
     0
  9
$JOINSTYLE
280
     0
  9
$LWDISPLAY
290
     0
  9
$INSUNITS
 70
     4
  9
$HYPERLINKBASE
  1

  9
$STYLESHEET
  1
GRAYSCALE.CTB
  9
$XEDIT
290
     1
  9
$CEPSNTYPE
380
     0
  9
$PSTYLEMODE
290
     1
  9
$FINGERPRINTGUID
  2
{7681EB0F-236B-4077-A693-92F92AB96C68}
  9
$VERSIONGUID
  2
{B94CFF65-6F64-437D-875D-D4928BD7DC7F}
  9
$EXTNAMES
290
     1
  9
$PSVPSCALE
 40
0.0
  9
$OLESTARTUP
290
     0
  9
$SORTENTS
280
   127
  9
$INDEXCTL
280
     0
  9
$HIDETEXT
280
     1
  9
$XCLIPFRAME
290
     0
  9
$HALOGAP
280
     0
  9
$OBSCOLOR
 70
   257
  9
$OBSLTYPE
280
     0
  9
$INTERSECTIONDISPLAY
280
     0
  9
$INTERSECTIONCOLOR
 70
   257
  9
$DIMASSOC
280
     2
  9
$PROJECTNAME
  1

  0
ENDSEC
  0
SECTION
  2
CLASSES
  0
CLASS
  1
ACDBDICTIONARYWDFLT
  2
AcDbDictionaryWithDefault
  3
ObjectDBX Classes
 90
        0
 91
        1
280
     0
281
     0
  0
CLASS
  1
DICTIONARYVAR
  2
AcDbDictionaryVar
  3
ObjectDBX Classes
 90
        0
 91
        7
280
     0
281
     0
  0
CLASS
  1
TABLESTYLE
  2
AcDbTableStyle
  3
ObjectDBX Classes
 90
     4095
 91
        1
280
     0
281
     0
  0
CLASS
  1
MATERIAL
  2
AcDbMaterial
  3
ObjectDBX Classes
 90
     1024
 91
        3
280
     0
281
     0
  0
CLASS
  1
VISUALSTYLE
  2
AcDbVisualStyle
  3
ObjectDBX Classes
 90
     4095
 91
       16
280
     0
281
     0
  0
CLASS
  1
DIMASSOC
  2
AcDbDimAssoc
  3
"AcDbDimAssoc|Product Desc:     AcDim ARX App For Dimension|Company:          Autodesk, Inc.|WEB Address:      www.autodesk.com"
 90
        0
 91
        7
280
     0
281
     0
  0
CLASS
  1
SORTENTSTABLE
  2
AcDbSortentsTable
  3
ObjectDBX Classes
 90
        0
 91
        3
280
     0
281
     0
  0
ENDSEC
  0
SECTION
  2
TABLES
  0
TABLE
  2
VPORT
  5
8
330
0
100
AcDbSymbolTable
 70
     1
  0
VPORT
  5
EB
330
8
100
AcDbSymbolTableRecord
100
AcDbViewportTableRecord
  2
*Active
 70
     0
 10
0.0
 20
0.0
 11
1.0
 21
1.0
 12
1639.606373913808
 22
1475.659418615551
 13
0.0
 23
0.0
 14
10.0
 24
10.0
 15
10.0
 25
10.0
 16
0.0
 26
0.0
 36
1.0
 17
0.0
 27
0.0
 37
0.0
 40
2063.344435188964
 41
2.225806451612903
 42
50.0
 43
0.0
 44
0.0
 50
0.0
 51
0.0
 71
     0
 72
  1000
 73
     1
 74
     3
 75
     0
 76
     0
 77
     0
 78
     0
281
     0
 65
     1
110
0.0
120
0.0
130
0.0
111
1.0
121
0.0
131
0.0
112
0.0
122
1.0
132
0.0
 79
     0
146
0.0
  0
ENDTAB
  0
TABLE
  2
LTYPE
  5
5
330
0
100
AcDbSymbolTable
 70
     2
  0
LTYPE
  5
14
330
5
100
AcDbSymbolTableRecord
100
AcDbLinetypeTableRecord
  2
ByBlock
 70
     0
  3

 72
    65
 73
     0
 40
0.0
  0
LTYPE
  5
15
330
5
100
AcDbSymbolTableRecord
100
AcDbLinetypeTableRecord
  2
ByLayer
 70
     0
  3

 72
    65
 73
     0
 40
0.0
  0
LTYPE
  5
16
330
5
100
AcDbSymbolTableRecord
100
AcDbLinetypeTableRecord
  2
Continuous
 70
     0
  3
Solid line
 72
    65
 73
     0
 40
0.0
  0
LTYPE
  5
57B
330
5
100
AcDbSymbolTableRecord
100
AcDbLinetypeTableRecord
  2
DASHED
 70
     0
  3
Dashed __ __ __ __ __ __ __ __ __ __ __ __ __ _
 72
    65
 73
     2
 40
19.05
 49
12.7
 74
     0
 49
-6.349999999999997
 74
     0
  0
ENDTAB
  0
TABLE
  2
LAYER
  5
2
102
{ACAD_XDICTIONARY
360
23D
102
}
330
0
100
AcDbSymbolTable
 70
     3
  0
LAYER
  5
10
330
2
100
AcDbSymbolTableRecord
100
AcDbLayerTableRecord
  2
0
 70
     0
 62
     7
  6
Continuous
370
    -3
390
F
  0
LAYER
  5
231
102
{ACAD_XDICTIONARY
360
232
102
}
330
2
100
AcDbSymbolTableRecord
100
AcDbLayerTableRecord
  2
1 辅助线
 70
     0
 62
     7
  6
Continuous
370
    40
390
F
1001
AcadStringInfo
1000
MIFCodePage
1070
     5
  0
LAYER
  5
234
330
2
100
AcDbSymbolTableRecord
100
AcDbLayerTableRecord
  2
Defpoints
 70
     0
 62
     7
  6
Continuous
290
     0
370
    -3
390
F
  0
ENDTAB
  0
TABLE
  2
STYLE
  5
3
330
0
100
AcDbSymbolTable
 70
     2
  0
STYLE
  5
11
330
3
100
AcDbSymbolTableRecord
100
AcDbTextStyleTableRecord
  2
Standard
 70
     0
 40
0.0
 41
1.0
 50
0.0
 71
     0
 42
2.5
  3
txt
  4
gbcbig.shx
  0
STYLE
  5
235
330
3
100
AcDbSymbolTableRecord
100
AcDbTextStyleTableRecord
  2
Arial
 70
     0
 40
0.0
 41
1.0
 50
0.0
 71
     0
 42
5.0
  3
swissl.ttf
  4

1001
ACAD
1000
Swis721 Lt BT
1071
       34
  0
ENDTAB
  0
TABLE
  2
VIEW
  5
6
330
0
100
AcDbSymbolTable
 70
     0
  0
ENDTAB
  0
TABLE
  2
UCS
  5
7
330
0
100
AcDbSymbolTable
 70
     0
  0
ENDTAB
  0
TABLE
  2
APPID
  5
9
330
0
100
AcDbSymbolTable
 70
     6
  0
APPID
  5
12
330
9
100
AcDbSymbolTableRecord
100
AcDbRegAppTableRecord
  2
ACAD
 70
     0
  0
APPID
  5
9E
330
9
100
AcDbSymbolTableRecord
100
AcDbRegAppTableRecord
  2
ACAD_PSEXT
 70
     0
  0
APPID
  5
23B
330
9
100
AcDbSymbolTableRecord
100
AcDbRegAppTableRecord
  2
AcadStringInfo
 70
     0
  0
APPID
  5
23C
330
9
100
AcDbSymbolTableRecord
100
AcDbRegAppTableRecord
  2
ACAD_NAV_VCDISPLAY
 70
     0
  0
APPID
  5
54E
330
9
100
AcDbSymbolTableRecord
100
AcDbRegAppTableRecord
  2
ACAD_EXEMPT_FROM_CAD_STANDARDS
 70
     0
  0
APPID
  5
A70
330
9
100
AcDbSymbolTableRecord
100
AcDbRegAppTableRecord
  2
ACAD_DSTYLE_DIM_LINETYPE
 70
     0
  0
ENDTAB
  0
TABLE
  2
DIMSTYLE
  5
A
330
0
100
AcDbSymbolTable
 70
     7
100
AcDbDimStyleTable
 71
     2
340
27
340
238
  0
DIMSTYLE
105
27
330
A
100
AcDbSymbolTableRecord
100
AcDbDimStyleTableRecord
  2
ISO-25
 70
     0
 41
2.5
 42
0.625
 43
3.75
 44
1.25
 73
     0
 74
     0
 77
     1
 78
     8
140
2.5
141
2.5
143
0.03937007874016
147
0.625
171
     3
172
     1
271
     2
272
     2
274
     3
278
    44
283
     0
284
     8
340
11
  0
DIMSTYLE
105
236
330
A
100
AcDbSymbolTableRecord
100
AcDbDimStyleTableRecord
  2
4-图放大5倍
 70
     0
  3
"\X
 41
0.6
 42
1.0
 43
3.75
 44
0.4
 78
     8
140
1.0
141
2.5
144
0.2
147
0.625
171
     0
172
     1
178
     6
179
     2
271
     6
272
     6
274
     0
276
     2
277
     5
283
     0
284
     8
340
235
342
123
1001
AcadStringInfo
1000
MIFCodePage
1070
     5
  0
DIMSTYLE
105
237
330
A
100
AcDbSymbolTableRecord
100
AcDbDimStyleTableRecord
  2
11-原比例无转
 70
     0
  3
"\X
 41
0.5
 42
1.0
 43
3.75
 44
0.4
 78
     8
140
1.0
141
2.5
147
0.2
171
     0
172
     1
178
     6
179
     2
271
     6
272
     6
274
     0
276
     2
277
     5
279
     1
283
     0
284
     8
340
235
342
123
1001
AcadStringInfo
1000
MIFCodePage
1070
     5
  0
DIMSTYLE
105
238
102
{ACAD_REACTORS
330
986
330
99E
330
68A
330
693
330
6CD
330
6D6
102
}
330
A
100
AcDbSymbolTableRecord
100
AcDbDimStyleTableRecord
  2
33-原比例超大字无转
 70
     0
  3
\X
  4
"
 40
0.6
 41
25.0
 42
20.0
 43
3.75
 44
20.0
 47
5.0
 48
5.0
 78
     8
140
35.0
141
20.0
143
0.03937
146
0.6
147
10.0
170
     1
171
     3
172
     1
176
   256
177
   256
178
   256
179
     1
271
     0
272
     0
273
     7
274
     3
276
     2
279
     1
283
     2
340
235
371
     0
372
    -1
1001
AcadStringInfo
1000
MIFCodePage
1070
     5
1001
ACAD_DSTYLE_DIM_LINETYPE
1070
   380
1005
15
  0
DIMSTYLE
105
239
330
A
100
AcDbSymbolTableRecord
100
AcDbDimStyleTableRecord
  2
1-small
 70
     0
  3
\X
  4
"
 41
0.8
 42
1.0
 43
0.0
 44
0.625
 78
     9
140
1.6
141
1.0
143
0.0393701
147
0.2
170
     1
171
     3
172
     1
271
     0
272
     0
273
     7
274
     3
276
     2
278
    44
279
     1
283
     0
284
     8
340
11
342
123
  0
DIMSTYLE
105
23A
330
A
100
AcDbSymbolTableRecord
100
AcDbDimStyleTableRecord
  2
副本 33-原比例超大字无转
 70
     0
  3
\X
  4
"
 40
0.02
 41
25.0
 42
20.0
 43
3.75
 44
20.0
 47
5.0
 48
5.0
 78
     8
140
35.0
141
20.0
143
0.03937
146
0.6
147
10.0
170
     1
171
     3
172
     1
176
   256
177
   256
178
   256
271
     2
272
     2
273
     7
274
     3
276
     2
279
     1
283
     2
340
235
371
     0
372
    -1
1001
AcadStringInfo
1000
MIFCodePage
1070
     5
1001
ACAD_DSTYLE_DIM_LINETYPE
1070
   380
1005
15
  0
DIMSTYLE
105
57C
102
{ACAD_REACTORS
330
9CC
330
694
330
6D7
102
}
330
A
100
AcDbSymbolTableRecord
100
AcDbDimStyleTableRecord
  2
33-原比例超大字无转$4
 70
     0
  3
\X
  4
"
 40
0.6
 41
25.0
 42
20.0
 43
3.75
 44
20.0
 47
5.0
 48
5.0
 78
     8
140
35.0
141
20.0
143
0.03937
146
0.6
147
10.0
170
     1
171
     3
172
     1
173
     1
176
   256
177
   256
178
   256
179
     1
271
     0
272
     0
273
     7
274
     3
276
     2
279
     1
283
     2
340
235
343
123
371
     0
372
    -1
1001
AcadStringInfo
1000
MIFCodePage
1070
     5
1001
ACAD_DSTYLE_DIM_LINETYPE
1070
   380
1005
15
  0
ENDTAB
  0
TABLE
  2
BLOCK_RECORD
  5
1
330
0
100
AcDbSymbolTable
 70
    75
  0
BLOCK_RECORD
  5
1F
102
{ACAD_XDICTIONARY
360
5F3
102
}
330
1
100
AcDbSymbolTableRecord
100
AcDbBlockTableRecord
  2
*Model_Space
340
22
  0
BLOCK_RECORD
  5
D2
330
1
100
AcDbSymbolTableRecord
100
AcDbBlockTableRecord
  2
*Paper_Space
340
D3
  0
BLOCK_RECORD
  5
D6
330
1
100
AcDbSymbolTableRecord
100
AcDbBlockTableRecord
  2
*Paper_Space0
340
D7
  0
BLOCK_RECORD
  5
123
330
1
100
AcDbSymbolTableRecord
100
AcDbBlockTableRecord
  2
_ArchTick
340
0
  0
BLOCK_RECORD
  5
127
330
1
100
AcDbSymbolTableRecord
100
AcDbBlockTableRecord
  2
*D2
340
0
  0
BLOCK_RECORD
  5
135
330
1
100
AcDbSymbolTableRecord
100
AcDbBlockTableRecord
  2
*D3
340
0
  0
BLOCK_RECORD
  5
143
330
1
100
AcDbSymbolTableRecord
100
AcDbBlockTableRecord
  2
*D4
340
0
  0
BLOCK_RECORD
  5
151
330
1
100
AcDbSymbolTableRecord
100
AcDbBlockTableRecord
  2
*D5
340
0
  0
BLOCK_RECORD
  5
15F
330
1
100
AcDbSymbolTableRecord
100
AcDbBlockTableRecord
  2
*D6
340
0
  0
BLOCK_RECORD
  5
16D
330
1
100
AcDbSymbolTableRecord
100
AcDbBlockTableRecord
  2
*D7
340
0
  0
BLOCK_RECORD
  5
17B
330
1
100
AcDbSymbolTableRecord
100
AcDbBlockTableRecord
  2
*D8
340
0
  0
BLOCK_RECORD
  5
189
330
1
100
AcDbSymbolTableRecord
100
AcDbBlockTableRecord
  2
*D9
340
0
  0
BLOCK_RECORD
  5
197
330
1
100
AcDbSymbolTableRecord
100
AcDbBlockTableRecord
  2
*D10
340
0
  0
BLOCK_RECORD
  5
1A5
330
1
100
AcDbSymbolTableRecord
100
AcDbBlockTableRecord
  2
*D11
340
0
  0
BLOCK_RECORD
  5
1B3
330
1
100
AcDbSymbolTableRecord
100
AcDbBlockTableRecord
  2
*D12
340
0
  0
BLOCK_RECORD
  5
1C1
330
1
100
AcDbSymbolTableRecord
100
AcDbBlockTableRecord
  2
*D13
340
0
  0
BLOCK_RECORD
  5
1CF
330
1
100
AcDbSymbolTableRecord
100
AcDbBlockTableRecord
  2
*D14
340
0
  0
BLOCK_RECORD
  5
1DD
330
1
100
AcDbSymbolTableRecord
100
AcDbBlockTableRecord
  2
*D15
340
0
  0
BLOCK_RECORD
  5
1EB
330
1
100
AcDbSymbolTableRecord
100
AcDbBlockTableRecord
  2
*D16
340
0
  0
BLOCK_RECORD
  5
1F9
330
1
100
AcDbSymbolTableRecord
100
AcDbBlockTableRecord
  2
*D17
340
0
  0
BLOCK_RECORD
  5
207
330
1
100
AcDbSymbolTableRecord
100
AcDbBlockTableRecord
  2
*D18
340
0
  0
BLOCK_RECORD
  5
215
330
1
100
AcDbSymbolTableRecord
100
AcDbBlockTableRecord
  2
*D19
340
0
  0
BLOCK_RECORD
  5
223
330
1
100
AcDbSymbolTableRecord
100
AcDbBlockTableRecord
  2
*D20
340
0
  0
BLOCK_RECORD
  5
377
330
1
100
AcDbSymbolTableRecord
100
AcDbBlockTableRecord
  2
*D21
340
0
  0
BLOCK_RECORD
  5
385
330
1
100
AcDbSymbolTableRecord
100
AcDbBlockTableRecord
  2
*D22
340
0
  0
BLOCK_RECORD
  5
393
330
1
100
AcDbSymbolTableRecord
100
AcDbBlockTableRecord
  2
*D23
340
0
  0
BLOCK_RECORD
  5
3A1
330
1
100
AcDbSymbolTableRecord
100
AcDbBlockTableRecord
  2
*D24
340
0
  0
BLOCK_RECORD
  5
3AF
330
1
100
AcDbSymbolTableRecord
100
AcDbBlockTableRecord
  2
*D25
340
0
  0
BLOCK_RECORD
  5
3BD
330
1
100
AcDbSymbolTableRecord
100
AcDbBlockTableRecord
  2
*D26
340
0
  0
BLOCK_RECORD
  5
3CB
330
1
100
AcDbSymbolTableRecord
100
AcDbBlockTableRecord
  2
*D27
340
0
  0
BLOCK_RECORD
  5
3D9
330
1
100
AcDbSymbolTableRecord
100
AcDbBlockTableRecord
  2
*D28
340
0
  0
BLOCK_RECORD
  5
3E7
330
1
100
AcDbSymbolTableRecord
100
AcDbBlockTableRecord
  2
*D29
340
0
  0
BLOCK_RECORD
  5
3F5
330
1
100
AcDbSymbolTableRecord
100
AcDbBlockTableRecord
  2
*D30
340
0
  0
BLOCK_RECORD
  5
419
330
1
100
AcDbSymbolTableRecord
100
AcDbBlockTableRecord
  2
*D31
340
0
  0
BLOCK_RECORD
  5
448
330
1
100
AcDbSymbolTableRecord
100
AcDbBlockTableRecord
  2
*D32
340
0
  0
BLOCK_RECORD
  5
48D
330
1
100
AcDbSymbolTableRecord
100
AcDbBlockTableRecord
  2
*D33
340
0
  0
BLOCK_RECORD
  5
49B
330
1
100
AcDbSymbolTableRecord
100
AcDbBlockTableRecord
  2
*D34
340
0
  0
BLOCK_RECORD
  5
4A9
330
1
100
AcDbSymbolTableRecord
100
AcDbBlockTableRecord
  2
*D35
340
0
  0
BLOCK_RECORD
  5
4B7
330
1
100
AcDbSymbolTableRecord
100
AcDbBlockTableRecord
  2
*D36
340
0
  0
BLOCK_RECORD
  5
4C5
330
1
100
AcDbSymbolTableRecord
100
AcDbBlockTableRecord
  2
*D37
340
0
  0
BLOCK_RECORD
  5
4D3
330
1
100
AcDbSymbolTableRecord
100
AcDbBlockTableRecord
  2
*D38
340
0
  0
BLOCK_RECORD
  5
4E1
330
1
100
AcDbSymbolTableRecord
100
AcDbBlockTableRecord
  2
*D39
340
0
  0
BLOCK_RECORD
  5
527
330
1
100
AcDbSymbolTableRecord
100
AcDbBlockTableRecord
  2
*D40
340
0
  0
BLOCK_RECORD
  5
556
330
1
100
AcDbSymbolTableRecord
100
AcDbBlockTableRecord
  2
*D41
340
0
  0
BLOCK_RECORD
  5
564
330
1
100
AcDbSymbolTableRecord
100
AcDbBlockTableRecord
  2
*D42
340
0
  0
BLOCK_RECORD
  5
572
330
1
100
AcDbSymbolTableRecord
100
AcDbBlockTableRecord
  2
*D43
340
0
  0
BLOCK_RECORD
  5
5B3
330
1
100
AcDbSymbolTableRecord
100
AcDbBlockTableRecord
  2
*D44
340
0
  0
BLOCK_RECORD
  5
5C1
330
1
100
AcDbSymbolTableRecord
100
AcDbBlockTableRecord
  2
*D45
340
0
  0
BLOCK_RECORD
  5
5DA
330
1
100
AcDbSymbolTableRecord
100
AcDbBlockTableRecord
  2
*D46
340
0
  0
BLOCK_RECORD
  5
630
330
1
100
AcDbSymbolTableRecord
100
AcDbBlockTableRecord
  2
*D47
340
0
  0
BLOCK_RECORD
  5
659
330
1
100
AcDbSymbolTableRecord
100
AcDbBlockTableRecord
  2
*D48
340
0
  0
BLOCK_RECORD
  5
667
330
1
100
AcDbSymbolTableRecord
100
AcDbBlockTableRecord
  2
*D49
340
0
  0
BLOCK_RECORD
  5
675
330
1
100
AcDbSymbolTableRecord
100
AcDbBlockTableRecord
  2
*D50
340
0
  0
BLOCK_RECORD
  5
67E
102
{ACAD_XDICTIONARY
360
697
102
}
330
1
100
AcDbSymbolTableRecord
100
AcDbBlockTableRecord
  2
A$C482318BE
340
0
1001
ACAD
1000
DesignCenter Data
1002
{
1070
     1
1070
     4
1002
}
  0
BLOCK_RECORD
  5
69C
330
1
100
AcDbSymbolTableRecord
100
AcDbBlockTableRecord
  2
*D52
340
0
  0
BLOCK_RECORD
  5
6AA
330
1
100
AcDbSymbolTableRecord
100
AcDbBlockTableRecord
  2
*D53
340
0
  0
BLOCK_RECORD
  5
6B8
330
1
100
AcDbSymbolTableRecord
100
AcDbBlockTableRecord
  2
*D54
340
0
  0
BLOCK_RECORD
  5
6C1
102
{ACAD_XDICTIONARY
360
6DA
102
}
330
1
100
AcDbSymbolTableRecord
100
AcDbBlockTableRecord
  2
A$C67844AE1
340
0
1001
ACAD
1000
DesignCenter Data
1002
{
1070
     1
1070
     4
1002
}
  0
BLOCK_RECORD
  5
6DE
330
1
100
AcDbSymbolTableRecord
100
AcDbBlockTableRecord
  2
3020LS
340
0
310
2800000020000000200000000100080000000000000400000000000000000000000000000000000000000000000080000080000000808000800000008000800080800000C0C0C000C0DCC000F0CAA6000020400000206000002080000020A0000020C0000020E00000400000004020000040400000406000004080000040A0
310
000040C0000040E00000600000006020000060400000606000006080000060A0000060C0000060E00000800000008020000080400000806000008080000080A0000080C0000080E00000A0000000A0200000A0400000A0600000A0800000A0A00000A0C00000A0E00000C0000000C0200000C0400000C0600000C0800000C0
310
A00000C0C00000C0E00000E0000000E0200000E0400000E0600000E0800000E0A00000E0C00000E0E00040000000400020004000400040006000400080004000A0004000C0004000E00040200000402020004020400040206000402080004020A0004020C0004020E000404000004040200040404000404060004040800040
310
40A0004040C0004040E00040600000406020004060400040606000406080004060A0004060C0004060E00040800000408020004080400040806000408080004080A0004080C0004080E00040A0000040A0200040A0400040A0600040A0800040A0A00040A0C00040A0E00040C0000040C0200040C0400040C0600040C08000
310
40C0A00040C0C00040C0E00040E0000040E0200040E0400040E0600040E0800040E0A00040E0C00040E0E00080000000800020008000400080006000800080008000A0008000C0008000E00080200000802020008020400080206000802080008020A0008020C0008020E00080400000804020008040400080406000804080
310
008040A0008040C0008040E00080600000806020008060400080606000806080008060A0008060C0008060E00080800000808020008080400080806000808080008080A0008080C0008080E00080A0000080A0200080A0400080A0600080A0800080A0A00080A0C00080A0E00080C0000080C0200080C0400080C0600080C0
310
800080C0A00080C0C00080C0E00080E0000080E0200080E0400080E0600080E0800080E0A00080E0C00080E0E000C0000000C0002000C0004000C0006000C0008000C000A000C000C000C000E000C0200000C0202000C0204000C0206000C0208000C020A000C020C000C020E000C0400000C0402000C0404000C0406000C0
310
408000C040A000C040C000C040E000C0600000C0602000C0604000C0606000C0608000C060A000C060C000C060E000C0800000C0802000C0804000C0806000C0808000C080A000C080C000C080E000C0A00000C0A02000C0A04000C0A06000C0A08000C0A0A000C0A0C000C0A0E000C0C00000C0C02000C0C04000C0C06000
310
C0C08000C0C0A000F0FBFF00A4A0A000808080000000FF0000FF000000FFFF00FF000000FF00FF00FFFF0000FFFFFF0000000000000000000000000000000000000000000000000000000000000000000000000000000000000000000000000000000000000000000000000000000000000000000000000000000000000000
310
000000000000000000000000000000000000000000000000000000000000000000000000000000000000000000000000000000000000000000000000000000000000000000000000000000000000000000000000000000000000000000000000000000000000000000000000000000000000FFFFFFFFFFFFFFFFFFFFFFFFFF
310
FFFFFFFFFFFFFFFFFFFFFFFFFFFFFFFFFF0000FF00FFFFFFFFFFFFFFFFFFFFFFFFFFFFFFFFFFFFFFFFFFFFFFFFFFFF00FF0000FFFFFFFFFFFFFFFFFFFFFFFFFFFFFFFFFFFFFFFFFFFFFFFFFFFFFFFFFFFF0000FFFF0000000000000000000000000000000000000000000000000000FFFF0000FFFF00000000000000000000
310
00000000000000000000000000000000FFFF0000FFFF0000000000000000000000000000000000000000000000000000FFFF0000FFFF0000000000000000000000000000000000000000000000000000FFFF0000FFFF000000000000000000000000FF00000000000000000000000000FFFF0000FFFF000000000000000000
310
0000FFFFFFFF0000000000000000000000FFFF0000FFFF00000000000000000000FFFF0000FF0000000000000000000000FFFF0000FFFF00000000000000000000FFFF0000FFFF00000000000000000000FFFF0000FFFF0000000000000000000000FFFFFFFF0000000000000000000000FFFF0000FFFF0000000000000000
310
00000000FFFF000000000000000000000000FFFF0000FFFF0000000000000000000000000000000000000000000000000000FFFF0000FFFF0000000000000000000000000000000000000000000000000000FFFF0000FFFF0000000000000000000000000000000000000000000000000000FFFF0000FFFF00000000000000
310
00000000000000000000000000000000000000FFFF0000FFFFFFFFFFFFFFFFFFFFFFFFFFFFFFFFFFFFFFFFFFFFFFFFFFFFFFFFFFFF0000FF00FFFFFFFFFFFFFFFFFFFFFFFFFFFFFFFFFFFFFFFFFFFFFFFFFFFF00FF0000FFFFFFFFFFFFFFFFFFFFFFFFFFFFFFFFFFFFFFFFFFFFFFFFFFFFFFFFFFFF00000000000000000000
310
00000000000000000000000000000000000000000000000000000000000000000000000000000000000000000000000000000000000000000000000000000000000000000000000000000000000000000000000000000000000000000000000000000000000000000000000000000000000000000000000000000000000000
310
0000000000000000000000000000000000000000000000000000000000000000000000000000000000000000000000000000000000000000
102
{BLKREFS
331
6F5
102
}
1001
ACAD
1000
DesignCenter Data
1002
{
1070
     1
1070
     4
1002
}
  0
BLOCK_RECORD
  5
78E
330
1
100
AcDbSymbolTableRecord
100
AcDbBlockTableRecord
  2
3320LS
340
0
310
2800000020000000200000000100080000000000000400000000000000000000000000000000000000000000000080000080000000808000800000008000800080800000C0C0C000C0DCC000F0CAA6000020400000206000002080000020A0000020C0000020E00000400000004020000040400000406000004080000040A0
310
000040C0000040E00000600000006020000060400000606000006080000060A0000060C0000060E00000800000008020000080400000806000008080000080A0000080C0000080E00000A0000000A0200000A0400000A0600000A0800000A0A00000A0C00000A0E00000C0000000C0200000C0400000C0600000C0800000C0
310
A00000C0C00000C0E00000E0000000E0200000E0400000E0600000E0800000E0A00000E0C00000E0E00040000000400020004000400040006000400080004000A0004000C0004000E00040200000402020004020400040206000402080004020A0004020C0004020E000404000004040200040404000404060004040800040
310
40A0004040C0004040E00040600000406020004060400040606000406080004060A0004060C0004060E00040800000408020004080400040806000408080004080A0004080C0004080E00040A0000040A0200040A0400040A0600040A0800040A0A00040A0C00040A0E00040C0000040C0200040C0400040C0600040C08000
310
40C0A00040C0C00040C0E00040E0000040E0200040E0400040E0600040E0800040E0A00040E0C00040E0E00080000000800020008000400080006000800080008000A0008000C0008000E00080200000802020008020400080206000802080008020A0008020C0008020E00080400000804020008040400080406000804080
310
008040A0008040C0008040E00080600000806020008060400080606000806080008060A0008060C0008060E00080800000808020008080400080806000808080008080A0008080C0008080E00080A0000080A0200080A0400080A0600080A0800080A0A00080A0C00080A0E00080C0000080C0200080C0400080C0600080C0
310
800080C0A00080C0C00080C0E00080E0000080E0200080E0400080E0600080E0800080E0A00080E0C00080E0E000C0000000C0002000C0004000C0006000C0008000C000A000C000C000C000E000C0200000C0202000C0204000C0206000C0208000C020A000C020C000C020E000C0400000C0402000C0404000C0406000C0
310
408000C040A000C040C000C040E000C0600000C0602000C0604000C0606000C0608000C060A000C060C000C060E000C0800000C0802000C0804000C0806000C0808000C080A000C080C000C080E000C0A00000C0A02000C0A04000C0A06000C0A08000C0A0A000C0A0C000C0A0E000C0C00000C0C02000C0C04000C0C06000
310
C0C08000C0C0A000F0FBFF00A4A0A000808080000000FF0000FF000000FFFF00FF000000FF00FF00FFFF0000FFFFFF0000000000000000000000000000000000000000000000000000000000000000000000000000000000000000000000000000000000000000000000000000000000000000000000000000000000000000
310
00000000000000000000000000000000000000000000000000000000000000000000000000000000000000000000000000000000000000000000000000000000000000000000000000000000000000000000000000000000000000000000000000000000000000000000000000000000000000000000000000000000000000
310
00000000000000000000000000000000000000FFFFFFFFFFFFFFFFFFFFFFFFFFFFFFFFFFFFFFFFFFFFFFFFFFFFFFFFFFFF0000FFFFFFFFFFFFFFFFFFFFFFFFFFFFFFFFFFFFFFFFFFFFFFFFFFFFFFFFFFFF0000FFFF0000000000000000000000000000000000000000000000000000FFFF0000FFFF00000000000000000000
310
00000000000000000000000000000000FFFF0000FFFF0000000000000000000000000000000000000000000000000000FFFF0000FFFF0000000000000000000000000000000000000000000000000000FFFF0000FFFF0000000000000000000000000000000000000000000000000000FFFF0000FFFF000000000000000000
310
0000FFFFFFFF0000000000000000000000FFFF0000FFFF0000000000000000000000FF0000FF0000000000000000000000FFFF0000FFFF0000000000000000000000FF0000FF0000000000000000000000FFFF0000FFFF0000000000000000000000FFFFFFFF0000000000000000000000FFFF0000FFFF0000000000000000
310
000000000000000000000000000000000000FFFF0000FFFF0000000000000000000000000000000000000000000000000000FFFF0000FFFF0000000000000000000000000000000000000000000000000000FFFF0000FFFF0000000000000000000000000000000000000000000000000000FFFF0000FFFF00000000000000
310
00000000000000000000000000000000000000FFFF0000FFFFFFFFFFFFFFFFFFFFFFFFFFFFFFFFFFFFFFFFFFFFFFFFFFFFFFFFFFFF0000FFFFFFFFFFFFFFFFFFFFFFFFFFFFFFFFFFFFFFFFFFFFFFFFFFFFFFFFFFFF000000000000000000000000000000000000000000000000000000000000000000000000000000000000
310
00000000000000000000000000000000000000000000000000000000000000000000000000000000000000000000000000000000000000000000000000000000000000000000000000000000000000000000000000000000000000000000000000000000000000000000000000000000000000000000000000000000000000
310
0000000000000000000000000000000000000000000000000000000000000000000000000000000000000000000000000000000000000000
1001
ACAD
1000
DesignCenter Data
1002
{
1070
     1
1070
     4
1002
}
  0
BLOCK_RECORD
  5
7A5
330
1
100
AcDbSymbolTableRecord
100
AcDbBlockTableRecord
  2
3320LD
340
0
310
2800000020000000200000000100080000000000000400000000000000000000000000000000000000000000000080000080000000808000800000008000800080800000C0C0C000C0DCC000F0CAA6000020400000206000002080000020A0000020C0000020E00000400000004020000040400000406000004080000040A0
310
000040C0000040E00000600000006020000060400000606000006080000060A0000060C0000060E00000800000008020000080400000806000008080000080A0000080C0000080E00000A0000000A0200000A0400000A0600000A0800000A0A00000A0C00000A0E00000C0000000C0200000C0400000C0600000C0800000C0
310
A00000C0C00000C0E00000E0000000E0200000E0400000E0600000E0800000E0A00000E0C00000E0E00040000000400020004000400040006000400080004000A0004000C0004000E00040200000402020004020400040206000402080004020A0004020C0004020E000404000004040200040404000404060004040800040
310
40A0004040C0004040E00040600000406020004060400040606000406080004060A0004060C0004060E00040800000408020004080400040806000408080004080A0004080C0004080E00040A0000040A0200040A0400040A0600040A0800040A0A00040A0C00040A0E00040C0000040C0200040C0400040C0600040C08000
310
40C0A00040C0C00040C0E00040E0000040E0200040E0400040E0600040E0800040E0A00040E0C00040E0E00080000000800020008000400080006000800080008000A0008000C0008000E00080200000802020008020400080206000802080008020A0008020C0008020E00080400000804020008040400080406000804080
310
008040A0008040C0008040E00080600000806020008060400080606000806080008060A0008060C0008060E00080800000808020008080400080806000808080008080A0008080C0008080E00080A0000080A0200080A0400080A0600080A0800080A0A00080A0C00080A0E00080C0000080C0200080C0400080C0600080C0
310
800080C0A00080C0C00080C0E00080E0000080E0200080E0400080E0600080E0800080E0A00080E0C00080E0E000C0000000C0002000C0004000C0006000C0008000C000A000C000C000C000E000C0200000C0202000C0204000C0206000C0208000C020A000C020C000C020E000C0400000C0402000C0404000C0406000C0
310
408000C040A000C040C000C040E000C0600000C0602000C0604000C0606000C0608000C060A000C060C000C060E000C0800000C0802000C0804000C0806000C0808000C080A000C080C000C080E000C0A00000C0A02000C0A04000C0A06000C0A08000C0A0A000C0A0C000C0A0E000C0C00000C0C02000C0C04000C0C06000
310
C0C08000C0C0A000F0FBFF00A4A0A000808080000000FF0000FF000000FFFF00FF000000FF00FF00FFFF0000FFFFFF0000000000000000000000000000000000000000000000000000000000000000000000000000000000000000000000000000000000000000000000000000000000000000000000000000000000000000
310
00000000000000000000000000000000000000000000000000000000000000000000000000000000000000000000000000000000000000000000000000000000000000000000000000000000000000000000000000000000000000000000000000000000000000000000000000000000000000000000000000000000000000
310
00000000000000000000000000000000000000FFFFFFFFFFFFFFFFFFFFFFFFFFFFFFFFFFFFFFFFFFFFFFFFFFFFFFFFFFFF0000FFFFFFFFFFFFFFFFFFFFFFFFFFFFFFFFFFFFFFFFFFFFFFFFFFFFFFFFFFFF0000FFFF000000000000000000000000FFFF000000000000000000000000FFFF0000FFFF00000000000000000000
310
0000FFFF000000000000000000000000FFFF0000FFFF000000000000000000000000FFFF000000000000000000000000FFFF0000FFFF000000000000000000000000FFFF000000000000000000000000FFFF0000FFFF000000000000000000000000FFFF000000000000000000000000FFFF0000FFFF00000000FFFFFFFF00
310
000000FFFF00000000FFFFFFFF00000000FFFF0000FFFF00000000FF0000FF00000000FFFF000000FFFF0000FF00000000FFFF0000FFFF00000000FF0000FFFF000000FFFF000000FFFF0000FF00000000FFFF0000FFFF00000000FFFFFFFF00000000FFFF00000000FFFFFFFF00000000FFFF0000FFFF0000000000000000
310
00000000FFFF000000000000000000000000FFFF0000FFFF000000000000000000000000FFFF000000000000000000000000FFFF0000FFFF000000000000000000000000FFFF000000000000000000000000FFFF0000FFFF000000000000000000000000FFFF000000000000000000000000FFFF0000FFFF00000000000000
310
0000000000FFFF000000000000000000000000FFFF0000FFFFFFFFFFFFFFFFFFFFFFFFFFFFFFFFFFFFFFFFFFFFFFFFFFFFFFFFFFFF0000FFFFFFFFFFFFFFFFFFFFFFFFFFFFFFFFFFFFFFFFFFFFFFFFFFFFFFFFFFFF000000000000000000000000000000000000000000000000000000000000000000000000000000000000
310
00000000000000000000000000000000000000000000000000000000000000000000000000000000000000000000000000000000000000000000000000000000000000000000000000000000000000000000000000000000000000000000000000000000000000000000000000000000000000000000000000000000000000
310
0000000000000000000000000000000000000000000000000000000000000000000000000000000000000000000000000000000000000000
1001
ACAD
1000
DesignCenter Data
1002
{
1070
     1
1070
     4
1002
}
  0
BLOCK_RECORD
  5
7D2
330
1
100
AcDbSymbolTableRecord
100
AcDbBlockTableRecord
  2
*D59
340
0
  0
BLOCK_RECORD
  5
802
330
1
100
AcDbSymbolTableRecord
100
AcDbBlockTableRecord
  2
*D60
340
0
  0
BLOCK_RECORD
  5
84E
330
1
100
AcDbSymbolTableRecord
100
AcDbBlockTableRecord
  2
*D61
340
0
  0
BLOCK_RECORD
  5
86E
330
1
100
AcDbSymbolTableRecord
100
AcDbBlockTableRecord
  2
*D62
340
0
  0
BLOCK_RECORD
  5
89A
330
1
100
AcDbSymbolTableRecord
100
AcDbBlockTableRecord
  2
*D63
340
0
  0
BLOCK_RECORD
  5
8B1
330
1
100
AcDbSymbolTableRecord
100
AcDbBlockTableRecord
  2
*D64
340
0
  0
BLOCK_RECORD
  5
8BF
330
1
100
AcDbSymbolTableRecord
100
AcDbBlockTableRecord
  2
*D65
340
0
  0
BLOCK_RECORD
  5
8CD
330
1
100
AcDbSymbolTableRecord
100
AcDbBlockTableRecord
  2
*D66
340
0
  0
BLOCK_RECORD
  5
90C
330
1
100
AcDbSymbolTableRecord
100
AcDbBlockTableRecord
  2
*D67
340
0
  0
BLOCK_RECORD
  5
91A
330
1
100
AcDbSymbolTableRecord
100
AcDbBlockTableRecord
  2
*D68
340
0
  0
BLOCK_RECORD
  5
933
330
1
100
AcDbSymbolTableRecord
100
AcDbBlockTableRecord
  2
*D69
340
0
  0
BLOCK_RECORD
  5
94E
330
1
100
AcDbSymbolTableRecord
100
AcDbBlockTableRecord
  2
*D70
340
0
  0
BLOCK_RECORD
  5
971
330
1
100
AcDbSymbolTableRecord
100
AcDbBlockTableRecord
  2
*D71
340
0
  0
BLOCK_RECORD
  5
987
330
1
100
AcDbSymbolTableRecord
100
AcDbBlockTableRecord
  2
*D72
340
0
  0
BLOCK_RECORD
  5
99F
330
1
100
AcDbSymbolTableRecord
100
AcDbBlockTableRecord
  2
*D73
340
0
  0
BLOCK_RECORD
  5
9CD
330
1
100
AcDbSymbolTableRecord
100
AcDbBlockTableRecord
  2
*D74
340
0
  0
ENDTAB
  0
ENDSEC
  0
SECTION
  2
BLOCKS
  0
BLOCK
  5
20
330
1F
100
AcDbEntity
  8
0
100
AcDbBlockBegin
  2
*Model_Space
 70
     0
 10
0.0
 20
0.0
 30
0.0
  3
*Model_Space
  1

  0
ENDBLK
  5
21
330
1F
100
AcDbEntity
  8
0
100
AcDbBlockEnd
  0
BLOCK
  5
D4
330
D2
100
AcDbEntity
 67
     1
  8
0
100
AcDbBlockBegin
  2
*Paper_Space
 70
     0
 10
0.0
 20
0.0
 30
0.0
  3
*Paper_Space
  1

  0
ENDBLK
  5
D5
330
D2
100
AcDbEntity
 67
     1
  8
0
100
AcDbBlockEnd
  0
BLOCK
  5
D8
330
D6
100
AcDbEntity
 67
     1
  8
0
100
AcDbBlockBegin
  2
*Paper_Space0
 70
     0
 10
0.0
 20
0.0
 30
0.0
  3
*Paper_Space0
  1

  0
ENDBLK
  5
D9
330
D6
100
AcDbEntity
 67
     1
  8
0
100
AcDbBlockEnd
  0
BLOCK
  5
124
330
123
100
AcDbEntity
  8
0
100
AcDbBlockBegin
  2
_ArchTick
 70
     0
 10
0.0
 20
0.0
 30
0.0
  3
_ArchTick
  1

  0
LWPOLYLINE
  5
125
330
123
100
AcDbEntity
  8
0
  6
ByBlock
 62
     0
100
AcDbPolyline
 90
        2
 70
     0
 43
0.15
 10
-0.5
 20
-0.5
 10
0.5
 20
0.5
  0
ENDBLK
  5
126
330
123
100
AcDbEntity
  8
0
100
AcDbBlockEnd
  0
BLOCK
  5
128
330
127
100
AcDbEntity
  8
0
100
AcDbBlockBegin
  2
*D2
 70
     1
 10
0.0
 20
0.0
 30
0.0
  3
*D2
  1

  0
LINE
  5
129
330
127
100
AcDbEntity
  8
1 辅助线
100
AcDbLine
 10
-50060.00583735062
 20
-37794.87843497319
 30
0.0
 11
-50060.00583735062
 21
-37677.67795245524
 31
0.0
  0
LINE
  5
12A
330
127
100
AcDbEntity
  8
1 辅助线
100
AcDbLine
 10
-49298.00583735062
 20
-37794.87843497319
 30
0.0
 11
-49298.00583735062
 21
-37677.67795245524
 31
0.0
  0
LINE
  5
12B
330
127
100
AcDbEntity
  8
1 辅助线
370
     0
100
AcDbLine
 10
-50045.00583735062
 20
-37689.67795245524
 30
0.0
 11
-49710.60359702474
 21
-37689.67795245524
 31
0.0
  0
LINE
  5
12C
330
127
100
AcDbEntity
  8
1 辅助线
370
     0
100
AcDbLine
 10
-49313.00583735062
 20
-37689.67795245524
 30
0.0
 11
-49647.40807767648
 21
-37689.67795245524
 31
0.0
  0
SOLID
  5
12D
330
127
100
AcDbEntity
  8
1 辅助线
100
AcDbTrace
 10
-50045.00583735062
 20
-37687.17795245524
 30
0.0
 11
-50045.00583735062
 21
-37692.17795245524
 31
0.0
 12
-50060.00583735062
 22
-37689.67795245524
 32
0.0
 13
-50060.00583735062
 23
-37689.67795245524
 33
0.0
  0
SOLID
  5
12E
330
127
100
AcDbEntity
  8
1 辅助线
100
AcDbTrace
 10
-49313.00583735062
 20
-37687.17795245524
 30
0.0
 11
-49313.00583735062
 21
-37692.17795245524
 31
0.0
 12
-49298.00583735062
 22
-37689.67795245524
 32
0.0
 13
-49298.00583735062
 23
-37689.67795245524
 33
0.0
  0
MTEXT
  5
12F
330
127
100
AcDbEntity
  8
1 辅助线
100
AcDbMText
 10
-49679.00583735062
 20
-37672.88569176279
 30
0.0
 40
21.0
 41
0.0
 71
     5
 72
     1
  1
\A2;762
  7
Arial
 73
     1
 44
1.0
  0
MTEXT
  5
130
330
127
100
AcDbEntity
  8
1 辅助线
100
AcDbMText
 10
-49679.00583735062
 20
-37709.09343107032
 30
0.0
 40
21.0
 41
0.0
 71
     5
 72
     1
  1
\A2;[30"]
  7
Arial
 73
     1
 44
1.0
  0
POINT
  5
131
330
127
100
AcDbEntity
  8
Defpoints
 62
     0
100
AcDbPoint
 10
-50060.00583735062
 20
-37806.87843497319
 30
0.0
  0
POINT
  5
132
330
127
100
AcDbEntity
  8
Defpoints
 62
     0
100
AcDbPoint
 10
-49298.00583735062
 20
-37806.87843497319
 30
0.0
  0
POINT
  5
133
330
127
100
AcDbEntity
  8
Defpoints
 62
     0
100
AcDbPoint
 10
-49298.00583735062
 20
-37689.67795245524
 30
0.0
  0
ENDBLK
  5
134
330
127
100
AcDbEntity
  8
0
100
AcDbBlockEnd
  0
BLOCK
  5
136
330
135
100
AcDbEntity
  8
0
100
AcDbBlockBegin
  2
*D3
 70
     1
 10
0.0
 20
0.0
 30
0.0
  3
*D3
  1

  0
LINE
  5
137
330
135
100
AcDbEntity
  8
1 辅助线
100
AcDbLine
 10
-49286.00583735062
 20
-37806.87843497319
 30
0.0
 11
-49163.94141037528
 21
-37806.87843497319
 31
0.0
  0
LINE
  5
138
330
135
100
AcDbEntity
  8
1 辅助线
100
AcDbLine
 10
-49286.00583735062
 20
-38314.87843497319
 30
0.0
 11
-49163.94141037528
 21
-38314.87843497319
 31
0.0
  0
LINE
  5
139
330
135
100
AcDbEntity
  8
1 辅助线
370
     0
100
AcDbLine
 10
-49175.94141037528
 20
-37821.87843497319
 30
0.0
 11
-49175.94141037528
 21
-38024.67069566565
 31
0.0
  0
LINE
  5
13A
330
135
100
AcDbEntity
  8
1 辅助线
370
     0
100
AcDbLine
 10
-49175.94141037528
 20
-38299.87843497319
 30
0.0
 11
-49175.94141037528
 21
-38097.08617428073
 31
0.0
  0
SOLID
  5
13B
330
135
100
AcDbEntity
  8
1 辅助线
100
AcDbTrace
 10
-49178.44141037528
 20
-37821.87843497319
 30
0.0
 11
-49173.44141037529
 21
-37821.87843497319
 31
0.0
 12
-49175.94141037528
 22
-37806.87843497319
 32
0.0
 13
-49175.94141037528
 23
-37806.87843497319
 33
0.0
  0
SOLID
  5
13C
330
135
100
AcDbEntity
  8
1 辅助线
100
AcDbTrace
 10
-49178.44141037528
 20
-38299.87843497319
 30
0.0
 11
-49173.44141037529
 21
-38299.87843497319
 31
0.0
 12
-49175.94141037528
 22
-38314.87843497319
 32
0.0
 13
-49175.94141037528
 23
-38314.87843497319
 33
0.0
  0
MTEXT
  5
13D
330
135
100
AcDbEntity
  8
1 辅助线
100
AcDbMText
 10
-49175.94141037528
 20
-38044.08617428074
 30
0.0
 40
21.0
 41
0.0
 71
     5
 72
     1
  1
\A2;508
  7
Arial
 73
     1
 44
1.0
  0
MTEXT
  5
13E
330
135
100
AcDbEntity
  8
1 辅助线
100
AcDbMText
 10
-49175.94141037528
 20
-38080.29391358827
 30
0.0
 40
21.0
 41
0.0
 71
     5
 72
     1
  1
\A2;[20"]
  7
Arial
 73
     1
 44
1.0
  0
POINT
  5
13F
330
135
100
AcDbEntity
  8
Defpoints
 62
     0
100
AcDbPoint
 10
-49298.00583735062
 20
-37806.87843497319
 30
0.0
  0
POINT
  5
140
330
135
100
AcDbEntity
  8
Defpoints
 62
     0
100
AcDbPoint
 10
-49298.00583735062
 20
-38314.87843497319
 30
0.0
  0
POINT
  5
141
330
135
100
AcDbEntity
  8
Defpoints
 62
     0
100
AcDbPoint
 10
-49175.94141037528
 20
-38314.87843497319
 30
0.0
  0
ENDBLK
  5
142
330
135
100
AcDbEntity
  8
0
100
AcDbBlockEnd
  0
BLOCK
  5
144
330
143
100
AcDbEntity
  8
0
100
AcDbBlockBegin
  2
*D4
 70
     1
 10
0.0
 20
0.0
 30
0.0
  3
*D4
  1

  0
LINE
  5
145
330
143
100
AcDbEntity
  8
1 辅助线
100
AcDbLine
 10
-49286.00583735062
 20
-37832.27843497319
 30
0.0
 11
-49240.41410594712
 21
-37832.27843497319
 31
0.0
  0
LINE
  5
146
330
143
100
AcDbEntity
  8
1 辅助线
100
AcDbLine
 10
-49286.00583735062
 20
-38289.47843497319
 30
0.0
 11
-49240.41410594712
 21
-38289.47843497319
 31
0.0
  0
LINE
  5
147
330
143
100
AcDbEntity
  8
1 辅助线
370
     0
100
AcDbLine
 10
-49252.41410594713
 20
-37847.27843497319
 30
0.0
 11
-49252.41410594713
 21
-38024.67069566565
 31
0.0
  0
LINE
  5
148
330
143
100
AcDbEntity
  8
1 辅助线
370
     0
100
AcDbLine
 10
-49252.41410594713
 20
-38274.47843497319
 30
0.0
 11
-49252.41410594713
 21
-38097.08617428073
 31
0.0
  0
SOLID
  5
149
330
143
100
AcDbEntity
  8
1 辅助线
100
AcDbTrace
 10
-49254.91410594712
 20
-37847.27843497319
 30
0.0
 11
-49249.91410594713
 21
-37847.27843497319
 31
0.0
 12
-49252.41410594713
 22
-37832.27843497319
 32
0.0
 13
-49252.41410594713
 23
-37832.27843497319
 33
0.0
  0
SOLID
  5
14A
330
143
100
AcDbEntity
  8
1 辅助线
100
AcDbTrace
 10
-49254.91410594712
 20
-38274.47843497319
 30
0.0
 11
-49249.91410594713
 21
-38274.47843497319
 31
0.0
 12
-49252.41410594713
 22
-38289.47843497319
 32
0.0
 13
-49252.41410594713
 23
-38289.47843497319
 33
0.0
  0
MTEXT
  5
14B
330
143
100
AcDbEntity
  8
1 辅助线
100
AcDbMText
 10
-49252.41410594712
 20
-38044.08617428074
 30
0.0
 40
21.0
 41
0.0
 71
     5
 72
     1
  1
\A2;457
  7
Arial
 73
     1
 44
1.0
  0
MTEXT
  5
14C
330
143
100
AcDbEntity
  8
1 辅助线
100
AcDbMText
 10
-49252.41410594712
 20
-38080.29391358827
 30
0.0
 40
21.0
 41
0.0
 71
     5
 72
     1
  1
\A2;[18"]
  7
Arial
 73
     1
 44
1.0
  0
POINT
  5
14D
330
143
100
AcDbEntity
  8
Defpoints
 62
     0
100
AcDbPoint
 10
-49298.00583735062
 20
-37832.27843497319
 30
0.0
  0
POINT
  5
14E
330
143
100
AcDbEntity
  8
Defpoints
 62
     0
100
AcDbPoint
 10
-49298.00583735062
 20
-38289.47843497319
 30
0.0
  0
POINT
  5
14F
330
143
100
AcDbEntity
  8
Defpoints
 62
     0
100
AcDbPoint
 10
-49252.41410594713
 20
-38289.47843497319
 30
0.0
  0
ENDBLK
  5
150
330
143
100
AcDbEntity
  8
0
100
AcDbBlockEnd
  0
BLOCK
  5
152
330
151
100
AcDbEntity
  8
0
100
AcDbBlockBegin
  2
*D5
 70
     1
 10
0.0
 20
0.0
 30
0.0
  3
*D5
  1

  0
LINE
  5
153
330
151
100
AcDbEntity
  8
1 辅助线
100
AcDbLine
 10
-47564.4484631468
 20
-37794.87843497319
 30
0.0
 11
-47564.4484631468
 21
-37677.67795245524
 31
0.0
  0
LINE
  5
154
330
151
100
AcDbEntity
  8
1 辅助线
100
AcDbLine
 10
-46726.4484631468
 20
-37794.87843497319
 30
0.0
 11
-46726.4484631468
 21
-37677.67795245524
 31
0.0
  0
LINE
  5
155
330
151
100
AcDbEntity
  8
1 辅助线
370
     0
100
AcDbLine
 10
-47549.4484631468
 20
-37689.67795245524
 30
0.0
 11
-47177.04622282092
 21
-37689.67795245524
 31
0.0
  0
LINE
  5
156
330
151
100
AcDbEntity
  8
1 辅助线
370
     0
100
AcDbLine
 10
-46741.4484631468
 20
-37689.67795245524
 30
0.0
 11
-47113.85070347266
 21
-37689.67795245524
 31
0.0
  0
SOLID
  5
157
330
151
100
AcDbEntity
  8
1 辅助线
100
AcDbTrace
 10
-47549.4484631468
 20
-37687.17795245524
 30
0.0
 11
-47549.4484631468
 21
-37692.17795245524
 31
0.0
 12
-47564.4484631468
 22
-37689.67795245524
 32
0.0
 13
-47564.4484631468
 23
-37689.67795245524
 33
0.0
  0
SOLID
  5
158
330
151
100
AcDbEntity
  8
1 辅助线
100
AcDbTrace
 10
-46741.4484631468
 20
-37687.17795245524
 30
0.0
 11
-46741.4484631468
 21
-37692.17795245524
 31
0.0
 12
-46726.4484631468
 22
-37689.67795245524
 32
0.0
 13
-46726.4484631468
 23
-37689.67795245524
 33
0.0
  0
MTEXT
  5
159
330
151
100
AcDbEntity
  8
1 辅助线
100
AcDbMText
 10
-47145.4484631468
 20
-37672.88569176279
 30
0.0
 40
21.0
 41
0.0
 71
     5
 72
     1
  1
\A2;838
  7
Arial
 73
     1
 44
1.0
  0
MTEXT
  5
15A
330
151
100
AcDbEntity
  8
1 辅助线
100
AcDbMText
 10
-47145.4484631468
 20
-37709.09343107032
 30
0.0
 40
21.0
 41
0.0
 71
     5
 72
     1
  1
\A2;[33"]
  7
Arial
 73
     1
 44
1.0
  0
POINT
  5
15B
330
151
100
AcDbEntity
  8
Defpoints
 62
     0
100
AcDbPoint
 10
-47564.4484631468
 20
-37806.87843497319
 30
0.0
  0
POINT
  5
15C
330
151
100
AcDbEntity
  8
Defpoints
 62
     0
100
AcDbPoint
 10
-46726.4484631468
 20
-37806.87843497319
 30
0.0
  0
POINT
  5
15D
330
151
100
AcDbEntity
  8
Defpoints
 62
     0
100
AcDbPoint
 10
-46726.4484631468
 20
-37689.67795245524
 30
0.0
  0
ENDBLK
  5
15E
330
151
100
AcDbEntity
  8
0
100
AcDbBlockEnd
  0
BLOCK
  5
160
330
15F
100
AcDbEntity
  8
0
100
AcDbBlockBegin
  2
*D6
 70
     1
 10
0.0
 20
0.0
 30
0.0
  3
*D6
  1

  0
LINE
  5
161
330
15F
100
AcDbEntity
  8
1 辅助线
100
AcDbLine
 10
-46714.44846314678
 20
-37806.87843497319
 30
0.0
 11
-46592.38403617148
 21
-37806.87843497319
 31
0.0
  0
LINE
  5
162
330
15F
100
AcDbEntity
  8
1 辅助线
100
AcDbLine
 10
-46714.44846314678
 20
-38314.87843497319
 30
0.0
 11
-46592.38403617148
 21
-38314.87843497319
 31
0.0
  0
LINE
  5
163
330
15F
100
AcDbEntity
  8
1 辅助线
370
     0
100
AcDbLine
 10
-46604.38403617148
 20
-37821.87843497319
 30
0.0
 11
-46604.38403617148
 21
-38024.67069566565
 31
0.0
  0
LINE
  5
164
330
15F
100
AcDbEntity
  8
1 辅助线
370
     0
100
AcDbLine
 10
-46604.38403617148
 20
-38299.87843497319
 30
0.0
 11
-46604.38403617148
 21
-38097.08617428073
 31
0.0
  0
SOLID
  5
165
330
15F
100
AcDbEntity
  8
1 辅助线
100
AcDbTrace
 10
-46606.88403617148
 20
-37821.87843497319
 30
0.0
 11
-46601.88403617148
 21
-37821.87843497319
 31
0.0
 12
-46604.38403617148
 22
-37806.87843497319
 32
0.0
 13
-46604.38403617148
 23
-37806.87843497319
 33
0.0
  0
SOLID
  5
166
330
15F
100
AcDbEntity
  8
1 辅助线
100
AcDbTrace
 10
-46606.88403617148
 20
-38299.87843497319
 30
0.0
 11
-46601.88403617148
 21
-38299.87843497319
 31
0.0
 12
-46604.38403617148
 22
-38314.87843497319
 32
0.0
 13
-46604.38403617148
 23
-38314.87843497319
 33
0.0
  0
MTEXT
  5
167
330
15F
100
AcDbEntity
  8
1 辅助线
100
AcDbMText
 10
-46604.38403617146
 20
-38044.08617428073
 30
0.0
 40
21.0
 41
0.0
 71
     5
 72
     1
  1
\A2;508
  7
Arial
 73
     1
 44
1.0
  0
MTEXT
  5
168
330
15F
100
AcDbEntity
  8
1 辅助线
100
AcDbMText
 10
-46604.38403617146
 20
-38080.29391358827
 30
0.0
 40
21.0
 41
0.0
 71
     5
 72
     1
  1
\A2;[20"]
  7
Arial
 73
     1
 44
1.0
  0
POINT
  5
169
330
15F
100
AcDbEntity
  8
Defpoints
 62
     0
100
AcDbPoint
 10
-46726.4484631468
 20
-37806.87843497319
 30
0.0
  0
POINT
  5
16A
330
15F
100
AcDbEntity
  8
Defpoints
 62
     0
100
AcDbPoint
 10
-46726.4484631468
 20
-38314.87843497319
 30
0.0
  0
POINT
  5
16B
330
15F
100
AcDbEntity
  8
Defpoints
 62
     0
100
AcDbPoint
 10
-46604.38403617148
 20
-38314.87843497319
 30
0.0
  0
ENDBLK
  5
16C
330
15F
100
AcDbEntity
  8
0
100
AcDbBlockEnd
  0
BLOCK
  5
16E
330
16D
100
AcDbEntity
  8
0
100
AcDbBlockBegin
  2
*D7
 70
     1
 10
0.0
 20
0.0
 30
0.0
  3
*D7
  1

  0
LINE
  5
16F
330
16D
100
AcDbEntity
  8
1 辅助线
100
AcDbLine
 10
-46714.44846314678
 20
-37832.27843497319
 30
0.0
 11
-46668.85673174332
 21
-37832.27843497319
 31
0.0
  0
LINE
  5
170
330
16D
100
AcDbEntity
  8
1 辅助线
100
AcDbLine
 10
-46714.44846314678
 20
-38289.47843497319
 30
0.0
 11
-46668.85673174332
 21
-38289.47843497319
 31
0.0
  0
LINE
  5
171
330
16D
100
AcDbEntity
  8
1 辅助线
370
     0
100
AcDbLine
 10
-46680.8567317433
 20
-37847.27843497319
 30
0.0
 11
-46680.8567317433
 21
-38024.67069566565
 31
0.0
  0
LINE
  5
172
330
16D
100
AcDbEntity
  8
1 辅助线
370
     0
100
AcDbLine
 10
-46680.8567317433
 20
-38274.47843497319
 30
0.0
 11
-46680.8567317433
 21
-38097.08617428073
 31
0.0
  0
SOLID
  5
173
330
16D
100
AcDbEntity
  8
1 辅助线
100
AcDbTrace
 10
-46683.35673174332
 20
-37847.27843497319
 30
0.0
 11
-46678.35673174332
 21
-37847.27843497319
 31
0.0
 12
-46680.8567317433
 22
-37832.27843497319
 32
0.0
 13
-46680.8567317433
 23
-37832.27843497319
 33
0.0
  0
SOLID
  5
174
330
16D
100
AcDbEntity
  8
1 辅助线
100
AcDbTrace
 10
-46683.35673174332
 20
-38274.47843497319
 30
0.0
 11
-46678.35673174332
 21
-38274.47843497319
 31
0.0
 12
-46680.8567317433
 22
-38289.47843497319
 32
0.0
 13
-46680.8567317433
 23
-38289.47843497319
 33
0.0
  0
MTEXT
  5
175
330
16D
100
AcDbEntity
  8
1 辅助线
100
AcDbMText
 10
-46680.8567317433
 20
-38044.08617428073
 30
0.0
 40
21.0
 41
0.0
 71
     5
 72
     1
  1
\A2;457
  7
Arial
 73
     1
 44
1.0
  0
MTEXT
  5
176
330
16D
100
AcDbEntity
  8
1 辅助线
100
AcDbMText
 10
-46680.8567317433
 20
-38080.29391358827
 30
0.0
 40
21.0
 41
0.0
 71
     5
 72
     1
  1
\A2;[18"]
  7
Arial
 73
     1
 44
1.0
  0
POINT
  5
177
330
16D
100
AcDbEntity
  8
Defpoints
 62
     0
100
AcDbPoint
 10
-46726.4484631468
 20
-37832.27843497319
 30
0.0
  0
POINT
  5
178
330
16D
100
AcDbEntity
  8
Defpoints
 62
     0
100
AcDbPoint
 10
-46726.4484631468
 20
-38289.47843497319
 30
0.0
  0
POINT
  5
179
330
16D
100
AcDbEntity
  8
Defpoints
 62
     0
100
AcDbPoint
 10
-46680.8567317433
 20
-38289.47843497319
 30
0.0
  0
ENDBLK
  5
17A
330
16D
100
AcDbEntity
  8
0
100
AcDbBlockEnd
  0
BLOCK
  5
17C
330
17B
100
AcDbEntity
  8
0
100
AcDbBlockBegin
  2
*D8
 70
     1
 10
0.0
 20
0.0
 30
0.0
  3
*D8
  1

  0
LINE
  5
17D
330
17B
100
AcDbEntity
  8
1 辅助线
100
AcDbLine
 10
-45073.06524072494
 20
-37794.87843497319
 30
0.0
 11
-45073.06524072494
 21
-37677.67795245524
 31
0.0
  0
LINE
  5
17E
330
17B
100
AcDbEntity
  8
1 辅助线
100
AcDbLine
 10
-44235.06524072494
 20
-37794.87843497319
 30
0.0
 11
-44235.06524072494
 21
-37677.67795245524
 31
0.0
  0
LINE
  5
17F
330
17B
100
AcDbEntity
  8
1 辅助线
370
     0
100
AcDbLine
 10
-45058.06524072494
 20
-37689.67795245524
 30
0.0
 11
-44685.66300039908
 21
-37689.67795245524
 31
0.0
  0
LINE
  5
180
330
17B
100
AcDbEntity
  8
1 辅助线
370
     0
100
AcDbLine
 10
-44250.06524072494
 20
-37689.67795245524
 30
0.0
 11
-44622.46748105081
 21
-37689.67795245524
 31
0.0
  0
SOLID
  5
181
330
17B
100
AcDbEntity
  8
1 辅助线
100
AcDbTrace
 10
-45058.06524072494
 20
-37687.17795245524
 30
0.0
 11
-45058.06524072494
 21
-37692.17795245524
 31
0.0
 12
-45073.06524072494
 22
-37689.67795245524
 32
0.0
 13
-45073.06524072494
 23
-37689.67795245524
 33
0.0
  0
SOLID
  5
182
330
17B
100
AcDbEntity
  8
1 辅助线
100
AcDbTrace
 10
-44250.06524072494
 20
-37687.17795245524
 30
0.0
 11
-44250.06524072494
 21
-37692.17795245524
 31
0.0
 12
-44235.06524072494
 22
-37689.67795245524
 32
0.0
 13
-44235.06524072494
 23
-37689.67795245524
 33
0.0
  0
MTEXT
  5
183
330
17B
100
AcDbEntity
  8
1 辅助线
100
AcDbMText
 10
-44654.06524072494
 20
-37672.88569176279
 30
0.0
 40
21.0
 41
0.0
 71
     5
 72
     1
  1
\A2;838
  7
Arial
 73
     1
 44
1.0
  0
MTEXT
  5
184
330
17B
100
AcDbEntity
  8
1 辅助线
100
AcDbMText
 10
-44654.06524072494
 20
-37709.09343107032
 30
0.0
 40
21.0
 41
0.0
 71
     5
 72
     1
  1
\A2;[33"]
  7
Arial
 73
     1
 44
1.0
  0
POINT
  5
185
330
17B
100
AcDbEntity
  8
Defpoints
 62
     0
100
AcDbPoint
 10
-45073.06524072494
 20
-37806.87843497319
 30
0.0
  0
POINT
  5
186
330
17B
100
AcDbEntity
  8
Defpoints
 62
     0
100
AcDbPoint
 10
-44235.06524072494
 20
-37806.87843497319
 30
0.0
  0
POINT
  5
187
330
17B
100
AcDbEntity
  8
Defpoints
 62
     0
100
AcDbPoint
 10
-44235.06524072494
 20
-37689.67795245524
 30
0.0
  0
ENDBLK
  5
188
330
17B
100
AcDbEntity
  8
0
100
AcDbBlockEnd
  0
BLOCK
  5
18A
330
189
100
AcDbEntity
  8
0
100
AcDbBlockBegin
  2
*D9
 70
     1
 10
0.0
 20
0.0
 30
0.0
  3
*D9
  1

  0
LINE
  5
18B
330
189
100
AcDbEntity
  8
1 辅助线
100
AcDbLine
 10
-44223.06524072494
 20
-37806.87843497319
 30
0.0
 11
-44101.00081374961
 21
-37806.87843497319
 31
0.0
  0
LINE
  5
18C
330
189
100
AcDbEntity
  8
1 辅助线
100
AcDbLine
 10
-44223.06524072494
 20
-38314.87843497319
 30
0.0
 11
-44101.00081374961
 21
-38314.87843497319
 31
0.0
  0
LINE
  5
18D
330
189
100
AcDbEntity
  8
1 辅助线
370
     0
100
AcDbLine
 10
-44113.00081374961
 20
-37821.87843497319
 30
0.0
 11
-44113.00081374961
 21
-38024.67069566565
 31
0.0
  0
LINE
  5
18E
330
189
100
AcDbEntity
  8
1 辅助线
370
     0
100
AcDbLine
 10
-44113.00081374961
 20
-38299.87843497319
 30
0.0
 11
-44113.00081374961
 21
-38097.08617428073
 31
0.0
  0
SOLID
  5
18F
330
189
100
AcDbEntity
  8
1 辅助线
100
AcDbTrace
 10
-44115.50081374961
 20
-37821.87843497319
 30
0.0
 11
-44110.50081374962
 21
-37821.87843497319
 31
0.0
 12
-44113.00081374961
 22
-37806.87843497319
 32
0.0
 13
-44113.00081374961
 23
-37806.87843497319
 33
0.0
  0
SOLID
  5
190
330
189
100
AcDbEntity
  8
1 辅助线
100
AcDbTrace
 10
-44115.50081374961
 20
-38299.87843497319
 30
0.0
 11
-44110.50081374962
 21
-38299.87843497319
 31
0.0
 12
-44113.00081374961
 22
-38314.87843497319
 32
0.0
 13
-44113.00081374961
 23
-38314.87843497319
 33
0.0
  0
MTEXT
  5
191
330
189
100
AcDbEntity
  8
1 辅助线
100
AcDbMText
 10
-44113.00081374961
 20
-38044.08617428073
 30
0.0
 40
21.0
 41
0.0
 71
     5
 72
     1
  1
\A2;508
  7
Arial
 73
     1
 44
1.0
  0
MTEXT
  5
192
330
189
100
AcDbEntity
  8
1 辅助线
100
AcDbMText
 10
-44113.00081374961
 20
-38080.29391358827
 30
0.0
 40
21.0
 41
0.0
 71
     5
 72
     1
  1
\A2;[20"]
  7
Arial
 73
     1
 44
1.0
  0
POINT
  5
193
330
189
100
AcDbEntity
  8
Defpoints
 62
     0
100
AcDbPoint
 10
-44235.06524072494
 20
-37806.87843497319
 30
0.0
  0
POINT
  5
194
330
189
100
AcDbEntity
  8
Defpoints
 62
     0
100
AcDbPoint
 10
-44235.06524072494
 20
-38314.87843497319
 30
0.0
  0
POINT
  5
195
330
189
100
AcDbEntity
  8
Defpoints
 62
     0
100
AcDbPoint
 10
-44113.00081374961
 20
-38314.87843497319
 30
0.0
  0
ENDBLK
  5
196
330
189
100
AcDbEntity
  8
0
100
AcDbBlockEnd
  0
BLOCK
  5
198
330
197
100
AcDbEntity
  8
0
100
AcDbBlockBegin
  2
*D10
 70
     1
 10
0.0
 20
0.0
 30
0.0
  3
*D10
  1

  0
LINE
  5
199
330
197
100
AcDbEntity
  8
1 辅助线
100
AcDbLine
 10
-44223.06524072494
 20
-37832.27843497319
 30
0.0
 11
-44177.47350932143
 21
-37832.27843497319
 31
0.0
  0
LINE
  5
19A
330
197
100
AcDbEntity
  8
1 辅助线
100
AcDbLine
 10
-44223.06524072494
 20
-38289.47843497319
 30
0.0
 11
-44177.47350932143
 21
-38289.47843497319
 31
0.0
  0
LINE
  5
19B
330
197
100
AcDbEntity
  8
1 辅助线
370
     0
100
AcDbLine
 10
-44189.47350932143
 20
-37847.27843497319
 30
0.0
 11
-44189.47350932143
 21
-38024.67069566565
 31
0.0
  0
LINE
  5
19C
330
197
100
AcDbEntity
  8
1 辅助线
370
     0
100
AcDbLine
 10
-44189.47350932143
 20
-38274.47843497319
 30
0.0
 11
-44189.47350932143
 21
-38097.08617428073
 31
0.0
  0
SOLID
  5
19D
330
197
100
AcDbEntity
  8
1 辅助线
100
AcDbTrace
 10
-44191.97350932146
 20
-37847.27843497319
 30
0.0
 11
-44186.97350932143
 21
-37847.27843497319
 31
0.0
 12
-44189.47350932143
 22
-37832.27843497319
 32
0.0
 13
-44189.47350932143
 23
-37832.27843497319
 33
0.0
  0
SOLID
  5
19E
330
197
100
AcDbEntity
  8
1 辅助线
100
AcDbTrace
 10
-44191.97350932146
 20
-38274.47843497319
 30
0.0
 11
-44186.97350932143
 21
-38274.47843497319
 31
0.0
 12
-44189.47350932143
 22
-38289.47843497319
 32
0.0
 13
-44189.47350932143
 23
-38289.47843497319
 33
0.0
  0
MTEXT
  5
19F
330
197
100
AcDbEntity
  8
1 辅助线
100
AcDbMText
 10
-44189.47350932143
 20
-38044.08617428073
 30
0.0
 40
21.0
 41
0.0
 71
     5
 72
     1
  1
\A2;457
  7
Arial
 73
     1
 44
1.0
  0
MTEXT
  5
1A0
330
197
100
AcDbEntity
  8
1 辅助线
100
AcDbMText
 10
-44189.47350932143
 20
-38080.29391358827
 30
0.0
 40
21.0
 41
0.0
 71
     5
 72
     1
  1
\A2;[18"]
  7
Arial
 73
     1
 44
1.0
  0
POINT
  5
1A1
330
197
100
AcDbEntity
  8
Defpoints
 62
     0
100
AcDbPoint
 10
-44235.06524072494
 20
-37832.27843497319
 30
0.0
  0
POINT
  5
1A2
330
197
100
AcDbEntity
  8
Defpoints
 62
     0
100
AcDbPoint
 10
-44235.06524072494
 20
-38289.47843497319
 30
0.0
  0
POINT
  5
1A3
330
197
100
AcDbEntity
  8
Defpoints
 62
     0
100
AcDbPoint
 10
-44189.47350932143
 20
-38289.47843497319
 30
0.0
  0
ENDBLK
  5
1A4
330
197
100
AcDbEntity
  8
0
100
AcDbBlockEnd
  0
BLOCK
  5
1A6
330
1A5
100
AcDbEntity
  8
0
100
AcDbBlockBegin
  2
*D11
 70
     1
 10
0.0
 20
0.0
 30
0.0
  3
*D11
  1

  0
LINE
  5
1A7
330
1A5
100
AcDbEntity
  8
1 辅助线
100
AcDbLine
 10
-45047.66524072494
 20
-37794.87843497319
 30
0.0
 11
-45047.66524072494
 21
-37745.32231870305
 31
0.0
  0
LINE
  5
1A8
330
1A5
100
AcDbEntity
  8
1 辅助线
100
AcDbLine
 10
-44260.46524072495
 20
-37794.87843497319
 30
0.0
 11
-44260.46524072495
 21
-37745.32231870305
 31
0.0
  0
LINE
  5
1A9
330
1A5
100
AcDbEntity
  8
1 辅助线
370
     0
100
AcDbLine
 10
-45032.66524072494
 20
-37757.32231870305
 30
0.0
 11
-44685.66300039908
 21
-37757.32231870305
 31
0.0
  0
LINE
  5
1AA
330
1A5
100
AcDbEntity
  8
1 辅助线
370
     0
100
AcDbLine
 10
-44275.46524072494
 20
-37757.32231870305
 30
0.0
 11
-44622.46748105081
 21
-37757.32231870305
 31
0.0
  0
SOLID
  5
1AB
330
1A5
100
AcDbEntity
  8
1 辅助线
100
AcDbTrace
 10
-45032.66524072494
 20
-37754.82231870305
 30
0.0
 11
-45032.66524072494
 21
-37759.82231870306
 31
0.0
 12
-45047.66524072494
 22
-37757.32231870305
 32
0.0
 13
-45047.66524072494
 23
-37757.32231870305
 33
0.0
  0
SOLID
  5
1AC
330
1A5
100
AcDbEntity
  8
1 辅助线
100
AcDbTrace
 10
-44275.46524072494
 20
-37754.82231870305
 30
0.0
 11
-44275.46524072494
 21
-37759.82231870306
 31
0.0
 12
-44260.46524072495
 22
-37757.32231870305
 32
0.0
 13
-44260.46524072495
 23
-37757.32231870305
 33
0.0
  0
MTEXT
  5
1AD
330
1A5
100
AcDbEntity
  8
1 辅助线
100
AcDbMText
 10
-44654.06524072494
 20
-37740.53005801059
 30
0.0
 40
21.0
 41
0.0
 71
     5
 72
     1
  1
\A2;787
  7
Arial
 73
     1
 44
1.0
  0
MTEXT
  5
1AE
330
1A5
100
AcDbEntity
  8
1 辅助线
100
AcDbMText
 10
-44654.06524072494
 20
-37776.73779731812
 30
0.0
 40
21.0
 41
0.0
 71
     5
 72
     1
  1
\A2;[31"]
  7
Arial
 73
     1
 44
1.0
  0
POINT
  5
1AF
330
1A5
100
AcDbEntity
  8
Defpoints
 62
     0
100
AcDbPoint
 10
-45047.66524072494
 20
-37806.87843497319
 30
0.0
  0
POINT
  5
1B0
330
1A5
100
AcDbEntity
  8
Defpoints
 62
     0
100
AcDbPoint
 10
-44260.46524072495
 20
-37806.87843497319
 30
0.0
  0
POINT
  5
1B1
330
1A5
100
AcDbEntity
  8
Defpoints
 62
     0
100
AcDbPoint
 10
-44260.46524072495
 20
-37757.32231870305
 30
0.0
  0
ENDBLK
  5
1B2
330
1A5
100
AcDbEntity
  8
0
100
AcDbBlockEnd
  0
BLOCK
  5
1B4
330
1B3
100
AcDbEntity
  8
0
100
AcDbBlockBegin
  2
*D12
 70
     1
 10
0.0
 20
0.0
 30
0.0
  3
*D12
  1

  0
LINE
  5
1B5
330
1B3
100
AcDbEntity
  8
1 辅助线
100
AcDbLine
 10
-49667.00583735062
 20
-37849.7784349732
 30
0.0
 11
-49488.55894564603
 21
-37849.7784349732
 31
0.0
  0
LINE
  5
1B6
330
1B3
100
AcDbEntity
  8
1 辅助线
100
AcDbLine
 10
-49667.00583735062
 20
-38271.97843497319
 30
0.0
 11
-49488.55894564603
 21
-38271.97843497319
 31
0.0
  0
LINE
  5
1B7
330
1B3
100
AcDbEntity
  8
1 辅助线
370
     0
100
AcDbLine
 10
-49500.55894564603
 20
-37864.7784349732
 30
0.0
 11
-49500.55894564603
 21
-38024.69208059438
 31
0.0
  0
LINE
  5
1B8
330
1B3
100
AcDbEntity
  8
1 辅助线
370
     0
100
AcDbLine
 10
-49500.55894564603
 20
-38256.97843497319
 30
0.0
 11
-49500.55894564603
 21
-38097.06478935201
 31
0.0
  0
SOLID
  5
1B9
330
1B3
100
AcDbEntity
  8
1 辅助线
100
AcDbTrace
 10
-49503.05894564603
 20
-37864.7784349732
 30
0.0
 11
-49498.05894564604
 21
-37864.7784349732
 31
0.0
 12
-49500.55894564603
 22
-37849.7784349732
 32
0.0
 13
-49500.55894564603
 23
-37849.7784349732
 33
0.0
  0
SOLID
  5
1BA
330
1B3
100
AcDbEntity
  8
1 辅助线
100
AcDbTrace
 10
-49503.05894564603
 20
-38256.97843497319
 30
0.0
 11
-49498.05894564604
 21
-38256.97843497319
 31
0.0
 12
-49500.55894564603
 22
-38271.97843497319
 32
0.0
 13
-49500.55894564603
 23
-38271.97843497319
 33
0.0
  0
MTEXT
  5
1BB
330
1B3
100
AcDbEntity
  8
1 辅助线
100
AcDbMText
 10
-49500.55894564603
 20
-38044.37843497322
 30
0.0
 40
21.0
 41
0.0
 71
     5
 72
     1
  1
\A2;422
  7
Arial
 73
     1
 44
1.0
  0
MTEXT
  5
1BC
330
1B3
100
AcDbEntity
  8
1 辅助线
100
AcDbMText
 10
-49500.55894564603
 20
-38080.56478935203
 30
0.0
 40
21.0
 41
0.0
 71
     5
 72
     1
  1
\A2;[16 5/8"]
  7
Arial
 73
     1
 44
1.0
  0
POINT
  5
1BD
330
1B3
100
AcDbEntity
  8
Defpoints
 62
     0
100
AcDbPoint
 10
-49679.00583735062
 20
-37849.7784349732
 30
0.0
  0
POINT
  5
1BE
330
1B3
100
AcDbEntity
  8
Defpoints
 62
     0
100
AcDbPoint
 10
-49679.00583735062
 20
-38271.97843497319
 30
0.0
  0
POINT
  5
1BF
330
1B3
100
AcDbEntity
  8
Defpoints
 62
     0
100
AcDbPoint
 10
-49500.55894564603
 20
-38271.97843497319
 30
0.0
  0
ENDBLK
  5
1C0
330
1B3
100
AcDbEntity
  8
0
100
AcDbBlockEnd
  0
BLOCK
  5
1C2
330
1C1
100
AcDbEntity
  8
0
100
AcDbBlockBegin
  2
*D13
 70
     1
 10
0.0
 20
0.0
 30
0.0
  3
*D13
  1

  0
LINE
  5
1C3
330
1C1
100
AcDbEntity
  8
1 辅助线
100
AcDbLine
 10
-47133.44846314678
 20
-37849.7784349732
 30
0.0
 11
-46955.00157144222
 21
-37849.7784349732
 31
0.0
  0
LINE
  5
1C4
330
1C1
100
AcDbEntity
  8
1 辅助线
100
AcDbLine
 10
-47133.44846314678
 20
-38271.97843497319
 30
0.0
 11
-46955.00157144222
 21
-38271.97843497319
 31
0.0
  0
LINE
  5
1C5
330
1C1
100
AcDbEntity
  8
1 辅助线
370
     0
100
AcDbLine
 10
-46967.00157144221
 20
-37864.7784349732
 30
0.0
 11
-46967.00157144221
 21
-38024.69208059438
 31
0.0
  0
LINE
  5
1C6
330
1C1
100
AcDbEntity
  8
1 辅助线
370
     0
100
AcDbLine
 10
-46967.00157144221
 20
-38256.97843497319
 30
0.0
 11
-46967.00157144221
 21
-38097.06478935201
 31
0.0
  0
SOLID
  5
1C7
330
1C1
100
AcDbEntity
  8
1 辅助线
100
AcDbTrace
 10
-46969.50157144223
 20
-37864.7784349732
 30
0.0
 11
-46964.50157144222
 21
-37864.7784349732
 31
0.0
 12
-46967.00157144221
 22
-37849.7784349732
 32
0.0
 13
-46967.00157144221
 23
-37849.7784349732
 33
0.0
  0
SOLID
  5
1C8
330
1C1
100
AcDbEntity
  8
1 辅助线
100
AcDbTrace
 10
-46969.50157144223
 20
-38256.97843497319
 30
0.0
 11
-46964.50157144222
 21
-38256.97843497319
 31
0.0
 12
-46967.00157144221
 22
-38271.97843497319
 32
0.0
 13
-46967.00157144221
 23
-38271.97843497319
 33
0.0
  0
MTEXT
  5
1C9
330
1C1
100
AcDbEntity
  8
1 辅助线
100
AcDbMText
 10
-46967.00157144221
 20
-38044.3784349732
 30
0.0
 40
21.0
 41
0.0
 71
     5
 72
     1
  1
\A2;422
  7
Arial
 73
     1
 44
1.0
  0
MTEXT
  5
1CA
330
1C1
100
AcDbEntity
  8
1 辅助线
100
AcDbMText
 10
-46967.00157144221
 20
-38080.56478935202
 30
0.0
 40
21.0
 41
0.0
 71
     5
 72
     1
  1
\A2;[16 5/8"]
  7
Arial
 73
     1
 44
1.0
  0
POINT
  5
1CB
330
1C1
100
AcDbEntity
  8
Defpoints
 62
     0
100
AcDbPoint
 10
-47145.4484631468
 20
-37849.7784349732
 30
0.0
  0
POINT
  5
1CC
330
1C1
100
AcDbEntity
  8
Defpoints
 62
     0
100
AcDbPoint
 10
-47145.4484631468
 20
-38271.97843497319
 30
0.0
  0
POINT
  5
1CD
330
1C1
100
AcDbEntity
  8
Defpoints
 62
     0
100
AcDbPoint
 10
-46967.00157144221
 20
-38271.97843497319
 30
0.0
  0
ENDBLK
  5
1CE
330
1C1
100
AcDbEntity
  8
0
100
AcDbBlockEnd
  0
BLOCK
  5
1D0
330
1CF
100
AcDbEntity
  8
0
100
AcDbBlockBegin
  2
*D14
 70
     1
 10
0.0
 20
0.0
 30
0.0
  3
*D14
  1

  0
LINE
  5
1D1
330
1CF
100
AcDbEntity
  8
1 辅助线
100
AcDbLine
 10
-44287.46524072495
 20
-37849.77843497319
 30
0.0
 11
-44349.87970745098
 21
-37849.77843497319
 31
0.0
  0
LINE
  5
1D2
330
1CF
100
AcDbEntity
  8
1 辅助线
100
AcDbLine
 10
-44287.46524072495
 20
-38271.97843497319
 30
0.0
 11
-44349.87970745098
 21
-38271.97843497319
 31
0.0
  0
LINE
  5
1D3
330
1CF
100
AcDbEntity
  8
1 辅助线
370
     0
100
AcDbLine
 10
-44337.87970745098
 20
-37864.77843497319
 30
0.0
 11
-44337.87970745098
 21
-38024.69208059438
 31
0.0
  0
LINE
  5
1D4
330
1CF
100
AcDbEntity
  8
1 辅助线
370
     0
100
AcDbLine
 10
-44337.87970745098
 20
-38256.97843497319
 30
0.0
 11
-44337.87970745098
 21
-38097.06478935201
 31
0.0
  0
SOLID
  5
1D5
330
1CF
100
AcDbEntity
  8
1 辅助线
100
AcDbTrace
 10
-44340.37970745096
 20
-37864.77843497319
 30
0.0
 11
-44335.37970745097
 21
-37864.77843497319
 31
0.0
 12
-44337.87970745098
 22
-37849.77843497319
 32
0.0
 13
-44337.87970745098
 23
-37849.77843497319
 33
0.0
  0
SOLID
  5
1D6
330
1CF
100
AcDbEntity
  8
1 辅助线
100
AcDbTrace
 10
-44340.37970745096
 20
-38256.97843497319
 30
0.0
 11
-44335.37970745097
 21
-38256.97843497319
 31
0.0
 12
-44337.87970745098
 22
-38271.97843497319
 32
0.0
 13
-44337.87970745098
 23
-38271.97843497319
 33
0.0
  0
MTEXT
  5
1D7
330
1CF
100
AcDbEntity
  8
1 辅助线
100
AcDbMText
 10
-44337.87970745096
 20
-38044.3784349732
 30
0.0
 40
21.0
 41
0.0
 71
     5
 72
     1
  1
\A2;422
  7
Arial
 73
     1
 44
1.0
  0
MTEXT
  5
1D8
330
1CF
100
AcDbEntity
  8
1 辅助线
100
AcDbMText
 10
-44337.87970745096
 20
-38080.56478935202
 30
0.0
 40
21.0
 41
0.0
 71
     5
 72
     1
  1
\A2;[16 5/8"]
  7
Arial
 73
     1
 44
1.0
  0
POINT
  5
1D9
330
1CF
100
AcDbEntity
  8
Defpoints
 62
     0
100
AcDbPoint
 10
-44275.46524072494
 20
-37849.77843497319
 30
0.0
  0
POINT
  5
1DA
330
1CF
100
AcDbEntity
  8
Defpoints
 62
     0
100
AcDbPoint
 10
-44275.46524072494
 20
-38271.97843497319
 30
0.0
  0
POINT
  5
1DB
330
1CF
100
AcDbEntity
  8
Defpoints
 62
     0
100
AcDbPoint
 10
-44337.87970745098
 20
-38271.97843497319
 30
0.0
  0
ENDBLK
  5
1DC
330
1CF
100
AcDbEntity
  8
0
100
AcDbBlockEnd
  0
BLOCK
  5
1DE
330
1DD
100
AcDbEntity
  8
0
100
AcDbBlockBegin
  2
*D15
 70
     1
 10
0.0
 20
0.0
 30
0.0
  3
*D15
  1

  0
LINE
  5
1DF
330
1DD
100
AcDbEntity
  8
1 辅助线
100
AcDbLine
 10
-44260.46524072495
 20
-38244.97843497319
 30
0.0
 11
-44260.46524072495
 21
-38177.48277366384
 31
0.0
  0
LINE
  5
1E0
330
1DD
100
AcDbEntity
  8
1 辅助线
100
AcDbLine
 10
-44641.36524072493
 20
-38244.97843497319
 30
0.0
 11
-44641.36524072493
 21
-38177.48277366384
 31
0.0
  0
LINE
  5
1E1
330
1DD
100
AcDbEntity
  8
1 辅助线
370
     0
100
AcDbLine
 10
-44275.46524072494
 20
-38189.48277366382
 30
0.0
 11
-44419.31748105081
 21
-38189.48277366382
 31
0.0
  0
LINE
  5
1E2
330
1DD
100
AcDbEntity
  8
1 辅助线
370
     0
100
AcDbLine
 10
-44626.36524072494
 20
-38189.48277366382
 30
0.0
 11
-44482.51300039908
 21
-38189.48277366382
 31
0.0
  0
SOLID
  5
1E3
330
1DD
100
AcDbEntity
  8
1 辅助线
100
AcDbTrace
 10
-44275.46524072494
 20
-38186.98277366383
 30
0.0
 11
-44275.46524072494
 21
-38191.98277366383
 31
0.0
 12
-44260.46524072495
 22
-38189.48277366382
 32
0.0
 13
-44260.46524072495
 23
-38189.48277366382
 33
0.0
  0
SOLID
  5
1E4
330
1DD
100
AcDbEntity
  8
1 辅助线
100
AcDbTrace
 10
-44626.36524072494
 20
-38186.98277366383
 30
0.0
 11
-44626.36524072494
 21
-38191.98277366383
 31
0.0
 12
-44641.36524072493
 22
-38189.48277366382
 32
0.0
 13
-44641.36524072493
 23
-38189.48277366382
 33
0.0
  0
MTEXT
  5
1E5
330
1DD
100
AcDbEntity
  8
1 辅助线
100
AcDbMText
 10
-44450.91524072495
 20
-38172.69051297136
 30
0.0
 40
21.0
 41
0.0
 71
     5
 72
     1
  1
\A2;381
  7
Arial
 73
     1
 44
1.0
  0
MTEXT
  5
1E6
330
1DD
100
AcDbEntity
  8
1 辅助线
100
AcDbMText
 10
-44450.91524072495
 20
-38208.8982522789
 30
0.0
 40
21.0
 41
0.0
 71
     5
 72
     1
  1
\A2;[15"]
  7
Arial
 73
     1
 44
1.0
  0
POINT
  5
1E7
330
1DD
100
AcDbEntity
  8
Defpoints
 62
     0
100
AcDbPoint
 10
-44260.46524072495
 20
-38256.97843497319
 30
0.0
  0
POINT
  5
1E8
330
1DD
100
AcDbEntity
  8
Defpoints
 62
     0
100
AcDbPoint
 10
-44641.36524072493
 20
-38256.97843497319
 30
0.0
  0
POINT
  5
1E9
330
1DD
100
AcDbEntity
  8
Defpoints
 62
     0
100
AcDbPoint
 10
-44641.36524072493
 20
-38189.48277366382
 30
0.0
  0
ENDBLK
  5
1EA
330
1DD
100
AcDbEntity
  8
0
100
AcDbBlockEnd
  0
BLOCK
  5
1EC
330
1EB
100
AcDbEntity
  8
0
100
AcDbBlockBegin
  2
*D16
 70
     1
 10
0.0
 20
0.0
 30
0.0
  3
*D16
  1

  0
LINE
  5
1ED
330
1EB
100
AcDbEntity
  8
1 辅助线
100
AcDbLine
 10
-44666.76524072494
 20
-38244.97843497319
 30
0.0
 11
-44666.76524072494
 21
-38177.48277366384
 31
0.0
  0
LINE
  5
1EE
330
1EB
100
AcDbEntity
  8
1 辅助线
100
AcDbLine
 10
-45047.66524072494
 20
-38244.97843497319
 30
0.0
 11
-45047.66524072494
 21
-38177.48277366384
 31
0.0
  0
LINE
  5
1EF
330
1EB
100
AcDbEntity
  8
1 辅助线
370
     0
100
AcDbLine
 10
-44681.76524072494
 20
-38189.48277366382
 30
0.0
 11
-44825.6174810508
 21
-38189.48277366382
 31
0.0
  0
LINE
  5
1F0
330
1EB
100
AcDbEntity
  8
1 辅助线
370
     0
100
AcDbLine
 10
-45032.66524072494
 20
-38189.48277366382
 30
0.0
 11
-44888.81300039907
 21
-38189.48277366382
 31
0.0
  0
SOLID
  5
1F1
330
1EB
100
AcDbEntity
  8
1 辅助线
100
AcDbTrace
 10
-44681.76524072494
 20
-38186.98277366383
 30
0.0
 11
-44681.76524072494
 21
-38191.98277366383
 31
0.0
 12
-44666.76524072494
 22
-38189.48277366382
 32
0.0
 13
-44666.76524072494
 23
-38189.48277366382
 33
0.0
  0
SOLID
  5
1F2
330
1EB
100
AcDbEntity
  8
1 辅助线
100
AcDbTrace
 10
-45032.66524072494
 20
-38186.98277366383
 30
0.0
 11
-45032.66524072494
 21
-38191.98277366383
 31
0.0
 12
-45047.66524072494
 22
-38189.48277366382
 32
0.0
 13
-45047.66524072494
 23
-38189.48277366382
 33
0.0
  0
MTEXT
  5
1F3
330
1EB
100
AcDbEntity
  8
1 辅助线
100
AcDbMText
 10
-44857.21524072493
 20
-38172.69051297136
 30
0.0
 40
21.0
 41
0.0
 71
     5
 72
     1
  1
\A2;381
  7
Arial
 73
     1
 44
1.0
  0
MTEXT
  5
1F4
330
1EB
100
AcDbEntity
  8
1 辅助线
100
AcDbMText
 10
-44857.21524072493
 20
-38208.8982522789
 30
0.0
 40
21.0
 41
0.0
 71
     5
 72
     1
  1
\A2;[15"]
  7
Arial
 73
     1
 44
1.0
  0
POINT
  5
1F5
330
1EB
100
AcDbEntity
  8
Defpoints
 62
     0
100
AcDbPoint
 10
-44666.76524072494
 20
-38256.97843497319
 30
0.0
  0
POINT
  5
1F6
330
1EB
100
AcDbEntity
  8
Defpoints
 62
     0
100
AcDbPoint
 10
-45047.66524072494
 20
-38256.97843497319
 30
0.0
  0
POINT
  5
1F7
330
1EB
100
AcDbEntity
  8
Defpoints
 62
     0
100
AcDbPoint
 10
-45047.66524072494
 20
-38189.48277366382
 30
0.0
  0
ENDBLK
  5
1F8
330
1EB
100
AcDbEntity
  8
0
100
AcDbBlockEnd
  0
BLOCK
  5
1FA
330
1F9
100
AcDbEntity
  8
0
100
AcDbBlockBegin
  2
*D17
 70
     1
 10
0.0
 20
0.0
 30
0.0
  3
*D17
  1

  0
LINE
  5
1FB
330
1F9
100
AcDbEntity
  8
1 辅助线
100
AcDbLine
 10
-44693.76524072494
 20
-37849.7784349732
 30
0.0
 11
-44744.08120426674
 21
-37849.7784349732
 31
0.0
  0
LINE
  5
1FC
330
1F9
100
AcDbEntity
  8
1 辅助线
100
AcDbLine
 10
-44693.76524072494
 20
-38271.97843497319
 30
0.0
 11
-44744.08120426674
 21
-38271.97843497319
 31
0.0
  0
LINE
  5
1FD
330
1F9
100
AcDbEntity
  8
1 辅助线
370
     0
100
AcDbLine
 10
-44732.08120426674
 20
-37864.7784349732
 30
0.0
 11
-44732.08120426674
 21
-38024.69208059438
 31
0.0
  0
LINE
  5
1FE
330
1F9
100
AcDbEntity
  8
1 辅助线
370
     0
100
AcDbLine
 10
-44732.08120426674
 20
-38256.97843497319
 30
0.0
 11
-44732.08120426674
 21
-38097.06478935201
 31
0.0
  0
SOLID
  5
1FF
330
1F9
100
AcDbEntity
  8
1 辅助线
100
AcDbTrace
 10
-44734.58120426673
 20
-37864.7784349732
 30
0.0
 11
-44729.58120426675
 21
-37864.7784349732
 31
0.0
 12
-44732.08120426674
 22
-37849.7784349732
 32
0.0
 13
-44732.08120426674
 23
-37849.7784349732
 33
0.0
  0
SOLID
  5
200
330
1F9
100
AcDbEntity
  8
1 辅助线
100
AcDbTrace
 10
-44734.58120426673
 20
-38256.97843497319
 30
0.0
 11
-44729.58120426675
 21
-38256.97843497319
 31
0.0
 12
-44732.08120426674
 22
-38271.97843497319
 32
0.0
 13
-44732.08120426674
 23
-38271.97843497319
 33
0.0
  0
MTEXT
  5
201
330
1F9
100
AcDbEntity
  8
1 辅助线
100
AcDbMText
 10
-44732.08120426674
 20
-38044.3784349732
 30
0.0
 40
21.0
 41
0.0
 71
     5
 72
     1
  1
\A2;422
  7
Arial
 73
     1
 44
1.0
  0
MTEXT
  5
202
330
1F9
100
AcDbEntity
  8
1 辅助线
100
AcDbMText
 10
-44732.08120426674
 20
-38080.56478935202
 30
0.0
 40
21.0
 41
0.0
 71
     5
 72
     1
  1
\A2;[16 5/8"]
  7
Arial
 73
     1
 44
1.0
  0
POINT
  5
203
330
1F9
100
AcDbEntity
  8
Defpoints
 62
     0
100
AcDbPoint
 10
-44681.76524072494
 20
-37849.7784349732
 30
0.0
  0
POINT
  5
204
330
1F9
100
AcDbEntity
  8
Defpoints
 62
     0
100
AcDbPoint
 10
-44681.76524072494
 20
-38271.97843497319
 30
0.0
  0
POINT
  5
205
330
1F9
100
AcDbEntity
  8
Defpoints
 62
     0
100
AcDbPoint
 10
-44732.08120426674
 20
-38271.97843497319
 30
0.0
  0
ENDBLK
  5
206
330
1F9
100
AcDbEntity
  8
0
100
AcDbBlockEnd
  0
BLOCK
  5
208
330
207
100
AcDbEntity
  8
0
100
AcDbBlockBegin
  2
*D18
 70
     1
 10
0.0
 20
0.0
 30
0.0
  3
*D18
  1

  0
LINE
  5
209
330
207
100
AcDbEntity
  8
1 辅助线
100
AcDbLine
 10
-50034.60583735061
 20
-37794.87843497319
 30
0.0
 11
-50034.60583735061
 21
-37749.22269808024
 31
0.0
  0
LINE
  5
20A
330
207
100
AcDbEntity
  8
1 辅助线
100
AcDbLine
 10
-49323.40583735061
 20
-37794.87843497319
 30
0.0
 11
-49323.40583735061
 21
-37749.22269808024
 31
0.0
  0
LINE
  5
20B
330
207
100
AcDbEntity
  8
1 辅助线
370
     0
100
AcDbLine
 10
-50019.60583735061
 20
-37761.22269808024
 30
0.0
 11
-49710.60359702474
 21
-37761.22269808024
 31
0.0
  0
LINE
  5
20C
330
207
100
AcDbEntity
  8
1 辅助线
370
     0
100
AcDbLine
 10
-49338.40583735061
 20
-37761.22269808024
 30
0.0
 11
-49647.40807767648
 21
-37761.22269808024
 31
0.0
  0
SOLID
  5
20D
330
207
100
AcDbEntity
  8
1 辅助线
100
AcDbTrace
 10
-50019.60583735061
 20
-37758.72269808024
 30
0.0
 11
-50019.60583735061
 21
-37763.72269808024
 31
0.0
 12
-50034.60583735061
 22
-37761.22269808024
 32
0.0
 13
-50034.60583735061
 23
-37761.22269808024
 33
0.0
  0
SOLID
  5
20E
330
207
100
AcDbEntity
  8
1 辅助线
100
AcDbTrace
 10
-49338.40583735061
 20
-37758.72269808024
 30
0.0
 11
-49338.40583735061
 21
-37763.72269808024
 31
0.0
 12
-49323.40583735061
 22
-37761.22269808024
 32
0.0
 13
-49323.40583735061
 23
-37761.22269808024
 33
0.0
  0
MTEXT
  5
20F
330
207
100
AcDbEntity
  8
1 辅助线
100
AcDbMText
 10
-49679.00583735062
 20
-37744.72269808024
 30
0.0
 40
21.0
 41
0.0
 71
     5
 72
     1
  1
\A2;711
  7
Arial
 73
     1
 44
1.0
  0
MTEXT
  5
210
330
207
100
AcDbEntity
  8
1 辅助线
100
AcDbMText
 10
-49679.00583735062
 20
-37780.63817669532
 30
0.0
 40
21.0
 41
0.0
 71
     5
 72
     1
  1
\A2;[28"]
  7
Arial
 73
     1
 44
1.0
  0
POINT
  5
211
330
207
100
AcDbEntity
  8
Defpoints
 62
     0
100
AcDbPoint
 10
-50034.60583735061
 20
-37806.87843497319
 30
0.0
  0
POINT
  5
212
330
207
100
AcDbEntity
  8
Defpoints
 62
     0
100
AcDbPoint
 10
-49323.40583735061
 20
-37806.87843497319
 30
0.0
  0
POINT
  5
213
330
207
100
AcDbEntity
  8
Defpoints
 62
     0
100
AcDbPoint
 10
-49323.40583735061
 20
-37761.22269808024
 30
0.0
  0
ENDBLK
  5
214
330
207
100
AcDbEntity
  8
0
100
AcDbBlockEnd
  0
BLOCK
  5
216
330
215
100
AcDbEntity
  8
0
100
AcDbBlockBegin
  2
*D19
 70
     1
 10
0.0
 20
0.0
 30
0.0
  3
*D19
  1

  0
LINE
  5
217
330
215
100
AcDbEntity
  8
1 辅助线
100
AcDbLine
 10
-47539.0484631468
 20
-37794.87843497319
 30
0.0
 11
-47539.0484631468
 21
-37750.06498264289
 31
0.0
  0
LINE
  5
218
330
215
100
AcDbEntity
  8
1 辅助线
100
AcDbLine
 10
-46751.84846314682
 20
-37794.87843497319
 30
0.0
 11
-46751.84846314682
 21
-37750.06498264289
 31
0.0
  0
LINE
  5
219
330
215
100
AcDbEntity
  8
1 辅助线
370
     0
100
AcDbLine
 10
-47524.04846314679
 20
-37762.06498264289
 30
0.0
 11
-47177.04622282092
 21
-37762.06498264289
 31
0.0
  0
LINE
  5
21A
330
215
100
AcDbEntity
  8
1 辅助线
370
     0
100
AcDbLine
 10
-46766.84846314682
 20
-37762.06498264289
 30
0.0
 11
-47113.85070347266
 21
-37762.06498264289
 31
0.0
  0
SOLID
  5
21B
330
215
100
AcDbEntity
  8
1 辅助线
100
AcDbTrace
 10
-47524.04846314679
 20
-37759.56498264289
 30
0.0
 11
-47524.04846314679
 21
-37764.56498264288
 31
0.0
 12
-47539.0484631468
 22
-37762.06498264289
 32
0.0
 13
-47539.0484631468
 23
-37762.06498264289
 33
0.0
  0
SOLID
  5
21C
330
215
100
AcDbEntity
  8
1 辅助线
100
AcDbTrace
 10
-46766.84846314682
 20
-37759.56498264289
 30
0.0
 11
-46766.84846314682
 21
-37764.56498264288
 31
0.0
 12
-46751.84846314682
 22
-37762.06498264289
 32
0.0
 13
-46751.84846314682
 23
-37762.06498264289
 33
0.0
  0
MTEXT
  5
21D
330
215
100
AcDbEntity
  8
1 辅助线
100
AcDbMText
 10
-47145.4484631468
 20
-37745.27272195042
 30
0.0
 40
21.0
 41
0.0
 71
     5
 72
     1
  1
\A2;787
  7
Arial
 73
     1
 44
1.0
  0
MTEXT
  5
21E
330
215
100
AcDbEntity
  8
1 辅助线
100
AcDbMText
 10
-47145.4484631468
 20
-37781.48046125795
 30
0.0
 40
21.0
 41
0.0
 71
     5
 72
     1
  1
\A2;[31"]
  7
Arial
 73
     1
 44
1.0
  0
POINT
  5
21F
330
215
100
AcDbEntity
  8
Defpoints
 62
     0
100
AcDbPoint
 10
-47539.0484631468
 20
-37806.87843497319
 30
0.0
  0
POINT
  5
220
330
215
100
AcDbEntity
  8
Defpoints
 62
     0
100
AcDbPoint
 10
-46751.84846314682
 20
-37806.87843497319
 30
0.0
  0
POINT
  5
221
330
215
100
AcDbEntity
  8
Defpoints
 62
     0
100
AcDbPoint
 10
-46751.84846314682
 20
-37762.06498264289
 30
0.0
  0
ENDBLK
  5
222
330
215
100
AcDbEntity
  8
0
100
AcDbBlockEnd
  0
BLOCK
  5
224
330
223
100
AcDbEntity
  8
0
100
AcDbBlockBegin
  2
*D20
 70
     1
 10
0.0
 20
0.0
 30
0.0
  3
*D20
  1

  0
LINE
  5
225
330
223
100
AcDbEntity
  8
1 辅助线
100
AcDbLine
 10
-47157.44846314681
 20
-37832.2784349732
 30
0.0
 11
-47299.75570074143
 21
-37832.2784349732
 31
0.0
  0
LINE
  5
226
330
223
100
AcDbEntity
  8
1 辅助线
100
AcDbLine
 10
-47157.44846314681
 20
-38289.47843497319
 30
0.0
 11
-47299.75570074143
 21
-38289.47843497319
 31
0.0
  0
LINE
  5
227
330
223
100
AcDbEntity
  8
1 辅助线
370
     0
100
AcDbLine
 10
-47287.75570074144
 20
-37847.2784349732
 30
0.0
 11
-47287.75570074144
 21
-38024.67069566566
 31
0.0
  0
LINE
  5
228
330
223
100
AcDbEntity
  8
1 辅助线
370
     0
100
AcDbLine
 10
-47287.75570074144
 20
-38274.47843497319
 30
0.0
 11
-47287.75570074144
 21
-38097.08617428073
 31
0.0
  0
SOLID
  5
229
330
223
100
AcDbEntity
  8
1 辅助线
100
AcDbTrace
 10
-47290.25570074143
 20
-37847.2784349732
 30
0.0
 11
-47285.25570074141
 21
-37847.2784349732
 31
0.0
 12
-47287.75570074144
 22
-37832.2784349732
 32
0.0
 13
-47287.75570074144
 23
-37832.2784349732
 33
0.0
  0
SOLID
  5
22A
330
223
100
AcDbEntity
  8
1 辅助线
100
AcDbTrace
 10
-47290.25570074143
 20
-38274.47843497319
 30
0.0
 11
-47285.25570074141
 21
-38274.47843497319
 31
0.0
 12
-47287.75570074144
 22
-38289.47843497319
 32
0.0
 13
-47287.75570074144
 23
-38289.47843497319
 33
0.0
  0
MTEXT
  5
22B
330
223
100
AcDbEntity
  8
1 辅助线
100
AcDbMText
 10
-47287.75570074141
 20
-38044.08617428074
 30
0.0
 40
21.0
 41
0.0
 71
     5
 72
     1
  1
\A2;457
  7
Arial
 73
     1
 44
1.0
  0
MTEXT
  5
22C
330
223
100
AcDbEntity
  8
1 辅助线
100
AcDbMText
 10
-47287.75570074141
 20
-38080.29391358827
 30
0.0
 40
21.0
 41
0.0
 71
     5
 72
     1
  1
\A2;[18"]
  7
Arial
 73
     1
 44
1.0
  0
POINT
  5
22D
330
223
100
AcDbEntity
  8
Defpoints
 62
     0
100
AcDbPoint
 10
-47145.4484631468
 20
-37832.2784349732
 30
0.0
  0
POINT
  5
22E
330
223
100
AcDbEntity
  8
Defpoints
 62
     0
100
AcDbPoint
 10
-47145.4484631468
 20
-38289.47843497319
 30
0.0
  0
POINT
  5
22F
330
223
100
AcDbEntity
  8
Defpoints
 62
     0
100
AcDbPoint
 10
-47287.75570074144
 20
-38289.47843497319
 30
0.0
  0
ENDBLK
  5
230
330
223
100
AcDbEntity
  8
0
100
AcDbBlockEnd
  0
BLOCK
  5
383
330
377
100
AcDbEntity
  8
0
100
AcDbBlockBegin
  2
*D21
 70
     1
 10
0.0
 20
0.0
 30
0.0
  3
*D21
  1

  0
LINE
  5
403
330
377
100
AcDbEntity
  8
1 辅助线
100
AcDbLine
 10
966.0374307497702
 20
1161.528582984341
 30
0.0
 11
966.0374307497702
 21
1278.729065502287
 31
0.0
  0
LINE
  5
404
330
377
100
AcDbEntity
  8
1 辅助线
100
AcDbLine
 10
1728.03743074977
 20
1161.528582984341
 30
0.0
 11
1728.03743074977
 21
1278.729065502287
 31
0.0
  0
LINE
  5
405
330
377
100
AcDbEntity
  8
1 辅助线
370
     0
100
AcDbLine
 10
981.0374307497703
 20
1266.729065502288
 30
0.0
 11
1315.439671075636
 21
1266.729065502288
 31
0.0
  0
LINE
  5
406
330
377
100
AcDbEntity
  8
1 辅助线
370
     0
100
AcDbLine
 10
1713.03743074977
 20
1266.729065502288
 30
0.0
 11
1378.635190423905
 21
1266.729065502288
 31
0.0
  0
SOLID
  5
407
330
377
100
AcDbEntity
  8
1 辅助线
100
AcDbTrace
 10
981.0374307497703
 20
1269.229065502287
 30
0.0
 11
981.0374307497703
 21
1264.229065502287
 31
0.0
 12
966.0374307497702
 22
1266.729065502288
 32
0.0
 13
966.0374307497702
 23
1266.729065502288
 33
0.0
  0
SOLID
  5
408
330
377
100
AcDbEntity
  8
1 辅助线
100
AcDbTrace
 10
1713.03743074977
 20
1269.229065502287
 30
0.0
 11
1713.03743074977
 21
1264.229065502287
 31
0.0
 12
1728.03743074977
 22
1266.729065502288
 32
0.0
 13
1728.03743074977
 23
1266.729065502288
 33
0.0
  0
MTEXT
  5
409
330
377
100
AcDbEntity
  8
1 辅助线
100
AcDbMText
 10
1347.03743074977
 20
1283.521326194752
 30
0.0
 40
21.0
 41
0.0
 71
     5
 72
     1
  1
\A2;762
  7
Arial
 73
     1
 44
1.0
  0
MTEXT
  5
40A
330
377
100
AcDbEntity
  8
1 辅助线
100
AcDbMText
 10
1347.03743074977
 20
1247.313586887216
 30
0.0
 40
21.0
 41
0.0
 71
     5
 72
     1
  1
\A2;[30"]
  7
Arial
 73
     1
 44
1.0
  0
POINT
  5
40B
330
377
100
AcDbEntity
  8
Defpoints
 62
     0
100
AcDbPoint
 10
966.0374307497702
 20
1149.528582984341
 30
0.0
  0
POINT
  5
40C
330
377
100
AcDbEntity
  8
Defpoints
 62
     0
100
AcDbPoint
 10
1728.03743074977
 20
1149.528582984341
 30
0.0
  0
POINT
  5
40D
330
377
100
AcDbEntity
  8
Defpoints
 62
     0
100
AcDbPoint
 10
1728.03743074977
 20
1266.729065502288
 30
0.0
  0
ENDBLK
  5
384
330
377
100
AcDbEntity
  8
0
100
AcDbBlockEnd
  0
BLOCK
  5
391
330
385
100
AcDbEntity
  8
0
100
AcDbBlockBegin
  2
*D22
 70
     1
 10
0.0
 20
0.0
 30
0.0
  3
*D22
  1

  0
LINE
  5
40E
330
385
100
AcDbEntity
  8
1 辅助线
100
AcDbLine
 10
1740.037430749771
 20
1149.528582984341
 30
0.0
 11
1862.101857725095
 21
1149.528582984341
 31
0.0
  0
LINE
  5
40F
330
385
100
AcDbEntity
  8
1 辅助线
100
AcDbLine
 10
1740.037430749771
 20
641.528582984341
 30
0.0
 11
1862.101857725095
 21
641.5285829843409
 31
0.0
  0
LINE
  5
410
330
385
100
AcDbEntity
  8
1 辅助线
370
     0
100
AcDbLine
 10
1850.101857725095
 20
1134.528582984341
 30
0.0
 11
1850.101857725095
 21
931.7363222918768
 31
0.0
  0
LINE
  5
411
330
385
100
AcDbEntity
  8
1 辅助线
370
     0
100
AcDbLine
 10
1850.101857725095
 20
656.5285829843409
 30
0.0
 11
1850.101857725095
 21
859.3208436768051
 31
0.0
  0
SOLID
  5
412
330
385
100
AcDbEntity
  8
1 辅助线
100
AcDbTrace
 10
1847.601857725095
 20
1134.528582984341
 30
0.0
 11
1852.601857725095
 21
1134.528582984341
 31
0.0
 12
1850.101857725095
 22
1149.528582984341
 32
0.0
 13
1850.101857725095
 23
1149.528582984341
 33
0.0
  0
SOLID
  5
413
330
385
100
AcDbEntity
  8
1 辅助线
100
AcDbTrace
 10
1847.601857725095
 20
656.5285829843409
 30
0.0
 11
1852.601857725095
 21
656.5285829843409
 31
0.0
 12
1850.101857725095
 22
641.5285829843409
 32
0.0
 13
1850.101857725095
 23
641.5285829843409
 33
0.0
  0
MTEXT
  5
414
330
385
100
AcDbEntity
  8
1 辅助线
100
AcDbMText
 10
1850.101857725095
 20
912.3208436768056
 30
0.0
 40
21.0
 41
0.0
 71
     5
 72
     1
  1
\A2;508
  7
Arial
 73
     1
 44
1.0
  0
MTEXT
  5
415
330
385
100
AcDbEntity
  8
1 辅助线
100
AcDbMText
 10
1850.101857725095
 20
876.1131043692701
 30
0.0
 40
21.0
 41
0.0
 71
     5
 72
     1
  1
\A2;[20"]
  7
Arial
 73
     1
 44
1.0
  0
POINT
  5
416
330
385
100
AcDbEntity
  8
Defpoints
 62
     0
100
AcDbPoint
 10
1728.03743074977
 20
1149.528582984341
 30
0.0
  0
POINT
  5
417
330
385
100
AcDbEntity
  8
Defpoints
 62
     0
100
AcDbPoint
 10
1728.03743074977
 20
641.528582984341
 30
0.0
  0
POINT
  5
418
330
385
100
AcDbEntity
  8
Defpoints
 62
     0
100
AcDbPoint
 10
1850.101857725095
 20
641.5285829843409
 30
0.0
  0
ENDBLK
  5
392
330
385
100
AcDbEntity
  8
0
100
AcDbBlockEnd
  0
BLOCK
  5
39F
330
393
100
AcDbEntity
  8
0
100
AcDbBlockBegin
  2
*D23
 70
     1
 10
0.0
 20
0.0
 30
0.0
  3
*D23
  1

  0
LINE
  5
427
330
393
100
AcDbEntity
  8
1 辅助线
100
AcDbLine
 10
1740.037430749771
 20
1124.128582984339
 30
0.0
 11
1785.629162153259
 21
1124.128582984339
 31
0.0
  0
LINE
  5
428
330
393
100
AcDbEntity
  8
1 辅助线
100
AcDbLine
 10
1740.037430749771
 20
666.9285829843422
 30
0.0
 11
1785.629162153259
 21
666.9285829843422
 31
0.0
  0
LINE
  5
429
330
393
100
AcDbEntity
  8
1 辅助线
370
     0
100
AcDbLine
 10
1773.629162153259
 20
1109.12858298434
 30
0.0
 11
1773.629162153259
 21
931.7363222918768
 31
0.0
  0
LINE
  5
42A
330
393
100
AcDbEntity
  8
1 辅助线
370
     0
100
AcDbLine
 10
1773.629162153259
 20
681.9285829843424
 30
0.0
 11
1773.629162153259
 21
859.3208436768055
 31
0.0
  0
SOLID
  5
42B
330
393
100
AcDbEntity
  8
1 辅助线
100
AcDbTrace
 10
1771.129162153259
 20
1109.12858298434
 30
0.0
 11
1776.129162153259
 21
1109.12858298434
 31
0.0
 12
1773.629162153259
 22
1124.128582984339
 32
0.0
 13
1773.629162153259
 23
1124.128582984339
 33
0.0
  0
SOLID
  5
42C
330
393
100
AcDbEntity
  8
1 辅助线
100
AcDbTrace
 10
1771.129162153259
 20
681.9285829843424
 30
0.0
 11
1776.129162153259
 21
681.9285829843424
 31
0.0
 12
1773.629162153259
 22
666.9285829843422
 32
0.0
 13
1773.629162153259
 23
666.9285829843422
 33
0.0
  0
MTEXT
  5
42D
330
393
100
AcDbEntity
  8
1 辅助线
100
AcDbMText
 10
1773.629162153259
 20
912.3208436768056
 30
0.0
 40
21.0
 41
0.0
 71
     5
 72
     1
  1
\A2;457
  7
Arial
 73
     1
 44
1.0
  0
MTEXT
  5
42E
330
393
100
AcDbEntity
  8
1 辅助线
100
AcDbMText
 10
1773.629162153259
 20
876.1131043692701
 30
0.0
 40
21.0
 41
0.0
 71
     5
 72
     1
  1
\A2;[18"]
  7
Arial
 73
     1
 44
1.0
  0
POINT
  5
42F
330
393
100
AcDbEntity
  8
Defpoints
 62
     0
100
AcDbPoint
 10
1728.03743074977
 20
1124.128582984339
 30
0.0
  0
POINT
  5
430
330
393
100
AcDbEntity
  8
Defpoints
 62
     0
100
AcDbPoint
 10
1728.03743074977
 20
666.9285829843422
 30
0.0
  0
POINT
  5
431
330
393
100
AcDbEntity
  8
Defpoints
 62
     0
100
AcDbPoint
 10
1773.629162153259
 20
666.9285829843422
 30
0.0
  0
ENDBLK
  5
3A0
330
393
100
AcDbEntity
  8
0
100
AcDbBlockEnd
  0
BLOCK
  5
3AD
330
3A1
100
AcDbEntity
  8
0
100
AcDbBlockBegin
  2
*D24
 70
     1
 10
0.0
 20
0.0
 30
0.0
  3
*D24
  1

  0
LINE
  5
432
330
3A1
100
AcDbEntity
  8
1 辅助线
100
AcDbLine
 10
3461.594804953581
 20
1161.528582984341
 30
0.0
 11
3461.594804953581
 21
1278.729065502287
 31
0.0
  0
LINE
  5
433
330
3A1
100
AcDbEntity
  8
1 辅助线
100
AcDbLine
 10
4299.594804953581
 20
1161.528582984341
 30
0.0
 11
4299.594804953581
 21
1278.729065502287
 31
0.0
  0
LINE
  5
434
330
3A1
100
AcDbEntity
  8
1 辅助线
370
     0
100
AcDbLine
 10
3476.594804953581
 20
1266.729065502288
 30
0.0
 11
3848.997045279446
 21
1266.729065502288
 31
0.0
  0
LINE
  5
435
330
3A1
100
AcDbEntity
  8
1 辅助线
370
     0
100
AcDbLine
 10
4284.594804953581
 20
1266.729065502288
 30
0.0
 11
3912.192564627716
 21
1266.729065502288
 31
0.0
  0
SOLID
  5
436
330
3A1
100
AcDbEntity
  8
1 辅助线
100
AcDbTrace
 10
3476.594804953581
 20
1269.229065502287
 30
0.0
 11
3476.594804953581
 21
1264.229065502287
 31
0.0
 12
3461.594804953581
 22
1266.729065502288
 32
0.0
 13
3461.594804953581
 23
1266.729065502288
 33
0.0
  0
SOLID
  5
437
330
3A1
100
AcDbEntity
  8
1 辅助线
100
AcDbTrace
 10
4284.594804953581
 20
1269.229065502287
 30
0.0
 11
4284.594804953581
 21
1264.229065502287
 31
0.0
 12
4299.594804953581
 22
1266.729065502288
 32
0.0
 13
4299.594804953581
 23
1266.729065502288
 33
0.0
  0
MTEXT
  5
438
330
3A1
100
AcDbEntity
  8
1 辅助线
100
AcDbMText
 10
3880.594804953581
 20
1283.521326194752
 30
0.0
 40
21.0
 41
0.0
 71
     5
 72
     1
  1
\A2;838
  7
Arial
 73
     1
 44
1.0
  0
MTEXT
  5
439
330
3A1
100
AcDbEntity
  8
1 辅助线
100
AcDbMText
 10
3880.594804953581
 20
1247.313586887216
 30
0.0
 40
21.0
 41
0.0
 71
     5
 72
     1
  1
\A2;[33"]
  7
Arial
 73
     1
 44
1.0
  0
POINT
  5
43A
330
3A1
100
AcDbEntity
  8
Defpoints
 62
     0
100
AcDbPoint
 10
3461.594804953581
 20
1149.528582984341
 30
0.0
  0
POINT
  5
43B
330
3A1
100
AcDbEntity
  8
Defpoints
 62
     0
100
AcDbPoint
 10
4299.594804953581
 20
1149.528582984341
 30
0.0
  0
POINT
  5
43C
330
3A1
100
AcDbEntity
  8
Defpoints
 62
     0
100
AcDbPoint
 10
4299.594804953581
 20
1266.729065502288
 30
0.0
  0
ENDBLK
  5
3AE
330
3A1
100
AcDbEntity
  8
0
100
AcDbBlockEnd
  0
BLOCK
  5
3BB
330
3AF
100
AcDbEntity
  8
0
100
AcDbBlockBegin
  2
*D25
 70
     1
 10
0.0
 20
0.0
 30
0.0
  3
*D25
  1

  0
LINE
  5
43D
330
3AF
100
AcDbEntity
  8
1 辅助线
100
AcDbLine
 10
4311.594804953581
 20
1149.528582984341
 30
0.0
 11
4433.659231928904
 21
1149.528582984341
 31
0.0
  0
LINE
  5
43E
330
3AF
100
AcDbEntity
  8
1 辅助线
100
AcDbLine
 10
4311.594804953581
 20
641.528582984341
 30
0.0
 11
4433.659231928904
 21
641.5285829843409
 31
0.0
  0
LINE
  5
43F
330
3AF
100
AcDbEntity
  8
1 辅助线
370
     0
100
AcDbLine
 10
4421.659231928905
 20
1134.528582984341
 30
0.0
 11
4421.659231928905
 21
931.7363222918768
 31
0.0
  0
LINE
  5
440
330
3AF
100
AcDbEntity
  8
1 辅助线
370
     0
100
AcDbLine
 10
4421.659231928905
 20
656.5285829843409
 30
0.0
 11
4421.659231928905
 21
859.3208436768051
 31
0.0
  0
SOLID
  5
441
330
3AF
100
AcDbEntity
  8
1 辅助线
100
AcDbTrace
 10
4419.159231928905
 20
1134.528582984341
 30
0.0
 11
4424.159231928904
 21
1134.528582984341
 31
0.0
 12
4421.659231928905
 22
1149.528582984341
 32
0.0
 13
4421.659231928905
 23
1149.528582984341
 33
0.0
  0
SOLID
  5
442
330
3AF
100
AcDbEntity
  8
1 辅助线
100
AcDbTrace
 10
4419.159231928905
 20
656.5285829843409
 30
0.0
 11
4424.159231928904
 21
656.5285829843409
 31
0.0
 12
4421.659231928905
 22
641.5285829843409
 32
0.0
 13
4421.659231928905
 23
641.5285829843409
 33
0.0
  0
MTEXT
  5
443
330
3AF
100
AcDbEntity
  8
1 辅助线
100
AcDbMText
 10
4421.659231928905
 20
912.3208436768059
 30
0.0
 40
21.0
 41
0.0
 71
     5
 72
     1
  1
\A2;508
  7
Arial
 73
     1
 44
1.0
  0
MTEXT
  5
444
330
3AF
100
AcDbEntity
  8
1 辅助线
100
AcDbMText
 10
4421.659231928905
 20
876.1131043692705
 30
0.0
 40
21.0
 41
0.0
 71
     5
 72
     1
  1
\A2;[20"]
  7
Arial
 73
     1
 44
1.0
  0
POINT
  5
445
330
3AF
100
AcDbEntity
  8
Defpoints
 62
     0
100
AcDbPoint
 10
4299.594804953581
 20
1149.528582984341
 30
0.0
  0
POINT
  5
446
330
3AF
100
AcDbEntity
  8
Defpoints
 62
     0
100
AcDbPoint
 10
4299.594804953581
 20
641.528582984341
 30
0.0
  0
POINT
  5
447
330
3AF
100
AcDbEntity
  8
Defpoints
 62
     0
100
AcDbPoint
 10
4421.659231928905
 20
641.5285829843409
 30
0.0
  0
ENDBLK
  5
3BC
330
3AF
100
AcDbEntity
  8
0
100
AcDbBlockEnd
  0
BLOCK
  5
3C9
330
3BD
100
AcDbEntity
  8
0
100
AcDbBlockBegin
  2
*D26
 70
     1
 10
0.0
 20
0.0
 30
0.0
  3
*D26
  1

  0
LINE
  5
456
330
3BD
100
AcDbEntity
  8
1 辅助线
100
AcDbLine
 10
4311.594804953581
 20
1124.128582984339
 30
0.0
 11
4357.186536357068
 21
1124.128582984339
 31
0.0
  0
LINE
  5
457
330
3BD
100
AcDbEntity
  8
1 辅助线
100
AcDbLine
 10
4311.594804953581
 20
666.9285829843422
 30
0.0
 11
4357.186536357068
 21
666.9285829843422
 31
0.0
  0
LINE
  5
458
330
3BD
100
AcDbEntity
  8
1 辅助线
370
     0
100
AcDbLine
 10
4345.186536357068
 20
1109.12858298434
 30
0.0
 11
4345.186536357068
 21
931.7363222918768
 31
0.0
  0
LINE
  5
459
330
3BD
100
AcDbEntity
  8
1 辅助线
370
     0
100
AcDbLine
 10
4345.186536357068
 20
681.9285829843424
 30
0.0
 11
4345.186536357068
 21
859.3208436768051
 31
0.0
  0
SOLID
  5
45A
330
3BD
100
AcDbEntity
  8
1 辅助线
100
AcDbTrace
 10
4342.68653635707
 20
1109.12858298434
 30
0.0
 11
4347.686536357069
 21
1109.12858298434
 31
0.0
 12
4345.186536357068
 22
1124.128582984339
 32
0.0
 13
4345.186536357068
 23
1124.128582984339
 33
0.0
  0
SOLID
  5
45B
330
3BD
100
AcDbEntity
  8
1 辅助线
100
AcDbTrace
 10
4342.68653635707
 20
681.9285829843424
 30
0.0
 11
4347.686536357069
 21
681.9285829843424
 31
0.0
 12
4345.186536357068
 22
666.9285829843422
 32
0.0
 13
4345.186536357068
 23
666.9285829843422
 33
0.0
  0
MTEXT
  5
45C
330
3BD
100
AcDbEntity
  8
1 辅助线
100
AcDbMText
 10
4345.186536357068
 20
912.3208436768059
 30
0.0
 40
21.0
 41
0.0
 71
     5
 72
     1
  1
\A2;457
  7
Arial
 73
     1
 44
1.0
  0
MTEXT
  5
45D
330
3BD
100
AcDbEntity
  8
1 辅助线
100
AcDbMText
 10
4345.186536357068
 20
876.1131043692705
 30
0.0
 40
21.0
 41
0.0
 71
     5
 72
     1
  1
\A2;[18"]
  7
Arial
 73
     1
 44
1.0
  0
POINT
  5
45E
330
3BD
100
AcDbEntity
  8
Defpoints
 62
     0
100
AcDbPoint
 10
4299.594804953581
 20
1124.128582984339
 30
0.0
  0
POINT
  5
45F
330
3BD
100
AcDbEntity
  8
Defpoints
 62
     0
100
AcDbPoint
 10
4299.594804953581
 20
666.9285829843422
 30
0.0
  0
POINT
  5
460
330
3BD
100
AcDbEntity
  8
Defpoints
 62
     0
100
AcDbPoint
 10
4345.186536357068
 20
666.9285829843422
 30
0.0
  0
ENDBLK
  5
3CA
330
3BD
100
AcDbEntity
  8
0
100
AcDbBlockEnd
  0
BLOCK
  5
3D7
330
3CB
100
AcDbEntity
  8
0
100
AcDbBlockBegin
  2
*D27
 70
     1
 10
0.0
 20
0.0
 30
0.0
  3
*D27
  1

  0
LINE
  5
461
330
3CB
100
AcDbEntity
  8
1 辅助线
100
AcDbLine
 10
5952.978027375446
 20
1161.528582984341
 30
0.0
 11
5952.978027375446
 21
1278.729065502287
 31
0.0
  0
LINE
  5
462
330
3CB
100
AcDbEntity
  8
1 辅助线
100
AcDbLine
 10
6790.978027375444
 20
1161.528582984341
 30
0.0
 11
6790.978027375444
 21
1278.729065502287
 31
0.0
  0
LINE
  5
463
330
3CB
100
AcDbEntity
  8
1 辅助线
370
     0
100
AcDbLine
 10
5967.978027375446
 20
1266.729065502288
 30
0.0
 11
6340.380267701311
 21
1266.729065502288
 31
0.0
  0
LINE
  5
464
330
3CB
100
AcDbEntity
  8
1 辅助线
370
     0
100
AcDbLine
 10
6775.978027375444
 20
1266.729065502288
 30
0.0
 11
6403.575787049579
 21
1266.729065502288
 31
0.0
  0
SOLID
  5
465
330
3CB
100
AcDbEntity
  8
1 辅助线
100
AcDbTrace
 10
5967.978027375446
 20
1269.229065502287
 30
0.0
 11
5967.978027375446
 21
1264.229065502287
 31
0.0
 12
5952.978027375446
 22
1266.729065502288
 32
0.0
 13
5952.978027375446
 23
1266.729065502288
 33
0.0
  0
SOLID
  5
466
330
3CB
100
AcDbEntity
  8
1 辅助线
100
AcDbTrace
 10
6775.978027375444
 20
1269.229065502287
 30
0.0
 11
6775.978027375444
 21
1264.229065502287
 31
0.0
 12
6790.978027375444
 22
1266.729065502288
 32
0.0
 13
6790.978027375444
 23
1266.729065502288
 33
0.0
  0
MTEXT
  5
467
330
3CB
100
AcDbEntity
  8
1 辅助线
100
AcDbMText
 10
6371.978027375446
 20
1283.521326194752
 30
0.0
 40
21.0
 41
0.0
 71
     5
 72
     1
  1
\A2;838
  7
Arial
 73
     1
 44
1.0
  0
MTEXT
  5
468
330
3CB
100
AcDbEntity
  8
1 辅助线
100
AcDbMText
 10
6371.978027375446
 20
1247.313586887216
 30
0.0
 40
21.0
 41
0.0
 71
     5
 72
     1
  1
\A2;[33"]
  7
Arial
 73
     1
 44
1.0
  0
POINT
  5
469
330
3CB
100
AcDbEntity
  8
Defpoints
 62
     0
100
AcDbPoint
 10
5952.978027375446
 20
1149.528582984341
 30
0.0
  0
POINT
  5
46A
330
3CB
100
AcDbEntity
  8
Defpoints
 62
     0
100
AcDbPoint
 10
6790.978027375444
 20
1149.528582984341
 30
0.0
  0
POINT
  5
46B
330
3CB
100
AcDbEntity
  8
Defpoints
 62
     0
100
AcDbPoint
 10
6790.978027375444
 20
1266.729065502288
 30
0.0
  0
ENDBLK
  5
3D8
330
3CB
100
AcDbEntity
  8
0
100
AcDbBlockEnd
  0
BLOCK
  5
3E5
330
3D9
100
AcDbEntity
  8
0
100
AcDbBlockBegin
  2
*D28
 70
     1
 10
0.0
 20
0.0
 30
0.0
  3
*D28
  1

  0
LINE
  5
46C
330
3D9
100
AcDbEntity
  8
1 辅助线
100
AcDbLine
 10
6802.978027375445
 20
1149.528582984341
 30
0.0
 11
6925.04245435077
 21
1149.528582984341
 31
0.0
  0
LINE
  5
46D
330
3D9
100
AcDbEntity
  8
1 辅助线
100
AcDbLine
 10
6802.978027375445
 20
641.528582984341
 30
0.0
 11
6925.04245435077
 21
641.5285829843409
 31
0.0
  0
LINE
  5
46E
330
3D9
100
AcDbEntity
  8
1 辅助线
370
     0
100
AcDbLine
 10
6913.042454350772
 20
1134.528582984341
 30
0.0
 11
6913.042454350772
 21
931.7363222918768
 31
0.0
  0
LINE
  5
46F
330
3D9
100
AcDbEntity
  8
1 辅助线
370
     0
100
AcDbLine
 10
6913.042454350772
 20
656.5285829843409
 30
0.0
 11
6913.042454350772
 21
859.3208436768051
 31
0.0
  0
SOLID
  5
470
330
3D9
100
AcDbEntity
  8
1 辅助线
100
AcDbTrace
 10
6910.542454350769
 20
1134.528582984341
 30
0.0
 11
6915.542454350769
 21
1134.528582984341
 31
0.0
 12
6913.042454350772
 22
1149.528582984341
 32
0.0
 13
6913.042454350772
 23
1149.528582984341
 33
0.0
  0
SOLID
  5
471
330
3D9
100
AcDbEntity
  8
1 辅助线
100
AcDbTrace
 10
6910.542454350769
 20
656.528582984341
 30
0.0
 11
6915.542454350769
 21
656.5285829843409
 31
0.0
 12
6913.042454350772
 22
641.5285829843409
 32
0.0
 13
6913.042454350772
 23
641.5285829843409
 33
0.0
  0
MTEXT
  5
472
330
3D9
100
AcDbEntity
  8
1 辅助线
100
AcDbMText
 10
6913.042454350772
 20
912.3208436768063
 30
0.0
 40
21.0
 41
0.0
 71
     5
 72
     1
  1
\A2;508
  7
Arial
 73
     1
 44
1.0
  0
MTEXT
  5
473
330
3D9
100
AcDbEntity
  8
1 辅助线
100
AcDbMText
 10
6913.042454350772
 20
876.1131043692708
 30
0.0
 40
21.0
 41
0.0
 71
     5
 72
     1
  1
\A2;[20"]
  7
Arial
 73
     1
 44
1.0
  0
POINT
  5
474
330
3D9
100
AcDbEntity
  8
Defpoints
 62
     0
100
AcDbPoint
 10
6790.978027375444
 20
1149.528582984341
 30
0.0
  0
POINT
  5
475
330
3D9
100
AcDbEntity
  8
Defpoints
 62
     0
100
AcDbPoint
 10
6790.978027375444
 20
641.528582984341
 30
0.0
  0
POINT
  5
476
330
3D9
100
AcDbEntity
  8
Defpoints
 62
     0
100
AcDbPoint
 10
6913.042454350772
 20
641.5285829843409
 30
0.0
  0
ENDBLK
  5
3E6
330
3D9
100
AcDbEntity
  8
0
100
AcDbBlockEnd
  0
BLOCK
  5
3F3
330
3E7
100
AcDbEntity
  8
0
100
AcDbBlockBegin
  2
*D29
 70
     1
 10
0.0
 20
0.0
 30
0.0
  3
*D29
  1

  0
LINE
  5
477
330
3E7
100
AcDbEntity
  8
1 辅助线
100
AcDbLine
 10
6802.978027375445
 20
1124.128582984339
 30
0.0
 11
6848.569758778933
 21
1124.128582984339
 31
0.0
  0
LINE
  5
478
330
3E7
100
AcDbEntity
  8
1 辅助线
100
AcDbLine
 10
6802.978027375445
 20
666.9285829843422
 30
0.0
 11
6848.569758778933
 21
666.9285829843422
 31
0.0
  0
LINE
  5
479
330
3E7
100
AcDbEntity
  8
1 辅助线
370
     0
100
AcDbLine
 10
6836.569758778934
 20
1109.12858298434
 30
0.0
 11
6836.569758778934
 21
931.7363222918768
 31
0.0
  0
LINE
  5
47A
330
3E7
100
AcDbEntity
  8
1 辅助线
370
     0
100
AcDbLine
 10
6836.569758778934
 20
681.9285829843424
 30
0.0
 11
6836.569758778934
 21
859.3208436768055
 31
0.0
  0
SOLID
  5
47B
330
3E7
100
AcDbEntity
  8
1 辅助线
100
AcDbTrace
 10
6834.069758778935
 20
1109.12858298434
 30
0.0
 11
6839.069758778933
 21
1109.12858298434
 31
0.0
 12
6836.569758778934
 22
1124.128582984339
 32
0.0
 13
6836.569758778934
 23
1124.128582984339
 33
0.0
  0
SOLID
  5
47C
330
3E7
100
AcDbEntity
  8
1 辅助线
100
AcDbTrace
 10
6834.069758778935
 20
681.9285829843424
 30
0.0
 11
6839.069758778933
 21
681.9285829843424
 31
0.0
 12
6836.569758778934
 22
666.9285829843422
 32
0.0
 13
6836.569758778934
 23
666.9285829843422
 33
0.0
  0
MTEXT
  5
47D
330
3E7
100
AcDbEntity
  8
1 辅助线
100
AcDbMText
 10
6836.569758778934
 20
912.3208436768063
 30
0.0
 40
21.0
 41
0.0
 71
     5
 72
     1
  1
\A2;457
  7
Arial
 73
     1
 44
1.0
  0
MTEXT
  5
47E
330
3E7
100
AcDbEntity
  8
1 辅助线
100
AcDbMText
 10
6836.569758778934
 20
876.1131043692708
 30
0.0
 40
21.0
 41
0.0
 71
     5
 72
     1
  1
\A2;[18"]
  7
Arial
 73
     1
 44
1.0
  0
POINT
  5
47F
330
3E7
100
AcDbEntity
  8
Defpoints
 62
     0
100
AcDbPoint
 10
6790.978027375444
 20
1124.128582984339
 30
0.0
  0
POINT
  5
480
330
3E7
100
AcDbEntity
  8
Defpoints
 62
     0
100
AcDbPoint
 10
6790.978027375444
 20
666.9285829843422
 30
0.0
  0
POINT
  5
481
330
3E7
100
AcDbEntity
  8
Defpoints
 62
     0
100
AcDbPoint
 10
6836.569758778934
 20
666.9285829843422
 30
0.0
  0
ENDBLK
  5
3F4
330
3E7
100
AcDbEntity
  8
0
100
AcDbBlockEnd
  0
BLOCK
  5
401
330
3F5
100
AcDbEntity
  8
0
100
AcDbBlockBegin
  2
*D30
 70
     1
 10
0.0
 20
0.0
 30
0.0
  3
*D30
  1

  0
LINE
  5
482
330
3F5
100
AcDbEntity
  8
1 辅助线
100
AcDbLine
 10
5978.378027375446
 20
1161.528582984341
 30
0.0
 11
5978.378027375446
 21
1211.084699254475
 31
0.0
  0
LINE
  5
483
330
3F5
100
AcDbEntity
  8
1 辅助线
100
AcDbLine
 10
6765.578027375443
 20
1161.528582984341
 30
0.0
 11
6765.578027375443
 21
1211.084699254475
 31
0.0
  0
LINE
  5
484
330
3F5
100
AcDbEntity
  8
1 辅助线
370
     0
100
AcDbLine
 10
5993.378027375445
 20
1199.084699254475
 30
0.0
 11
6340.380267701311
 21
1199.084699254475
 31
0.0
  0
LINE
  5
485
330
3F5
100
AcDbEntity
  8
1 辅助线
370
     0
100
AcDbLine
 10
6750.578027375444
 20
1199.084699254475
 30
0.0
 11
6403.575787049579
 21
1199.084699254475
 31
0.0
  0
SOLID
  5
486
330
3F5
100
AcDbEntity
  8
1 辅助线
100
AcDbTrace
 10
5993.378027375445
 20
1201.584699254475
 30
0.0
 11
5993.378027375445
 21
1196.584699254475
 31
0.0
 12
5978.378027375446
 22
1199.084699254475
 32
0.0
 13
5978.378027375446
 23
1199.084699254475
 33
0.0
  0
SOLID
  5
487
330
3F5
100
AcDbEntity
  8
1 辅助线
100
AcDbTrace
 10
6750.578027375444
 20
1201.584699254475
 30
0.0
 11
6750.578027375444
 21
1196.584699254475
 31
0.0
 12
6765.578027375443
 22
1199.084699254475
 32
0.0
 13
6765.578027375443
 23
1199.084699254475
 33
0.0
  0
MTEXT
  5
488
330
3F5
100
AcDbEntity
  8
1 辅助线
100
AcDbMText
 10
6371.978027375446
 20
1215.876959946939
 30
0.0
 40
21.0
 41
0.0
 71
     5
 72
     1
  1
\A2;787
  7
Arial
 73
     1
 44
1.0
  0
MTEXT
  5
489
330
3F5
100
AcDbEntity
  8
1 辅助线
100
AcDbMText
 10
6371.978027375446
 20
1179.669220639404
 30
0.0
 40
21.0
 41
0.0
 71
     5
 72
     1
  1
\A2;[31"]
  7
Arial
 73
     1
 44
1.0
  0
POINT
  5
48A
330
3F5
100
AcDbEntity
  8
Defpoints
 62
     0
100
AcDbPoint
 10
5978.378027375446
 20
1149.528582984341
 30
0.0
  0
POINT
  5
48B
330
3F5
100
AcDbEntity
  8
Defpoints
 62
     0
100
AcDbPoint
 10
6765.578027375443
 20
1149.528582984341
 30
0.0
  0
POINT
  5
48C
330
3F5
100
AcDbEntity
  8
Defpoints
 62
     0
100
AcDbPoint
 10
6765.578027375443
 20
1199.084699254475
 30
0.0
  0
ENDBLK
  5
402
330
3F5
100
AcDbEntity
  8
0
100
AcDbBlockEnd
  0
BLOCK
  5
425
330
419
100
AcDbEntity
  8
0
100
AcDbBlockBegin
  2
*D31
 70
     1
 10
0.0
 20
0.0
 30
0.0
  3
*D31
  1

  0
LINE
  5
4FA
330
419
100
AcDbEntity
  8
1 辅助线
100
AcDbLine
 10
1359.03743074977
 20
1106.628582984336
 30
0.0
 11
1537.484322454345
 21
1106.628582984336
 31
0.0
  0
LINE
  5
4FB
330
419
100
AcDbEntity
  8
1 辅助线
100
AcDbLine
 10
1359.03743074977
 20
684.4285829843387
 30
0.0
 11
1537.484322454345
 21
684.4285829843387
 31
0.0
  0
LINE
  5
4FC
330
419
100
AcDbEntity
  8
1 辅助线
370
     0
100
AcDbLine
 10
1525.484322454345
 20
1091.628582984336
 30
0.0
 11
1525.484322454345
 21
931.714937363156
 31
0.0
  0
LINE
  5
4FD
330
419
100
AcDbEntity
  8
1 辅助线
370
     0
100
AcDbLine
 10
1525.484322454345
 20
699.4285829843387
 30
0.0
 11
1525.484322454345
 21
859.3422286055185
 31
0.0
  0
SOLID
  5
4FE
330
419
100
AcDbEntity
  8
1 辅助线
100
AcDbTrace
 10
1522.984322454345
 20
1091.628582984336
 30
0.0
 11
1527.984322454345
 21
1091.628582984336
 31
0.0
 12
1525.484322454345
 22
1106.628582984336
 32
0.0
 13
1525.484322454345
 23
1106.628582984336
 33
0.0
  0
SOLID
  5
4FF
330
419
100
AcDbEntity
  8
1 辅助线
100
AcDbTrace
 10
1522.984322454345
 20
699.4285829843387
 30
0.0
 11
1527.984322454345
 21
699.4285829843387
 31
0.0
 12
1525.484322454345
 22
684.4285829843387
 32
0.0
 13
1525.484322454345
 23
684.4285829843387
 33
0.0
  0
MTEXT
  5
500
330
419
100
AcDbEntity
  8
1 辅助线
100
AcDbMText
 10
1525.484322454343
 20
912.0285829843377
 30
0.0
 40
21.0
 41
0.0
 71
     5
 72
     1
  1
\A2;422
  7
Arial
 73
     1
 44
1.0
  0
MTEXT
  5
501
330
419
100
AcDbEntity
  8
1 辅助线
100
AcDbMText
 10
1525.484322454343
 20
875.8422286055187
 30
0.0
 40
21.0
 41
0.0
 71
     5
 72
     1
  1
\A2;[16 5/8"]
  7
Arial
 73
     1
 44
1.0
  0
POINT
  5
502
330
419
100
AcDbEntity
  8
Defpoints
 62
     0
100
AcDbPoint
 10
1347.03743074977
 20
1106.628582984336
 30
0.0
  0
POINT
  5
503
330
419
100
AcDbEntity
  8
Defpoints
 62
     0
100
AcDbPoint
 10
1347.03743074977
 20
684.4285829843387
 30
0.0
  0
POINT
  5
504
330
419
100
AcDbEntity
  8
Defpoints
 62
     0
100
AcDbPoint
 10
1525.484322454345
 20
684.4285829843387
 30
0.0
  0
ENDBLK
  5
426
330
419
100
AcDbEntity
  8
0
100
AcDbBlockEnd
  0
BLOCK
  5
454
330
448
100
AcDbEntity
  8
0
100
AcDbBlockBegin
  2
*D32
 70
     1
 10
0.0
 20
0.0
 30
0.0
  3
*D32
  1

  0
LINE
  5
51B
330
448
100
AcDbEntity
  8
1 辅助线
100
AcDbLine
 10
3892.594804953581
 20
1106.628582984336
 30
0.0
 11
4071.041696658155
 21
1106.628582984336
 31
0.0
  0
LINE
  5
51C
330
448
100
AcDbEntity
  8
1 辅助线
100
AcDbLine
 10
3892.594804953581
 20
684.4285829843387
 30
0.0
 11
4071.041696658155
 21
684.4285829843387
 31
0.0
  0
LINE
  5
51D
330
448
100
AcDbEntity
  8
1 辅助线
370
     0
100
AcDbLine
 10
4059.041696658154
 20
1091.628582984336
 30
0.0
 11
4059.041696658154
 21
931.714937363156
 31
0.0
  0
LINE
  5
51E
330
448
100
AcDbEntity
  8
1 辅助线
370
     0
100
AcDbLine
 10
4059.041696658154
 20
699.4285829843387
 30
0.0
 11
4059.041696658154
 21
859.3422286055186
 31
0.0
  0
SOLID
  5
51F
330
448
100
AcDbEntity
  8
1 辅助线
100
AcDbTrace
 10
4056.541696658156
 20
1091.628582984336
 30
0.0
 11
4061.541696658156
 21
1091.628582984336
 31
0.0
 12
4059.041696658154
 22
1106.628582984336
 32
0.0
 13
4059.041696658154
 23
1106.628582984336
 33
0.0
  0
SOLID
  5
520
330
448
100
AcDbEntity
  8
1 辅助线
100
AcDbTrace
 10
4056.541696658154
 20
699.4285829843387
 30
0.0
 11
4061.541696658156
 21
699.4285829843387
 31
0.0
 12
4059.041696658154
 22
684.4285829843387
 32
0.0
 13
4059.041696658154
 23
684.4285829843387
 33
0.0
  0
MTEXT
  5
521
330
448
100
AcDbEntity
  8
1 辅助线
100
AcDbMText
 10
4059.041696658154
 20
912.028582984338
 30
0.0
 40
21.0
 41
0.0
 71
     5
 72
     1
  1
\A2;422
  7
Arial
 73
     1
 44
1.0
  0
MTEXT
  5
522
330
448
100
AcDbEntity
  8
1 辅助线
100
AcDbMText
 10
4059.041696658154
 20
875.8422286055193
 30
0.0
 40
21.0
 41
0.0
 71
     5
 72
     1
  1
\A2;[16 5/8"]
  7
Arial
 73
     1
 44
1.0
  0
POINT
  5
523
330
448
100
AcDbEntity
  8
Defpoints
 62
     0
100
AcDbPoint
 10
3880.594804953581
 20
1106.628582984336
 30
0.0
  0
POINT
  5
524
330
448
100
AcDbEntity
  8
Defpoints
 62
     0
100
AcDbPoint
 10
3880.594804953581
 20
684.4285829843387
 30
0.0
  0
POINT
  5
525
330
448
100
AcDbEntity
  8
Defpoints
 62
     0
100
AcDbPoint
 10
4059.041696658154
 20
684.4285829843387
 30
0.0
  0
ENDBLK
  5
455
330
448
100
AcDbEntity
  8
0
100
AcDbBlockEnd
  0
BLOCK
  5
499
330
48D
100
AcDbEntity
  8
0
100
AcDbBlockBegin
  2
*D33
 70
     1
 10
0.0
 20
0.0
 30
0.0
  3
*D33
  1

  0
LINE
  5
48E
330
48D
100
AcDbEntity
  8
1 辅助线
100
AcDbLine
 10
6738.578027375443
 20
1106.628582984339
 30
0.0
 11
6676.16356064941
 21
1106.628582984339
 31
0.0
  0
LINE
  5
48F
330
48D
100
AcDbEntity
  8
1 辅助线
100
AcDbLine
 10
6738.578027375443
 20
684.4285829843425
 30
0.0
 11
6676.16356064941
 21
684.4285829843425
 31
0.0
  0
LINE
  5
490
330
48D
100
AcDbEntity
  8
1 辅助线
370
     0
100
AcDbLine
 10
6688.16356064941
 20
1091.628582984339
 30
0.0
 11
6688.16356064941
 21
931.7149373631599
 31
0.0
  0
LINE
  5
491
330
48D
100
AcDbEntity
  8
1 辅助线
370
     0
100
AcDbLine
 10
6688.16356064941
 20
699.4285829843421
 30
0.0
 11
6688.16356064941
 21
859.3422286055224
 31
0.0
  0
SOLID
  5
492
330
48D
100
AcDbEntity
  8
1 辅助线
100
AcDbTrace
 10
6685.663560649411
 20
1091.628582984339
 30
0.0
 11
6690.663560649411
 21
1091.628582984339
 31
0.0
 12
6688.16356064941
 22
1106.628582984339
 32
0.0
 13
6688.16356064941
 23
1106.628582984339
 33
0.0
  0
SOLID
  5
493
330
48D
100
AcDbEntity
  8
1 辅助线
100
AcDbTrace
 10
6685.663560649411
 20
699.4285829843421
 30
0.0
 11
6690.663560649411
 21
699.4285829843421
 31
0.0
 12
6688.16356064941
 22
684.4285829843425
 32
0.0
 13
6688.16356064941
 23
684.4285829843425
 33
0.0
  0
MTEXT
  5
494
330
48D
100
AcDbEntity
  8
1 辅助线
100
AcDbMText
 10
6688.16356064941
 20
912.0285829843421
 30
0.0
 40
21.0
 41
0.0
 71
     5
 72
     1
  1
\A2;422
  7
Arial
 73
     1
 44
1.0
  0
MTEXT
  5
495
330
48D
100
AcDbEntity
  8
1 辅助线
100
AcDbMText
 10
6688.16356064941
 20
875.8422286055234
 30
0.0
 40
21.0
 41
0.0
 71
     5
 72
     1
  1
\A2;[16 5/8"]
  7
Arial
 73
     1
 44
1.0
  0
POINT
  5
496
330
48D
100
AcDbEntity
  8
Defpoints
 62
     0
100
AcDbPoint
 10
6750.578027375444
 20
1106.628582984339
 30
0.0
  0
POINT
  5
497
330
48D
100
AcDbEntity
  8
Defpoints
 62
     0
100
AcDbPoint
 10
6750.578027375444
 20
684.4285829843425
 30
0.0
  0
POINT
  5
498
330
48D
100
AcDbEntity
  8
Defpoints
 62
     0
100
AcDbPoint
 10
6688.16356064941
 20
684.4285829843425
 30
0.0
  0
ENDBLK
  5
49A
330
48D
100
AcDbEntity
  8
0
100
AcDbBlockEnd
  0
BLOCK
  5
4A7
330
49B
100
AcDbEntity
  8
0
100
AcDbBlockBegin
  2
*D34
 70
     1
 10
0.0
 20
0.0
 30
0.0
  3
*D34
  1

  0
LINE
  5
49C
330
49B
100
AcDbEntity
  8
1 辅助线
100
AcDbLine
 10
6765.578027375443
 20
711.4285829843421
 30
0.0
 11
6765.578027375443
 21
778.9242442937022
 31
0.0
  0
LINE
  5
49D
330
49B
100
AcDbEntity
  8
1 辅助线
100
AcDbLine
 10
6384.678027375442
 20
711.4285829843421
 30
0.0
 11
6384.678027375442
 21
778.9242442937022
 31
0.0
  0
LINE
  5
49E
330
49B
100
AcDbEntity
  8
1 辅助线
370
     0
100
AcDbLine
 10
6750.578027375444
 20
766.9242442937027
 30
0.0
 11
6606.725787049576
 21
766.9242442937027
 31
0.0
  0
LINE
  5
49F
330
49B
100
AcDbEntity
  8
1 辅助线
370
     0
100
AcDbLine
 10
6399.678027375443
 20
766.9242442937027
 30
0.0
 11
6543.530267701308
 21
766.9242442937027
 31
0.0
  0
SOLID
  5
4A0
330
49B
100
AcDbEntity
  8
1 辅助线
100
AcDbTrace
 10
6750.578027375444
 20
769.4242442937023
 30
0.0
 11
6750.578027375444
 21
764.4242442937025
 31
0.0
 12
6765.578027375443
 22
766.9242442937027
 32
0.0
 13
6765.578027375443
 23
766.9242442937027
 33
0.0
  0
SOLID
  5
4A1
330
49B
100
AcDbEntity
  8
1 辅助线
100
AcDbTrace
 10
6399.678027375443
 20
769.4242442937023
 30
0.0
 11
6399.678027375443
 21
764.4242442937025
 31
0.0
 12
6384.678027375442
 22
766.9242442937027
 32
0.0
 13
6384.678027375442
 23
766.9242442937027
 33
0.0
  0
MTEXT
  5
4A2
330
49B
100
AcDbEntity
  8
1 辅助线
100
AcDbMText
 10
6575.128027375443
 20
783.7165049861667
 30
0.0
 40
21.0
 41
0.0
 71
     5
 72
     1
  1
\A2;381
  7
Arial
 73
     1
 44
1.0
  0
MTEXT
  5
4A3
330
49B
100
AcDbEntity
  8
1 辅助线
100
AcDbMText
 10
6575.128027375443
 20
747.5087656786313
 30
0.0
 40
21.0
 41
0.0
 71
     5
 72
     1
  1
\A2;[15"]
  7
Arial
 73
     1
 44
1.0
  0
POINT
  5
4A4
330
49B
100
AcDbEntity
  8
Defpoints
 62
     0
100
AcDbPoint
 10
6765.578027375443
 20
699.4285829843421
 30
0.0
  0
POINT
  5
4A5
330
49B
100
AcDbEntity
  8
Defpoints
 62
     0
100
AcDbPoint
 10
6384.678027375442
 20
699.4285829843421
 30
0.0
  0
POINT
  5
4A6
330
49B
100
AcDbEntity
  8
Defpoints
 62
     0
100
AcDbPoint
 10
6384.678027375442
 20
766.9242442937027
 30
0.0
  0
ENDBLK
  5
4A8
330
49B
100
AcDbEntity
  8
0
100
AcDbBlockEnd
  0
BLOCK
  5
4B5
330
4A9
100
AcDbEntity
  8
0
100
AcDbBlockBegin
  2
*D35
 70
     1
 10
0.0
 20
0.0
 30
0.0
  3
*D35
  1

  0
LINE
  5
4AA
330
4A9
100
AcDbEntity
  8
1 辅助线
100
AcDbLine
 10
6359.278027375448
 20
711.4285829843498
 30
0.0
 11
6359.278027375448
 21
778.9242442937022
 31
0.0
  0
LINE
  5
4AB
330
4A9
100
AcDbEntity
  8
1 辅助线
100
AcDbLine
 10
5978.378027375446
 20
711.4285829843498
 30
0.0
 11
5978.378027375446
 21
778.9242442937022
 31
0.0
  0
LINE
  5
4AC
330
4A9
100
AcDbEntity
  8
1 辅助线
370
     0
100
AcDbLine
 10
6344.278027375448
 20
766.9242442937027
 30
0.0
 11
6200.425787049582
 21
766.9242442937027
 31
0.0
  0
LINE
  5
4AD
330
4A9
100
AcDbEntity
  8
1 辅助线
370
     0
100
AcDbLine
 10
5993.378027375445
 20
766.9242442937027
 30
0.0
 11
6137.230267701313
 21
766.9242442937027
 31
0.0
  0
SOLID
  5
4AE
330
4A9
100
AcDbEntity
  8
1 辅助线
100
AcDbTrace
 10
6344.278027375448
 20
769.4242442937023
 30
0.0
 11
6344.278027375448
 21
764.4242442937025
 31
0.0
 12
6359.278027375448
 22
766.9242442937027
 32
0.0
 13
6359.278027375448
 23
766.9242442937027
 33
0.0
  0
SOLID
  5
4AF
330
4A9
100
AcDbEntity
  8
1 辅助线
100
AcDbTrace
 10
5993.378027375445
 20
769.4242442937023
 30
0.0
 11
5993.378027375445
 21
764.4242442937025
 31
0.0
 12
5978.378027375446
 22
766.9242442937027
 32
0.0
 13
5978.378027375446
 23
766.9242442937027
 33
0.0
  0
MTEXT
  5
4B0
330
4A9
100
AcDbEntity
  8
1 辅助线
100
AcDbMText
 10
6168.828027375447
 20
783.7165049861667
 30
0.0
 40
21.0
 41
0.0
 71
     5
 72
     1
  1
\A2;381
  7
Arial
 73
     1
 44
1.0
  0
MTEXT
  5
4B1
330
4A9
100
AcDbEntity
  8
1 辅助线
100
AcDbMText
 10
6168.828027375447
 20
747.5087656786313
 30
0.0
 40
21.0
 41
0.0
 71
     5
 72
     1
  1
\A2;[15"]
  7
Arial
 73
     1
 44
1.0
  0
POINT
  5
4B2
330
4A9
100
AcDbEntity
  8
Defpoints
 62
     0
100
AcDbPoint
 10
6359.278027375448
 20
699.4285829843498
 30
0.0
  0
POINT
  5
4B3
330
4A9
100
AcDbEntity
  8
Defpoints
 62
     0
100
AcDbPoint
 10
5978.378027375446
 20
699.4285829843498
 30
0.0
  0
POINT
  5
4B4
330
4A9
100
AcDbEntity
  8
Defpoints
 62
     0
100
AcDbPoint
 10
5978.378027375446
 20
766.9242442937027
 30
0.0
  0
ENDBLK
  5
4B6
330
4A9
100
AcDbEntity
  8
0
100
AcDbBlockEnd
  0
BLOCK
  5
4C3
330
4B7
100
AcDbEntity
  8
0
100
AcDbBlockBegin
  2
*D36
 70
     1
 10
0.0
 20
0.0
 30
0.0
  3
*D36
  1

  0
LINE
  5
4B8
330
4B7
100
AcDbEntity
  8
1 辅助线
100
AcDbLine
 10
6332.278027375448
 20
1106.628582984332
 30
0.0
 11
6281.962063833635
 21
1106.628582984332
 31
0.0
  0
LINE
  5
4B9
330
4B7
100
AcDbEntity
  8
1 辅助线
100
AcDbLine
 10
6332.278027375448
 20
684.4285829843425
 30
0.0
 11
6281.962063833635
 21
684.4285829843425
 31
0.0
  0
LINE
  5
4BA
330
4B7
100
AcDbEntity
  8
1 辅助线
370
     0
100
AcDbLine
 10
6293.962063833635
 20
1091.628582984332
 30
0.0
 11
6293.962063833635
 21
931.714937363156
 31
0.0
  0
LINE
  5
4BB
330
4B7
100
AcDbEntity
  8
1 辅助线
370
     0
100
AcDbLine
 10
6293.962063833635
 20
699.4285829843421
 30
0.0
 11
6293.962063833635
 21
859.3422286055186
 31
0.0
  0
SOLID
  5
4BC
330
4B7
100
AcDbEntity
  8
1 辅助线
100
AcDbTrace
 10
6291.462063833637
 20
1091.628582984332
 30
0.0
 11
6296.462063833637
 21
1091.628582984332
 31
0.0
 12
6293.962063833635
 22
1106.628582984332
 32
0.0
 13
6293.962063833635
 23
1106.628582984332
 33
0.0
  0
SOLID
  5
4BD
330
4B7
100
AcDbEntity
  8
1 辅助线
100
AcDbTrace
 10
6291.462063833637
 20
699.4285829843421
 30
0.0
 11
6296.462063833637
 21
699.4285829843421
 31
0.0
 12
6293.962063833635
 22
684.4285829843425
 32
0.0
 13
6293.962063833635
 23
684.4285829843425
 33
0.0
  0
MTEXT
  5
4BE
330
4B7
100
AcDbEntity
  8
1 辅助线
100
AcDbMText
 10
6293.962063833635
 20
912.0285829843384
 30
0.0
 40
21.0
 41
0.0
 71
     5
 72
     1
  1
\A2;422
  7
Arial
 73
     1
 44
1.0
  0
MTEXT
  5
4BF
330
4B7
100
AcDbEntity
  8
1 辅助线
100
AcDbMText
 10
6293.962063833635
 20
875.8422286055196
 30
0.0
 40
21.0
 41
0.0
 71
     5
 72
     1
  1
\A2;[16 5/8"]
  7
Arial
 73
     1
 44
1.0
  0
POINT
  5
4C0
330
4B7
100
AcDbEntity
  8
Defpoints
 62
     0
100
AcDbPoint
 10
6344.278027375448
 20
1106.628582984332
 30
0.0
  0
POINT
  5
4C1
330
4B7
100
AcDbEntity
  8
Defpoints
 62
     0
100
AcDbPoint
 10
6344.278027375448
 20
684.4285829843425
 30
0.0
  0
POINT
  5
4C2
330
4B7
100
AcDbEntity
  8
Defpoints
 62
     0
100
AcDbPoint
 10
6293.962063833635
 20
684.4285829843425
 30
0.0
  0
ENDBLK
  5
4C4
330
4B7
100
AcDbEntity
  8
0
100
AcDbBlockEnd
  0
BLOCK
  5
4D1
330
4C5
100
AcDbEntity
  8
0
100
AcDbBlockBegin
  2
*D37
 70
     1
 10
0.0
 20
0.0
 30
0.0
  3
*D37
  1

  0
LINE
  5
4EF
330
4C5
100
AcDbEntity
  8
1 辅助线
100
AcDbLine
 10
-50034.60583735061
 20
1161.528582984341
 30
0.0
 11
-50034.60583735061
 21
1207.184319877302
 31
0.0
  0
LINE
  5
4F0
330
4C5
100
AcDbEntity
  8
1 辅助线
100
AcDbLine
 10
1702.637430749769
 20
1161.528582984341
 30
0.0
 11
1702.637430749769
 21
1207.184319877302
 31
0.0
  0
LINE
  5
4F1
330
4C5
100
AcDbEntity
  8
1 辅助线
370
     0
100
AcDbLine
 10
-50019.60583735061
 20
1195.184319877302
 30
0.0
 11
-24236.80905055093
 21
1195.184319877302
 31
0.0
  0
LINE
  5
4F2
330
4C5
100
AcDbEntity
  8
1 辅助线
370
     0
100
AcDbLine
 10
1687.637430749769
 20
1195.184319877302
 30
0.0
 11
-24095.15935604992
 21
1195.184319877302
 31
0.0
  0
SOLID
  5
4F3
330
4C5
100
AcDbEntity
  8
1 辅助线
100
AcDbTrace
 10
-50019.60583735061
 20
1197.684319877302
 30
0.0
 11
-50019.60583735061
 21
1192.684319877302
 31
0.0
 12
-50034.60583735061
 22
1195.184319877302
 32
0.0
 13
-50034.60583735061
 23
1195.184319877302
 33
0.0
  0
SOLID
  5
4F4
330
4C5
100
AcDbEntity
  8
1 辅助线
100
AcDbTrace
 10
1687.637430749769
 20
1197.684319877302
 30
0.0
 11
1687.637430749769
 21
1192.684319877302
 31
0.0
 12
1702.637430749769
 22
1195.184319877302
 32
0.0
 13
1702.637430749769
 23
1195.184319877302
 33
0.0
  0
MTEXT
  5
4F5
330
4C5
100
AcDbEntity
  8
1 辅助线
100
AcDbMText
 10
-24165.98420330042
 20
1211.976580569766
 30
0.0
 40
21.0
 41
0.0
 71
     5
 72
     1
  1
\A2;51737
  7
Arial
 73
     1
 44
1.0
  0
MTEXT
  5
4F6
330
4C5
100
AcDbEntity
  8
1 辅助线
100
AcDbMText
 10
-24165.98420330042
 20
1175.497965498483
 30
0.0
 40
21.0
 41
0.0
 71
     5
 72
     1
  1
\A2;[2036 7/8"]
  7
Arial
 73
     1
 44
1.0
  0
POINT
  5
4F7
330
4C5
100
AcDbEntity
  8
Defpoints
 62
     0
100
AcDbPoint
 10
-50034.60583735061
 20
1149.528582984341
 30
0.0
  0
POINT
  5
4F8
330
4C5
100
AcDbEntity
  8
Defpoints
 62
     0
100
AcDbPoint
 10
1702.637430749769
 20
1149.528582984341
 30
0.0
  0
POINT
  5
4F9
330
4C5
100
AcDbEntity
  8
Defpoints
 62
     0
100
AcDbPoint
 10
1702.637430749769
 20
1195.184319877302
 30
0.0
  0
ENDBLK
  5
4D2
330
4C5
100
AcDbEntity
  8
0
100
AcDbBlockEnd
  0
BLOCK
  5
4DF
330
4D3
100
AcDbEntity
  8
0
100
AcDbBlockBegin
  2
*D38
 70
     1
 10
0.0
 20
0.0
 30
0.0
  3
*D38
  1

  0
LINE
  5
505
330
4D3
100
AcDbEntity
  8
1 辅助线
100
AcDbLine
 10
-47539.0484631468
 20
1161.528582984341
 30
0.0
 11
-47539.0484631468
 21
1206.342035314653
 31
0.0
  0
LINE
  5
506
330
4D3
100
AcDbEntity
  8
1 辅助线
100
AcDbLine
 10
4274.194804953579
 20
1161.528582984341
 30
0.0
 11
4274.194804953579
 21
1206.342035314653
 31
0.0
  0
LINE
  5
507
330
4D3
100
AcDbEntity
  8
1 辅助线
370
     0
100
AcDbLine
 10
-47524.04846314679
 20
1194.342035314653
 30
0.0
 11
-21703.25167634712
 21
1194.342035314653
 31
0.0
  0
LINE
  5
508
330
4D3
100
AcDbEntity
  8
1 辅助线
370
     0
100
AcDbLine
 10
4259.194804953579
 20
1194.342035314653
 30
0.0
 11
-21561.6019818461
 21
1194.342035314653
 31
0.0
  0
SOLID
  5
509
330
4D3
100
AcDbEntity
  8
1 辅助线
100
AcDbTrace
 10
-47524.04846314679
 20
1196.842035314653
 30
0.0
 11
-47524.04846314679
 21
1191.842035314653
 31
0.0
 12
-47539.0484631468
 22
1194.342035314653
 32
0.0
 13
-47539.0484631468
 23
1194.342035314653
 33
0.0
  0
SOLID
  5
50A
330
4D3
100
AcDbEntity
  8
1 辅助线
100
AcDbTrace
 10
4259.194804953579
 20
1196.842035314653
 30
0.0
 11
4259.194804953579
 21
1191.842035314653
 31
0.0
 12
4274.194804953579
 22
1194.342035314653
 32
0.0
 13
4274.194804953579
 23
1194.342035314653
 33
0.0
  0
MTEXT
  5
50B
330
4D3
100
AcDbEntity
  8
1 辅助线
100
AcDbMText
 10
-21632.42682909661
 20
1211.134296007117
 30
0.0
 40
21.0
 41
0.0
 71
     5
 72
     1
  1
\A2;51813
  7
Arial
 73
     1
 44
1.0
  0
MTEXT
  5
50C
330
4D3
100
AcDbEntity
  8
1 辅助线
100
AcDbMText
 10
-21632.42682909661
 20
1174.655680935834
 30
0.0
 40
21.0
 41
0.0
 71
     5
 72
     1
  1
\A2;[2039 7/8"]
  7
Arial
 73
     1
 44
1.0
  0
POINT
  5
50D
330
4D3
100
AcDbEntity
  8
Defpoints
 62
     0
100
AcDbPoint
 10
-47539.0484631468
 20
1149.528582984341
 30
0.0
  0
POINT
  5
50E
330
4D3
100
AcDbEntity
  8
Defpoints
 62
     0
100
AcDbPoint
 10
4274.194804953579
 20
1149.528582984341
 30
0.0
  0
POINT
  5
50F
330
4D3
100
AcDbEntity
  8
Defpoints
 62
     0
100
AcDbPoint
 10
4274.194804953579
 20
1194.342035314653
 30
0.0
  0
ENDBLK
  5
4E0
330
4D3
100
AcDbEntity
  8
0
100
AcDbBlockEnd
  0
BLOCK
  5
4ED
330
4E1
100
AcDbEntity
  8
0
100
AcDbBlockBegin
  2
*D39
 70
     1
 10
0.0
 20
0.0
 30
0.0
  3
*D39
  1

  0
LINE
  5
510
330
4E1
100
AcDbEntity
  8
1 辅助线
100
AcDbLine
 10
3868.594804953581
 20
1124.128582984336
 30
0.0
 11
3726.287567358961
 21
1124.128582984336
 31
0.0
  0
LINE
  5
511
330
4E1
100
AcDbEntity
  8
1 辅助线
100
AcDbLine
 10
3868.594804953581
 20
666.928582984346
 30
0.0
 11
3726.287567358961
 21
666.9285829843462
 31
0.0
  0
LINE
  5
512
330
4E1
100
AcDbEntity
  8
1 辅助线
370
     0
100
AcDbLine
 10
3738.28756735896
 20
1109.128582984336
 30
0.0
 11
3738.287567358959
 21
931.7363222918768
 31
0.0
  0
LINE
  5
513
330
4E1
100
AcDbEntity
  8
1 辅助线
370
     0
100
AcDbLine
 10
3738.287567358959
 20
681.9285829843462
 30
0.0
 11
3738.287567358959
 21
859.3208436768055
 31
0.0
  0
SOLID
  5
514
330
4E1
100
AcDbEntity
  8
1 辅助线
100
AcDbTrace
 10
3735.78756735896
 20
1109.128582984336
 30
0.0
 11
3740.78756735896
 21
1109.128582984336
 31
0.0
 12
3738.28756735896
 22
1124.128582984336
 32
0.0
 13
3738.28756735896
 23
1124.128582984336
 33
0.0
  0
SOLID
  5
515
330
4E1
100
AcDbEntity
  8
1 辅助线
100
AcDbTrace
 10
3735.78756735896
 20
681.9285829843462
 30
0.0
 11
3740.78756735896
 21
681.9285829843462
 31
0.0
 12
3738.287567358959
 22
666.9285829843462
 32
0.0
 13
3738.287567358959
 23
666.9285829843462
 33
0.0
  0
MTEXT
  5
516
330
4E1
100
AcDbEntity
  8
1 辅助线
100
AcDbMText
 10
3738.287567358959
 20
912.3208436768059
 30
0.0
 40
21.0
 41
0.0
 71
     5
 72
     1
  1
\A2;457
  7
Arial
 73
     1
 44
1.0
  0
MTEXT
  5
517
330
4E1
100
AcDbEntity
  8
1 辅助线
100
AcDbMText
 10
3738.287567358959
 20
876.1131043692705
 30
0.0
 40
21.0
 41
0.0
 71
     5
 72
     1
  1
\A2;[18"]
  7
Arial
 73
     1
 44
1.0
  0
POINT
  5
518
330
4E1
100
AcDbEntity
  8
Defpoints
 62
     0
100
AcDbPoint
 10
3880.594804953581
 20
1124.128582984336
 30
0.0
  0
POINT
  5
519
330
4E1
100
AcDbEntity
  8
Defpoints
 62
     0
100
AcDbPoint
 10
3880.594804953581
 20
666.928582984346
 30
0.0
  0
POINT
  5
51A
330
4E1
100
AcDbEntity
  8
Defpoints
 62
     0
100
AcDbPoint
 10
3738.287567358959
 20
666.9285829843462
 30
0.0
  0
ENDBLK
  5
4EE
330
4E1
100
AcDbEntity
  8
0
100
AcDbBlockEnd
  0
BLOCK
  5
531
330
527
100
AcDbEntity
  8
0
100
AcDbBlockBegin
  2
*D40
 70
     1
 10
0.0
 20
0.0
 30
0.0
  3
*D40
  1

  0
LINE
  5
53E
330
527
100
AcDbEntity
  8
1 辅助线
100
AcDbLine
 10
3486.994804953582
 20
1103.628582984332
 30
0.0
 11
3486.994804953582
 21
1211.978056566403
 31
0.0
  0
LINE
  5
53F
330
527
100
AcDbEntity
  8
1 辅助线
100
AcDbLine
 10
4274.194804953579
 20
1103.628582984332
 30
0.0
 11
4274.194804953579
 21
1211.978056566403
 31
0.0
  0
LINE
  5
540
330
527
100
AcDbEntity
  8
1 辅助线
370
     0
100
AcDbLine
 10
3501.994804953583
 20
1199.978056566402
 30
0.0
 11
3848.997045279446
 21
1199.978056566402
 31
0.0
  0
LINE
  5
541
330
527
100
AcDbEntity
  8
1 辅助线
370
     0
100
AcDbLine
 10
4259.194804953579
 20
1199.978056566402
 30
0.0
 11
3912.192564627716
 21
1199.978056566402
 31
0.0
  0
SOLID
  5
542
330
527
100
AcDbEntity
  8
1 辅助线
100
AcDbTrace
 10
3501.994804953583
 20
1202.478056566403
 30
0.0
 11
3501.994804953583
 21
1197.478056566403
 31
0.0
 12
3486.994804953582
 22
1199.978056566402
 32
0.0
 13
3486.994804953582
 23
1199.978056566402
 33
0.0
  0
SOLID
  5
543
330
527
100
AcDbEntity
  8
1 辅助线
100
AcDbTrace
 10
4259.194804953579
 20
1202.478056566403
 30
0.0
 11
4259.194804953579
 21
1197.478056566403
 31
0.0
 12
4274.194804953579
 22
1199.978056566402
 32
0.0
 13
4274.194804953579
 23
1199.978056566402
 33
0.0
  0
MTEXT
  5
544
330
527
100
AcDbEntity
  8
1 辅助线
100
AcDbMText
 10
3880.594804953581
 20
1216.770317258867
 30
0.0
 40
21.0
 41
0.0
 71
     5
 72
     1
  1
\A2;787
  7
Arial
 73
     1
 44
1.0
  0
MTEXT
  5
545
330
527
100
AcDbEntity
  8
1 辅助线
100
AcDbMText
 10
3880.594804953581
 20
1180.562577951331
 30
0.0
 40
21.0
 41
0.0
 71
     5
 72
     1
  1
\A2;[31"]
  7
Arial
 73
     1
 44
1.0
  0
POINT
  5
546
330
527
100
AcDbEntity
  8
Defpoints
 62
     0
100
AcDbPoint
 10
3486.994804953582
 20
1091.628582984332
 30
0.0
  0
POINT
  5
547
330
527
100
AcDbEntity
  8
Defpoints
 62
     0
100
AcDbPoint
 10
4274.194804953579
 20
1091.628582984332
 30
0.0
  0
POINT
  5
548
330
527
100
AcDbEntity
  8
Defpoints
 62
     0
100
AcDbPoint
 10
4274.194804953579
 20
1199.978056566402
 30
0.0
  0
ENDBLK
  5
532
330
527
100
AcDbEntity
  8
0
100
AcDbBlockEnd
  0
BLOCK
  5
557
330
556
100
AcDbEntity
  8
0
100
AcDbBlockBegin
  2
*D41
 70
     1
 10
0.0
 20
0.0
 30
0.0
  3
*D41
  1

  0
LINE
  5
558
330
556
100
AcDbEntity
  8
1 辅助线
100
AcDbLine
 10
-41757.50994461322
 20
-39232.1523004085
 30
0.0
 11
-41818.65861086058
 21
-39232.1523004085
 31
0.0
  0
LINE
  5
559
330
556
100
AcDbEntity
  8
1 辅助线
100
AcDbLine
 10
-41733.50994461321
 20
-39684.15230040849
 30
0.0
 11
-41818.65861086058
 21
-39684.15230040849
 31
0.0
  0
LINE
  5
55A
330
556
100
AcDbEntity
  8
1 辅助线
370
     0
100
AcDbLine
 10
-41806.65861086058
 20
-39247.1523004085
 30
0.0
 11
-41806.65861086058
 21
-39421.67368533721
 31
0.0
  0
LINE
  5
55B
330
556
100
AcDbEntity
  8
1 辅助线
370
     0
100
AcDbLine
 10
-41806.65861086058
 20
-39669.15230040849
 30
0.0
 11
-41806.65861086058
 21
-39494.63091547978
 31
0.0
  0
SOLID
  5
55C
330
556
100
AcDbEntity
  8
1 辅助线
100
AcDbTrace
 10
-41809.15861086059
 20
-39247.1523004085
 30
0.0
 11
-41804.15861086058
 21
-39247.1523004085
 31
0.0
 12
-41806.65861086058
 22
-39232.1523004085
 32
0.0
 13
-41806.65861086058
 23
-39232.1523004085
 33
0.0
  0
SOLID
  5
55D
330
556
100
AcDbEntity
  8
1 辅助线
100
AcDbTrace
 10
-41809.15861086059
 20
-39669.15230040849
 30
0.0
 11
-41804.15861086058
 21
-39669.15230040849
 31
0.0
 12
-41806.65861086058
 22
-39684.15230040849
 32
0.0
 13
-41806.65861086058
 23
-39684.15230040849
 33
0.0
  0
MTEXT
  5
55E
330
556
100
AcDbEntity
  8
1 辅助线
100
AcDbMText
 10
-41806.65861086056
 20
-39441.36003971603
 30
0.0
 40
21.0
 41
0.0
 71
     5
 72
     1
  1
\A2;452
  7
Arial
 73
     1
 44
1.0
  0
MTEXT
  5
55F
330
556
100
AcDbEntity
  8
1 辅助线
100
AcDbMText
 10
-41806.65861086056
 20
-39477.83865478733
 30
0.0
 40
21.0
 41
0.0
 71
     5
 72
     1
  1
\A2;[17 3/4"]
  7
Arial
 73
     1
 44
1.0
  0
POINT
  5
560
330
556
100
AcDbEntity
  8
Defpoints
 62
     0
100
AcDbPoint
 10
-41745.50994461322
 20
-39232.1523004085
 30
0.0
  0
POINT
  5
561
330
556
100
AcDbEntity
  8
Defpoints
 62
     0
100
AcDbPoint
 10
-41721.5099446132
 20
-39684.15230040849
 30
0.0
  0
POINT
  5
562
330
556
100
AcDbEntity
  8
Defpoints
 62
     0
100
AcDbPoint
 10
-41806.65861086058
 20
-39684.15230040849
 30
0.0
  0
ENDBLK
  5
563
330
556
100
AcDbEntity
  8
0
100
AcDbBlockEnd
  0
BLOCK
  5
565
330
564
100
AcDbEntity
  8
0
100
AcDbBlockBegin
  2
*D42
 70
     1
 10
0.0
 20
0.0
 30
0.0
  3
*D42
  1

  0
LINE
  5
566
330
564
100
AcDbEntity
  8
1 辅助线
100
AcDbLine
 10
-41725.5099446132
 20
-39672.15230040849
 30
0.0
 11
-41725.5099446132
 21
-39568.83709473268
 31
0.0
  0
LINE
  5
567
330
564
100
AcDbEntity
  8
1 辅助线
100
AcDbLine
 10
-42425.5099446132
 20
-39672.15230040849
 30
0.0
 11
-42425.5099446132
 21
-39568.83709473268
 31
0.0
  0
LINE
  5
568
330
564
100
AcDbEntity
  8
1 辅助线
370
     0
100
AcDbLine
 10
-41740.5099446132
 20
-39580.83709473268
 30
0.0
 11
-42020.22481223031
 21
-39580.83709473268
 31
0.0
  0
LINE
  5
569
330
564
100
AcDbEntity
  8
1 辅助线
370
     0
100
AcDbLine
 10
-42410.50994461319
 20
-39580.83709473268
 30
0.0
 11
-42130.79507699609
 21
-39580.83709473268
 31
0.0
  0
SOLID
  5
56A
330
564
100
AcDbEntity
  8
1 辅助线
100
AcDbTrace
 10
-41740.5099446132
 20
-39578.33709473268
 30
0.0
 11
-41740.5099446132
 21
-39583.33709473269
 31
0.0
 12
-41725.5099446132
 22
-39580.83709473268
 32
0.0
 13
-41725.5099446132
 23
-39580.83709473268
 33
0.0
  0
SOLID
  5
56B
330
564
100
AcDbEntity
  8
1 辅助线
100
AcDbTrace
 10
-42410.50994461319
 20
-39578.33709473268
 30
0.0
 11
-42410.50994461319
 21
-39583.33709473269
 31
0.0
 12
-42425.5099446132
 22
-39580.83709473268
 32
0.0
 13
-42425.5099446132
 23
-39580.83709473268
 33
0.0
  0
MTEXT
  5
56C
330
564
100
AcDbEntity
  8
1 辅助线
100
AcDbMText
 10
-42075.50994461318
 20
-39564.04483404022
 30
0.0
 40
21.0
 41
0.0
 71
     5
 72
     1
  1
\A2;700
  7
Arial
 73
     1
 44
1.0
  0
MTEXT
  5
56D
330
564
100
AcDbEntity
  8
1 辅助线
100
AcDbMText
 10
-42075.50994461318
 20
-39600.5234491115
 30
0.0
 40
21.0
 41
0.0
 71
     5
 72
     1
  1
\A2;[27 1/2"]
  7
Arial
 73
     1
 44
1.0
  0
POINT
  5
56E
330
564
100
AcDbEntity
  8
Defpoints
 62
     0
100
AcDbPoint
 10
-41725.5099446132
 20
-39684.15230040849
 30
0.0
  0
POINT
  5
56F
330
564
100
AcDbEntity
  8
Defpoints
 62
     0
100
AcDbPoint
 10
-42425.5099446132
 20
-39684.15230040849
 30
0.0
  0
POINT
  5
570
330
564
100
AcDbEntity
  8
Defpoints
 62
     0
100
AcDbPoint
 10
-42425.5099446132
 20
-39580.83709473268
 30
0.0
  0
ENDBLK
  5
571
330
564
100
AcDbEntity
  8
0
100
AcDbBlockEnd
  0
BLOCK
  5
573
330
572
100
AcDbEntity
  8
0
100
AcDbBlockBegin
  2
*D43
 70
     1
 10
0.0
 20
0.0
 30
0.0
  3
*D43
  1

  0
LINE
  5
574
330
572
100
AcDbEntity
  8
1 辅助线
370
     0
100
AcDbLine
 10
-42381.42201679671
 20
-39270.60333432395
 30
0.0
 11
-42396.42201679671
 21
-39270.60333432395
 31
0.0
  0
LINE
  5
575
330
572
100
AcDbEntity
  8
1 辅助线
370
     0
100
AcDbLine
 10
-42396.42201679671
 20
-39270.60333432395
 30
0.0
 11
-42407.71921429572
 21
-39247.66686537163
 31
0.0
  0
MTEXT
  5
576
330
572
100
AcDbEntity
  8
1 辅助线
100
AcDbMText
 10
-42332.23158909813
 20
-39270.60333432396
 30
0.0
 40
21.0
 41
0.0
 71
     5
 72
     1
  1
\A2;R20\P [R3/4"]
  7
Arial
 73
     1
 44
1.0
  0
SOLID
  5
577
330
572
100
AcDbEntity
  8
1 辅助线
100
AcDbTrace
 10
-42405.47649677727
 20
-39246.56223053037
 30
0.0
 11
-42409.96193181413
 21
-39248.77150021288
 31
0.0
 12
-42414.34702334326
 22
-39234.21056026104
 32
0.0
 13
-42414.34702334326
 23
-39234.21056026104
 33
0.0
  0
POINT
  5
578
330
572
100
AcDbEntity
  8
Defpoints
 62
     0
100
AcDbPoint
 10
-42414.34702334326
 20
-39234.21056026104
 30
0.0
  0
POINT
  5
579
330
572
100
AcDbEntity
  8
Defpoints
 62
     0
100
AcDbPoint
 10
-42405.5099446132
 20
-39252.1523004085
 30
0.0
  0
ENDBLK
  5
57A
330
572
100
AcDbEntity
  8
0
100
AcDbBlockEnd
  0
BLOCK
  5
5BF
330
5B3
100
AcDbEntity
  8
0
100
AcDbBlockBegin
  2
*D44
 70
     1
 10
0.0
 20
0.0
 30
0.0
  3
*D44
  1

  0
LINE
  5
5CF
330
5B3
100
AcDbEntity
  8
1 辅助线
100
AcDbLine
 10
546.6136579353404
 20
1677.989424331761
 30
0.0
 11
546.6136579353404
 21
1781.304630007572
 31
0.0
  0
LINE
  5
5D0
330
5B3
100
AcDbEntity
  8
1 辅助线
100
AcDbLine
 10
-153.3863420646594
 20
1677.989424331761
 30
0.0
 11
-153.3863420646594
 21
1781.304630007572
 31
0.0
  0
LINE
  5
5D1
330
5B3
100
AcDbEntity
  8
1 辅助线
370
     0
100
AcDbLine
 10
531.6136579353406
 20
1769.304630007572
 30
0.0
 11
251.8987903182327
 21
1769.304630007572
 31
0.0
  0
LINE
  5
5D2
330
5B3
100
AcDbEntity
  8
1 辅助线
370
     0
100
AcDbLine
 10
-138.3863420646594
 20
1769.304630007572
 30
0.0
 11
141.3285255524485
 21
1769.304630007572
 31
0.0
  0
SOLID
  5
5D3
330
5B3
100
AcDbEntity
  8
1 辅助线
100
AcDbTrace
 10
531.6136579353406
 20
1771.804630007572
 30
0.0
 11
531.6136579353406
 21
1766.804630007572
 31
0.0
 12
546.6136579353404
 22
1769.304630007572
 32
0.0
 13
546.6136579353404
 23
1769.304630007572
 33
0.0
  0
SOLID
  5
5D4
330
5B3
100
AcDbEntity
  8
1 辅助线
100
AcDbTrace
 10
-138.3863420646594
 20
1771.804630007572
 30
0.0
 11
-138.3863420646594
 21
1766.804630007572
 31
0.0
 12
-153.3863420646594
 22
1769.304630007572
 32
0.0
 13
-153.3863420646594
 23
1769.304630007572
 33
0.0
  0
MTEXT
  5
5D5
330
5B3
100
AcDbEntity
  8
1 辅助线
100
AcDbMText
 10
196.6136579353405
 20
1786.096890700037
 30
0.0
 40
21.0
 41
0.0
 71
     5
 72
     1
  1
\A2;700
  7
Arial
 73
     1
 44
1.0
  0
MTEXT
  5
5D6
330
5B3
100
AcDbEntity
  8
1 辅助线
100
AcDbMText
 10
196.6136579353405
 20
1749.618275628754
 30
0.0
 40
21.0
 41
0.0
 71
     5
 72
     1
  1
\A2;[27 1/2"]
  7
Arial
 73
     1
 44
1.0
  0
POINT
  5
5D7
330
5B3
100
AcDbEntity
  8
Defpoints
 62
     0
100
AcDbPoint
 10
546.6136579353404
 20
1665.989424331761
 30
0.0
  0
POINT
  5
5D8
330
5B3
100
AcDbEntity
  8
Defpoints
 62
     0
100
AcDbPoint
 10
-153.3863420646594
 20
1665.989424331761
 30
0.0
  0
POINT
  5
5D9
330
5B3
100
AcDbEntity
  8
Defpoints
 62
     0
100
AcDbPoint
 10
-153.3863420646594
 20
1769.304630007572
 30
0.0
  0
ENDBLK
  5
5C0
330
5B3
100
AcDbEntity
  8
0
100
AcDbBlockEnd
  0
BLOCK
  5
5CD
330
5C1
100
AcDbEntity
  8
0
100
AcDbBlockBegin
  2
*D45
 70
     1
 10
0.0
 20
0.0
 30
0.0
  3
*D45
  1

  0
LINE
  5
5C2
330
5C1
100
AcDbEntity
  8
1 辅助线
100
AcDbLine
 10
514.6136579353406
 20
2117.989424331753
 30
0.0
 11
453.4649916879644
 21
2117.989424331753
 31
0.0
  0
LINE
  5
5C3
330
5C1
100
AcDbEntity
  8
1 辅助线
100
AcDbLine
 10
538.6136579353403
 20
1665.989424331761
 30
0.0
 11
453.4649916879643
 21
1665.989424331761
 31
0.0
  0
LINE
  5
5C4
330
5C1
100
AcDbEntity
  8
1 辅助线
370
     0
100
AcDbLine
 10
465.4649916879644
 20
2102.989424331754
 30
0.0
 11
465.4649916879644
 21
1928.46803940304
 31
0.0
  0
LINE
  5
5C5
330
5C1
100
AcDbEntity
  8
1 辅助线
370
     0
100
AcDbLine
 10
465.4649916879643
 20
1680.989424331761
 30
0.0
 11
465.4649916879643
 21
1855.510809260474
 31
0.0
  0
SOLID
  5
5C6
330
5C1
100
AcDbEntity
  8
1 辅助线
100
AcDbTrace
 10
462.9649916879643
 20
2102.989424331754
 30
0.0
 11
467.9649916879644
 21
2102.989424331754
 31
0.0
 12
465.4649916879644
 22
2117.989424331753
 32
0.0
 13
465.4649916879644
 23
2117.989424331753
 33
0.0
  0
SOLID
  5
5C7
330
5C1
100
AcDbEntity
  8
1 辅助线
100
AcDbTrace
 10
462.9649916879643
 20
1680.989424331761
 30
0.0
 11
467.9649916879641
 21
1680.989424331761
 31
0.0
 12
465.4649916879643
 22
1665.989424331761
 32
0.0
 13
465.4649916879643
 23
1665.989424331761
 33
0.0
  0
MTEXT
  5
5C8
330
5C1
100
AcDbEntity
  8
1 辅助线
100
AcDbMText
 10
465.464991687964
 20
1908.781685024221
 30
0.0
 40
21.0
 41
0.0
 71
     5
 72
     1
  1
\A2;452
  7
Arial
 73
     1
 44
1.0
  0
MTEXT
  5
5C9
330
5C1
100
AcDbEntity
  8
1 辅助线
100
AcDbMText
 10
465.464991687964
 20
1872.303069952938
 30
0.0
 40
21.0
 41
0.0
 71
     5
 72
     1
  1
\A2;[17 3/4"]
  7
Arial
 73
     1
 44
1.0
  0
POINT
  5
5CA
330
5C1
100
AcDbEntity
  8
Defpoints
 62
     0
100
AcDbPoint
 10
526.6136579353406
 20
2117.989424331753
 30
0.0
  0
POINT
  5
5CB
330
5C1
100
AcDbEntity
  8
Defpoints
 62
     0
100
AcDbPoint
 10
550.6136579353404
 20
1665.989424331761
 30
0.0
  0
POINT
  5
5CC
330
5C1
100
AcDbEntity
  8
Defpoints
 62
     0
100
AcDbPoint
 10
465.4649916879643
 20
1665.989424331761
 30
0.0
  0
ENDBLK
  5
5CE
330
5C1
100
AcDbEntity
  8
0
100
AcDbBlockEnd
  0
BLOCK
  5
5E1
330
5DA
100
AcDbEntity
  8
0
100
AcDbBlockBegin
  2
*D46
 70
     1
 10
0.0
 20
0.0
 30
0.0
  3
*D46
  1

  0
LINE
  5
5E3
330
5DA
100
AcDbEntity
  8
1 辅助线
370
     0
100
AcDbLine
 10
-109.2984142481915
 20
2079.538390416294
 30
0.0
 11
-124.2984142481915
 21
2079.538390416295
 31
0.0
  0
LINE
  5
5E4
330
5DA
100
AcDbEntity
  8
1 辅助线
370
     0
100
AcDbLine
 10
-124.2984142481915
 20
2079.538390416295
 30
0.0
 11
-135.5956117471873
 21
2102.474859368635
 31
0.0
  0
MTEXT
  5
5E5
330
5DA
100
AcDbEntity
  8
1 辅助线
100
AcDbMText
 10
-60.10798654961695
 20
2079.538390416295
 30
0.0
 40
21.0
 41
0.0
 71
     5
 72
     1
  1
\A2;R20\P [R3/4"]
  7
Arial
 73
     1
 44
1.0
  0
SOLID
  5
5E6
330
5DA
100
AcDbEntity
  8
1 辅助线
100
AcDbTrace
 10
-133.3528942287558
 20
2103.579494209893
 30
0.0
 11
-137.838329265619
 21
2101.370224527378
 31
0.0
 12
-142.223420794733
 22
2115.931164479225
 32
0.0
 13
-142.223420794733
 23
2115.931164479225
 33
0.0
  0
POINT
  5
5E7
330
5DA
100
AcDbEntity
  8
Defpoints
 62
     0
100
AcDbPoint
 10
-142.223420794733
 20
2115.931164479225
 30
0.0
  0
POINT
  5
5E8
330
5DA
100
AcDbEntity
  8
Defpoints
 62
     0
100
AcDbPoint
 10
-133.3863420646667
 20
2097.98942433176
 30
0.0
  0
ENDBLK
  5
5E2
330
5DA
100
AcDbEntity
  8
0
100
AcDbBlockEnd
  0
BLOCK
  5
63A
330
630
100
AcDbEntity
  8
0
100
AcDbBlockBegin
  2
*D47
 70
     1
 10
0.0
 20
0.0
 30
0.0
  3
*D47
  1

  0
LINE
  5
650
330
630
100
AcDbEntity
  8
0
 62
     0
370
    -2
100
AcDbLine
 10
990.8124307497715
 20
-187.6959033839559
 30
0.0
 11
953.9468585561824
 21
-187.6959033839559
 31
0.0
  0
LINE
  5
651
330
630
100
AcDbEntity
  8
0
 62
     0
370
    -2
100
AcDbLine
 10
990.8124307497715
 20
-230.6959033839576
 30
0.0
 11
953.9468585561824
 21
-230.6959033839575
 31
0.0
  0
LINE
  5
652
330
630
100
AcDbEntity
  8
0
 62
     0
370
    -2
100
AcDbLine
 10
955.1968585561827
 20
-190.1959033839559
 30
0.0
 11
955.1968585561827
 21
-228.1959033839575
 31
0.0
  0
SOLID
  5
653
330
630
100
AcDbEntity
  8
0
 62
     0
100
AcDbTrace
 10
954.780191889516
 20
-190.1959033839559
 30
0.0
 11
955.6135252228493
 21
-190.1959033839559
 31
0.0
 12
955.1968585561827
 22
-187.6959033839559
 32
0.0
 13
955.1968585561827
 23
-187.6959033839559
 33
0.0
  0
SOLID
  5
654
330
630
100
AcDbEntity
  8
0
 62
     0
100
AcDbTrace
 10
954.780191889516
 20
-228.1959033839575
 30
0.0
 11
955.6135252228493
 21
-228.1959033839575
 31
0.0
 12
955.1968585561827
 22
-230.6959033839575
 32
0.0
 13
955.1968585561827
 23
-230.6959033839575
 33
0.0
  0
MTEXT
  5
655
330
630
100
AcDbEntity
  8
0
 62
     0
100
AcDbMText
 10
953.3218585561824
 20
-209.1959033839566
 30
0.0
 40
2.5
 41
0.0
 71
     5
 72
     1
  1
43
 11
0.0000000000000001
 21
1.0
 31
0.0
 73
     1
 44
1.0
  0
POINT
  5
656
330
630
100
AcDbEntity
  8
Defpoints
 62
     0
100
AcDbPoint
 10
991.437430749772
 20
-187.6959033839559
 30
0.0
  0
POINT
  5
657
330
630
100
AcDbEntity
  8
Defpoints
 62
     0
100
AcDbPoint
 10
991.437430749772
 20
-230.6959033839576
 30
0.0
  0
POINT
  5
658
330
630
100
AcDbEntity
  8
Defpoints
 62
     0
100
AcDbPoint
 10
955.1968585561827
 20
-230.6959033839575
 30
0.0
  0
ENDBLK
  5
63B
330
630
100
AcDbEntity
  8
0
100
AcDbBlockEnd
  0
BLOCK
  5
65A
330
659
100
AcDbEntity
  8
0
100
AcDbBlockBegin
  2
*D48
 70
     1
 10
0.0
 20
0.0
 30
0.0
  3
*D48
  1

  0
LINE
  5
65B
330
659
100
AcDbEntity
  8
1 辅助线
100
AcDbLine
 10
-41757.50994461322
 20
-39232.1523004085
 30
0.0
 11
-41818.65861086058
 21
-39232.1523004085
 31
0.0
  0
LINE
  5
65C
330
659
100
AcDbEntity
  8
1 辅助线
100
AcDbLine
 10
-41733.50994461321
 20
-39684.15230040849
 30
0.0
 11
-41818.65861086058
 21
-39684.15230040849
 31
0.0
  0
LINE
  5
65D
330
659
100
AcDbEntity
  8
1 辅助线
370
     0
100
AcDbLine
 10
-41806.65861086058
 20
-39247.1523004085
 30
0.0
 11
-41806.65861086058
 21
-39421.67368533721
 31
0.0
  0
LINE
  5
65E
330
659
100
AcDbEntity
  8
1 辅助线
370
     0
100
AcDbLine
 10
-41806.65861086058
 20
-39669.15230040849
 30
0.0
 11
-41806.65861086058
 21
-39494.63091547978
 31
0.0
  0
SOLID
  5
65F
330
659
100
AcDbEntity
  8
1 辅助线
100
AcDbTrace
 10
-41809.15861086059
 20
-39247.1523004085
 30
0.0
 11
-41804.15861086058
 21
-39247.1523004085
 31
0.0
 12
-41806.65861086058
 22
-39232.1523004085
 32
0.0
 13
-41806.65861086058
 23
-39232.1523004085
 33
0.0
  0
SOLID
  5
660
330
659
100
AcDbEntity
  8
1 辅助线
100
AcDbTrace
 10
-41809.15861086059
 20
-39669.15230040849
 30
0.0
 11
-41804.15861086058
 21
-39669.15230040849
 31
0.0
 12
-41806.65861086058
 22
-39684.15230040849
 32
0.0
 13
-41806.65861086058
 23
-39684.15230040849
 33
0.0
  0
MTEXT
  5
661
330
659
100
AcDbEntity
  8
1 辅助线
100
AcDbMText
 10
-41806.65861086056
 20
-39441.36003971603
 30
0.0
 40
21.0
 41
0.0
 71
     5
 72
     1
  1
\A2;452
  7
Arial
 73
     1
 44
1.0
  0
MTEXT
  5
662
330
659
100
AcDbEntity
  8
1 辅助线
100
AcDbMText
 10
-41806.65861086056
 20
-39477.83865478733
 30
0.0
 40
21.0
 41
0.0
 71
     5
 72
     1
  1
\A2;[17 3/4"]
  7
Arial
 73
     1
 44
1.0
  0
POINT
  5
663
330
659
100
AcDbEntity
  8
Defpoints
 62
     0
100
AcDbPoint
 10
-41745.50994461322
 20
-39232.1523004085
 30
0.0
  0
POINT
  5
664
330
659
100
AcDbEntity
  8
Defpoints
 62
     0
100
AcDbPoint
 10
-41721.5099446132
 20
-39684.15230040849
 30
0.0
  0
POINT
  5
665
330
659
100
AcDbEntity
  8
Defpoints
 62
     0
100
AcDbPoint
 10
-41806.65861086058
 20
-39684.15230040849
 30
0.0
  0
ENDBLK
  5
666
330
659
100
AcDbEntity
  8
0
100
AcDbBlockEnd
  0
BLOCK
  5
668
330
667
100
AcDbEntity
  8
0
100
AcDbBlockBegin
  2
*D49
 70
     1
 10
0.0
 20
0.0
 30
0.0
  3
*D49
  1

  0
LINE
  5
669
330
667
100
AcDbEntity
  8
1 辅助线
100
AcDbLine
 10
-41725.5099446132
 20
-39672.15230040849
 30
0.0
 11
-41725.5099446132
 21
-39568.83709473268
 31
0.0
  0
LINE
  5
66A
330
667
100
AcDbEntity
  8
1 辅助线
100
AcDbLine
 10
-42425.5099446132
 20
-39672.15230040849
 30
0.0
 11
-42425.5099446132
 21
-39568.83709473268
 31
0.0
  0
LINE
  5
66B
330
667
100
AcDbEntity
  8
1 辅助线
370
     0
100
AcDbLine
 10
-41740.5099446132
 20
-39580.83709473268
 30
0.0
 11
-42020.22481223031
 21
-39580.83709473268
 31
0.0
  0
LINE
  5
66C
330
667
100
AcDbEntity
  8
1 辅助线
370
     0
100
AcDbLine
 10
-42410.50994461319
 20
-39580.83709473268
 30
0.0
 11
-42130.79507699609
 21
-39580.83709473268
 31
0.0
  0
SOLID
  5
66D
330
667
100
AcDbEntity
  8
1 辅助线
100
AcDbTrace
 10
-41740.5099446132
 20
-39578.33709473268
 30
0.0
 11
-41740.5099446132
 21
-39583.33709473269
 31
0.0
 12
-41725.5099446132
 22
-39580.83709473268
 32
0.0
 13
-41725.5099446132
 23
-39580.83709473268
 33
0.0
  0
SOLID
  5
66E
330
667
100
AcDbEntity
  8
1 辅助线
100
AcDbTrace
 10
-42410.50994461319
 20
-39578.33709473268
 30
0.0
 11
-42410.50994461319
 21
-39583.33709473269
 31
0.0
 12
-42425.5099446132
 22
-39580.83709473268
 32
0.0
 13
-42425.5099446132
 23
-39580.83709473268
 33
0.0
  0
MTEXT
  5
66F
330
667
100
AcDbEntity
  8
1 辅助线
100
AcDbMText
 10
-42075.50994461318
 20
-39564.04483404022
 30
0.0
 40
21.0
 41
0.0
 71
     5
 72
     1
  1
\A2;700
  7
Arial
 73
     1
 44
1.0
  0
MTEXT
  5
670
330
667
100
AcDbEntity
  8
1 辅助线
100
AcDbMText
 10
-42075.50994461318
 20
-39600.5234491115
 30
0.0
 40
21.0
 41
0.0
 71
     5
 72
     1
  1
\A2;[27 1/2"]
  7
Arial
 73
     1
 44
1.0
  0
POINT
  5
671
330
667
100
AcDbEntity
  8
Defpoints
 62
     0
100
AcDbPoint
 10
-41725.5099446132
 20
-39684.15230040849
 30
0.0
  0
POINT
  5
672
330
667
100
AcDbEntity
  8
Defpoints
 62
     0
100
AcDbPoint
 10
-42425.5099446132
 20
-39684.15230040849
 30
0.0
  0
POINT
  5
673
330
667
100
AcDbEntity
  8
Defpoints
 62
     0
100
AcDbPoint
 10
-42425.5099446132
 20
-39580.83709473268
 30
0.0
  0
ENDBLK
  5
674
330
667
100
AcDbEntity
  8
0
100
AcDbBlockEnd
  0
BLOCK
  5
676
330
675
100
AcDbEntity
  8
0
100
AcDbBlockBegin
  2
*D50
 70
     1
 10
0.0
 20
0.0
 30
0.0
  3
*D50
  1

  0
LINE
  5
677
330
675
100
AcDbEntity
  8
1 辅助线
370
     0
100
AcDbLine
 10
-42381.42201679671
 20
-39270.60333432395
 30
0.0
 11
-42396.42201679671
 21
-39270.60333432395
 31
0.0
  0
LINE
  5
678
330
675
100
AcDbEntity
  8
1 辅助线
370
     0
100
AcDbLine
 10
-42396.42201679671
 20
-39270.60333432395
 30
0.0
 11
-42407.71921429572
 21
-39247.66686537163
 31
0.0
  0
MTEXT
  5
679
330
675
100
AcDbEntity
  8
1 辅助线
100
AcDbMText
 10
-42332.23158909813
 20
-39270.60333432396
 30
0.0
 40
21.0
 41
0.0
 71
     5
 72
     1
  1
\A2;R20\P [R3/4"]
  7
Arial
 73
     1
 44
1.0
  0
SOLID
  5
67A
330
675
100
AcDbEntity
  8
1 辅助线
100
AcDbTrace
 10
-42405.47649677727
 20
-39246.56223053037
 30
0.0
 11
-42409.96193181413
 21
-39248.77150021288
 31
0.0
 12
-42414.34702334326
 22
-39234.21056026104
 32
0.0
 13
-42414.34702334326
 23
-39234.21056026104
 33
0.0
  0
POINT
  5
67B
330
675
100
AcDbEntity
  8
Defpoints
 62
     0
100
AcDbPoint
 10
-42414.34702334326
 20
-39234.21056026104
 30
0.0
  0
POINT
  5
67C
330
675
100
AcDbEntity
  8
Defpoints
 62
     0
100
AcDbPoint
 10
-42405.5099446132
 20
-39252.1523004085
 30
0.0
  0
ENDBLK
  5
67D
330
675
100
AcDbEntity
  8
0
100
AcDbBlockEnd
  0
BLOCK
  5
699
330
67E
100
AcDbEntity
  8
0
100
AcDbBlockBegin
  2
A$C482318BE
 70
     0
 10
0.0
 20
0.0
 30
0.0
  3
A$C482318BE
  1

  0
LINE
  5
67F
330
67E
100
AcDbEntity
  8
1 辅助线
100
AcDbLine
 10
879.4831991618266
 20
27.11746624819352
 30
0.0
 11
879.4831991618266
 21
459.1174662481861
 31
0.0
  0
ARC
  5
680
330
67E
100
AcDbEntity
  8
1 辅助线
100
AcDbCircle
 10
859.4831991618265
 20
459.1174662481861
 30
0.0
 40
20.0
100
AcDbArc
 50
0.0
 51
90.0
  0
LINE
  5
681
102
{ACAD_REACTORS
330
68C
102
}
330
67E
100
AcDbEntity
  8
1 辅助线
100
AcDbLine
 10
859.4831991618265
 20
479.1174662481862
 30
0.0
 11
199.4831991618193
 21
479.1174662481934
 31
0.0
  0
LINE
  5
682
330
67E
100
AcDbEntity
  8
1 辅助线
100
AcDbLine
 10
179.4831991618193
 20
459.1174662481935
 30
0.0
 11
179.4831991618266
 21
27.11746624819352
 31
0.0
  0
ARC
  5
683
102
{ACAD_REACTORS
330
696
102
}
330
67E
100
AcDbEntity
  8
1 辅助线
100
AcDbCircle
 10
199.4831991618193
 20
459.1174662481935
 30
0.0
 40
20.0
100
AcDbArc
 50
90.0
 51
180.0
  0
LINE
  5
684
330
67E
100
AcDbEntity
  8
1 辅助线
100
AcDbLine
 10
179.4831991618266
 20
27.11746624819352
 30
0.0
 11
2.309156287694348
 21
27.11746624819352
 31
0.0
  0
LINE
  5
685
330
67E
100
AcDbEntity
  8
1 辅助线
100
AcDbLine
 10
879.4831991618266
 20
27.11746624819352
 30
0.0
 11
1064.636181577341
 21
27.11746624819352
 31
0.0
  0
LWPOLYLINE
  5
686
330
67E
100
AcDbEntity
  8
1 辅助线
  6
DASHED
370
     0
100
AcDbPolyline
 90
        8
 70
     1
 43
0.0
 10
186.9831991618339
 20
4.617466248193521
 10
871.9831991618411
 20
4.617466248193521
 42
0.4142135623730951
 10
911.9831991618413
 20
44.61746624819352
 10
911.9831991618339
 20
471.6174662481935
 42
0.414213562373094
 10
871.9831991618338
 20
511.6174662481935
 10
186.9831991618412
 20
511.6174662481935
 42
0.414213562373094
 10
146.9831991618412
 20
471.6174662481935
 10
146.9831991618339
 20
44.61746624819352
 42
0.4142135623730966
  0
LWPOLYLINE
  5
687
330
67E
100
AcDbEntity
  8
1 辅助线
  6
DASHED
370
     0
100
AcDbPolyline
 90
        8
 70
     1
 43
0.0
 10
194.4831991618412
 20
27.11746624819352
 10
864.4831991618337
 20
27.11746624818625
 42
0.4142135623730959
 10
889.4831991618337
 20
52.11746624818625
 10
889.4831991618337
 20
464.1174662481861
 42
0.4142135623730943
 10
864.4831991618337
 20
489.1174662481861
 10
194.4831991618339
 20
489.1174662481935
 42
0.4142135623730961
 10
169.4831991618339
 20
464.1174662481935
 10
169.4831991618412
 20
52.11746624819352
 42
0.4142135623730935
  0
CIRCLE
  5
688
330
67E
100
AcDbEntity
  8
1 辅助线
  6
DASHED
370
     0
100
AcDbCircle
 10
529.4831991618337
 20
252.1174662481935
 30
0.0
 40
45.0
  0
CIRCLE
  5
689
330
67E
100
AcDbEntity
  8
1 辅助线
  6
DASHED
370
     0
100
AcDbCircle
 10
529.4831991618337
 20
252.1174662481935
 30
0.0
 40
57.0
  0
DIMENSION
  5
68A
102
{ACAD_XDICTIONARY
360
68B
102
}
102
{ACAD_REACTORS
330
68C
102
}
330
67E
100
AcDbEntity
  8
1 辅助线
100
AcDbDimension
  2
*D48
 10
798.3345329144504
 20
27.11746624819352
 30
0.0
 11
798.3345329144577
 21
253.117466248179
 31
0.0
 12
42604.99314377502
 22
39711.26976665668
 32
0.0
 71
     5
 42
451.9999999999925
  3
33-原比例超大字无转
100
AcDbAlignedDimension
 13
859.4831991618265
 23
479.1174662481862
 33
0.0
 14
883.4831991618266
 24
27.11746624819352
 34
0.0
 50
90.0
100
AcDbRotatedDimension
  0
MTEXT
  5
68D
330
67E
100
AcDbEntity
  8
1 辅助线
100
AcDbMText
 10
1018.431279258162
 20
20.33906179250335
 30
0.0
 40
15.0
 41
234.5507412407314
 71
     1
 72
     5
  1
Front
  7
Arial
 73
     1
 44
1.0
  0
LINE
  5
68E
330
67E
100
AcDbEntity
  8
1 辅助线
  6
DASHED
100
AcDbLine
 10
189.092396354943
 20
615.52113121
 30
0.0
 11
279.1610321059707
 21
615.52113121
 31
0.0
  0
TEXT
  5
68F
330
67E
100
AcDbEntity
  8
1 辅助线
100
AcDbText
 10
303.3795705660596
 20
605.8806367049255
 30
0.0
 40
21.875
  1
SINK LINE
  7
Arial
100
AcDbText
  0
TEXT
  5
690
330
67E
100
AcDbEntity
  8
1 辅助线
100
AcDbText
 10
687.4175647503578
 20
605.8806367049255
 30
0.0
 40
21.875
  1
CUTOUT LINE
  7
Arial
100
AcDbText
  0
LINE
  5
691
330
67E
100
AcDbEntity
  8
1 辅助线
100
AcDbLine
 10
573.1303905392413
 20
615.52113121
 30
0.0
 11
663.1990262902689
 21
615.52113121
 31
0.0
  0
MTEXT
  5
692
330
67E
100
AcDbEntity
  8
1 辅助线
100
AcDbMText
 10
2.605249625921715
 20
20.33906179250335
 30
0.0
 40
15.0
 41
234.5507412407314
 71
     1
 72
     5
  1
Front
  7
Arial
 73
     1
 44
1.0
  0
DIMENSION
  5
693
330
67E
100
AcDbEntity
  8
1 辅助线
100
AcDbDimension
  2
*D49
 10
179.4831991618266
 20
130.4326719240052
 30
0.0
 11
529.4831991618266
 21
130.4326719240052
 31
0.0
 12
42604.99314377502
 22
39711.26976665668
 32
0.0
 71
     5
 42
700.0
  3
33-原比例超大字无转
100
AcDbAlignedDimension
 13
879.4831991618266
 23
27.11746624819352
 33
0.0
 14
179.4831991618266
 24
27.11746624819352
 34
0.0
100
AcDbRotatedDimension
  0
DIMENSION
  5
694
102
{ACAD_XDICTIONARY
360
695
102
}
102
{ACAD_REACTORS
330
696
102
}
330
67E
100
AcDbEntity
  8
1 辅助线
100
AcDbDimension
  2
*D50
 10
199.4831991618339
 20
459.1174662481861
 30
0.0
 11
208.5711269783133
 21
440.6664323327203
 31
0.0
 12
42604.99314377502
 22
39711.26976665668
 32
0.0
 70
   132
 71
     5
 42
20.00000000000728
  3
33-原比例超大字无转$4
100
AcDbRadialDimension
 15
190.6461204317675
 25
477.0592063956501
 35
0.0
 40
0.0
1001
ACAD
1000
DSTYLE
1002
{
1070
   288
1070
     1
1002
}
  0
ENDBLK
  5
69A
330
67E
100
AcDbEntity
  8
0
100
AcDbBlockEnd
  0
BLOCK
  5
69D
330
69C
100
AcDbEntity
  8
0
100
AcDbBlockBegin
  2
*D52
 70
     1
 10
0.0
 20
0.0
 30
0.0
  3
*D52
  1

  0
LINE
  5
69E
330
69C
100
AcDbEntity
  8
1 辅助线
100
AcDbLine
 10
-41757.50994461322
 20
-39232.1523004085
 30
0.0
 11
-41818.65861086058
 21
-39232.1523004085
 31
0.0
  0
LINE
  5
69F
330
69C
100
AcDbEntity
  8
1 辅助线
100
AcDbLine
 10
-41733.50994461321
 20
-39684.15230040849
 30
0.0
 11
-41818.65861086058
 21
-39684.15230040849
 31
0.0
  0
LINE
  5
6A0
330
69C
100
AcDbEntity
  8
1 辅助线
370
     0
100
AcDbLine
 10
-41806.65861086058
 20
-39247.1523004085
 30
0.0
 11
-41806.65861086058
 21
-39421.67368533721
 31
0.0
  0
LINE
  5
6A1
330
69C
100
AcDbEntity
  8
1 辅助线
370
     0
100
AcDbLine
 10
-41806.65861086058
 20
-39669.15230040849
 30
0.0
 11
-41806.65861086058
 21
-39494.63091547978
 31
0.0
  0
SOLID
  5
6A2
330
69C
100
AcDbEntity
  8
1 辅助线
100
AcDbTrace
 10
-41809.15861086059
 20
-39247.1523004085
 30
0.0
 11
-41804.15861086058
 21
-39247.1523004085
 31
0.0
 12
-41806.65861086058
 22
-39232.1523004085
 32
0.0
 13
-41806.65861086058
 23
-39232.1523004085
 33
0.0
  0
SOLID
  5
6A3
330
69C
100
AcDbEntity
  8
1 辅助线
100
AcDbTrace
 10
-41809.15861086059
 20
-39669.15230040849
 30
0.0
 11
-41804.15861086058
 21
-39669.15230040849
 31
0.0
 12
-41806.65861086058
 22
-39684.15230040849
 32
0.0
 13
-41806.65861086058
 23
-39684.15230040849
 33
0.0
  0
MTEXT
  5
6A4
330
69C
100
AcDbEntity
  8
1 辅助线
100
AcDbMText
 10
-41806.65861086056
 20
-39441.36003971603
 30
0.0
 40
21.0
 41
0.0
 71
     5
 72
     1
  1
\A2;452
  7
Arial
 73
     1
 44
1.0
  0
MTEXT
  5
6A5
330
69C
100
AcDbEntity
  8
1 辅助线
100
AcDbMText
 10
-41806.65861086056
 20
-39477.83865478733
 30
0.0
 40
21.0
 41
0.0
 71
     5
 72
     1
  1
\A2;[17 3/4"]
  7
Arial
 73
     1
 44
1.0
  0
POINT
  5
6A6
330
69C
100
AcDbEntity
  8
Defpoints
 62
     0
100
AcDbPoint
 10
-41745.50994461322
 20
-39232.1523004085
 30
0.0
  0
POINT
  5
6A7
330
69C
100
AcDbEntity
  8
Defpoints
 62
     0
100
AcDbPoint
 10
-41721.5099446132
 20
-39684.15230040849
 30
0.0
  0
POINT
  5
6A8
330
69C
100
AcDbEntity
  8
Defpoints
 62
     0
100
AcDbPoint
 10
-41806.65861086058
 20
-39684.15230040849
 30
0.0
  0
ENDBLK
  5
6A9
330
69C
100
AcDbEntity
  8
0
100
AcDbBlockEnd
  0
BLOCK
  5
6AB
330
6AA
100
AcDbEntity
  8
0
100
AcDbBlockBegin
  2
*D53
 70
     1
 10
0.0
 20
0.0
 30
0.0
  3
*D53
  1

  0
LINE
  5
6AC
330
6AA
100
AcDbEntity
  8
1 辅助线
100
AcDbLine
 10
-41725.5099446132
 20
-39672.15230040849
 30
0.0
 11
-41725.5099446132
 21
-39568.83709473268
 31
0.0
  0
LINE
  5
6AD
330
6AA
100
AcDbEntity
  8
1 辅助线
100
AcDbLine
 10
-42425.5099446132
 20
-39672.15230040849
 30
0.0
 11
-42425.5099446132
 21
-39568.83709473268
 31
0.0
  0
LINE
  5
6AE
330
6AA
100
AcDbEntity
  8
1 辅助线
370
     0
100
AcDbLine
 10
-41740.5099446132
 20
-39580.83709473268
 30
0.0
 11
-42020.22481223031
 21
-39580.83709473268
 31
0.0
  0
LINE
  5
6AF
330
6AA
100
AcDbEntity
  8
1 辅助线
370
     0
100
AcDbLine
 10
-42410.50994461319
 20
-39580.83709473268
 30
0.0
 11
-42130.79507699609
 21
-39580.83709473268
 31
0.0
  0
SOLID
  5
6B0
330
6AA
100
AcDbEntity
  8
1 辅助线
100
AcDbTrace
 10
-41740.5099446132
 20
-39578.33709473268
 30
0.0
 11
-41740.5099446132
 21
-39583.33709473269
 31
0.0
 12
-41725.5099446132
 22
-39580.83709473268
 32
0.0
 13
-41725.5099446132
 23
-39580.83709473268
 33
0.0
  0
SOLID
  5
6B1
330
6AA
100
AcDbEntity
  8
1 辅助线
100
AcDbTrace
 10
-42410.50994461319
 20
-39578.33709473268
 30
0.0
 11
-42410.50994461319
 21
-39583.33709473269
 31
0.0
 12
-42425.5099446132
 22
-39580.83709473268
 32
0.0
 13
-42425.5099446132
 23
-39580.83709473268
 33
0.0
  0
MTEXT
  5
6B2
330
6AA
100
AcDbEntity
  8
1 辅助线
100
AcDbMText
 10
-42075.50994461318
 20
-39564.04483404022
 30
0.0
 40
21.0
 41
0.0
 71
     5
 72
     1
  1
\A2;700
  7
Arial
 73
     1
 44
1.0
  0
MTEXT
  5
6B3
330
6AA
100
AcDbEntity
  8
1 辅助线
100
AcDbMText
 10
-42075.50994461318
 20
-39600.5234491115
 30
0.0
 40
21.0
 41
0.0
 71
     5
 72
     1
  1
\A2;[27 1/2"]
  7
Arial
 73
     1
 44
1.0
  0
POINT
  5
6B4
330
6AA
100
AcDbEntity
  8
Defpoints
 62
     0
100
AcDbPoint
 10
-41725.5099446132
 20
-39684.15230040849
 30
0.0
  0
POINT
  5
6B5
330
6AA
100
AcDbEntity
  8
Defpoints
 62
     0
100
AcDbPoint
 10
-42425.5099446132
 20
-39684.15230040849
 30
0.0
  0
POINT
  5
6B6
330
6AA
100
AcDbEntity
  8
Defpoints
 62
     0
100
AcDbPoint
 10
-42425.5099446132
 20
-39580.83709473268
 30
0.0
  0
ENDBLK
  5
6B7
330
6AA
100
AcDbEntity
  8
0
100
AcDbBlockEnd
  0
BLOCK
  5
6B9
330
6B8
100
AcDbEntity
  8
0
100
AcDbBlockBegin
  2
*D54
 70
     1
 10
0.0
 20
0.0
 30
0.0
  3
*D54
  1

  0
LINE
  5
6BA
330
6B8
100
AcDbEntity
  8
1 辅助线
370
     0
100
AcDbLine
 10
-42381.42201679671
 20
-39270.60333432395
 30
0.0
 11
-42396.42201679671
 21
-39270.60333432395
 31
0.0
  0
LINE
  5
6BB
330
6B8
100
AcDbEntity
  8
1 辅助线
370
     0
100
AcDbLine
 10
-42396.42201679671
 20
-39270.60333432395
 30
0.0
 11
-42407.71921429572
 21
-39247.66686537163
 31
0.0
  0
MTEXT
  5
6BC
330
6B8
100
AcDbEntity
  8
1 辅助线
100
AcDbMText
 10
-42332.23158909813
 20
-39270.60333432396
 30
0.0
 40
21.0
 41
0.0
 71
     5
 72
     1
  1
\A2;R20\P [R3/4"]
  7
Arial
 73
     1
 44
1.0
  0
SOLID
  5
6BD
330
6B8
100
AcDbEntity
  8
1 辅助线
100
AcDbTrace
 10
-42405.47649677727
 20
-39246.56223053037
 30
0.0
 11
-42409.96193181413
 21
-39248.77150021288
 31
0.0
 12
-42414.34702334326
 22
-39234.21056026104
 32
0.0
 13
-42414.34702334326
 23
-39234.21056026104
 33
0.0
  0
POINT
  5
6BE
330
6B8
100
AcDbEntity
  8
Defpoints
 62
     0
100
AcDbPoint
 10
-42414.34702334326
 20
-39234.21056026104
 30
0.0
  0
POINT
  5
6BF
330
6B8
100
AcDbEntity
  8
Defpoints
 62
     0
100
AcDbPoint
 10
-42405.5099446132
 20
-39252.1523004085
 30
0.0
  0
ENDBLK
  5
6C0
330
6B8
100
AcDbEntity
  8
0
100
AcDbBlockEnd
  0
BLOCK
  5
6DC
330
6C1
100
AcDbEntity
  8
0
100
AcDbBlockBegin
  2
A$C67844AE1
 70
     0
 10
0.0
 20
0.0
 30
0.0
  3
A$C67844AE1
  1

  0
LINE
  5
6C2
330
6C1
100
AcDbEntity
  8
1 辅助线
100
AcDbLine
 10
879.4831991618266
 20
27.11746624819352
 30
0.0
 11
879.4831991618266
 21
459.1174662481861
 31
0.0
  0
ARC
  5
6C3
330
6C1
100
AcDbEntity
  8
1 辅助线
100
AcDbCircle
 10
859.4831991618265
 20
459.1174662481861
 30
0.0
 40
20.0
100
AcDbArc
 50
0.0
 51
90.0
  0
LINE
  5
6C4
102
{ACAD_REACTORS
330
6CF
102
}
330
6C1
100
AcDbEntity
  8
1 辅助线
100
AcDbLine
 10
859.4831991618265
 20
479.1174662481862
 30
0.0
 11
199.4831991618193
 21
479.1174662481934
 31
0.0
  0
LINE
  5
6C5
330
6C1
100
AcDbEntity
  8
1 辅助线
100
AcDbLine
 10
179.4831991618193
 20
459.1174662481935
 30
0.0
 11
179.4831991618266
 21
27.11746624819352
 31
0.0
  0
ARC
  5
6C6
102
{ACAD_REACTORS
330
6D9
102
}
330
6C1
100
AcDbEntity
  8
1 辅助线
100
AcDbCircle
 10
199.4831991618193
 20
459.1174662481935
 30
0.0
 40
20.0
100
AcDbArc
 50
90.0
 51
180.0
  0
LINE
  5
6C7
330
6C1
100
AcDbEntity
  8
1 辅助线
100
AcDbLine
 10
179.4831991618266
 20
27.11746624819352
 30
0.0
 11
2.309156287694348
 21
27.11746624819352
 31
0.0
  0
LINE
  5
6C8
330
6C1
100
AcDbEntity
  8
1 辅助线
100
AcDbLine
 10
879.4831991618266
 20
27.11746624819352
 30
0.0
 11
1064.636181577341
 21
27.11746624819352
 31
0.0
  0
LWPOLYLINE
  5
6C9
330
6C1
100
AcDbEntity
  8
1 辅助线
  6
DASHED
370
     0
100
AcDbPolyline
 90
        8
 70
     1
 43
0.0
 10
186.9831991618339
 20
4.617466248193521
 10
871.9831991618411
 20
4.617466248193521
 42
0.4142135623730951
 10
911.9831991618413
 20
44.61746624819352
 10
911.9831991618339
 20
471.6174662481935
 42
0.414213562373094
 10
871.9831991618338
 20
511.6174662481935
 10
186.9831991618412
 20
511.6174662481935
 42
0.414213562373094
 10
146.9831991618412
 20
471.6174662481935
 10
146.9831991618339
 20
44.61746624819352
 42
0.4142135623730966
  0
LWPOLYLINE
  5
6CA
330
6C1
100
AcDbEntity
  8
1 辅助线
  6
DASHED
370
     0
100
AcDbPolyline
 90
        8
 70
     1
 43
0.0
 10
194.4831991618412
 20
27.11746624819352
 10
864.4831991618337
 20
27.11746624818625
 42
0.4142135623730959
 10
889.4831991618337
 20
52.11746624818625
 10
889.4831991618337
 20
464.1174662481861
 42
0.4142135623730943
 10
864.4831991618337
 20
489.1174662481861
 10
194.4831991618339
 20
489.1174662481935
 42
0.4142135623730961
 10
169.4831991618339
 20
464.1174662481935
 10
169.4831991618412
 20
52.11746624819352
 42
0.4142135623730935
  0
CIRCLE
  5
6CB
330
6C1
100
AcDbEntity
  8
1 辅助线
  6
DASHED
370
     0
100
AcDbCircle
 10
529.4831991618337
 20
252.1174662481935
 30
0.0
 40
45.0
  0
CIRCLE
  5
6CC
330
6C1
100
AcDbEntity
  8
1 辅助线
  6
DASHED
370
     0
100
AcDbCircle
 10
529.4831991618337
 20
252.1174662481935
 30
0.0
 40
57.0
  0
DIMENSION
  5
6CD
102
{ACAD_XDICTIONARY
360
6CE
102
}
102
{ACAD_REACTORS
330
6CF
102
}
330
6C1
100
AcDbEntity
  8
1 辅助线
100
AcDbDimension
  2
*D52
 10
798.3345329144504
 20
27.11746624819352
 30
0.0
 11
798.3345329144577
 21
253.117466248179
 31
0.0
 12
42604.99314377502
 22
39711.26976665668
 32
0.0
 71
     5
 42
451.9999999999925
  3
33-原比例超大字无转
100
AcDbAlignedDimension
 13
859.4831991618265
 23
479.1174662481862
 33
0.0
 14
883.4831991618266
 24
27.11746624819352
 34
0.0
 50
90.0
100
AcDbRotatedDimension
  0
MTEXT
  5
6D0
330
6C1
100
AcDbEntity
  8
1 辅助线
100
AcDbMText
 10
1018.431279258162
 20
20.33906179250335
 30
0.0
 40
15.0
 41
234.5507412407314
 71
     1
 72
     5
  1
Front
  7
Arial
 73
     1
 44
1.0
  0
LINE
  5
6D1
330
6C1
100
AcDbEntity
  8
1 辅助线
  6
DASHED
100
AcDbLine
 10
189.092396354943
 20
615.52113121
 30
0.0
 11
279.1610321059707
 21
615.52113121
 31
0.0
  0
TEXT
  5
6D2
330
6C1
100
AcDbEntity
  8
1 辅助线
100
AcDbText
 10
303.3795705660596
 20
605.8806367049255
 30
0.0
 40
21.875
  1
SINK LINE
  7
Arial
100
AcDbText
  0
TEXT
  5
6D3
330
6C1
100
AcDbEntity
  8
1 辅助线
100
AcDbText
 10
687.4175647503578
 20
605.8806367049255
 30
0.0
 40
21.875
  1
CUTOUT LINE
  7
Arial
100
AcDbText
  0
LINE
  5
6D4
330
6C1
100
AcDbEntity
  8
1 辅助线
100
AcDbLine
 10
573.1303905392413
 20
615.52113121
 30
0.0
 11
663.1990262902689
 21
615.52113121
 31
0.0
  0
MTEXT
  5
6D5
330
6C1
100
AcDbEntity
  8
1 辅助线
100
AcDbMText
 10
2.605249625921715
 20
20.33906179250335
 30
0.0
 40
15.0
 41
234.5507412407314
 71
     1
 72
     5
  1
Front
  7
Arial
 73
     1
 44
1.0
  0
DIMENSION
  5
6D6
330
6C1
100
AcDbEntity
  8
1 辅助线
100
AcDbDimension
  2
*D53
 10
179.4831991618266
 20
130.4326719240052
 30
0.0
 11
529.4831991618266
 21
130.4326719240052
 31
0.0
 12
42604.99314377502
 22
39711.26976665668
 32
0.0
 71
     5
 42
700.0
  3
33-原比例超大字无转
100
AcDbAlignedDimension
 13
879.4831991618266
 23
27.11746624819352
 33
0.0
 14
179.4831991618266
 24
27.11746624819352
 34
0.0
100
AcDbRotatedDimension
  0
DIMENSION
  5
6D7
102
{ACAD_XDICTIONARY
360
6D8
102
}
102
{ACAD_REACTORS
330
6D9
102
}
330
6C1
100
AcDbEntity
  8
1 辅助线
100
AcDbDimension
  2
*D54
 10
199.4831991618339
 20
459.1174662481861
 30
0.0
 11
208.5711269783133
 21
440.6664323327203
 31
0.0
 12
42604.99314377502
 22
39711.26976665668
 32
0.0
 70
   132
 71
     5
 42
20.00000000000728
  3
33-原比例超大字无转$4
100
AcDbRadialDimension
 15
190.6461204317675
 25
477.0592063956501
 35
0.0
 40
0.0
1001
ACAD
1000
DSTYLE
1002
{
1070
   288
1070
     1
1002
}
  0
ENDBLK
  5
6DD
330
6C1
100
AcDbEntity
  8
0
100
AcDbBlockEnd
  0
BLOCK
  5
6DF
330
6DE
100
AcDbEntity
  8
0
100
AcDbBlockBegin
  2
3020LS
 70
     0
 10
0.0
 20
0.0
 30
0.0
  3
3020LS
  1

  0
LWPOLYLINE
  5
6E1
330
6DE
100
AcDbEntity
  8
1 辅助线
  6
DASHED
100
AcDbPolyline
 90
        8
 70
     1
 43
0.0
 10
974.0374307497702
 20
-1591.991912217641
 10
1720.03743074977
 20
-1591.991912217641
 42
0.4142135623730951
 10
1728.03743074977
 20
-1583.991912217641
 10
1728.03743074977
 20
-1091.991912217641
 42
0.4142135623730953
 10
1720.03743074977
 20
-1083.991912217641
 10
974.0374307497702
 20
-1083.991912217641
 42
0.4142135623730951
 10
966.0374307497702
 20
-1091.991912217641
 10
966.0374307497702
 20
-1583.991912217641
 42
0.4142135623730953
  0
LINE
  5
6E2
330
6DE
100
AcDbEntity
  8
1 辅助线
  6
DASHED
100
AcDbLine
 10
1008.937430749772
 20
-1566.591912217639
 30
0.0
 11
1685.137430749769
 21
-1566.591912217639
 31
0.0
  0
ARC
  5
6E3
330
6DE
100
AcDbEntity
  8
1 辅助线
  6
DASHED
100
AcDbCircle
 10
1685.137430749769
 20
-1549.091912217639
 30
0.0
 40
17.5
100
AcDbArc
 50
270.0
 51
0.0
  0
LINE
  5
6E4
330
6DE
100
AcDbEntity
  8
1 辅助线
  6
DASHED
100
AcDbLine
 10
1702.637430749769
 20
-1549.091912217639
 30
0.0
 11
1702.637430749769
 21
-1141.891912217642
 31
0.0
  0
ARC
  5
6E5
330
6DE
100
AcDbEntity
  8
1 辅助线
  6
DASHED
100
AcDbCircle
 10
1687.637430749769
 20
-1141.891912217642
 30
0.0
 40
15.0
100
AcDbArc
 50
0.0
 51
90.0
  0
ARC
  5
6E6
330
6DE
100
AcDbEntity
  8
1 辅助线
  6
DASHED
100
AcDbCircle
 10
1685.137430749769
 20
-1126.891912217642
 30
0.0
 40
17.5
100
AcDbArc
 50
0.0
 51
90.0
  0
LINE
  5
6E7
330
6DE
100
AcDbEntity
  8
1 辅助线
  6
DASHED
100
AcDbLine
 10
1685.137430749769
 20
-1109.391912217642
 30
0.0
 11
1008.937430749772
 21
-1109.391912217649
 31
0.0
  0
ARC
  5
6E8
330
6DE
100
AcDbEntity
  8
1 辅助线
  6
DASHED
100
AcDbCircle
 10
1008.937430749772
 20
-1126.891912217649
 30
0.0
 40
17.5
100
AcDbArc
 50
90.0
 51
180.0
  0
LINE
  5
6E9
330
6DE
100
AcDbEntity
  8
1 辅助线
  6
DASHED
100
AcDbLine
 10
991.437430749772
 20
-1141.891912217649
 30
0.0
 11
991.437430749772
 21
-1549.091912217639
 31
0.0
  0
ARC
  5
6EA
330
6DE
100
AcDbEntity
  8
1 辅助线
  6
DASHED
100
AcDbCircle
 10
1006.437430749772
 20
-1534.091912217639
 30
0.0
 40
15.0
100
AcDbArc
 50
180.0
 51
270.0
  0
ARC
  5
6EB
330
6DE
100
AcDbEntity
  8
1 辅助线
  6
DASHED
100
AcDbCircle
 10
1006.437430749772
 20
-1141.891912217649
 30
0.0
 40
15.0
100
AcDbArc
 50
90.0
 51
180.0
  0
ARC
  5
6EC
330
6DE
100
AcDbEntity
  8
1 辅助线
  6
DASHED
100
AcDbCircle
 10
1008.937430749772
 20
-1549.091912217639
 30
0.0
 40
17.5
100
AcDbArc
 50
180.0
 51
270.0
  0
LINE
  5
6ED
330
6DE
100
AcDbEntity
  8
1 辅助线
  6
DASHED
100
AcDbLine
 10
1006.437430749772
 20
-1549.091912217639
 30
0.0
 11
1687.637430749769
 21
-1549.091912217639
 31
0.0
  0
ARC
  5
6EE
330
6DE
100
AcDbEntity
  8
1 辅助线
  6
DASHED
100
AcDbCircle
 10
1687.637430749769
 20
-1534.091912217639
 30
0.0
 40
15.0
100
AcDbArc
 50
270.0
 51
0.0
  0
LINE
  5
6EF
330
6DE
100
AcDbEntity
  8
1 辅助线
  6
DASHED
100
AcDbLine
 10
1687.637430749769
 20
-1126.891912217642
 30
0.0
 11
1006.437430749772
 21
-1126.891912217649
 31
0.0
  0
CIRCLE
  5
6F0
330
6DE
100
AcDbEntity
  8
1 辅助线
  6
DASHED
100
AcDbCircle
 10
1347.03743074977
 20
-1336.991912217641
 30
0.0
 40
45.0
  0
CIRCLE
  5
6F1
330
6DE
100
AcDbEntity
  8
1 辅助线
  6
DASHED
100
AcDbCircle
 10
1347.03743074977
 20
-1336.991912217641
 30
0.0
 40
57.0
  0
LINE
  5
6F2
330
6DE
100
AcDbEntity
  8
1 辅助线
  6
DASHED
100
AcDbLine
 10
991.437430749772
 20
-1141.891912217649
 30
0.0
 11
991.437430749772
 21
-1126.891912217649
 31
0.0
  0
LINE
  5
6F3
330
6DE
100
AcDbEntity
  8
1 辅助线
  6
DASHED
100
AcDbLine
 10
1702.637430749769
 20
-1141.891912217642
 30
0.0
 11
1702.637430749769
 21
-1126.891912217642
 31
0.0
  0
ENDBLK
  5
6E0
330
6DE
100
AcDbEntity
  8
0
100
AcDbBlockEnd
  0
BLOCK
  5
78F
330
78E
100
AcDbEntity
  8
0
100
AcDbBlockBegin
  2
3320LS
 70
     0
 10
0.0
 20
0.0
 30
0.0
  3
3320LS
  1

  0
LWPOLYLINE
  5
791
330
78E
100
AcDbEntity
  8
1 辅助线
  6
DASHED
100
AcDbPolyline
 90
        8
 70
     1
 43
0.0
 10
3469.594804953581
 20
641.528582984341
 10
4291.594804953581
 20
641.528582984341
 42
0.4142135623730951
 10
4299.594804953581
 20
649.528582984341
 10
4299.594804953581
 20
1141.528582984341
 42
0.4142135623730953
 10
4291.594804953581
 20
1149.528582984341
 10
3469.594804953581
 20
1149.528582984341
 42
0.4142135623730951
 10
3461.594804953581
 20
1141.528582984341
 10
3461.594804953581
 20
649.528582984341
 42
0.4142135623730953
  0
LINE
  5
792
330
78E
100
AcDbEntity
  8
1 辅助线
  6
DASHED
100
AcDbLine
 10
3504.994804953582
 20
666.9285829843422
 30
0.0
 11
4256.194804953579
 21
666.9285829843422
 31
0.0
  0
ARC
  5
793
330
78E
100
AcDbEntity
  8
1 辅助线
  6
DASHED
100
AcDbCircle
 10
4256.194804953579
 20
684.9285829843425
 30
0.0
 40
18.0
100
AcDbArc
 50
270.0
 51
0.0
  0
LINE
  5
794
330
78E
100
AcDbEntity
  8
1 辅助线
  6
DASHED
100
AcDbLine
 10
4274.194804953579
 20
684.9285829843425
 30
0.0
 11
4274.194804953579
 21
1091.628582984339
 31
0.0
  0
ARC
  5
795
330
78E
100
AcDbEntity
  8
1 辅助线
  6
DASHED
100
AcDbCircle
 10
4259.194804953579
 20
1091.628582984339
 30
0.0
 40
15.0
100
AcDbArc
 50
0.0
 51
90.0
  0
LINE
  5
796
330
78E
100
AcDbEntity
  8
1 辅助线
  6
DASHED
100
AcDbLine
 10
4256.194804953579
 20
1124.128582984339
 30
0.0
 11
3504.994804953582
 21
1124.128582984332
 31
0.0
  0
LINE
  5
797
330
78E
100
AcDbEntity
  8
1 辅助线
  6
DASHED
100
AcDbLine
 10
3486.994804953582
 20
1091.628582984332
 30
0.0
 11
3486.994804953582
 21
684.9285829843424
 31
0.0
  0
ARC
  5
798
330
78E
100
AcDbEntity
  8
1 辅助线
  6
DASHED
100
AcDbCircle
 10
3504.994804953582
 20
684.9285829843424
 30
0.0
 40
18.0
100
AcDbArc
 50
180.0
 51
270.0
  0
ARC
  5
799
330
78E
100
AcDbEntity
  8
1 辅助线
  6
DASHED
100
AcDbCircle
 10
3501.994804953583
 20
699.4285829843421
 30
0.0
 40
15.0
100
AcDbArc
 50
180.0
 51
270.0
  0
ARC
  5
79A
330
78E
100
AcDbEntity
  8
1 辅助线
  6
DASHED
100
AcDbCircle
 10
3501.994804953583
 20
1091.628582984332
 30
0.0
 40
15.0
100
AcDbArc
 50
90.0
 51
180.0
  0
LINE
  5
79B
330
78E
100
AcDbEntity
  8
1 辅助线
  6
DASHED
100
AcDbLine
 10
3501.994804953583
 20
684.4285829843425
 30
0.0
 11
4259.194804953579
 21
684.4285829843425
 31
0.0
  0
ARC
  5
79C
330
78E
100
AcDbEntity
  8
1 辅助线
  6
DASHED
100
AcDbCircle
 10
4259.194804953579
 20
699.4285829843421
 30
0.0
 40
15.0
100
AcDbArc
 50
270.0
 51
0.0
  0
LINE
  5
79D
330
78E
100
AcDbEntity
  8
1 辅助线
  6
DASHED
100
AcDbLine
 10
4259.194804953579
 20
1106.628582984339
 30
0.0
 11
3501.994804953583
 21
1106.628582984332
 31
0.0
  0
CIRCLE
  5
79E
330
78E
100
AcDbEntity
  8
1 辅助线
  6
DASHED
100
AcDbCircle
 10
3880.594804953581
 20
896.5285829843407
 30
0.0
 40
45.0
  0
CIRCLE
  5
79F
330
78E
100
AcDbEntity
  8
1 辅助线
  6
DASHED
100
AcDbCircle
 10
3880.594804953581
 20
896.5285829843407
 30
0.0
 40
57.0
  0
LINE
  5
7A0
330
78E
100
AcDbEntity
  8
1 辅助线
  6
DASHED
100
AcDbLine
 10
3486.994804953582
 20
1091.628582984332
 30
0.0
 11
3486.994804953582
 21
1106.128582984332
 31
0.0
  0
ARC
  5
7A1
330
78E
100
AcDbEntity
  8
1 辅助线
  6
DASHED
100
AcDbCircle
 10
3504.994804953582
 20
1106.128582984332
 30
0.0
 40
18.0
100
AcDbArc
 50
90.00000000000055
 51
180.0
  0
LINE
  5
7A2
330
78E
100
AcDbEntity
  8
1 辅助线
  6
DASHED
100
AcDbLine
 10
4274.194804953579
 20
1091.628582984339
 30
0.0
 11
4274.194804953579
 21
1106.128582984339
 31
0.0
  0
ARC
  5
7A3
330
78E
100
AcDbEntity
  8
1 辅助线
  6
DASHED
100
AcDbCircle
 10
4256.194804953579
 20
1106.128582984339
 30
0.0
 40
18.0
100
AcDbArc
 50
0.0
 51
90.00000000000055
  0
ENDBLK
  5
790
330
78E
100
AcDbEntity
  8
0
100
AcDbBlockEnd
  0
BLOCK
  5
7A6
330
7A5
100
AcDbEntity
  8
0
100
AcDbBlockBegin
  2
3320LD
 70
     0
 10
0.0
 20
0.0
 30
0.0
  3
3320LD
  1

  0
LWPOLYLINE
  5
7A8
330
7A5
100
AcDbEntity
  8
1 辅助线
  6
DASHED
100
AcDbPolyline
 90
        8
 70
     1
 43
0.0
 10
5960.978027375446
 20
641.528582984341
 10
6782.978027375446
 20
641.528582984341
 42
0.4142135623730951
 10
6790.978027375444
 20
649.528582984341
 10
6790.978027375444
 20
1141.528582984341
 42
0.4142135623730953
 10
6782.978027375446
 20
1149.528582984341
 10
5960.978027375446
 20
1149.528582984341
 42
0.4142135623730951
 10
5952.978027375446
 20
1141.528582984341
 10
5952.978027375446
 20
649.528582984341
 42
0.4142135623730953
  0
LINE
  5
7A9
330
7A5
100
AcDbEntity
  8
1 辅助线
  6
DASHED
100
AcDbLine
 10
5996.378027375445
 20
666.9285829843422
 30
0.0
 11
6747.578027375443
 21
666.9285829843422
 31
0.0
  0
ARC
  5
7AA
330
7A5
100
AcDbEntity
  8
1 辅助线
  6
DASHED
100
AcDbCircle
 10
6747.578027375443
 20
684.9285829843425
 30
0.0
 40
18.0
100
AcDbArc
 50
270.0
 51
0.0
  0
ARC
  5
7AB
330
7A5
100
AcDbEntity
  8
1 辅助线
  6
DASHED
100
AcDbCircle
 10
5996.378027375445
 20
684.9285829843422
 30
0.0
 40
18.0
100
AcDbArc
 50
179.9999999999998
 51
270.0
  0
LINE
  5
7AC
330
7A5
100
AcDbEntity
  8
1 辅助线
  6
DASHED
100
AcDbLine
 10
6765.578027375443
 20
684.9285829843425
 30
0.0
 11
6765.578027375443
 21
1091.628582984339
 31
0.0
  0
ARC
  5
7AD
330
7A5
100
AcDbEntity
  8
1 辅助线
  6
DASHED
100
AcDbCircle
 10
6750.578027375444
 20
1091.628582984339
 30
0.0
 40
15.0
100
AcDbArc
 50
0.0
 51
90.0
  0
LINE
  5
7AE
330
7A5
100
AcDbEntity
  8
1 辅助线
  6
DASHED
100
AcDbLine
 10
6747.578027375443
 20
1124.128582984339
 30
0.0
 11
5996.378027375445
 21
1124.128582984332
 31
0.0
  0
LINE
  5
7AF
330
7A5
100
AcDbEntity
  8
1 辅助线
  6
DASHED
100
AcDbLine
 10
5978.378027375446
 20
1091.628582984332
 30
0.0
 11
5978.378027375446
 21
684.9285829843422
 31
0.0
  0
ARC
  5
7B0
330
7A5
100
AcDbEntity
  8
1 辅助线
  6
DASHED
100
AcDbCircle
 10
5993.378027375445
 20
699.4285829843421
 30
0.0
 40
15.0
100
AcDbArc
 50
180.0
 51
270.0
  0
ARC
  5
7B1
330
7A5
100
AcDbEntity
  8
1 辅助线
  6
DASHED
100
AcDbCircle
 10
5993.378027375445
 20
1091.628582984332
 30
0.0
 40
15.0
100
AcDbArc
 50
90.0
 51
180.0
  0
LINE
  5
7B2
330
7A5
100
AcDbEntity
  8
1 辅助线
  6
DASHED
100
AcDbLine
 10
5993.378027375445
 20
684.4285829843425
 30
0.0
 11
6750.578027375444
 21
684.4285829843425
 31
0.0
  0
ARC
  5
7B3
330
7A5
100
AcDbEntity
  8
1 辅助线
  6
DASHED
100
AcDbCircle
 10
6750.578027375444
 20
699.4285829843421
 30
0.0
 40
15.0
100
AcDbArc
 50
270.0
 51
0.0
  0
LINE
  5
7B4
330
7A5
100
AcDbEntity
  8
1 辅助线
  6
DASHED
100
AcDbLine
 10
6344.278027375448
 20
1106.628582984332
 30
0.0
 11
5993.378027375445
 21
1106.628582984332
 31
0.0
  0
ARC
  5
7B5
330
7A5
100
AcDbEntity
  8
1 辅助线
  6
DASHED
100
AcDbCircle
 10
6344.278027375448
 20
1091.628582984332
 30
0.0
 40
15.0
100
AcDbArc
 50
0.0
 51
90.0
  0
CIRCLE
  5
7B6
330
7A5
100
AcDbEntity
  8
1 辅助线
  6
DASHED
100
AcDbCircle
 10
6168.828027375443
 20
895.5285829843408
 30
0.0
 40
45.0
  0
CIRCLE
  5
7B7
330
7A5
100
AcDbEntity
  8
1 辅助线
  6
DASHED
100
AcDbCircle
 10
6168.828027375443
 20
895.5285829843408
 30
0.0
 40
57.0
  0
LINE
  5
7B8
330
7A5
100
AcDbEntity
  8
1 辅助线
  6
DASHED
100
AcDbLine
 10
5978.378027375446
 20
1091.628582984332
 30
0.0
 11
5978.378027375446
 21
1106.128582984332
 31
0.0
  0
ARC
  5
7B9
330
7A5
100
AcDbEntity
  8
1 辅助线
  6
DASHED
100
AcDbCircle
 10
5996.378027375445
 20
1106.128582984332
 30
0.0
 40
18.0
100
AcDbArc
 50
90.00000000000055
 51
180.0
  0
LINE
  5
7BA
330
7A5
100
AcDbEntity
  8
1 辅助线
  6
DASHED
100
AcDbLine
 10
6765.578027375443
 20
1091.628582984339
 30
0.0
 11
6765.578027375442
 21
1106.12858298434
 31
0.0
  0
ARC
  5
7BB
330
7A5
100
AcDbEntity
  8
1 辅助线
  6
DASHED
100
AcDbCircle
 10
6747.578027375443
 20
1106.128582984339
 30
0.0
 40
18.0
100
AcDbArc
 50
0.0000000000035877
 51
90.00000000000055
  0
LINE
  5
7BC
330
7A5
100
AcDbEntity
  8
1 辅助线
  6
DASHED
100
AcDbLine
 10
6359.278027375448
 20
1091.628582984332
 30
0.0
 11
6359.278027375448
 21
699.4285829843498
 31
0.0
  0
LINE
  5
7BD
330
7A5
100
AcDbEntity
  8
1 辅助线
  6
DASHED
100
AcDbLine
 10
6384.678027375442
 20
1091.628582984339
 30
0.0
 11
6384.678027375442
 21
699.4285829843421
 31
0.0
  0
ARC
  5
7BE
330
7A5
100
AcDbEntity
  8
1 辅助线
  6
DASHED
100
AcDbCircle
 10
6399.678027375443
 20
1091.628582984339
 30
0.0
 40
15.0
100
AcDbArc
 50
90.0
 51
180.0
  0
LINE
  5
7BF
330
7A5
100
AcDbEntity
  8
1 辅助线
  6
DASHED
100
AcDbLine
 10
6399.678027375443
 20
1106.628582984339
 30
0.0
 11
6750.578027375444
 21
1106.628582984339
 31
0.0
  0
LINE
  5
7C0
330
7A5
100
AcDbEntity
  8
1 辅助线
  6
DASHED
100
AcDbLine
 10
6399.678027375443
 20
1106.628582984339
 30
0.0
 11
6344.278027375448
 21
1106.628582984332
 31
0.0
  0
ARC
  5
7C1
330
7A5
100
AcDbEntity
  8
1 辅助线
  6
DASHED
100
AcDbCircle
 10
6344.278027375448
 20
699.4285829843498
 30
0.0
 40
15.0
100
AcDbArc
 50
270.0
 51
0.0
  0
ARC
  5
7C2
330
7A5
100
AcDbEntity
  8
1 辅助线
  6
DASHED
100
AcDbCircle
 10
6399.678027375443
 20
699.4285829843421
 30
0.0
 40
15.0
100
AcDbArc
 50
180.0
 51
270.0
  0
LINE
  5
7C3
330
7A5
100
AcDbEntity
  8
1 辅助线
  6
DASHED
100
AcDbLine
 10
6399.678027375443
 20
684.4285829843425
 30
0.0
 11
6344.278027375448
 21
684.4285829843498
 31
0.0
  0
CIRCLE
  5
7C4
330
7A5
100
AcDbEntity
  8
1 辅助线
  6
DASHED
100
AcDbCircle
 10
6575.128027375446
 20
895.5285829843408
 30
0.0
 40
45.0
  0
CIRCLE
  5
7C5
330
7A5
100
AcDbEntity
  8
1 辅助线
  6
DASHED
100
AcDbCircle
 10
6575.128027375446
 20
895.5285829843408
 30
0.0
 40
57.0
  0
ENDBLK
  5
7A7
330
7A5
100
AcDbEntity
  8
0
100
AcDbBlockEnd
  0
BLOCK
  5
7DC
330
7D2
100
AcDbEntity
  8
0
100
AcDbBlockBegin
  2
*D59
 70
     1
 10
0.0
 20
0.0
 30
0.0
  3
*D59
  1

  0
LINE
  5
7DF
330
7D2
100
AcDbEntity
  8
0
 62
     0
370
    -2
100
AcDbLine
 10
3504.369804953583
 20
1124.128582984332
 30
0.0
 11
3327.760581834402
 21
1124.128582984332
 31
0.0
  0
LINE
  5
7E0
330
7D2
100
AcDbEntity
  8
0
 62
     0
370
    -2
100
AcDbLine
 10
3504.369804953583
 20
666.9285829843422
 30
0.0
 11
3327.760581834402
 21
666.9285829843422
 31
0.0
  0
LINE
  5
7E1
330
7D2
100
AcDbEntity
  8
0
 62
     0
370
    -2
100
AcDbLine
 10
3329.010581834403
 20
1121.628582984332
 30
0.0
 11
3329.010581834402
 21
669.4285829843424
 31
0.0
  0
SOLID
  5
7E2
330
7D2
100
AcDbEntity
  8
0
 62
     0
100
AcDbTrace
 10
3328.593915167736
 20
1121.628582984332
 30
0.0
 11
3329.427248501069
 21
1121.628582984332
 31
0.0
 12
3329.010581834403
 22
1124.128582984332
 32
0.0
 13
3329.010581834403
 23
1124.128582984332
 33
0.0
  0
SOLID
  5
7E3
330
7D2
100
AcDbEntity
  8
0
 62
     0
100
AcDbTrace
 10
3328.593915167735
 20
669.4285829843424
 30
0.0
 11
3329.427248501069
 21
669.4285829843424
 31
0.0
 12
3329.010581834402
 22
666.9285829843422
 32
0.0
 13
3329.010581834402
 23
666.9285829843422
 33
0.0
  0
MTEXT
  5
7E4
330
7D2
100
AcDbEntity
  8
0
 62
     0
100
AcDbMText
 10
3326.927248501068
 20
895.5285829843377
 30
0.0
 40
2.5
 41
0.0
 71
     5
 72
     1
  1
457,2
 11
0.0000000000000001
 21
1.0
 31
0.0
 73
     1
 44
1.0
  0
POINT
  5
7E5
330
7D2
100
AcDbEntity
  8
Defpoints
 62
     0
100
AcDbPoint
 10
3504.994804953582
 20
1124.128582984332
 30
0.0
  0
POINT
  5
7E6
330
7D2
100
AcDbEntity
  8
Defpoints
 62
     0
100
AcDbPoint
 10
3504.994804953582
 20
666.9285829843422
 30
0.0
  0
POINT
  5
7E7
330
7D2
100
AcDbEntity
  8
Defpoints
 62
     0
100
AcDbPoint
 10
3329.010581834402
 20
666.9285829843422
 30
0.0
  0
ENDBLK
  5
7DD
330
7D2
100
AcDbEntity
  8
0
100
AcDbBlockEnd
  0
BLOCK
  5
80C
330
802
100
AcDbEntity
  8
0
100
AcDbBlockBegin
  2
*D60
 70
     1
 10
0.0
 20
0.0
 30
0.0
  3
*D60
  1

  0
LINE
  5
819
330
802
100
AcDbEntity
  8
0
 62
     0
370
    -2
100
AcDbLine
 10
3486.369804953581
 20
-162.3815372374255
 30
0.0
 11
3413.499273804657
 21
-162.3815372374255
 31
0.0
  0
LINE
  5
81A
330
802
100
AcDbEntity
  8
0
 62
     0
370
    -2
100
AcDbLine
 10
3486.369804953581
 20
-205.381537237427
 30
0.0
 11
3413.499273804657
 21
-205.381537237427
 31
0.0
  0
LINE
  5
81B
330
802
100
AcDbEntity
  8
0
 62
     0
370
    -2
100
AcDbLine
 10
3414.749273804658
 20
-164.8815372374255
 30
0.0
 11
3414.749273804658
 21
-202.881537237427
 31
0.0
  0
SOLID
  5
81C
330
802
100
AcDbEntity
  8
0
 62
     0
100
AcDbTrace
 10
3414.33260713799
 20
-164.8815372374255
 30
0.0
 11
3415.165940471324
 21
-164.8815372374255
 31
0.0
 12
3414.749273804658
 22
-162.3815372374255
 32
0.0
 13
3414.749273804658
 23
-162.3815372374255
 33
0.0
  0
SOLID
  5
81D
330
802
100
AcDbEntity
  8
0
 62
     0
100
AcDbTrace
 10
3414.33260713799
 20
-202.881537237427
 30
0.0
 11
3415.165940471324
 21
-202.881537237427
 31
0.0
 12
3414.749273804658
 22
-205.381537237427
 32
0.0
 13
3414.749273804658
 23
-205.381537237427
 33
0.0
  0
MTEXT
  5
81E
330
802
100
AcDbEntity
  8
0
 62
     0
100
AcDbMText
 10
3412.874273804657
 20
-183.8815372374257
 30
0.0
 40
2.5
 41
0.0
 71
     5
 72
     1
  1
43
 11
0.0000000000000001
 21
1.0
 31
0.0
 73
     1
 44
1.0
  0
POINT
  5
81F
330
802
100
AcDbEntity
  8
Defpoints
 62
     0
100
AcDbPoint
 10
3486.994804953582
 20
-162.3815372374255
 30
0.0
  0
POINT
  5
820
330
802
100
AcDbEntity
  8
Defpoints
 62
     0
100
AcDbPoint
 10
3486.994804953582
 20
-205.381537237427
 30
0.0
  0
POINT
  5
821
330
802
100
AcDbEntity
  8
Defpoints
 62
     0
100
AcDbPoint
 10
3414.749273804658
 20
-205.381537237427
 30
0.0
  0
ENDBLK
  5
80D
330
802
100
AcDbEntity
  8
0
100
AcDbBlockEnd
  0
BLOCK
  5
858
330
84E
100
AcDbEntity
  8
0
100
AcDbBlockBegin
  2
*D61
 70
     1
 10
0.0
 20
0.0
 30
0.0
  3
*D61
  1

  0
LINE
  5
85B
330
84E
100
AcDbEntity
  8
0
 62
     0
370
    -2
100
AcDbLine
 10
3486.369804953581
 20
-161.9815372374256
 30
0.0
 11
3481.496914250806
 21
-161.9815372374256
 31
0.0
  0
LINE
  5
85C
330
84E
100
AcDbEntity
  8
0
 62
     0
370
    -2
100
AcDbLine
 10
3486.369804953581
 20
-205.381537237427
 30
0.0
 11
3481.496914250806
 21
-205.381537237427
 31
0.0
  0
LINE
  5
85D
330
84E
100
AcDbEntity
  8
0
 62
     0
370
    -2
100
AcDbLine
 10
3482.746914250805
 20
-164.4815372374256
 30
0.0
 11
3482.746914250805
 21
-202.881537237427
 31
0.0
  0
SOLID
  5
85E
330
84E
100
AcDbEntity
  8
0
 62
     0
100
AcDbTrace
 10
3482.330247584139
 20
-164.4815372374256
 30
0.0
 11
3483.163580917472
 21
-164.4815372374256
 31
0.0
 12
3482.746914250805
 22
-161.9815372374256
 32
0.0
 13
3482.746914250805
 23
-161.9815372374256
 33
0.0
  0
SOLID
  5
85F
330
84E
100
AcDbEntity
  8
0
 62
     0
100
AcDbTrace
 10
3482.330247584139
 20
-202.881537237427
 30
0.0
 11
3483.163580917472
 21
-202.881537237427
 31
0.0
 12
3482.746914250805
 22
-205.381537237427
 32
0.0
 13
3482.746914250805
 23
-205.381537237427
 33
0.0
  0
MTEXT
  5
860
330
84E
100
AcDbEntity
  8
0
 62
     0
100
AcDbMText
 10
3480.663580917472
 20
-183.6815372374257
 30
0.0
 40
2.5
 41
0.0
 71
     5
 72
     1
  1
43,4
 11
0.0000000000000001
 21
1.0
 31
0.0
 73
     1
 44
1.0
  0
POINT
  5
861
330
84E
100
AcDbEntity
  8
Defpoints
 62
     0
100
AcDbPoint
 10
3486.994804953582
 20
-161.9815372374256
 30
0.0
  0
POINT
  5
862
330
84E
100
AcDbEntity
  8
Defpoints
 62
     0
100
AcDbPoint
 10
3486.994804953582
 20
-205.381537237427
 30
0.0
  0
POINT
  5
863
330
84E
100
AcDbEntity
  8
Defpoints
 62
     0
100
AcDbPoint
 10
3482.746914250805
 20
-205.381537237427
 30
0.0
  0
ENDBLK
  5
859
330
84E
100
AcDbEntity
  8
0
100
AcDbBlockEnd
  0
BLOCK
  5
878
330
86E
100
AcDbEntity
  8
0
100
AcDbBlockBegin
  2
*D62
 70
     1
 10
0.0
 20
0.0
 30
0.0
  3
*D62
  1

  0
LINE
  5
87B
330
86E
100
AcDbEntity
  8
0
 62
     0
370
    -2
100
AcDbLine
 10
5977.753027375445
 20
-125.4690408650847
 30
0.0
 11
5905.347055603506
 21
-125.4690408650847
 31
0.0
  0
LINE
  5
87C
330
86E
100
AcDbEntity
  8
0
 62
     0
370
    -2
100
AcDbLine
 10
5977.753027375445
 20
-168.8690408650859
 30
0.0
 11
5905.347055603506
 21
-168.8690408650859
 31
0.0
  0
LINE
  5
87D
330
86E
100
AcDbEntity
  8
0
 62
     0
370
    -2
100
AcDbLine
 10
5906.597055603506
 20
-127.9690408650847
 30
0.0
 11
5906.597055603506
 21
-166.3690408650859
 31
0.0
  0
SOLID
  5
87E
330
86E
100
AcDbEntity
  8
0
 62
     0
100
AcDbTrace
 10
5906.180388936839
 20
-127.9690408650847
 30
0.0
 11
5907.013722270173
 21
-127.9690408650847
 31
0.0
 12
5906.597055603506
 22
-125.4690408650847
 32
0.0
 13
5906.597055603506
 23
-125.4690408650847
 33
0.0
  0
SOLID
  5
87F
330
86E
100
AcDbEntity
  8
0
 62
     0
100
AcDbTrace
 10
5906.180388936839
 20
-166.3690408650859
 30
0.0
 11
5907.013722270173
 21
-166.3690408650859
 31
0.0
 12
5906.597055603506
 22
-168.8690408650859
 32
0.0
 13
5906.597055603506
 23
-168.8690408650859
 33
0.0
  0
MTEXT
  5
880
330
86E
100
AcDbEntity
  8
0
 62
     0
100
AcDbMText
 10
5904.513722270174
 20
-147.1690408650843
 30
0.0
 40
2.5
 41
0.0
 71
     5
 72
     1
  1
43,4
 11
0.0000000000000001
 21
1.0
 31
0.0
 73
     1
 44
1.0
  0
POINT
  5
881
330
86E
100
AcDbEntity
  8
Defpoints
 62
     0
100
AcDbPoint
 10
5978.378027375446
 20
-125.4690408650847
 30
0.0
  0
POINT
  5
882
330
86E
100
AcDbEntity
  8
Defpoints
 62
     0
100
AcDbPoint
 10
5978.378027375446
 20
-168.8690408650859
 30
0.0
  0
POINT
  5
883
330
86E
100
AcDbEntity
  8
Defpoints
 62
     0
100
AcDbPoint
 10
5906.597055603506
 20
-168.8690408650859
 30
0.0
  0
ENDBLK
  5
879
330
86E
100
AcDbEntity
  8
0
100
AcDbBlockEnd
  0
BLOCK
  5
8A4
330
89A
100
AcDbEntity
  8
0
100
AcDbBlockBegin
  2
*D63
 70
     1
 10
0.0
 20
0.0
 30
0.0
  3
*D63
  1

  0
LINE
  5
A0D
330
89A
100
AcDbEntity
  8
1 辅助线
100
AcDbLine
 10
979.437430749772
 20
-412.3059894921238
 30
0.0
 11
882.8029836519434
 21
-412.3059894921238
 31
0.0
  0
LINE
  5
A0E
330
89A
100
AcDbEntity
  8
1 辅助线
100
AcDbLine
 10
997.437430749772
 20
27.29401050786988
 30
0.0
 11
882.8029836519434
 21
27.29401050786991
 31
0.0
  0
LINE
  5
A0F
330
89A
100
AcDbEntity
  8
1 辅助线
370
     0
100
AcDbLine
 10
894.8029836519435
 20
-397.3059894921238
 30
0.0
 11
894.8029836519436
 21
-228.9846045634101
 31
0.0
  0
LINE
  5
A10
330
89A
100
AcDbEntity
  8
1 辅助线
370
     0
100
AcDbLine
 10
894.8029836519436
 20
12.2940105078699
 30
0.0
 11
894.8029836519436
 21
-156.0273744208439
 31
0.0
  0
SOLID
  5
A11
330
89A
100
AcDbEntity
  8
1 辅助线
100
AcDbTrace
 10
892.3029836519432
 20
-397.3059894921238
 30
0.0
 11
897.3029836519435
 21
-397.3059894921239
 31
0.0
 12
894.8029836519435
 22
-412.3059894921238
 32
0.0
 13
894.8029836519435
 23
-412.3059894921238
 33
0.0
  0
SOLID
  5
A12
330
89A
100
AcDbEntity
  8
1 辅助线
100
AcDbTrace
 10
892.3029836519436
 20
12.2940105078699
 30
0.0
 11
897.3029836519435
 21
12.2940105078699
 31
0.0
 12
894.8029836519436
 22
27.2940105078699
 32
0.0
 13
894.8029836519436
 23
27.2940105078699
 33
0.0
  0
MTEXT
  5
A13
330
89A
100
AcDbEntity
  8
1 辅助线
100
AcDbMText
 10
894.8029836519436
 20
-175.7137287996624
 30
0.0
 40
21.0
 41
0.0
 71
     5
 72
     1
  1
\A2;440
  7
Arial
 73
     1
 44
1.0
  0
MTEXT
  5
A14
330
89A
100
AcDbEntity
  8
1 辅助线
100
AcDbMText
 10
894.8029836519436
 20
-212.1923438709456
 30
0.0
 40
21.0
 41
0.0
 71
     5
 72
     1
  1
\A2;[17 1/4"]
  7
Arial
 73
     1
 44
1.0
  0
POINT
  5
A15
330
89A
100
AcDbEntity
  8
Defpoints
 62
     0
100
AcDbPoint
 10
991.437430749772
 20
-412.3059894921238
 30
0.0
  0
POINT
  5
A16
330
89A
100
AcDbEntity
  8
Defpoints
 62
     0
100
AcDbPoint
 10
1009.437430749772
 20
27.29401050786988
 30
0.0
  0
POINT
  5
A17
330
89A
100
AcDbEntity
  8
Defpoints
 62
     0
100
AcDbPoint
 10
894.8029836519436
 20
27.2940105078699
 30
0.0
  0
ENDBLK
  5
8A5
330
89A
100
AcDbEntity
  8
0
100
AcDbBlockEnd
  0
BLOCK
  5
8B2
330
8B1
100
AcDbEntity
  8
0
100
AcDbBlockBegin
  2
*D64
 70
     1
 10
0.0
 20
0.0
 30
0.0
  3
*D64
  1

  0
LINE
  5
8B3
330
8B1
100
AcDbEntity
  8
1 辅助线
100
AcDbLine
 10
-41757.50994461322
 20
-39232.1523004085
 30
0.0
 11
-41818.65861086058
 21
-39232.1523004085
 31
0.0
  0
LINE
  5
8B4
330
8B1
100
AcDbEntity
  8
1 辅助线
100
AcDbLine
 10
-41733.50994461321
 20
-39684.15230040849
 30
0.0
 11
-41818.65861086058
 21
-39684.15230040849
 31
0.0
  0
LINE
  5
8B5
330
8B1
100
AcDbEntity
  8
1 辅助线
370
     0
100
AcDbLine
 10
-41806.65861086058
 20
-39247.1523004085
 30
0.0
 11
-41806.65861086058
 21
-39421.67368533721
 31
0.0
  0
LINE
  5
8B6
330
8B1
100
AcDbEntity
  8
1 辅助线
370
     0
100
AcDbLine
 10
-41806.65861086058
 20
-39669.15230040849
 30
0.0
 11
-41806.65861086058
 21
-39494.63091547978
 31
0.0
  0
SOLID
  5
8B7
330
8B1
100
AcDbEntity
  8
1 辅助线
100
AcDbTrace
 10
-41809.15861086059
 20
-39247.1523004085
 30
0.0
 11
-41804.15861086058
 21
-39247.1523004085
 31
0.0
 12
-41806.65861086058
 22
-39232.1523004085
 32
0.0
 13
-41806.65861086058
 23
-39232.1523004085
 33
0.0
  0
SOLID
  5
8B8
330
8B1
100
AcDbEntity
  8
1 辅助线
100
AcDbTrace
 10
-41809.15861086059
 20
-39669.15230040849
 30
0.0
 11
-41804.15861086058
 21
-39669.15230040849
 31
0.0
 12
-41806.65861086058
 22
-39684.15230040849
 32
0.0
 13
-41806.65861086058
 23
-39684.15230040849
 33
0.0
  0
MTEXT
  5
8B9
330
8B1
100
AcDbEntity
  8
1 辅助线
100
AcDbMText
 10
-41806.65861086056
 20
-39441.36003971603
 30
0.0
 40
21.0
 41
0.0
 71
     5
 72
     1
  1
\A2;452
  7
Arial
 73
     1
 44
1.0
  0
MTEXT
  5
8BA
330
8B1
100
AcDbEntity
  8
1 辅助线
100
AcDbMText
 10
-41806.65861086056
 20
-39477.83865478733
 30
0.0
 40
21.0
 41
0.0
 71
     5
 72
     1
  1
\A2;[17 3/4"]
  7
Arial
 73
     1
 44
1.0
  0
POINT
  5
8BB
330
8B1
100
AcDbEntity
  8
Defpoints
 62
     0
100
AcDbPoint
 10
-41745.50994461322
 20
-39232.1523004085
 30
0.0
  0
POINT
  5
8BC
330
8B1
100
AcDbEntity
  8
Defpoints
 62
     0
100
AcDbPoint
 10
-41721.5099446132
 20
-39684.15230040849
 30
0.0
  0
POINT
  5
8BD
330
8B1
100
AcDbEntity
  8
Defpoints
 62
     0
100
AcDbPoint
 10
-41806.65861086058
 20
-39684.15230040849
 30
0.0
  0
ENDBLK
  5
8BE
330
8B1
100
AcDbEntity
  8
0
100
AcDbBlockEnd
  0
BLOCK
  5
8C0
330
8BF
100
AcDbEntity
  8
0
100
AcDbBlockBegin
  2
*D65
 70
     1
 10
0.0
 20
0.0
 30
0.0
  3
*D65
  1

  0
LINE
  5
8C1
330
8BF
100
AcDbEntity
  8
1 辅助线
100
AcDbLine
 10
-41725.5099446132
 20
-39672.15230040849
 30
0.0
 11
-41725.5099446132
 21
-39568.83709473268
 31
0.0
  0
LINE
  5
8C2
330
8BF
100
AcDbEntity
  8
1 辅助线
100
AcDbLine
 10
-42425.5099446132
 20
-39672.15230040849
 30
0.0
 11
-42425.5099446132
 21
-39568.83709473268
 31
0.0
  0
LINE
  5
8C3
330
8BF
100
AcDbEntity
  8
1 辅助线
370
     0
100
AcDbLine
 10
-41740.5099446132
 20
-39580.83709473268
 30
0.0
 11
-42020.22481223031
 21
-39580.83709473268
 31
0.0
  0
LINE
  5
8C4
330
8BF
100
AcDbEntity
  8
1 辅助线
370
     0
100
AcDbLine
 10
-42410.50994461319
 20
-39580.83709473268
 30
0.0
 11
-42130.79507699609
 21
-39580.83709473268
 31
0.0
  0
SOLID
  5
8C5
330
8BF
100
AcDbEntity
  8
1 辅助线
100
AcDbTrace
 10
-41740.5099446132
 20
-39578.33709473268
 30
0.0
 11
-41740.5099446132
 21
-39583.33709473269
 31
0.0
 12
-41725.5099446132
 22
-39580.83709473268
 32
0.0
 13
-41725.5099446132
 23
-39580.83709473268
 33
0.0
  0
SOLID
  5
8C6
330
8BF
100
AcDbEntity
  8
1 辅助线
100
AcDbTrace
 10
-42410.50994461319
 20
-39578.33709473268
 30
0.0
 11
-42410.50994461319
 21
-39583.33709473269
 31
0.0
 12
-42425.5099446132
 22
-39580.83709473268
 32
0.0
 13
-42425.5099446132
 23
-39580.83709473268
 33
0.0
  0
MTEXT
  5
8C7
330
8BF
100
AcDbEntity
  8
1 辅助线
100
AcDbMText
 10
-42075.50994461318
 20
-39564.04483404022
 30
0.0
 40
21.0
 41
0.0
 71
     5
 72
     1
  1
\A2;700
  7
Arial
 73
     1
 44
1.0
  0
MTEXT
  5
8C8
330
8BF
100
AcDbEntity
  8
1 辅助线
100
AcDbMText
 10
-42075.50994461318
 20
-39600.5234491115
 30
0.0
 40
21.0
 41
0.0
 71
     5
 72
     1
  1
\A2;[27 1/2"]
  7
Arial
 73
     1
 44
1.0
  0
POINT
  5
8C9
330
8BF
100
AcDbEntity
  8
Defpoints
 62
     0
100
AcDbPoint
 10
-41725.5099446132
 20
-39684.15230040849
 30
0.0
  0
POINT
  5
8CA
330
8BF
100
AcDbEntity
  8
Defpoints
 62
     0
100
AcDbPoint
 10
-42425.5099446132
 20
-39684.15230040849
 30
0.0
  0
POINT
  5
8CB
330
8BF
100
AcDbEntity
  8
Defpoints
 62
     0
100
AcDbPoint
 10
-42425.5099446132
 20
-39580.83709473268
 30
0.0
  0
ENDBLK
  5
8CC
330
8BF
100
AcDbEntity
  8
0
100
AcDbBlockEnd
  0
BLOCK
  5
8CE
330
8CD
100
AcDbEntity
  8
0
100
AcDbBlockBegin
  2
*D66
 70
     1
 10
0.0
 20
0.0
 30
0.0
  3
*D66
  1

  0
LINE
  5
8CF
330
8CD
100
AcDbEntity
  8
1 辅助线
370
     0
100
AcDbLine
 10
-42381.42201679671
 20
-39270.60333432395
 30
0.0
 11
-42396.42201679671
 21
-39270.60333432395
 31
0.0
  0
LINE
  5
8D0
330
8CD
100
AcDbEntity
  8
1 辅助线
370
     0
100
AcDbLine
 10
-42396.42201679671
 20
-39270.60333432395
 30
0.0
 11
-42407.71921429572
 21
-39247.66686537163
 31
0.0
  0
MTEXT
  5
8D1
330
8CD
100
AcDbEntity
  8
1 辅助线
100
AcDbMText
 10
-42332.23158909813
 20
-39270.60333432396
 30
0.0
 40
21.0
 41
0.0
 71
     5
 72
     1
  1
\A2;R20\P [R3/4"]
  7
Arial
 73
     1
 44
1.0
  0
SOLID
  5
8D2
330
8CD
100
AcDbEntity
  8
1 辅助线
100
AcDbTrace
 10
-42405.47649677727
 20
-39246.56223053037
 30
0.0
 11
-42409.96193181413
 21
-39248.77150021288
 31
0.0
 12
-42414.34702334326
 22
-39234.21056026104
 32
0.0
 13
-42414.34702334326
 23
-39234.21056026104
 33
0.0
  0
POINT
  5
8D3
330
8CD
100
AcDbEntity
  8
Defpoints
 62
     0
100
AcDbPoint
 10
-42414.34702334326
 20
-39234.21056026104
 30
0.0
  0
POINT
  5
8D4
330
8CD
100
AcDbEntity
  8
Defpoints
 62
     0
100
AcDbPoint
 10
-42405.5099446132
 20
-39252.1523004085
 30
0.0
  0
ENDBLK
  5
8D5
330
8CD
100
AcDbEntity
  8
0
100
AcDbBlockEnd
  0
BLOCK
  5
918
330
90C
100
AcDbEntity
  8
0
100
AcDbBlockBegin
  2
*D67
 70
     1
 10
0.0
 20
0.0
 30
0.0
  3
*D67
  1

  0
LINE
  5
928
330
90C
100
AcDbEntity
  8
1 辅助线
100
AcDbLine
 10
73.99830234478212
 20
233.9163533935953
 30
0.0
 11
73.99830234478212
 21
337.231559069407
 31
0.0
  0
LINE
  5
929
330
90C
100
AcDbEntity
  8
1 辅助线
100
AcDbLine
 10
-626.0016976552178
 20
233.9163533935953
 30
0.0
 11
-626.0016976552178
 21
337.231559069407
 31
0.0
  0
LINE
  5
92A
330
90C
100
AcDbEntity
  8
1 辅助线
370
     0
100
AcDbLine
 10
58.99830234478213
 20
325.231559069407
 30
0.0
 11
-220.7165652723258
 21
325.231559069407
 31
0.0
  0
LINE
  5
92B
330
90C
100
AcDbEntity
  8
1 辅助线
370
     0
100
AcDbLine
 10
-611.0016976552177
 20
325.231559069407
 30
0.0
 11
-331.2868300381099
 21
325.231559069407
 31
0.0
  0
SOLID
  5
92C
330
90C
100
AcDbEntity
  8
1 辅助线
100
AcDbTrace
 10
58.99830234478213
 20
327.731559069407
 30
0.0
 11
58.99830234478213
 21
322.731559069407
 31
0.0
 12
73.99830234478212
 22
325.231559069407
 32
0.0
 13
73.99830234478212
 23
325.231559069407
 33
0.0
  0
SOLID
  5
92D
330
90C
100
AcDbEntity
  8
1 辅助线
100
AcDbTrace
 10
-611.0016976552177
 20
327.731559069407
 30
0.0
 11
-611.0016976552177
 21
322.731559069407
 31
0.0
 12
-626.0016976552178
 22
325.231559069407
 32
0.0
 13
-626.0016976552178
 23
325.231559069407
 33
0.0
  0
MTEXT
  5
92E
330
90C
100
AcDbEntity
  8
1 辅助线
100
AcDbMText
 10
-276.0016976552179
 20
342.0238197618714
 30
0.0
 40
21.0
 41
0.0
 71
     5
 72
     1
  1
\A2;700
  7
Arial
 73
     1
 44
1.0
  0
MTEXT
  5
92F
330
90C
100
AcDbEntity
  8
1 辅助线
100
AcDbMText
 10
-276.0016976552179
 20
305.5452046905883
 30
0.0
 40
21.0
 41
0.0
 71
     5
 72
     1
  1
\A2;[27 1/2"]
  7
Arial
 73
     1
 44
1.0
  0
POINT
  5
930
330
90C
100
AcDbEntity
  8
Defpoints
 62
     0
100
AcDbPoint
 10
73.99830234478212
 20
221.9163533935953
 30
0.0
  0
POINT
  5
931
330
90C
100
AcDbEntity
  8
Defpoints
 62
     0
100
AcDbPoint
 10
-626.0016976552178
 20
221.9163533935953
 30
0.0
  0
POINT
  5
932
330
90C
100
AcDbEntity
  8
Defpoints
 62
     0
100
AcDbPoint
 10
-626.0016976552178
 20
325.231559069407
 30
0.0
  0
ENDBLK
  5
919
330
90C
100
AcDbEntity
  8
0
100
AcDbBlockEnd
  0
BLOCK
  5
926
330
91A
100
AcDbEntity
  8
0
100
AcDbBlockBegin
  2
*D68
 70
     1
 10
0.0
 20
0.0
 30
0.0
  3
*D68
  1

  0
LINE
  5
91B
330
91A
100
AcDbEntity
  8
1 辅助线
100
AcDbLine
 10
41.99830234478213
 20
673.9163533935879
 30
0.0
 11
-19.15036390259401
 21
673.9163533935879
 31
0.0
  0
LINE
  5
91C
330
91A
100
AcDbEntity
  8
1 辅助线
100
AcDbLine
 10
65.99830234478213
 20
221.9163533935953
 30
0.0
 11
-19.1503639025941
 21
221.9163533935953
 31
0.0
  0
LINE
  5
91D
330
91A
100
AcDbEntity
  8
1 辅助线
370
     0
100
AcDbLine
 10
-7.150363902594008
 20
658.916353393588
 30
0.0
 11
-7.150363902594047
 21
484.3949684648747
 31
0.0
  0
LINE
  5
91E
330
91A
100
AcDbEntity
  8
1 辅助线
370
     0
100
AcDbLine
 10
-7.150363902594103
 20
236.9163533935953
 30
0.0
 11
-7.150363902594065
 21
411.4377383223085
 31
0.0
  0
SOLID
  5
91F
330
91A
100
AcDbEntity
  8
1 辅助线
100
AcDbTrace
 10
-9.650363902594012
 20
658.916353393588
 30
0.0
 11
-4.650363902594008
 21
658.916353393588
 31
0.0
 12
-7.150363902594007
 22
673.9163533935879
 32
0.0
 13
-7.150363902594007
 23
673.9163533935879
 33
0.0
  0
SOLID
  5
920
330
91A
100
AcDbEntity
  8
1 辅助线
100
AcDbTrace
 10
-9.650363902594103
 20
236.9163533935953
 30
0.0
 11
-4.650363902594103
 21
236.9163533935953
 31
0.0
 12
-7.150363902594107
 22
221.9163533935953
 32
0.0
 13
-7.150363902594107
 23
221.9163533935953
 33
0.0
  0
MTEXT
  5
921
330
91A
100
AcDbEntity
  8
1 辅助线
100
AcDbMText
 10
-7.150363902594127
 20
464.708614086056
 30
0.0
 40
21.0
 41
0.0
 71
     5
 72
     1
  1
\A2;452
  7
Arial
 73
     1
 44
1.0
  0
MTEXT
  5
922
330
91A
100
AcDbEntity
  8
1 辅助线
100
AcDbMText
 10
-7.150363902594127
 20
428.2299990147729
 30
0.0
 40
21.0
 41
0.0
 71
     5
 72
     1
  1
\A2;[17 3/4"]
  7
Arial
 73
     1
 44
1.0
  0
POINT
  5
923
330
91A
100
AcDbEntity
  8
Defpoints
 62
     0
100
AcDbPoint
 10
53.99830234478213
 20
673.9163533935879
 30
0.0
  0
POINT
  5
924
330
91A
100
AcDbEntity
  8
Defpoints
 62
     0
100
AcDbPoint
 10
77.99830234478211
 20
221.9163533935953
 30
0.0
  0
POINT
  5
925
330
91A
100
AcDbEntity
  8
Defpoints
 62
     0
100
AcDbPoint
 10
-7.150363902594107
 20
221.9163533935953
 30
0.0
  0
ENDBLK
  5
927
330
91A
100
AcDbEntity
  8
0
100
AcDbBlockEnd
  0
BLOCK
  5
93A
330
933
100
AcDbEntity
  8
0
100
AcDbBlockBegin
  2
*D69
 70
     1
 10
0.0
 20
0.0
 30
0.0
  3
*D69
  1

  0
LINE
  5
93C
330
933
100
AcDbEntity
  8
1 辅助线
370
     0
100
AcDbLine
 10
-581.9137698387502
 20
635.4653194781292
 30
0.0
 11
-596.9137698387505
 21
635.4653194781292
 31
0.0
  0
LINE
  5
93D
330
933
100
AcDbEntity
  8
1 辅助线
370
     0
100
AcDbLine
 10
-596.9137698387505
 20
635.4653194781292
 30
0.0
 11
-608.2109673377457
 21
658.4017884304695
 31
0.0
  0
MTEXT
  5
93E
330
933
100
AcDbEntity
  8
1 辅助线
100
AcDbMText
 10
-532.7233421401762
 20
635.4653194781292
 30
0.0
 40
21.0
 41
0.0
 71
     5
 72
     1
  1
\A2;R20\P [R3/4"]
  7
Arial
 73
     1
 44
1.0
  0
SOLID
  5
93F
330
933
100
AcDbEntity
  8
1 辅助线
100
AcDbTrace
 10
-605.9682498193142
 20
659.5064232717272
 30
0.0
 11
-610.4536848561775
 21
657.2971535892121
 31
0.0
 12
-614.8387763852912
 22
671.858093541059
 32
0.0
 13
-614.8387763852912
 23
671.858093541059
 33
0.0
  0
POINT
  5
940
330
933
100
AcDbEntity
  8
Defpoints
 62
     0
100
AcDbPoint
 10
-614.8387763852912
 20
671.858093541059
 30
0.0
  0
POINT
  5
941
330
933
100
AcDbEntity
  8
Defpoints
 62
     0
100
AcDbPoint
 10
-606.001697655225
 20
653.9163533935954
 30
0.0
  0
ENDBLK
  5
93B
330
933
100
AcDbEntity
  8
0
100
AcDbBlockEnd
  0
BLOCK
  5
958
330
94E
100
AcDbEntity
  8
0
100
AcDbBlockBegin
  2
*D70
 70
     1
 10
0.0
 20
0.0
 30
0.0
  3
*D70
  1

  0
LINE
  5
A29
330
94E
100
AcDbEntity
  8
1 辅助线
100
AcDbLine
 10
991.4374307497716
 20
21.29401050786987
 30
0.0
 11
991.4374307497716
 21
130.3174814242393
 31
0.0
  0
LINE
  5
A2A
330
94E
100
AcDbEntity
  8
1 辅助线
100
AcDbLine
 10
1702.637430749768
 20
21.2940105078699
 30
0.0
 11
1702.637430749768
 21
130.3174814242393
 31
0.0
  0
LINE
  5
A2B
330
94E
100
AcDbEntity
  8
1 辅助线
370
     0
100
AcDbLine
 10
1006.437430749771
 20
118.3174814242393
 30
0.0
 11
1315.439671075635
 21
118.3174814242393
 31
0.0
  0
LINE
  5
A2C
330
94E
100
AcDbEntity
  8
1 辅助线
370
     0
100
AcDbLine
 10
1687.637430749768
 20
118.3174814242393
 30
0.0
 11
1378.635190423904
 21
118.3174814242393
 31
0.0
  0
SOLID
  5
A2D
330
94E
100
AcDbEntity
  8
1 辅助线
100
AcDbTrace
 10
1006.437430749771
 20
120.8174814242393
 30
0.0
 11
1006.437430749771
 21
115.8174814242393
 31
0.0
 12
991.4374307497716
 22
118.3174814242393
 32
0.0
 13
991.4374307497716
 23
118.3174814242393
 33
0.0
  0
SOLID
  5
A2E
330
94E
100
AcDbEntity
  8
1 辅助线
100
AcDbTrace
 10
1687.637430749768
 20
120.8174814242393
 30
0.0
 11
1687.637430749768
 21
115.8174814242393
 31
0.0
 12
1702.637430749768
 22
118.3174814242393
 32
0.0
 13
1702.637430749768
 23
118.3174814242393
 33
0.0
  0
MTEXT
  5
A2F
330
94E
100
AcDbEntity
  8
1 辅助线
100
AcDbMText
 10
1347.03743074977
 20
134.8174814242393
 30
0.0
 40
21.0
 41
0.0
 71
     5
 72
     1
  1
\A2;711
  7
Arial
 73
     1
 44
1.0
  0
MTEXT
  5
A30
330
94E
100
AcDbEntity
  8
1 辅助线
100
AcDbMText
 10
1347.03743074977
 20
98.90200280916801
 30
0.0
 40
21.0
 41
0.0
 71
     5
 72
     1
  1
\A2;[28"]
  7
Arial
 73
     1
 44
1.0
  0
POINT
  5
A31
330
94E
100
AcDbEntity
  8
Defpoints
 62
     0
100
AcDbPoint
 10
991.4374307497716
 20
9.294010507869867
 30
0.0
  0
POINT
  5
A32
330
94E
100
AcDbEntity
  8
Defpoints
 62
     0
100
AcDbPoint
 10
1702.637430749768
 20
9.2940105078699
 30
0.0
  0
POINT
  5
A33
330
94E
100
AcDbEntity
  8
Defpoints
 62
     0
100
AcDbPoint
 10
1702.637430749768
 20
118.3174814242393
 30
0.0
  0
ENDBLK
  5
959
330
94E
100
AcDbEntity
  8
0
100
AcDbBlockEnd
  0
BLOCK
  5
977
330
971
100
AcDbEntity
  8
0
100
AcDbBlockBegin
  2
*D71
 70
     1
 10
0.0
 20
0.0
 30
0.0
  3
*D71
  1

  0
LINE
  5
A34
330
971
100
AcDbEntity
  8
1 辅助线
370
     0
100
AcDbLine
 10
1062.159761502174
 20
-46.52130999997664
 30
0.0
 11
1047.159761502173
 21
-46.52130999997664
 31
0.0
  0
LINE
  5
A35
330
971
100
AcDbEntity
  8
1 辅助线
370
     0
100
AcDbLine
 10
1047.159761502173
 20
-46.52130999997664
 30
0.0
 11
1007.757574911894
 21
11.77958576602464
 31
0.0
  0
MTEXT
  5
A36
330
971
100
AcDbEntity
  8
1 辅助线
100
AcDbMText
 10
1111.350189200748
 20
-46.52130999997664
 30
0.0
 40
21.0
 41
0.0
 71
     5
 72
     1
  1
\A2;R18\P [R3/4"]
  7
Arial
 73
     1
 44
1.0
  0
SOLID
  5
A37
330
971
100
AcDbEntity
  8
1 辅助线
100
AcDbTrace
 10
1009.828887627023
 20
13.17946563092232
 30
0.0
 11
1005.686262196766
 21
10.37970590112701
 31
0.0
 12
999.358295722509
 22
24.20746205679734
 32
0.0
 13
999.358295722509
 23
24.20746205679734
 33
0.0
  0
POINT
  5
A38
330
971
100
AcDbEntity
  8
Defpoints
 62
     0
100
AcDbPoint
 10
999.358295722509
 20
24.20746205679734
 30
0.0
  0
POINT
  5
A39
330
971
100
AcDbEntity
  8
Defpoints
 62
     0
100
AcDbPoint
 10
1009.437430749772
 20
9.294010507869927
 30
0.0
  0
ENDBLK
  5
978
330
971
100
AcDbEntity
  8
0
100
AcDbBlockEnd
  0
BLOCK
  5
991
330
987
100
AcDbEntity
  8
0
100
AcDbBlockBegin
  2
*D72
 70
     1
 10
0.0
 20
0.0
 30
0.0
  3
*D72
  1

  0
LINE
  5
AB3
330
987
100
AcDbEntity
  8
1 辅助线
100
AcDbLine
 10
979.437430749772
 20
1024.599342009219
 30
0.0
 11
874.7853289283066
 21
1024.599342009219
 31
0.0
  0
LINE
  5
AB4
330
987
100
AcDbEntity
  8
1 辅助线
100
AcDbLine
 10
996.9374307497719
 20
1481.799342009209
 30
0.0
 11
874.7853289283067
 21
1481.799342009209
 31
0.0
  0
LINE
  5
AB5
330
987
100
AcDbEntity
  8
1 辅助线
370
     0
100
AcDbLine
 10
886.7853289283067
 20
1039.599342009219
 30
0.0
 11
886.7853289283067
 21
1216.991602701678
 31
0.0
  0
LINE
  5
AB6
330
987
100
AcDbEntity
  8
1 辅助线
370
     0
100
AcDbLine
 10
886.7853289283067
 20
1466.799342009209
 30
0.0
 11
886.7853289283067
 21
1289.407081316749
 31
0.0
  0
SOLID
  5
AB7
330
987
100
AcDbEntity
  8
1 辅助线
100
AcDbTrace
 10
884.2853289283066
 20
1039.599342009219
 30
0.0
 11
889.2853289283065
 21
1039.599342009219
 31
0.0
 12
886.7853289283067
 22
1024.599342009219
 32
0.0
 13
886.7853289283067
 23
1024.599342009219
 33
0.0
  0
SOLID
  5
AB8
330
987
100
AcDbEntity
  8
1 辅助线
100
AcDbTrace
 10
884.2853289283068
 20
1466.799342009209
 30
0.0
 11
889.2853289283067
 21
1466.799342009209
 31
0.0
 12
886.7853289283067
 22
1481.799342009209
 32
0.0
 13
886.7853289283067
 23
1481.799342009209
 33
0.0
  0
MTEXT
  5
AB9
330
987
100
AcDbEntity
  8
1 辅助线
100
AcDbMText
 10
886.7853289283065
 20
1269.991602701679
 30
0.0
 40
21.0
 41
0.0
 71
     5
 72
     1
  1
\A2;457
  7
Arial
 73
     1
 44
1.0
  0
MTEXT
  5
ABA
330
987
100
AcDbEntity
  8
1 辅助线
100
AcDbMText
 10
886.7853289283065
 20
1233.783863394143
 30
0.0
 40
21.0
 41
0.0
 71
     5
 72
     1
  1
\A2;[18"]
  7
Arial
 73
     1
 44
1.0
  0
POINT
  5
ABB
330
987
100
AcDbEntity
  8
Defpoints
 62
     0
100
AcDbPoint
 10
991.437430749772
 20
1024.599342009219
 30
0.0
  0
POINT
  5
ABC
330
987
100
AcDbEntity
  8
Defpoints
 62
     0
100
AcDbPoint
 10
1008.937430749772
 20
1481.799342009209
 30
0.0
  0
POINT
  5
ABD
330
987
100
AcDbEntity
  8
Defpoints
 62
     0
100
AcDbPoint
 10
886.7853289283067
 20
1481.799342009209
 30
0.0
  0
ENDBLK
  5
992
330
987
100
AcDbEntity
  8
0
100
AcDbBlockEnd
  0
BLOCK
  5
9A9
330
99F
100
AcDbEntity
  8
0
100
AcDbBlockBegin
  2
*D73
 70
     1
 10
0.0
 20
0.0
 30
0.0
  3
*D73
  1

  0
LINE
  5
ABE
330
99F
100
AcDbEntity
  8
1 辅助线
100
AcDbLine
 10
991.4374307497716
 20
1476.299342009209
 30
0.0
 11
991.4374307497716
 21
1565.0210249387
 31
0.0
  0
LINE
  5
ABF
330
99F
100
AcDbEntity
  8
1 辅助线
100
AcDbLine
 10
1702.637430749769
 20
1475.799342009213
 30
0.0
 11
1702.637430749769
 21
1565.0210249387
 31
0.0
  0
LINE
  5
AC0
330
99F
100
AcDbEntity
  8
1 辅助线
370
     0
100
AcDbLine
 10
1006.437430749771
 20
1553.0210249387
 30
0.0
 11
1315.439671075635
 21
1553.0210249387
 31
0.0
  0
LINE
  5
AC1
330
99F
100
AcDbEntity
  8
1 辅助线
370
     0
100
AcDbLine
 10
1687.637430749769
 20
1553.0210249387
 30
0.0
 11
1378.635190423905
 21
1553.0210249387
 31
0.0
  0
SOLID
  5
AC2
330
99F
100
AcDbEntity
  8
1 辅助线
100
AcDbTrace
 10
1006.437430749771
 20
1555.5210249387
 30
0.0
 11
1006.437430749771
 21
1550.521024938699
 31
0.0
 12
991.4374307497716
 22
1553.0210249387
 32
0.0
 13
991.4374307497716
 23
1553.0210249387
 33
0.0
  0
SOLID
  5
AC3
330
99F
100
AcDbEntity
  8
1 辅助线
100
AcDbTrace
 10
1687.637430749769
 20
1555.5210249387
 30
0.0
 11
1687.637430749769
 21
1550.521024938699
 31
0.0
 12
1702.637430749769
 22
1553.0210249387
 32
0.0
 13
1702.637430749769
 23
1553.0210249387
 33
0.0
  0
MTEXT
  5
AC4
330
99F
100
AcDbEntity
  8
1 辅助线
100
AcDbMText
 10
1347.03743074977
 20
1569.5210249387
 30
0.0
 40
21.0
 41
0.0
 71
     5
 72
     1
  1
\A2;711
  7
Arial
 73
     1
 44
1.0
  0
MTEXT
  5
AC5
330
99F
100
AcDbEntity
  8
1 辅助线
100
AcDbMText
 10
1347.03743074977
 20
1533.605546323628
 30
0.0
 40
21.0
 41
0.0
 71
     5
 72
     1
  1
\A2;[28"]
  7
Arial
 73
     1
 44
1.0
  0
POINT
  5
AC6
330
99F
100
AcDbEntity
  8
Defpoints
 62
     0
100
AcDbPoint
 10
991.4374307497716
 20
1464.299342009209
 30
0.0
  0
POINT
  5
AC7
330
99F
100
AcDbEntity
  8
Defpoints
 62
     0
100
AcDbPoint
 10
1702.637430749769
 20
1463.799342009213
 30
0.0
  0
POINT
  5
AC8
330
99F
100
AcDbEntity
  8
Defpoints
 62
     0
100
AcDbPoint
 10
1702.637430749769
 20
1553.0210249387
 30
0.0
  0
ENDBLK
  5
9AA
330
99F
100
AcDbEntity
  8
0
100
AcDbBlockEnd
  0
BLOCK
  5
9D3
330
9CD
100
AcDbEntity
  8
0
100
AcDbBlockBegin
  2
*D74
 70
     1
 10
0.0
 20
0.0
 30
0.0
  3
*D74
  1

  0
LINE
  5
AD2
330
9CD
100
AcDbEntity
  8
1 辅助线
370
     0
100
AcDbLine
 10
1057.469636611157
 20
1418.110974840696
 30
0.0
 11
1042.469636611157
 21
1418.110974840696
 31
0.0
  0
LINE
  5
AD3
330
9CD
100
AcDbEntity
  8
1 辅助线
370
     0
100
AcDbLine
 10
1042.469636611157
 20
1418.110974840696
 30
0.0
 11
1007.468701818271
 21
1466.322417718562
 31
0.0
  0
MTEXT
  5
AD4
330
9CD
100
AcDbEntity
  8
1 辅助线
100
AcDbMText
 10
1106.660064309731
 20
1418.110974840696
 30
0.0
 40
21.0
 41
0.0
 71
     5
 72
     1
  1
\A2;R18\P [R3/4"]
  7
Arial
 73
     1
 44
1.0
  0
SOLID
  5
AD5
330
9CD
100
AcDbEntity
  8
1 辅助线
100
AcDbTrace
 10
1009.491777527624
 20
1467.791146650063
 30
0.0
 11
1005.445626108919
 21
1464.853688787061
 31
0.0
 12
998.6563282292665
 22
1478.460871974678
 32
0.0
 13
998.6563282292665
 23
1478.460871974678
 33
0.0
  0
POINT
  5
AD6
330
9CD
100
AcDbEntity
  8
Defpoints
 62
     0
100
AcDbPoint
 10
998.6563282292665
 20
1478.460871974678
 30
0.0
  0
POINT
  5
AD7
330
9CD
100
AcDbEntity
  8
Defpoints
 62
     0
100
AcDbPoint
 10
1008.937430749772
 20
1464.29934200921
 30
0.0
  0
ENDBLK
  5
9D4
330
9CD
100
AcDbEntity
  8
0
100
AcDbBlockEnd
  0
ENDSEC
  0
SECTION
  2
ENTITIES
  0
LINE
  5
2E2
330
1F
100
AcDbEntity
  8
1 辅助线
100
AcDbLine
 10
1702.637430749769
 20
1024.599342009219
 30
0.0
 11
1702.637430749769
 21
1449.299342009216
 31
0.0
  0
ARC
  5
2E4
330
1F
100
AcDbEntity
  8
1 辅助线
100
AcDbCircle
 10
1685.137430749769
 20
1464.299342009216
 30
0.0
 40
17.5
100
AcDbArc
 50
0.0
 51
90.0
  0
LINE
  5
2E5
102
{ACAD_REACTORS
330
99D
102
}
330
1F
100
AcDbEntity
  8
1 辅助线
100
AcDbLine
 10
1685.137430749769
 20
1481.799342009217
 30
0.0
 11
1008.937430749772
 21
1481.799342009209
 31
0.0
  0
ARC
  5
2E6
330
1F
100
AcDbEntity
  8
1 辅助线
100
AcDbCircle
 10
1008.937430749772
 20
1464.299342009209
 30
0.0
 40
17.5
100
AcDbArc
 50
90.0
 51
180.0
  0
LINE
  5
2E7
330
1F
100
AcDbEntity
  8
1 辅助线
100
AcDbLine
 10
991.437430749772
 20
1449.299342009209
 30
0.0
 11
991.437430749772
 21
1024.599342009219
 31
0.0
  0
LINE
  5
2F2
330
1F
100
AcDbEntity
  8
1 辅助线
100
AcDbLine
 10
991.437430749772
 20
1449.299342009209
 30
0.0
 11
991.437430749772
 21
1464.299342009209
 31
0.0
  0
LINE
  5
2F3
102
{ACAD_REACTORS
330
9B5
102
}
330
1F
100
AcDbEntity
  8
1 辅助线
100
AcDbLine
 10
1702.637430749769
 20
1449.299342009216
 30
0.0
 11
1702.637430749769
 21
1464.299342009216
 31
0.0
  0
TEXT
  5
336
330
1F
100
AcDbEntity
  8
1 辅助线
100
AcDbText
 10
885.2922025753398
 20
1820.024031443433
 30
0.0
 40
87.5
  1
DSE-FCAL3020S
  7
Arial
100
AcDbText
  0
LINE
  5
554
102
{ACAD_REACTORS
330
99D
102
}
330
1F
100
AcDbEntity
  8
0
100
AcDbLine
 10
991.437430749772
 20
1024.599342009219
 30
0.0
 11
841.6369094214788
 21
1024.599342009219
 31
0.0
  0
ARC
  5
613
102
{ACAD_REACTORS
330
9B5
102
}
330
1F
100
AcDbEntity
  8
0
100
AcDbCircle
 10
1684.637430749768
 20
1463.799342009213
 30
0.0
 40
18.0
100
AcDbArc
 50
0.0
 51
90.0
  0
INSERT
  5
6F5
102
{ACAD_REACTORS
330
9B5
330
9DB
102
}
330
1F
100
AcDbEntity
  8
0
100
AcDbBlockReference
  2
3020LS
 10
-0.0000000000002274
 20
2591.191254226859
 30
0.0
  0
MTEXT
  5
83E
330
1F
100
AcDbEntity
  8
1 辅助线
100
AcDbMText
 10
853.1844927669624
 20
1014.517553410059
 30
0.0
 40
15.0
 41
234.5507412407314
 71
     1
 72
     5
  1
Front
  7
Arial
 73
     1
 44
1.0
  0
LINE
  5
83F
330
1F
100
AcDbEntity
  8
0
100
AcDbLine
 10
1852.437952078062
 20
1024.599342009219
 30
0.0
 11
1702.637430749769
 21
1024.599342009219
 31
0.0
  0
MTEXT
  5
840
330
1F
100
AcDbEntity
  8
1 辅助线
100
AcDbMText
 10
1801.650716002543
 20
1014.517553410059
 30
0.0
 40
15.0
 41
234.5507412407314
 71
     1
 72
     5
  1
Front
  7
Arial
 73
     1
 44
1.0
  0
DIMENSION
  5
986
102
{ACAD_XDICTIONARY
360
993
102
}
102
{ACAD_REACTORS
330
99D
102
}
330
1F
100
AcDbEntity
  8
1 辅助线
100
AcDbDimension
  2
*D72
 10
886.7853289283067
 20
1481.799342009209
 30
0.0
 11
886.7853289283065
 21
1253.199342009214
 31
0.0
 70
    32
 71
     5
 42
457.1999999999897
  3
33-原比例超大字无转
100
AcDbAlignedDimension
 13
991.437430749772
 23
1024.599342009219
 33
0.0
 14
1008.937430749772
 24
1481.799342009209
 34
0.0
 50
90.0
100
AcDbRotatedDimension
  0
DIMENSION
  5
99E
102
{ACAD_XDICTIONARY
360
9AB
102
}
102
{ACAD_REACTORS
330
9B5
102
}
330
1F
100
AcDbEntity
  8
1 辅助线
100
AcDbDimension
  2
*D73
 10
1702.637430749769
 20
1553.0210249387
 30
0.0
 11
1347.03743074977
 21
1553.0210249387
 31
0.0
 70
    32
 71
     5
 42
711.1999999999974
  3
33-原比例超大字无转
100
AcDbAlignedDimension
 13
991.4374307497716
 23
1464.299342009209
 33
0.0
 14
1702.637430749769
 24
1463.799342009213
 34
0.0
100
AcDbRotatedDimension
  0
DIMENSION
  5
9CC
102
{ACAD_XDICTIONARY
360
9D5
102
}
102
{ACAD_REACTORS
330
9DB
102
}
330
1F
100
AcDbEntity
  8
1 辅助线
100
AcDbDimension
  2
*D74
 10
1008.937430749772
 20
1464.29934200921
 30
0.0
 11
1042.469636611157
 21
1418.110974840696
 31
0.0
 70
   164
 71
     5
 42
17.49999999999988
  3
33-原比例超大字无转$4
100
AcDbRadialDimension
 15
998.6563282292665
 25
1478.460871974678
 35
0.0
 40
0.0
1001
ACAD
1000
DSTYLE
1002
{
1070
   173
1070
     0
1070
   343
1005
0
1002
}
  0
MTEXT
  5
9E2
330
1F
100
AcDbEntity
  8
0
100
AcDbMText
 10
1115.375294272706
 20
1747.8372788261
 30
0.0
 40
62.5
 41
5779.116507397339
 71
     1
 72
     5
  1
Option 1
 73
     1
 44
1.0
  0
LINE
  5
A3A
330
1F
100
AcDbEntity
  8
1 辅助线
  6
DASHED
100
AcDbLine
 10
1037.615869939749
 20
825.4675964036009
 30
0.0
 11
1127.684505690777
 21
825.4675964036009
 31
0.0
  0
TEXT
  5
A3B
330
1F
100
AcDbEntity
  8
1 辅助线
100
AcDbText
 10
1151.903044150865
 20
815.8271018985265
 30
0.0
 40
21.875
  1
SINK LINE
  7
Arial
100
AcDbText
  0
TEXT
  5
A3C
330
1F
100
AcDbEntity
  8
1 辅助线
100
AcDbText
 10
1535.941038335164
 20
815.8271018985265
 30
0.0
 40
21.875
  1
CUTOUT LINE
  7
Arial
100
AcDbText
  0
LINE
  5
A3D
330
1F
100
AcDbEntity
  8
1 辅助线
100
AcDbLine
 10
1421.653864124048
 20
825.4675964036009
 30
0.0
 11
1511.722499875075
 21
825.4675964036009
 31
0.0
  0
VIEWPORT
  5
A9C
330
D2
100
AcDbEntity
 67
     1
  8
0
100
AcDbViewport
 10
128.5
 20
97.5
 30
0.0
 40
494.5296774193547
 41
222.18
 68
     1
 69
     1
 12
128.5
 22
97.5
 13
0.0
 23
0.0
 14
10.0
 24
10.0
 15
10.0
 25
10.0
 16
0.0
 26
0.0
 36
1.0
 17
0.0
 27
0.0
 37
0.0
 42
50.0
 43
0.0
 44
0.0
 45
222.18
 50
0.0
 51
0.0
 72
  1000
 90
   819232
  1

281
     0
 71
     1
 74
     0
110
0.0
120
0.0
130
0.0
111
1.0
121
0.0
131
0.0
112
0.0
122
1.0
132
0.0
 79
     0
146
0.0
170
     0
  0
VIEWPORT
  5
A9E
330
D2
100
AcDbEntity
 67
     1
  8
0
100
AcDbViewport
 10
128.5
 20
97.5
 30
0.0
 40
205.6
 41
156.0
 68
     2
 69
     2
 12
1347.03743074977
 22
1372.910079569825
 13
0.0
 23
0.0
 14
10.0
 24
10.0
 15
10.0
 25
10.0
 16
0.0
 26
0.0
 36
1.0
 17
0.0
 27
0.0
 37
0.0
 42
50.0
 43
0.0
 44
0.0
 45
1140.066405439007
 50
0.0
 51
0.0
 72
  1000
 90
   819296
  1

281
     0
 71
     1
 74
     0
110
0.0
120
0.0
130
0.0
111
1.0
121
0.0
131
0.0
112
0.0
122
1.0
132
0.0
 79
     0
146
0.0
170
     0
  0
ENDSEC
  0
SECTION
  2
OBJECTS
  0
DICTIONARY
  5
C
330
0
100
AcDbDictionary
281
     1
  3
ACAD_2007HEADERVARS_RT
350
ADA
  3
ACAD_COLOR
350
6B
  3
ACAD_GROUP
350
D
  3
ACAD_LAYOUT
350
1A
  3
ACAD_MATERIAL
350
6A
  3
ACAD_MLINESTYLE
350
17
  3
ACAD_PLOTSETTINGS
350
19
  3
ACAD_PLOTSTYLENAME
350
E
  3
ACAD_TABLESTYLE
350
7E
  3
ACAD_VISUALSTYLE
350
F0
  3
AcDbVariableDictionary
350
5E
  0
DICTIONARY
  5
23D
330
2
100
AcDbDictionary
280
     1
281
     1
  3
ACAD_LAYERSTATES
360
23E
  0
DICTIONARY
  5
232
330
231
100
AcDbDictionary
280
     1
281
     1
  3
ADSK_XREC_LAYER_RECONCILED
360
233
  0
DICTIONARY
  5
5F3
330
1F
100
AcDbDictionary
280
     1
281
     1
  3
ACAD_SORTENTS
360
5F4
  0
DICTIONARY
  5
697
330
67E
100
AcDbDictionary
280
     1
281
     1
  3
ACAD_SORTENTS
360
698
  0
DICTIONARY
  5
6DA
330
6C1
100
AcDbDictionary
280
     1
281
     1
  3
ACAD_SORTENTS
360
6DB
  0
DICTIONARY
  5
68B
330
68A
100
AcDbDictionary
280
     1
281
     1
  3
ACAD_DIMASSOC
360
68C
  0
DICTIONARY
  5
695
330
694
100
AcDbDictionary
280
     1
281
     1
  3
ACAD_DIMASSOC
360
696
  0
DICTIONARY
  5
6CE
330
6CD
100
AcDbDictionary
280
     1
281
     1
  3
ACAD_DIMASSOC
360
6CF
  0
DICTIONARY
  5
6D8
330
6D7
100
AcDbDictionary
280
     1
281
     1
  3
ACAD_DIMASSOC
360
6D9
  0
DICTIONARY
  5
993
330
986
100
AcDbDictionary
280
     1
281
     1
  3
ACAD_DIMASSOC
360
99D
  0
DICTIONARY
  5
9AB
330
99E
100
AcDbDictionary
280
     1
281
     1
  3
ACAD_DIMASSOC
360
9B5
  0
DICTIONARY
  5
9D5
330
9CC
100
AcDbDictionary
280
     1
281
     1
  3
ACAD_DIMASSOC
360
9DB
  0
DICTIONARY
  5
ADA
102
{ACAD_REACTORS
330
C
102
}
330
C
100
AcDbDictionary
281
     1
  3
DIMLTYPE
350
ADB
  0
DICTIONARY
  5
6B
102
{ACAD_REACTORS
330
C
102
}
330
C
100
AcDbDictionary
281
     1
  0
DICTIONARY
  5
D
102
{ACAD_REACTORS
330
C
102
}
330
C
100
AcDbDictionary
281
     1
  0
DICTIONARY
  5
1A
102
{ACAD_REACTORS
330
C
102
}
330
C
100
AcDbDictionary
281
     1
  3
Model
350
22
  3
布局1
350
D3
  3
布局2
350
D7
  0
DICTIONARY
  5
6A
102
{ACAD_REACTORS
330
C
102
}
330
C
100
AcDbDictionary
281
     1
  3
ByBlock
350
EE
  3
ByLayer
350
ED
  3
Global
350
EF
  0
DICTIONARY
  5
17
102
{ACAD_REACTORS
330
C
102
}
330
C
100
AcDbDictionary
281
     1
  3
Standard
350
18
  0
DICTIONARY
  5
19
102
{ACAD_REACTORS
330
C
102
}
330
C
100
AcDbDictionary
281
     1
  0
ACDBDICTIONARYWDFLT
  5
E
102
{ACAD_REACTORS
330
C
102
}
330
C
100
AcDbDictionary
281
     1
  3
Normal
350
F
100
AcDbDictionaryWithDefault
340
F
  0
DICTIONARY
  5
7E
102
{ACAD_REACTORS
330
C
102
}
330
C
100
AcDbDictionary
281
     1
  3
Standard
350
7F
  0
DICTIONARY
  5
F0
102
{ACAD_REACTORS
330
C
102
}
330
C
100
AcDbDictionary
281
     1
  3
2dWireframe
350
F6
  3
3D Hidden
350
F8
  3
3dWireframe
350
F7
  3
Basic
350
F5
  3
Brighten
350
FC
  3
ColorChange
350
100
  3
Conceptual
350
F9
  3
Dim
350
FB
  3
Facepattern
350
FF
  3
Flat
350
F1
  3
FlatWithEdges
350
F2
  3
Gouraud
350
F3
  3
GouraudWithEdges
350
F4
  3
Linepattern
350
FE
  3
Realistic
350
FA
  3
Thicken
350
FD
  0
DICTIONARY
  5
5E
102
{ACAD_REACTORS
330
C
102
}
330
C
100
AcDbDictionary
281
     1
  3
CTABLESTYLE
350
84
  3
DIMASSOC
350
5F
  3
HIDETEXT
350
63
  3
PSOLHEIGHT
350
AD9
  3
PSOLWIDTH
350
AD8
  0
DICTIONARY
  5
23E
102
{ACAD_REACTORS
330
23D
102
}
330
23D
100
AcDbDictionary
281
     1
  0
XRECORD
  5
233
102
{ACAD_REACTORS
330
232
102
}
330
232
100
AcDbXrecord
280
     1
290
     1
  0
SORTENTSTABLE
  5
5F4
102
{ACAD_REACTORS
330
5F3
102
}
330
5F3
100
AcDbSortentsTable
330
1F
331
2F2
  5
2F3
331
2E6
  5
2E6
331
2E4
  5
2E4
331
2E2
  5
2E2
331
554
  5
5A4
331
336
  5
59F
331
2F3
  5
2F8
331
2E7
  5
2E8
331
2E5
  5
2E5
331
613
  5
784
331
6F5
  5
78D
  0
SORTENTSTABLE
  5
698
102
{ACAD_REACTORS
330
697
102
}
330
697
100
AcDbSortentsTable
330
67E
  0
SORTENTSTABLE
  5
6DB
102
{ACAD_REACTORS
330
6DA
102
}
330
6DA
100
AcDbSortentsTable
330
6C1
  0
DIMASSOC
  5
68C
102
{ACAD_REACTORS
330
68B
102
}
330
68B
100
AcDbDimAssoc
330
68A
 90
        1
 70
     0
 71
     0
  1
AcDbOsnapPointRef
 72
    13
331
681
 73
     2
 91
        0
 40
0.0
 10
0.0
 20
0.0
 30
2.000000000000000E+50
 75
     0
  0
DIMASSOC
  5
696
102
{ACAD_REACTORS
330
695
102
}
330
695
100
AcDbDimAssoc
330
694
 90
        2
 70
     0
 71
     0
  1
AcDbOsnapPointRef
 72
     3
331
683
 73
     2
 91
        0
 40
0.0
 10
0.0
 20
0.0
 30
0.0
 75
     0
  0
DIMASSOC
  5
6CF
102
{ACAD_REACTORS
330
6CE
102
}
330
6CE
100
AcDbDimAssoc
330
6CD
 90
        1
 70
     0
 71
     0
  1
AcDbOsnapPointRef
 72
    13
331
6C4
 73
     2
 91
        0
 40
0.0
 10
0.0
 20
0.0
 30
2.000000000000000E+50
 75
     0
  0
DIMASSOC
  5
6D9
102
{ACAD_REACTORS
330
6D8
102
}
330
6D8
100
AcDbDimAssoc
330
6D7
 90
        2
 70
     0
 71
     0
  1
AcDbOsnapPointRef
 72
     3
331
6C6
 73
     2
 91
        0
 40
0.0
 10
0.0
 20
0.0
 30
0.0
 75
     0
  0
DIMASSOC
  5
99D
102
{ACAD_REACTORS
330
993
102
}
330
993
100
AcDbDimAssoc
330
986
 90
        3
 70
     0
 71
     0
  1
AcDbOsnapPointRef
 72
    13
331
554
 73
     2
 91
        0
 40
0.0
 10
0.0
 20
0.0
 30
2.000000000000000E+50
 75
     0
  1
AcDbOsnapPointRef
 72
     1
331
2E5
 73
     2
 91
        0
 40
1.0
 10
0.0
 20
0.0
 30
2.000000000000000E+50
 75
     0
  0
DIMASSOC
  5
9B5
102
{ACAD_REACTORS
330
9AB
102
}
330
9AB
100
AcDbDimAssoc
330
99E
 90
        3
 70
     0
 71
     0
  1
AcDbOsnapPointRef
 72
     1
331
6F5
331
6E8
 73
     2
 91
        0
 40
3.141592653589792
 10
0.0
 20
0.0
 30
2.000000000000000E+50
 75
     0
  1
AcDbOsnapPointRef
 72
     6
331
2F3
 73
     2
 91
        0
 40
0.9666666666664392
 10
0.0
 20
0.0
 30
0.0
332
613
 74
     2
 92
        0
 75
     0
  0
DIMASSOC
  5
9DB
102
{ACAD_REACTORS
330
9D5
102
}
330
9D5
100
AcDbDimAssoc
330
9CC
 90
        2
 70
     0
 71
     0
  1
AcDbOsnapPointRef
 72
     3
331
6F5
331
6E8
 73
     2
 91
        0
 40
0.0
 10
0.0
 20
0.0
 30
0.0
 75
     0
  0
XRECORD
  5
ADB
102
{ACAD_REACTORS
330
ADA
102
}
330
ADA
100
AcDbXrecord
280
     1
340
15
  0
LAYOUT
  5
22
102
{ACAD_REACTORS
330
1A
102
}
330
1A
100
AcDbPlotSettings
  1

  2
none_device
  4
ISO_A4_(210.00_x_297.00_MM)
  6

 40
7.5
 41
20.0
 42
7.5
 43
20.0
 44
210.0
 45
297.0
 46
11.54999923706054
 47
-13.65000009536743
 48
0.0
 49
0.0
140
0.0
141
0.0
142
1.0
143
8.704084754739808
 70
 11952
 72
     1
 73
     0
 74
     0
  7

 75
     0
147
0.1148885871608098
 76
     0
 77
     2
 78
   300
148
0.0
149
0.0
100
AcDbLayout
  1
Model
 70
     1
 71
     0
 10
0.0
 20
0.0
 11
12.0
 21
9.0
 12
0.0
 22
0.0
 32
0.0
 14
0.0
 24
0.0
 34
0.0
 15
0.0
 25
0.0
 35
0.0
146
0.0
 13
0.0
 23
0.0
 33
0.0
 16
1.0
 26
0.0
 36
0.0
 17
0.0
 27
1.0
 37
0.0
 76
     0
330
1F
331
EB
1001
ACAD_PSEXT
1000
None
1000
None
1000
Not applicable
1000
The layout will not be plotted unless a new plotter configuration name is selected.
1070
     0
  0
LAYOUT
  5
D3
102
{ACAD_XDICTIONARY
360
AA3
102
}
102
{ACAD_REACTORS
330
1A
102
}
330
1A
100
AcDbPlotSettings
  1

  2
none_device
  4
ISO_A4_(210.00_x_297.00_MM)
  6

 40
7.5
 41
20.0
 42
7.5
 43
20.0
 44
210.0
 45
297.0
 46
0.0
 47
0.0
 48
0.0
 49
0.0
140
0.0
141
0.0
142
1.0
143
1.0
 70
   688
 72
     1
 73
     1
 74
     5
  7

 75
    16
147
1.0
 76
     0
 77
     2
 78
   300
148
0.0
149
0.0
100
AcDbLayout
  1
布局1
 70
     1
 71
     1
 10
-20.0
 20
-7.5
 11
277.0
 21
202.5
 12
0.0
 22
0.0
 32
0.0
 14
25.69999999999999
 24
19.5
 34
0.0
 15
231.3
 25
175.5
 35
0.0
146
0.0
 13
0.0
 23
0.0
 33
0.0
 16
1.0
 26
0.0
 36
0.0
 17
0.0
 27
1.0
 37
0.0
 76
     0
330
D2
331
A9C
1001
ACAD_PSEXT
1000
无
1000
无
1000
不可用
1000
在选择新的绘图仪配置名称之前，不能打印该布局。
1070
     0
  0
LAYOUT
  5
D7
102
{ACAD_REACTORS
330
1A
102
}
330
1A
100
AcDbPlotSettings
  1

  2
C:\Documents and Settings\basas\Application Data\Autodesk\AutoCAD 2005\R16.1\enu\plotters\Default Windows System Printer.pc3
  4

  6

 40
0.0
 41
0.0
 42
0.0
 43
0.0
 44
0.0
 45
0.0
 46
0.0
 47
0.0
 48
0.0
 49
0.0
140
0.0
141
0.0
142
1.0
143
1.0
 70
   688
 72
     0
 73
     0
 74
     5
  7

 75
    16
147
1.0
 76
     0
 77
     2
 78
   300
148
0.0
149
0.0
100
AcDbLayout
  1
布局2
 70
     1
 71
     2
 10
0.0
 20
0.0
 11
12.0
 21
9.0
 12
0.0
 22
0.0
 32
0.0
 14
0.0
 24
0.0
 34
0.0
 15
0.0
 25
0.0
 35
0.0
146
0.0
 13
0.0
 23
0.0
 33
0.0
 16
1.0
 26
0.0
 36
0.0
 17
0.0
 27
1.0
 37
0.0
 76
     0
330
D6
  0
MATERIAL
  5
EE
102
{ACAD_XDICTIONARY
360
A6C
102
}
102
{ACAD_REACTORS
330
6A
102
}
330
6A
100
AcDbMaterial
  1
ByBlock
  0
MATERIAL
  5
ED
102
{ACAD_XDICTIONARY
360
A6A
102
}
102
{ACAD_REACTORS
330
6A
102
}
330
6A
100
AcDbMaterial
  1
ByLayer
  0
MATERIAL
  5
EF
102
{ACAD_XDICTIONARY
360
A6E
102
}
102
{ACAD_REACTORS
330
6A
102
}
330
6A
100
AcDbMaterial
  1
Global
  0
MLINESTYLE
  5
18
102
{ACAD_REACTORS
330
17
102
}
330
17
100
AcDbMlineStyle
  2
STANDARD
 70
     0
  3

 62
   256
 51
90.0
 52
90.0
 71
     2
 49
0.5
 62
   256
  6
BYLAYER
 49
-0.5
 62
   256
  6
BYLAYER
  0
ACDBPLACEHOLDER
  5
F
102
{ACAD_REACTORS
330
E
102
}
330
E
  0
TABLESTYLE
  5
7F
102
{ACAD_XDICTIONARY
360
ADC
102
}
102
{ACAD_REACTORS
330
7E
102
}
330
7E
100
AcDbTableStyle
  3
Standard
 70
     0
 71
     0
 40
1.5
 41
1.5
280
     0
281
     0
  7
Standard
140
4.5
170
     2
 62
     0
 63
     7
283
     0
274
    -2
284
     1
 64
     0
275
    -2
285
     1
 65
     0
276
    -2
286
     1
 66
     0
277
    -2
287
     1
 67
     0
278
    -2
288
     1
 68
     0
279
    -2
289
     1
 69
     0
  7
Standard
140
6.0
170
     5
 62
     0
 63
     7
283
     0
274
    -2
284
     1
 64
     0
275
    -2
285
     1
 65
     0
276
    -2
286
     1
 66
     0
277
    -2
287
     1
 67
     0
278
    -2
288
     1
 68
     0
279
    -2
289
     1
 69
     0
  7
Standard
140
4.5
170
     5
 62
     0
 63
     7
283
     0
274
    -2
284
     1
 64
     0
275
    -2
285
     1
 65
     0
276
    -2
286
     1
 66
     0
277
    -2
287
     1
 67
     0
278
    -2
288
     1
 68
     0
279
    -2
289
     1
 69
     0
  0
VISUALSTYLE
  5
F6
102
{ACAD_REACTORS
330
F0
102
}
330
F0
100
AcDbVisualStyle
  2
2dWireframe
 70
     4
 71
     0
 72
     2
 73
     1
 90
        0
 40
-0.6
 41
-30.0
 62
     5
 63
     7
421
 16777215
 74
     1
 91
        4
 64
     7
 65
   257
 75
     1
175
     1
 42
1.0
 92
        0
 66
   257
 43
1.0
 76
     1
 77
     6
 78
     2
 67
     7
 79
     5
170
     0
171
     0
290
     0
174
     0
 93
        1
 44
0.0
173
     0
291
     0
 45
0.0
1001
ACAD
1000
AcDbSavedByObjectVersion
1070
     0
1000
AcDbSavedByObjectVersion
1070
     0
1000
AcDbSavedByObjectVersion
1070
     0
  0
VISUALSTYLE
  5
F8
102
{ACAD_REACTORS
330
F0
102
}
330
F0
100
AcDbVisualStyle
  2
3D Hidden
 70
     6
 71
     1
 72
     2
 73
     2
 90
        0
 40
-0.6
 41
-30.0
 62
     5
 63
     7
421
 16777215
 74
     2
 91
        2
 64
     7
 65
   257
 75
     2
175
     1
 42
40.0
 92
        0
 66
   257
 43
1.0
 76
     1
 77
     6
 78
     2
 67
     7
 79
     3
170
     0
171
     0
290
     0
174
     0
 93
        1
 44
0.0
173
     0
291
     0
 45
0.0
1001
ACAD
1000
AcDbSavedByObjectVersion
1070
     0
1000
AcDbSavedByObjectVersion
1070
     0
1000
AcDbSavedByObjectVersion
1070
     0
  0
VISUALSTYLE
  5
F7
102
{ACAD_REACTORS
330
F0
102
}
330
F0
100
AcDbVisualStyle
  2
3dWireframe
 70
     5
 71
     0
 72
     2
 73
     1
 90
        0
 40
-0.6
 41
-30.0
 62
     5
 63
     7
421
 16777215
 74
     1
 91
        4
 64
     7
 65
   257
 75
     1
175
     1
 42
1.0
 92
        0
 66
   257
 43
1.0
 76
     1
 77
     6
 78
     2
 67
     7
 79
     5
170
     0
171
     0
290
     0
174
     0
 93
        1
 44
0.0
173
     0
291
     0
 45
0.0
1001
ACAD
1000
AcDbSavedByObjectVersion
1070
     0
1000
AcDbSavedByObjectVersion
1070
     0
1000
AcDbSavedByObjectVersion
1070
     0
  0
VISUALSTYLE
  5
F5
102
{ACAD_REACTORS
330
F0
102
}
330
F0
100
AcDbVisualStyle
  2
Basic
 70
     7
 71
     1
 72
     0
 73
     1
 90
        0
 40
-0.6
 41
-30.0
 62
     5
 63
     7
421
 16777215
 74
     0
 91
        4
 64
     7
 65
   257
 75
     1
175
     1
 42
1.0
 92
        8
 66
     7
 43
1.0
 76
     1
 77
     6
 78
     2
 67
     7
 79
     5
170
     0
171
     0
290
     0
174
     0
 93
        1
 44
0.0
173
     0
291
     1
 45
0.0
1001
ACAD
1000
AcDbSavedByObjectVersion
1070
     0
1000
AcDbSavedByObjectVersion
1070
     0
1000
AcDbSavedByObjectVersion
1070
     0
  0
VISUALSTYLE
  5
FC
102
{ACAD_REACTORS
330
F0
102
}
330
F0
100
AcDbVisualStyle
  2
Brighten
 70
    12
 71
     2
 72
     2
 73
     1
 90
        0
 40
-0.6
 41
-30.0
 62
     5
 63
     7
421
 16777215
 74
     1
 91
        4
 64
     7
 65
   257
 75
     1
175
     1
 42
1.0
 92
        8
 66
     7
 43
1.0
 76
     1
 77
     6
 78
     2
 67
     7
 79
     5
170
     0
171
     0
290
     0
174
     0
 93
        1
 44
50.0
173
     0
291
     1
 45
0.0
1001
ACAD
1000
AcDbSavedByObjectVersion
1070
     0
1000
AcDbSavedByObjectVersion
1070
     0
1000
AcDbSavedByObjectVersion
1070
     0
  0
VISUALSTYLE
  5
100
102
{ACAD_REACTORS
330
F0
102
}
330
F0
100
AcDbVisualStyle
  2
ColorChange
 70
    16
 71
     2
 72
     2
 73
     3
 90
        0
 40
-0.6
 41
-30.0
 62
     5
 63
     8
421
  8421504
 74
     1
 91
        4
 64
     7
 65
   257
 75
     1
175
     1
 42
1.0
 92
        8
 66
     8
424
  8421504
 43
1.0
 76
     1
 77
     6
 78
     2
 67
     7
 79
     5
170
     0
171
     0
290
     0
174
     0
 93
        1
 44
0.0
173
     0
291
     1
 45
0.0
1001
ACAD
1000
AcDbSavedByObjectVersion
1070
     0
1000
AcDbSavedByObjectVersion
1070
     0
1000
AcDbSavedByObjectVersion
1070
     0
  0
VISUALSTYLE
  5
F9
102
{ACAD_REACTORS
330
F0
102
}
330
F0
100
AcDbVisualStyle
  2
Conceptual
 70
     9
 71
     3
 72
     2
 73
     1
 90
        0
 40
-0.6
 41
-30.0
 62
     5
 63
     7
421
 16777215
 74
     2
 91
        2
 64
     7
 65
   257
 75
     1
175
     1
 42
40.0
 92
        8
 66
     7
 43
1.0
 76
     1
 77
     6
 78
     2
 67
     7
 79
     3
170
     0
171
     0
290
     0
174
     0
 93
        1
 44
0.0
173
     0
291
     0
 45
0.0
1001
ACAD
1000
AcDbSavedByObjectVersion
1070
     0
1000
AcDbSavedByObjectVersion
1070
     0
1000
AcDbSavedByObjectVersion
1070
     0
  0
VISUALSTYLE
  5
FB
102
{ACAD_REACTORS
330
F0
102
}
330
F0
100
AcDbVisualStyle
  2
Dim
 70
    11
 71
     2
 72
     2
 73
     1
 90
        0
 40
-0.6
 41
-30.0
 62
     5
 63
     7
421
 16777215
 74
     1
 91
        4
 64
     7
 65
   257
 75
     1
175
     1
 42
1.0
 92
        8
 66
     7
 43
1.0
 76
     1
 77
     6
 78
     2
 67
     7
 79
     5
170
     0
171
     0
290
     0
174
     0
 93
        1
 44
-50.0
173
     0
291
     1
 45
0.0
1001
ACAD
1000
AcDbSavedByObjectVersion
1070
     0
1000
AcDbSavedByObjectVersion
1070
     0
1000
AcDbSavedByObjectVersion
1070
     0
  0
VISUALSTYLE
  5
FF
102
{ACAD_REACTORS
330
F0
102
}
330
F0
100
AcDbVisualStyle
  2
Facepattern
 70
    15
 71
     2
 72
     2
 73
     1
 90
        0
 40
-0.6
 41
-30.0
 62
     5
 63
     7
421
 16777215
 74
     1
 91
        4
 64
     7
 65
   257
 75
     1
175
     1
 42
1.0
 92
        8
 66
     7
 43
1.0
 76
     1
 77
     6
 78
     2
 67
     7
 79
     5
170
     0
171
     0
290
     0
174
     0
 93
        1
 44
0.0
173
     0
291
     1
 45
0.0
1001
ACAD
1000
AcDbSavedByObjectVersion
1070
     0
1000
AcDbSavedByObjectVersion
1070
     0
1000
AcDbSavedByObjectVersion
1070
     0
  0
VISUALSTYLE
  5
F1
102
{ACAD_REACTORS
330
F0
102
}
330
F0
100
AcDbVisualStyle
  2
Flat
 70
     0
 71
     2
 72
     1
 73
     1
 90
        2
 40
-0.6
 41
30.0
 62
     5
 63
     7
421
 16777215
 74
     0
 91
        4
 64
     7
 65
   257
 75
     1
175
     1
 42
1.0
 92
        8
 66
     7
 43
1.0
 76
     1
 77
     6
 78
     2
 67
     7
 79
     5
170
     0
171
     0
290
     0
174
     0
 93
        1
 44
0.0
173
     0
291
     1
 45
0.0
1001
ACAD
1000
AcDbSavedByObjectVersion
1070
     0
1000
AcDbSavedByObjectVersion
1070
     0
1000
AcDbSavedByObjectVersion
1070
     0
  0
VISUALSTYLE
  5
F2
102
{ACAD_REACTORS
330
F0
102
}
330
F0
100
AcDbVisualStyle
  2
FlatWithEdges
 70
     1
 71
     2
 72
     1
 73
     1
 90
        2
 40
-0.6
 41
30.0
 62
     5
 63
     7
421
 16777215
 74
     1
 91
        4
 64
     7
 65
   257
 75
     1
175
     1
 42
1.0
 92
        0
 66
   257
 43
1.0
 76
     1
 77
     6
 78
     2
 67
     7
 79
     5
170
     0
171
     0
290
     0
174
     0
 93
        1
 44
0.0
173
     0
291
     1
 45
0.0
1001
ACAD
1000
AcDbSavedByObjectVersion
1070
     0
1000
AcDbSavedByObjectVersion
1070
     0
1000
AcDbSavedByObjectVersion
1070
     0
  0
VISUALSTYLE
  5
F3
102
{ACAD_REACTORS
330
F0
102
}
330
F0
100
AcDbVisualStyle
  2
Gouraud
 70
     2
 71
     2
 72
     2
 73
     1
 90
        2
 40
-0.6
 41
30.0
 62
     5
 63
     7
421
 16777215
 74
     0
 91
        4
 64
     7
 65
   257
 75
     1
175
     1
 42
1.0
 92
        0
 66
     7
 43
1.0
 76
     1
 77
     6
 78
     2
 67
     7
 79
     5
170
     0
171
     0
290
     0
174
     0
 93
        1
 44
0.0
173
     0
291
     1
 45
0.0
1001
ACAD
1000
AcDbSavedByObjectVersion
1070
     0
1000
AcDbSavedByObjectVersion
1070
     0
1000
AcDbSavedByObjectVersion
1070
     0
  0
VISUALSTYLE
  5
F4
102
{ACAD_REACTORS
330
F0
102
}
330
F0
100
AcDbVisualStyle
  2
GouraudWithEdges
 70
     3
 71
     2
 72
     2
 73
     1
 90
        2
 40
-0.6
 41
30.0
 62
     5
 63
     7
421
 16777215
 74
     1
 91
        4
 64
     7
 65
   257
 75
     1
175
     1
 42
1.0
 92
        0
 66
   257
 43
1.0
 76
     1
 77
     6
 78
     2
 67
     7
 79
     5
170
     0
171
     0
290
     0
174
     0
 93
        1
 44
0.0
173
     0
291
     1
 45
0.0
1001
ACAD
1000
AcDbSavedByObjectVersion
1070
     0
1000
AcDbSavedByObjectVersion
1070
     0
1000
AcDbSavedByObjectVersion
1070
     0
  0
VISUALSTYLE
  5
FE
102
{ACAD_REACTORS
330
F0
102
}
330
F0
100
AcDbVisualStyle
  2
Linepattern
 70
    14
 71
     2
 72
     2
 73
     1
 90
        0
 40
-0.6
 41
-30.0
 62
     5
 63
     7
421
 16777215
 74
     1
 91
        4
 64
     7
 65
   257
 75
     7
175
     7
 42
1.0
 92
        8
 66
     7
 43
1.0
 76
     1
 77
     6
 78
     2
 67
     7
 79
     5
170
     0
171
     0
290
     0
174
     0
 93
        1
 44
0.0
173
     0
291
     1
 45
0.0
1001
ACAD
1000
AcDbSavedByObjectVersion
1070
     0
1000
AcDbSavedByObjectVersion
1070
     0
1000
AcDbSavedByObjectVersion
1070
     0
  0
VISUALSTYLE
  5
FA
102
{ACAD_REACTORS
330
F0
102
}
330
F0
100
AcDbVisualStyle
  2
Realistic
 70
     8
 71
     2
 72
     2
 73
     1
 90
        0
 40
-0.6
 41
-30.0
 62
     5
 63
     7
421
 16777215
 74
     1
 91
        0
 64
     7
 65
   257
 75
     1
175
     1
 42
1.0
 92
        8
 66
     8
424
  7895160
 43
1.0
 76
     1
 77
     6
 78
     2
 67
     7
 79
     5
170
     0
171
     0
290
     0
174
     0
 93
       13
 44
0.0
173
     0
291
     0
 45
0.0
1001
ACAD
1000
AcDbSavedByObjectVersion
1070
     0
1000
AcDbSavedByObjectVersion
1070
     0
1000
AcDbSavedByObjectVersion
1070
     0
  0
VISUALSTYLE
  5
FD
102
{ACAD_REACTORS
330
F0
102
}
330
F0
100
AcDbVisualStyle
  2
Thicken
 70
    13
 71
     2
 72
     2
 73
     1
 90
        0
 40
-0.6
 41
-30.0
 62
     5
 63
     7
421
 16777215
 74
     1
 91
        4
 64
     7
 65
   257
 75
     1
175
     1
 42
1.0
 92
       12
 66
     7
 43
1.0
 76
     1
 77
     6
 78
     2
 67
     7
 79
     5
170
     0
171
     0
290
     0
174
     0
 93
        1
 44
0.0
173
     0
291
     1
 45
0.0
1001
ACAD
1000
AcDbSavedByObjectVersion
1070
     0
1000
AcDbSavedByObjectVersion
1070
     0
1000
AcDbSavedByObjectVersion
1070
     0
  0
DICTIONARYVAR
  5
84
102
{ACAD_REACTORS
330
5E
102
}
330
5E
100
DictionaryVariables
280
     0
  1
STANDARD
  0
DICTIONARYVAR
  5
5F
102
{ACAD_REACTORS
330
5E
102
}
330
5E
100
DictionaryVariables
280
     0
  1
2
  0
DICTIONARYVAR
  5
63
102
{ACAD_REACTORS
330
5E
102
}
330
5E
100
DictionaryVariables
280
     0
  1
1
  0
DICTIONARYVAR
  5
AD9
102
{ACAD_REACTORS
330
5E
102
}
330
5E
100
DictionaryVariables
280
     0
  1
80.000000
  0
DICTIONARYVAR
  5
AD8
102
{ACAD_REACTORS
330
5E
102
}
330
5E
100
DictionaryVariables
280
     0
  1
5.000000
  0
DICTIONARY
  5
AA3
330
D3
100
AcDbDictionary
280
     1
281
     1
  3
ADSK_XREC_LAYOUTTHUMBNAIL
360
AA4
  0
DICTIONARY
  5
A6C
330
EE
100
AcDbDictionary
280
     1
281
     1
  3
ACAD_XREC_ROUNDTRIP
360
A6D
  0
DICTIONARY
  5
A6A
330
ED
100
AcDbDictionary
280
     1
281
     1
  3
ACAD_XREC_ROUNDTRIP
360
A6B
  0
DICTIONARY
  5
A6E
330
EF
100
AcDbDictionary
280
     1
281
     1
  3
ACAD_XREC_ROUNDTRIP
360
A6F
  0
DICTIONARY
  5
ADC
330
7F
100
AcDbDictionary
280
     1
281
     1
  3
ACAD_XREC_ROUNDTRIP
360
ADD
  0
XRECORD
  5
AA4
102
{ACAD_REACTORS
330
AA3
102
}
330
AA3
100
AcDbXrecord
280
     1
310
28000000B40000007F00000001000800000000004C59000000000000000000000001000000000000FFFFFF0000000000FFFFFF000000000000000000000000000000000000000000000000000000000000000000330000006600000099000000CC000000FF00000000330000333300006633000099330000CC330000FF3300
310
0000660000336600006666000099660000CC660000FF66000000990000339900006699000099990000CC990000FF99000000CC000033CC000066CC000099CC0000CCCC0000FFCC000000FF000033FF000066FF000099FF0000CCFF0000FFFF000000003300330033006600330099003300CC003300FF003300003333003333
310
33006633330099333300CC333300FF33330000663300336633006666330099663300CC663300FF66330000993300339933006699330099993300CC993300FF99330000CC330033CC330066CC330099CC3300CCCC3300FFCC330000FF330033FF330066FF330099FF3300CCFF3300FFFF330000006600330066006600660099
310
006600CC006600FF00660000336600333366006633660099336600CC336600FF33660000666600336666006666660099666600CC666600FF66660000996600339966006699660099996600CC996600FF99660000CC660033CC660066CC660099CC6600CCCC6600FFCC660000FF660033FF660066FF660099FF6600CCFF6600
310
FFFF660000009900330099006600990099009900CC009900FF00990000339900333399006633990099339900CC339900FF33990000669900336699006666990099669900CC669900FF66990000999900339999006699990099999900CC999900FF99990000CC990033CC990066CC990099CC9900CCCC9900FFCC990000FF99
310
0033FF990066FF990099FF9900CCFF9900FFFF99000000CC003300CC006600CC009900CC00CC00CC00FF00CC000033CC003333CC006633CC009933CC00CC33CC00FF33CC000066CC003366CC006666CC009966CC00CC66CC00FF66CC000099CC003399CC006699CC009999CC00CC99CC00FF99CC0000CCCC0033CCCC0066CC
310
CC0099CCCC00CCCCCC00FFCCCC0000FFCC0033FFCC0066FFCC0099FFCC00CCFFCC00FFFFCC000000FF003300FF006600FF009900FF00CC00FF00FF00FF000033FF003333FF006633FF009933FF00CC33FF00FF33FF000066FF003366FF006666FF009966FF00CC66FF00FF66FF000099FF003399FF006699FF009999FF00CC
310
99FF00FF99FF0000CCFF0033CCFF0066CCFF0099CCFF00CCCCFF00FFCCFF0000FFFF0033FFFF0066FFFF0099FFFF00CCFFFF00FFFFFF00000000000D0D0D001A1A1A00282828003535350043434300505050005D5D5D006B6B6B00787878008686860093939300A1A1A100AEAEAE00BBBBBB00C9C9C900D6D6D600E4E4E400
310
F1F1F100FFFFFF0000000000000000000000000000000000000000000000000000000000000000000000000000000000E2E2E2E2E2E2E2E2E2E2E2E2E2E2E2E2E2E2E2E2E2E2E2E2E2E2E2E2E2E2E2E2E2E2E2E2E2E2E2E2E2E2E2E2E2E2E2E2E2E2E2E2E2E2E2E2E2E2E2E2E2E2E2E2E2E2E2E2E2E2E2E2E2E2E2E2E2E2E2
310
E2E2E2E2E2E2E2E2E2E2E2E2E2E2E2E2E2E2E2E2E2E2E2E2E2E2E2E2E2E2E2E2E2E2E2E2E2E2E2E2E2E2E2E2E2E2E2E2E2E2E2E2E2E2E2E2E2E2E2E2E2E2E2E2E2E2E2E2E2E2E2E2E2E2E2E2E2E2E2E2E2E2E2E2E2E2E2E2E2E2E2E2E2E2E2E2E2E2E2E2E2E2F5F5F5F5F5F5F5F5F5F5F5F5F5F5F5F5F5F5F5F5F5F5F5F5F5
310
F5F5F5F5F5F5F5F5F5F5F5F5F5F5F5F5F5F5F5F5F5F5F5F5F5F5F5F5F5F5F5F5F5F5F5F5F5F5F5F5F5F5F5F5F5F5F5F5F5F5F5F5F5F5F5F5F5F5F5F5F5F5F5F5F5F5F5F5F5F5F5F5F5F5F5F5F5F5F5F5F5F5F5F5F5F5F5F5F5F5F5F5F5F5F5F5F5F5F5F5F5F5F5F5F5F5F5F5F5F5F5F5F5F5F5F5F5F5F5F5F5F5F5F5F5F5F5
310
F5F5F5F5F5F5F5F5F5F5F5F5F5F5F5F5F5F5F5F5F5F5F5F5F5E2E2E2F5F5F5F5F5F5F5F5F5F5F5F5F5F5F5F5F5F5F5F5F5F5F5F5F5F5F5F5F5F5F5F5F5F5F5F5F5F5F5F5F5F5F5F5F5F5F5F5F5F5F5F5F5F5F5F5F5F5F5F5F5F5F5F5F5F5F5F5F5F5F5F5F5F5F5F5F5F5F5F5F5F5F5F5F5F5F5F5F5F5F5F5F5F5F5F5F5F5F5
310
F5F5F5F5F5F5F5F5F5F5F5F5F5F5F5F5F5F5F5F5F5F5F5F5F5F5F5F5F5F5F5F5F5F5F5F5F5F5F5F5F5F5F5F5F5F5F5F5F5F5F5F5F5F5F5F5F5F5F5F5F5F5F5F5F5F5F5F5F5F5F5F5F5F5F5F5F5F5E2E2E2F5F5F5F5F5F5F5F5F5F5F5F5F5F5F5F5F5F5F5F5F5F5F5F5F5F5F5F5F5F5F5F5F5F5F5F5F5F5F5F5F5F5F5F5F5F5
310
F5F5F5F5F5F5F5F5F5F5F5F5F5F5F5F5F5F5F5F5F5F5F5F5F5F5F5F5F5F5F5F5F5F5F5F5F5F5F5F5F5F5F5F5F5F5F5F5F5F5F5F5F5F5F5F5F5F5F5F5F5F5F5F5F5F5F5F5F5F5F5F5F5F5F5F5F5F5F5F5F5F5F5F5F5F5F5F5F5F5F5F5F5F5F5F5F5F5F5F5F5F5F5F5F5F5F5F5F5F5F5F5F5F5F5F5F5F5F5F5F5F5F5F5F5F5F5
310
F5F5F5F5E2E2E2F5F5F5F5F5F5F5F5F5F5F5F5F5F5F5F5F5F5F5F5F5F5F5F5F5F5F5F5F5F5F5F5F5F5F5F5F5F5F5F5F5F5F5F5F5F5F5F5F5F5F5F5F5F5F5F5F5F5F5F5F5F5F5F5F5F5F5F5F5F5F5F5F5F5F5F5F5F5F5F5F5F5F5F5F5F5F5F5F5F5F5F5F5F5F5F5F5F5F5F5F5F5F5F5F5F5F5F5F5F5F5F5F5F5F5F5F5F5F5F5
310
F5F5F5F5F5F5F5F5F5F5F5F5F5F5F5F5F5F5F5F5F5F5F5F5F5F5F5F5F5F5F5F5F5F5F5F5F5F5F5F5F5F5F5F5F5F5F5F5F5F5F5F5F5F5F5F5F5E2E2E2F5F5F5F5F5F5F5F5F5F5F5E2E2E2E2E2E2E2E2E2F5F5F5F5F5F5F5F5F5E2E2E2E2E2E2E2E2E2E2E2E2E2E2E2E2F5F5F5F5F5F5F5F5F5F5E2E2E2E2E2E2E2E2E2E2E2E2
310
E2E2E2E2F5F5F5F5F5F5F5F5F5E2E2E2E2E2E2E2E2E2E2E2E2E2E2E2E2E2F5F5F5F5F5F5F5F5F5E2E2E2E2E2E2E2E2E2E2E2E2E2E2E2E2F5F5F5F5F5F5F5F5F5F5E2E2E2E2E2E2E2E2E2E2E2E2E2E2E2E2F5F5F5F5F5F5F5F5F5E2E2E2E2E2E2E2E2E2F5F5F5F5F5F5F5F5F5F5F5E2E2E2F5F5F5F5F5F5F5F5F5F5F5E2F5F5
310
F5F5F5F5F5F5F5F5F5F5F5F5F5F5F5F5F5F5F5F5F5F5F5F5F5F5F5F5F5F5F5F5F5F5F5F5F5F5F5F5F5F5F5F5F5F5F5F5F5F5F5F5F5F5F5F5F5F5F5F5F5F5F5F5F5F5F5F5F5F5F5F5F5F5F5F5F5F5F5F5F5F5F5F5F5F5F5F5F5F5F5F5F5F5F5F5F5F5F5F5F5F5F5F5F5F5F5F5F5F5F5F5F5F5F5F5F5F5F5F5F5F5F5F5F5F5F5
310
F5F5F5F5F5F5F5F5F5F5F5F5F5F5F5F5F5F5F5F5F5F5F5F5E2F5F5F5F5F5F5F5F5F5F5F5E2E2E2F5F5F5F5F5F5F5F5F5F5F5E2F5F5F5F5F5F5F5F5F5F5F5F5F5F5F5F5F5F5F5F5F5F5F5F5F5F5F5F5F5F5F5F5F5F5F5F5F5F5F5F5F5F5F5F5F5F5F5F5F5F5F5F5F5F5F5F5F5F5F5F5F5F5F5F5F5F5F5F5F5F5F5F5F5F5F5F5
310
F5F5F5F5F5F5F5F5F5F5F5F5F5F5F5F5F5F5F5F5F5F5F5F5F5F5F5F5F5F5F5F5F5F5F5F5F5F5F5F5F5F5F5F5F5F5F5F5F5F5F5F5F5F5F5F5F5F5F5F5F5F5F5F5F5F5F5F5F5F5F5F5F5F5F5F5F5E2F5F5F5F5F5F5F5F5F5F5F5E2E2E2F5F5F5F5F5F5F5F5F5F5F5E2F5F5F5F5F5F5F5F5F5F5F5F5F5F5F5F5F5F5F5F5F5F5F5
310
F5F5F5F5F5F5F5F5F5F5F5F5F5F5F5F5F5F5F5F5F5F5F5F5F5F5F5F5F5F5F5F5F5F5F5F5F5F5F5F5F5F5F5F5F5F5F5F5F5F5F5F5F5F5F5F5F5F5F5F5F5F5F5F5F5F5F5F5F5F5F5F5F5F5F5F5F5F5F5F5F5F5F5F5F5F5F5F5F5F5F5F5F5F5F5F5F5F5F5F5F5F5F5F5F5F5F5F5F5F5F5F5F5F5F5F5F5F5F5F5F5F5F5F5F5F5F5
310
F5F5F5E2F5F5F5F5F5F5F5F5F5F5F5E2E2E2F5F5F5F5F5F5F5F5F5F5F5E2F5F5F5F5F5F5F5F5F5F5F5F5F5F5F5F5F5F5F5F5F5F5F5F5F5F5F5F5F5F5F5F5F5F5F5F5F5F5F5F5F5F5F5F5F5F5F5F5F5F5F5F5F5F5F5F5F5F5F5F5F5F5F5F5F5F5F5F5F5F5F5F5F5F5F5F5F5F5F5F5F5F5F5F5F5F5F5F5F5F5F5F5F5F5F5F5F5
310
F5F5F5F5F5F5F5F5F5F5F5F5F5F5F5F5F5F5F5F5F5F5F5F5F5F5F5F5F5F5F5F5F5F5F5F5F5F5F5F5F5F5F5F5F5F5F5F5F5F5F5F5F5F5F5F5E2F5F5F5F5F5F5F5F5F5F5F5E2E2E2F5F5F5F5F5F5F5F5F5F5F5E2F5F5F5F5F5F5F5F5F5F5F5F5F5F5F5F5F5F5F5F5F5F5F5F5F5F5F5F5F5F5F5F5F5F5F5F5F5F5F5F5F5F5F5F5
310
F5F5F5F5F5F5F5F5F5F5F5F5F5F5F5F5F5F5F5F5F5F5F5F5F5F5F5F5F5F5F5F5F5F5F5F5F5F5F5F5F5F5F5F5F5F5F5F5F5F5F5F5F5F5F5F5F5F5F5F5F5F5F5F5F5F5F5F5F5F5F5F5F5F5F5F5F5F5F5F5F5F5F5F5F5F5F5F5F5F5F5F5F5F5F5F5F5F5F5F5F5F5F5F5F5F5F5F5F5E2F5F5F5F5F5F5F5F5F5F5F5E2E2E2F5F5F5
310
F5F5F5F5F5F5F5F5E2F5F5F5F5F5F5F5F5F5F5F5F5F5F5F5F5F5F5F5F5F5F5F5F5F5F5F5F5F5F5F5F5F5F5F5F5F5F5F5F5F5F5F5F5F5F5F5F5F5F5F5F5F5F5F5F5F5F5F5F5F5F5F5F5F5F5F5F5F5F5F5F5F5F5F5F5F5F5F5F5F5F5F5F5F5F5F5F5F5F5F5F5F5F5F5F5F5F5F5F5F5F5F5F5F5F5F5F5F5F5F5F5F5F5F5F5F5F5
310
F5F5F5F5F5F5F5F5F5F5F5F5F5F5F5F5F5F5F5F5F5F5F5F5F5F5F5F5F5F5F5F5F5F5F5E2F5F5F5F5F5F5F5F5F5F5F5E2E2E2F5F5F5F5F5F5F5F5F5F5F5E2F5F5F5F5F5F5F5F5F5F5F5F5F5F5F5F5F5F5F5F5F5F5F5F5F5F5F5F5F5F5F5F5F5F5F5F5F5F5F5F5F5F5F5F5F5F5F5F5F5F5F5F5F5F5F5F5F5F5F5F5F5F5F5F5F5
310
F5F5F5F5F5F5F5F5F5F5F5F5F5F5F5F5F5F5F5F5F5F5F5F5F5F5F5F5F5F5F5F5F5F5F5F5F5F5F5F5F5F5F5F5F5F5F5F5F5F5F5F5F5F5F5F5F5F5F5F5F5F5F5F5F5F5F5F5F5F5F5F5F5F5F5F5F5F5F5F5F5F5F5F5F5F5F5F5E2F5F5F5F5F5F5F5F5F5F5F5E2E2E2F5F5F5F5F5F5F5F5F5F5F5F5F5F5F5F5F5F5F5F5F5F5F5F5
310
F5F5F5F5F5F5F5F5F5F5F5F5F5F5F5F5F5F5F5F5F5F5F5F5F5F5F5F5F5F5F5F5F5F5F5F5F5F5F5F5F5F5F5F5F5F5F5F5F5F5F5F5F5F5F5F5F5F5F5F5F5F5F5F5F5F5F5F5F5F5F5F5F5F5F5F5F5F5F5F5F5F5F5F5F5F5F5F5F5F5F5F5F5F5F5F5F5F5F5F5F5F5F5F5F5F5F5F5F5F5F5F5F5F5F5F5F5F5F5F5F5F5F5F5F5F5F5
310
F5F5F5F5F5F5F5F5F5F5F5F5F5F5F5F5F5F5F5F5F5F5F5F5F5F5E2E2E2F5F5F5F5F5F5F5F5F5F5F5F5F5F5F5F5F5F5F5F5F5F5F5F5F5F5F5F5F5F5F5F5F5F5F5F5F5F5F5F5F5F5F5F5F5F5F5F5F5F5F5F5F5F5F5F5F5F5F5F5F5F5F5F5F5F5F5F5F5F5F5F5F5F5F5F5F5F5F5F5F5F5F5F5F5F5F5F5F5F5F5F5F5F5F5F5F5F5
310
F5F5F5F5F5F5F5F5F5F5F5F5F5F5F5F5F5F5F5F5F5F5F5F5F5F5F5F5F5F5F5F5F5F5F5F5F5F5F5F5F5F5F5F5F5F5F5F5F5F5F5F5F5F5F5F5F5F5F5F5F5F5F5F5F5F5F5F5F5F5F5F5F5F5F5F5F5F5F5E2E2E2F5F5F5F5F5F5F5F5F5F5F5F5F5F5F5F5F5F5F5F5F5F5F5F5F5F5F5F5F5F5F5F5F5F5F5F5F5F5F5F5F5F5F5F5F5
310
F5F5F5F5F5F5F5F5F5F5F5F5F5F5F5F5F5F5F5F5F5F5F5F5F5F5F5F5F5F5F5F5F5F5F5F5F5F5F5F5F5F5F5F5F5F5F5F5F5F5F5F5F5F5F5F5F5F5F5F5F5F5F5F5F5F5F5F5F5F5F5F5F5F5F5F5F5F5F5F5F5F5F5F5F5F5F5F5F5F5F5F5F5F5F5F5F5F5F5F5F5F5F5F5F5F5F5F5F5F5F5F5F5F5F5F5F5F5F5F5F5F5F5F5F5F5F5
310
F5F5F5F5F5E2E2E2F5F5F5F5F5F5F5F5F5F5F5F5F5F5F5F5F5F5F5F5F5F5F5F5F5F5E2E2E2E2E2E2E2E2E2E2E2E2E2E2E2E2E2E2E2E2E2E2E2E2E2E2E2E2E2E2E2E2E2E2E2E2E2E2E2E2E2E2E2E2E2E2E2E2E2E2E2E2E2E2E2E2E2E2E2E2E2E2E2E2E2E2E2E2E2E2E2E2E2E2E2E2E2E2E2E2E2E2E2E2E2E2E2E2E2E2E2E2E2
310
E2E2E2E2E2E2E2E2E2E2E2E2E2E2E2E2E2E2E2E2E2E2E2E2E2E2E2E2E2E2E2E2F5F5F5F5F5F5F5F5F5F5F5F5F5F5F5F5F5F5F5F5F5F5F5F5F5F5E2E2E2F5F5F5F5F5F5F5F5F5F5F5F5F5F5F5F5F5F5F5F5F5F5F5F5F5F5E2F5F5F5F5F5F5F5F5F5F5F5F5F5F5F5F5F5F5F5F5F5F5F5F5F5F5F5F5F5F5F5F5F5F5F5F5F5F5F5
310
F5F5F5F5F5F5E2E2E2E2E2E2E2E2E2E2E2F5F5F5F5F5F5F5F5F5F5F5F5F5F5F5F5F5F5F5F5E2E2E2E2E2E2E2E2E2E2E2E2E2E2E2E2F5F5F5F5F5F5F5F5F5F5F5F5F5F5F5F5F5F5F5F5F5F5F5F5F5F5F5F5F5F5F5E2F5F5F5F5F5F5F5F5F5F5F5F5F5F5F5F5F5F5F5F5F5F5F5F5F5F5E2E2E2F5F5F5F5F5F5F5F5F5F5F5F5F5
310
F5F5F5F5F5F5F5F5F5F5F5F5F5E2F5F5F5F5F5F5F5F5F5F5F5F5F5F5F5F5F5F5F5F5F5F5F5F5F5F5F5F5F5F5F5F5F5F5F5F5E2E2E2E2E2E2E2E2F5E2E2E2E2E2E2E2E2E2E2E2F5F5F5F5F5F5F5F5F5F5F5E2E2E2E2E2E2E2E2F5E2E2E2E2E2E2E2E2E2E2E2E2E2E2E2E2F5F5F5F5F5F5F5F5F5F5F5F5F5F5F5F5F5F5F5F5F5
310
F5F5F5F5F5F5F5F5F5F5E2F5F5F5F5F5F5F5F5F5F5F5F5F5F5F5F5F5F5F5F5F5F5F5F5F5F5E2E2E2F5F5F5F5F5F5F5F5F5F5F5F5F5F5F5F5F5F5F5F5F5F5F5F5F5F5E2F5F5F5F5F5F5F5F5F5F5F5F5F5F5F5F5F5F5F5F5F5F5F5F5F5F5F5F5F5F5F5F5F5F5F5F5F5F5F5F5F5F5F5F5F5F5F5F5F5F5F5F5F5F5F5F5F5F5F5F5
310
F5F5F5F5F5F5F5F5F5F5F5F5F5F5F5F5F5F5F5F5F5F5F5F5F5F5F5F5F5F5F5F5F5F5F5F5F5F5F5F5F5F5F5F5F5F5F5F5F5F5F5F5F5F5F5F5F5F5F5F5F5F5F5E2F5F5F5F5F5F5F5F5F5F5F5F5F5F5F5F5F5F5F5F5F5F5F5F5F5F5E2E2E2F5F5F5F5F5F5F5F5F5F5F5F5F5F5F5F5F5F5F5F5F5F5F5F5F5F5E2F5F5F5F5F5F5F5
310
F5F5F5F5F5F5F5F5F5F5F5F5F5F5F5F5F5F5F5F5F5F5F5F5F5F5F5F5F5F5F5F5F5F5F5F5F5F5F5F5F5F5F5F5F5F5F5F5F5F5F5F5F5F5F5F5F5F5F5F5F5F5F5F5F5F5F5F5F5F5F5F5F5F5F5F5F5F5F5F5F5F5F5F5F5F5F5F5F5F5F5F5F5F5F5F5F5F5F5F5F5F5F5F5F5F5F5F5F5F5F5F5F5F5F5F5E2F5F5F5F5F5F5F5F5F5F5
310
F5F5F5F5F5F5F5F5F5F5F5F5F5F5F5F5E2E2E2F5F5F5F5F5F5F5F5F5F5F5E2F5F5F5F5F5F5F5F5F5F5F5F5F5F5E2F5F5F5F5F5F5F5F5F5F5F5F5F5F5F5F5F5F5F5F5F5F5F5F5F5F5F5F5F5F5F5F5F5F5F5F5F5F5F5F5F5F5F5F5F5F5F5F5F5F5F5F5F5F5F5F5F5F5F5F5F5F5F5F5F5F5F5F5F5F5F5F5F5F5F5F5F5F5F5F5F5
310
F5F5F5F5F5F5F5F5F5F5F5F5F5F5F5F5F5F5F5F5F5F5F5F5F5F5F5F5F5F5F5F5F5F5F5F5F5F5F5F5F5F5E2F5F5F5F5F5F5F5F5F5F5F5F5F5F5E2F5F5F5F5F5F5F5F5F5F5F5E2E2E2F5F5F5F5F5F5F5F5F5F5F5E2F5F5F5F5F5F5F5F5F5F5F5F5F5F5E2F5F5F5F5F5F5F5F5F5F5F5F5F5F5F5F5F5F5F5F5F5F5F5F5F5F5F5F5
310
F5F5F5F5F5F5F5F5F5F5F5F5F5F5F5F5F5F5F5F5F5F5F5F5F5F5F5F5F5F5F5F5F5F5F5F5F5F5F5F5F5F5F5F5F5F5F5F5F5F5F5F5F5F5F5F5F5F5F5F5F5F5F5F5F5F5F5F5F5F5F5F5F5F5F5F5F5F5F5F5F5F5F5F5F5F5F5F5F5F5F5F5F5F5F5E2F5F5F5F5F5F5F5F5F5F5F5F5F5F5E2F5F5F5F5F5F5F5F5F5F5F5E2E2E2F5F5
310
F5F5F5F5F5F5F5F5F5E2F5F5F5F5F5F5F5F5F5F5F5F5F5F5E2F5F5F5F5F5F5F5F5F5F5F5F5F5F5F5F5F5F5F5F5F5F5F5F5F5F5F5F5F5F5F5F5F5F5F5F5F5F5F5F5F5F5F5F5F5F5F5F5F5F5F5F5F5F5F5F5F5F5F5F5F5F5F5F5F5F5F5F5F5F5F5F5F5F5F5F5F5F5F5F5F5F5F5F5F5F5F5F5F5F5F5F5F5F5F5F5F5F5F5F5F5F5
310
F5F5F5F5F5F5F5F5F5F5F5F5F5F5F5F5F5F5F5F5F5E2F5F5F5F5F5F5F5F5F5F5F5F5F5F5E2F5F5F5F5F5F5F5F5F5F5F5E2E2E2F5F5F5F5F5F5F5F5F5F5F5E2F5F5F5F5F5F5F5F5F5F5F5F5F5F5E2F5F5F5F5F5F5F5F5F5F5F5F5F5F5F5F5F5F5F5F5F5F5F5F5F5F5F5F5F5F5F5F5F5F5F5F5F5F5F5F5F5F5F5F5F5F5F5F5F5
310
F5F5F5F5F5F5F5F5F5F5F5F5F5F5F5F5F5F5F5F5F5F5F5F5F5F5F5F5F5F5F5F5F5F5F5F5F5F5F5F5F5F5F5F5F5F5F5F5F5F5F5F5F5F5F5F5F5F5F5F5F5F5F5F5F5F5F5F5F5F5F5F5F5F5E2F5F5F5F5F5F5F5F5F5F5F5F5F5F5E2F5F5F5F5F5F5F5F5F5F5F5E2E2E2F5F5F5F5F5F5F5F5F5F5F5E2F5F5F5F5F5F5F5F5F5F5F5
310
F5F5F5E2F5F5F5F5F5F5F5F5F5F5F5F5F5F5F5F5F5F5F5F5F5F5F5F5F5F5F5F5F5F5F5F5F5F5F5F5F5F5F5F5F5F5F5F5F5F5F5F5F5F5F5F5F5F5F5F5F5F5F5F5F5F5F5F5F5F5F5F5F5F5F5F5F5F5F5F5F5F5F5F5F5F5F5F5F5F5F5F5F5F5F5F5F5F5F5F5F5F5F5F5F5F5F5F5F5F5F5F5F5F5F5F5F5F5F5F5F5F5F5F5F5F5F5
310
E2F5F5F5F5F5F5F5F5F5F5F5F5F5F5E2F5F5F5F5F5F5F5F5F5F5F5E2E2E2F5F5F5F5F5F5F5F5F5F5F5E2F5F5F5F5F5F5F5F5F5F5F5F5F5F5E2F5F5F5F5F5F5F5F5F5F5F5F5F5F5F5F5F5F5F5F5F5F5F5F5F5F5F5F5F5F5F5F5F5F5F5F5F5F5F5F5F5F5F5F5F5F5F5F5F5F5F5F5F5F5F5F5F5F5F5F5F5F5F5F5F5F5F5F5F5F5
310
F5F5F5F5F5F5F5F5F5F5F5F5F5F5F5F5F5F5F5F5F5F5F5F5F5F5F5F5F5F5F5F5F5F5F5F5F5F5F5F5F5F5F5F5F5F5F5F5F5F5F5F5F5E2F5F5F5F5F5F5F5F5F5F5F5F5F5F5E2F5F5F5F5F5F5F5F5F5F5F5E2E2E2F5F5F5F5F5F5F5F5F5F5F5E2F5F5F5F5F5F5F5F5F5F5F5F5F5F5E2F5F5F5F5F5F5F5F5F5F5F5F5F5F5F5F5F5
310
F5F5F5F5F5F5F5F5F5F5F5F5F5F5F5F5F5F5F5F5F5F5F5F5F5F5F5F5F5F5F5F5F5F5F5F5F5F5F5F5F5F5F5F5F5F5F5F5F5F5F5F5F5F5F5F5F5F5F5F5F5F5F5F5F5F5F5F5F5F5F5F5F5F5F5F5F5F5F5F5F5F5F5F5F5F5F5F5F5F5F5F5F5F5F5F5F5F5F5F5F5F5F5F5F5F5E2F5F5F5F5F5F5F5F5F5F5F5F5F5F5E2F5F5F5F5F5
310
F5F5F5F5F5F5E2E2E2F5F5F5F5F5F5F5F5F5F5F5E2F5F5F5F5F5F5F5F5F5F5F5F5F5F5E2F5F5F5F5F5F5F5F5F5F5F5F5F5F5F5F5F5F5F5F5F5F5F5F5F5F5F5F5F5F5F5F5F5F5F5F5F5F5F5F5F5F5F5F5F5F5F5F5F5F5F5F5F5F5F5F5F5F5F5F5F5F5F5F5F5F5F5F5F5F5F5F5F5F5F5F5F5F5F5F5F5F5F5F5F5F5F5F5F5F5F5
310
F5F5F5F5F5F5F5F5F5F5F5F5F5F5F5F5F5F5F5F5F5F5F5F5F5F5F5F5F5F5F5F5E2F5F5F5F5F5F5F5F5F5F5F5F5F5F5E2F5F5F5F5F5F5F5F5F5F5F5E2E2E2F5F5F5F5F5F5F5F5F5F5F5E2F5F5F5F5F5F5F5F5F5F5F5F5F5F5E2F5F5F5F5F5F5F5F5F5F5F5F5F5F5F5F5F5F5F5F5F5F5F5F5F5F5F5F5F5F5F5F5F5F5F5F5F5F5
310
F5F5F5F5F5F5F5F5F5F5F5F5F5F5F5F5F5F5F5F5F5F5F5F5F5F5F5F5F5F5F5F5F5F5F5F5F5F5F5F5F5F5F5F5F5F5F5F5F5F5F5F5F5F5F5F5F5F5F5F5F5F5F5F5F5F5F5F5F5F5F5F5F5F5F5F5F5F5F5F5F5F5F5F5F5E2F5F5F5F5F5F5F5F5F5F5F5F5F5F5E2F5F5F5F5F5F5F5F5F5F5F5E2E2E2F5F5F5F5F5F5F5F5F5F5F5E2
310
F5F5F5F5F5F5F5F5F5F5F5F5F5F5E2F5F5F5F5F5F5F5F5F5F5F5F5F5F5F5F5F5F5F5F5F5F5F5F5F5F5F5F5F5F5F5F5F5F5F5F5F5F5F5F5F5F5F5F5F5F5F5F5F5F5F5F5F5F5F5F5F5F5F5F5F5F5F5F5F5F5F5F5F5F5F5F5F5F5F5F5F5F5F5F5F5F5F5F5F5F5F5F5F5F5F5F5F5F5F5F5F5F5F5F5F5F5F5F5F5F5F5F5F5F5F5F5
310
F5F5F5F5F5F5F5F5F5F5F5E2F5F5F5F5F5F5F5F5F5F5F5F5F5F5E2F5F5F5F5F5F5F5F5F5F5F5E2E2E2F5F5F5F5F5F5F5F5F5F5F5E2F5F5F5F5F5F5F5F5F5F5F5F5F5F5E2F5F5F5F5F5F5F5F5F5F5F5F5F5F5F5F5F5F5F5F5F5F5F5F5F5F5F5F5F5F5F5F5F5F5F5F5F5F5F5F5F5F5F5F5F5F5F5F5F5F5F5F5F5F5F5F5F5F5F5
310
F5F5F5F5F5F5F5F5F5F5F5F5F5F5F5F5F5F5F5F5F5F5F5F5F5F5F5F5F5F5F5F5F5F5F5F5F5F5F5F5F5F5F5F5F5F5F5F5F5F5F5F5F5F5F5F5F5F5F5F5F5F5F5F5E2F5F5F5F5F5F5F5F5F5F5F5F5F5F5E2F5F5F5F5F5F5F5F5F5F5F5E2E2E2F5F5F5F5F5F5F5F5F5F5F5E2F5F5F5F5F5F5F5F5F5F5F5F5F5F5E2F5F5F5F5F5F5
310
F5F5F5F5F5F5F5F5F5F5F5F5F5F5F5E2E2E2F5F5F5F5F5F5E2E2E2E2E2E2E2F5F5F5E2E2E2E2E2E2E2E2E2F5F5F5E2E2E2E2E2E2E2E2F5F5F5E2E2E2E2E2E2E2E2F5F5F5E2E2E2E2E2E2E2E2E2F5F5F5E2E2E2E2E2E2E2F5F5F5F5F5E2E2E2E2F5F5F5F5F5F5F5F5F5F5F5F5F5F5F5F5F5F5F5F5F5E2F5F5F5F5F5F5F5F5F5
310
F5F5F5F5F5E2F5F5F5F5F5F5F5F5F5F5F5E2E2E2F5F5F5F5F5F5F5F5F5F5F5E2F5F5F5F5F5F5F5F5F5F5F5F5F5F5E2F5F5F5F5F5F5F5F5F5F5F5F5F5F5F5F5F5F5F5F5F5E2E2E2F5F5F5F5F5F5E2F5F5F5F5F5F5F5F5F5F5F5F5F5F5F5F5F5F5F5F5F5F5F5F5F5F5F5F5F5F5F5F5F5F5F5F5F5F5F5F5F5F5F5F5F5F5F5F5F5
310
F5F5F5F5F5F5F5F5F5F5F5F5E2F5F5F5F5F5E2E2E2E2F5F5F5F5F5F5F5F5F5F5F5F5F5F5F5F5F5F5F5F5F5E2F5F5F5F5F5F5F5F5F5F5F5F5F5F5E2F5F5F5F5F5F5F5F5F5F5F5E2E2E2F5F5F5F5F5F5F5F5F5F5F5E2F5F5F5F5F5F5F5F5F5F5F5F5F5F5E2F5F5F5F5F5F5F5F5F5F5F5F5F5F5F5F5F5F5F5F5E2E2E2E2E2E2E2
310
E2E2E2E2E2E2E2E2E2E2E2E2E2E2E2E2F5F5F5E2E2E2E2E2E2E2E2F5F5F5E2E2E2E2E2E2E2E2E2F5F5F5E2E2E2E2E2E2E2E2F5F5F5E2E2E2E2E2E2E2E2E2E2E2E2E2E2E2E2E2E2E2E2E2E2E2F5F5F5F5F5F5F5F5F5F5F5F5F5F5F5F5F5F5F5F5E2F5F5F5F5F5F5F5F5F5F5F5F5F5F5E2F5F5F5F5F5F5F5F5F5F5F5E2E2E2F5
310
F5F5F5F5F5F5F5F5F5F5E2F5F5F5F5F5F5F5F5F5F5F5F5F5F5E2F5F5F5F5F5F5F5F5F5F5F5F5F5F5F5F5F5F5F5F5F5F5F5E2E2F5F5F5F5F5E2F5E2F5F5F5F5F5F5F5F5F5F5F5F5F5F5F5F5F5F5F5F5F5F5F5F5F5F5F5F5F5F5F5F5F5F5F5F5F5F5F5F5F5F5F5F5F5F5F5F5F5F5F5F5F5F5F5F5F5E2F5E2F5F5F5F5F5F5F5F5
310
F5F5F5F5F5F5F5F5F5F5F5F5F5F5F5F5F5F5F5F5F5F5E2F5F5F5F5F5F5F5F5F5F5F5F5F5F5E2F5F5F5F5F5F5F5F5F5F5F5E2E2E2F5F5F5F5F5F5F5F5F5F5F5F5F5F5F5F5F5F5F5F5F5F5F5F5F5F5E2F5F5F5F5F5F5F5F5F5F5F5F5F5F5F5F5F5F5F5F5F5F5F5F5E2F5F5F5F5F5E2F5E2E2E2E2E2E2E2E2E2E2E2F5F5F5E2E2
310
E2E2E2E2E2E2F5F5F5E2E2E2E2E2E2E2E2E2F5F5F5E2E2E2E2E2E2E2E2F5F5F5E2E2E2E2E2E2E2E2E2E2E2F5E2F5F5F5F5F5F5F5F5F5F5F5F5F5F5F5F5F5F5F5F5F5F5F5F5F5F5F5F5F5F5E2F5F5F5F5F5F5F5F5F5F5F5F5F5F5F5F5F5F5F5F5F5F5F5F5F5F5E2E2E2F5F5F5F5F5F5F5F5F5F5F5F5F5F5F5F5F5F5F5F5F5F5
310
F5F5F5F5E2F5F5F5F5F5F5F5F5F5F5F5F5F5F5F5F5F5F5F5F5F5F5F5F5E2F5F5F5F5F5E2F5E2F5F5F5F5F5F5F5F5F5F5F5F5F5F5F5F5F5F5F5F5F5F5F5F5F5F5F5F5F5F5F5F5F5F5F5F5F5F5F5F5F5F5F5F5F5F5F5F5F5F5F5F5F5F5F5F5F5E2F5E2F5F5F5F5F5F5F5F5F5F5F5F5F5F5F5F5F5F5F5F5F5F5F5F5F5F5F5F5F5
310
F5E2F5F5F5F5F5F5F5F5F5F5F5F5F5F5F5F5F5F5F5F5F5F5F5F5F5F5E2E2E2F5F5F5F5F5F5F5F5F5F5F5F5F5F5F5F5F5F5F5F5F5F5F5F5F5F5E2F5F5F5F5F5F5F5F5F5F5F5F5F5F5F5F5F5F5F5F5F5F5F5F5E2F5F5F5F5F5E2F5E2F5F5F5F5F5F5F5F5F5F5F5F5F5F5F5F5F5F5F5F5F5F5F5F5F5F5F5F5F5F5F5F5F5F5F5F5
310
F5F5F5F5F5F5F5F5F5F5F5F5F5F5F5F5F5F5F5F5F5E2F5E2F5F5F5F5F5F5F5F5F5F5F5F5F5F5F5F5F5F5F5F5F5F5F5F5F5F5F5F5F5F5E2F5F5F5F5F5F5F5F5F5F5F5F5F5F5F5F5F5F5F5F5F5F5F5F5F5F5E2E2E2F5F5F5F5F5F5F5F5F5F5F5F5F5F5F5F5F5F5F5F5F5F5F5F5F5F5E2F5F5F5F5F5F5F5F5F5F5F5F5F5F5F5F5
310
F5F5F5F5F5F5F5F5E2F5F5F5F5F5E2F5E2F5F5F5F5F5F5F5F5F5F5F5F5F5F5F5F5F5F5F5F5F5F5F5F5F5F5F5F5F5F5F5F5F5F5F5F5F5F5F5F5F5F5F5F5F5F5F5F5F5F5F5F5F5F5F5F5F5E2F5E2F5F5F5F5F5F5F5F5F5F5F5F5F5F5F5F5F5F5F5F5F5F5F5F5F5F5F5F5F5F5E2F5F5F5F5F5F5F5F5F5F5F5F5F5F5F5F5F5F5F5
310
F5F5F5F5F5F5F5E2E2E2F5F5F5F5F5F5F5F5F5F5F5F5F5F5F5F5F5F5F5F5F5F5F5F5F5F5E2F5F5F5F5F5F5F5F5F5F5F5F5F5F5F5F5F5F5F5F5F5F5F5F5E2F5F5F5F5F5E2F5E2F5F5F5F5F5F5F5F5F5F5F5F5F5F5F5F5F5F5F5F5F5F5F5F5F5F5F5F5F5F5F5F5F5F5F5F5F5F5F5F5F5F5F5F5F5F5F5F5F5F5F5F5F5F5F5F5F5
310
E2F5E2F5F5F5F5F5F5F5F5F5F5F5F5F5F5F5F5F5F5F5F5F5F5F5F5F5F5F5F5F5F5E2F5F5F5F5F5F5F5F5F5F5F5F5F5F5F5F5F5F5F5F5F5F5F5F5F5F5E2E2E2F5F5F5F5F5F5F5F5F5F5F5F5F5F5F5F5F5F5F5F5F5F5F5F5F5F5E2F5F5F5F5F5F5F5F5F5F5F5F5F5F5F5F5F5F5F5F5F5F5F5F5E2F5F5F5F5F5F5F5E2F5F5F5F5
310
F5F5F5F5F5F5F5F5F5F5F5F5F5F5F5F5F5F5F5F5F5F5F5F5F5F5F5F5F5F5F5F5F5F5F5F5F5F5F5F5F5F5F5F5F5F5F5F5F5F5F5F5F5E2F5F5F5F5F5F5F5F5F5F5F5F5F5F5F5F5F5F5F5F5F5F5F5F5F5F5F5F5F5F5F5F5E2F5F5F5F5F5F5F5F5F5F5F5F5F5F5F5F5F5F5F5F5F5F5F5F5F5F5E2E2E2F5F5F5F5F5F5F5F5F5F5F5
310
F5F5F5F5F5F5F5F5F5F5F5F5F5F5F5E2F5F5F5F5F5F5F5F5F5F5F5F5F5F5F5F5F5F5F5F5F5F5F5F5E2F5F5F5F5F5F5F5E2F5F5F5F5F5F5F5F5F5F5F5F5F5F5F5F5F5F5F5F5F5F5F5F5F5F5F5F5F5F5F5F5F5F5F5F5F5F5F5F5F5F5F5F5F5F5F5F5F5F5F5F5F5F5F5F5F5E2F5F5F5F5F5F5F5F5F5F5F5F5F5F5F5F5F5F5F5F5
310
F5F5F5F5F5F5F5F5F5F5F5F5E2F5F5F5F5F5F5F5F5F5F5F5F5F5F5F5F5F5F5F5F5F5F5F5F5F5F5E2E2E2F5F5F5F5F5F5F5F5F5F5F5F5F5F5F5F5F5F5F5F5F5F5F5F5F5F5E2F5F5F5F5F5F5F5F5F5F5F5F5F5F5F5F5F5F5F5F5F5F5F5F5E2F5F5F5F5F5E2F5E2F5F5F5F5F5F5F5F5F5F5F5F5F5F5F5F5F5F5F5F5F5F5F5F5F5
310
F5F5F5F5F5F5F5F5F5F5F5F5F5F5F5F5F5F5F5F5F5F5F5F5F5F5F5F5F5F5F5F5E2F5E2F5F5F5F5F5F5F5F5F5F5F5F5F5F5F5F5F5F5F5F5F5F5F5F5F5F5F5F5F5F5E2F5F5F5F5F5F5F5F5F5F5F5F5F5F5F5F5F5F5F5F5F5F5F5F5F5F5E2E2E2F5F5F5F5F5F5F5F5F5F5F5E2F5F5F5F5F5F5F5F5F5F5F5F5F5F5E2F5F5F5F5F5
310
F5F5F5F5F5F5F5F5F5F5F5F5F5F5F5F5F5F5F5E2F5F5F5F5F5E2F5E2F5F5F5F5F5F5F5F5F5F5F5F5F5F5F5F5F5F5F5F5F5F5F5F5F5F5F5F5F5F5F5F5F5F5F5F5F5F5F5F5F5F5F5F5F5F5F5F5F5F5F5F5F5F5F5F5F5E2F5E2F5F5F5F5F5F5F5F5F5F5F5F5F5F5F5F5F5F5F5F5F5F5F5F5F5F5F5F5F5F5E2F5F5F5F5F5F5F5F5
310
F5F5F5F5F5F5E2F5F5F5F5F5F5F5F5F5F5F5E2E2E2F5F5F5F5F5F5F5F5F5F5F5E2F5F5F5F5F5F5F5F5F5F5F5F5F5F5E2F5F5F5F5F5F5F5F5F5F5F5F5F5F5F5F5F5F5F5F5F5F5F5F5E2F5F5F5F5F5E2F5E2F5F5F5F5F5F5F5F5F5F5F5F5F5F5F5F5F5F5F5F5F5F5F5F5F5F5F5F5F5F5F5F5F5F5F5F5F5F5F5F5F5F5F5F5F5F5
310
F5F5F5F5F5F5F5F5F5F5F5E2F5E2F5F5F5F5F5F5F5F5F5F5F5F5F5F5F5F5F5F5F5F5F5F5F5F5F5F5F5F5F5F5E2F5F5F5F5F5F5F5F5F5F5F5F5F5F5E2F5F5F5F5F5F5F5F5F5F5F5E2E2E2F5F5F5F5F5F5F5F5F5F5F5E2F5F5F5F5F5F5F5F5F5F5F5F5F5F5E2F5F5F5F5F5F5F5F5F5F5F5F5F5F5F5F5F5F5F5F5F5F5F5F5E2F5
310
F5F5F5F5E2F5E2F5F5F5F5F5F5F5F5F5F5F5F5F5F5F5F5F5F5F5F5F5F5F5F5F5F5F5F5F5F5F5F5F5F5F5F5F5F5F5F5F5F5F5F5F5F5F5F5F5F5F5F5F5F5F5F5F5E2F5E2F5F5F5F5F5F5F5F5F5F5F5F5F5F5F5F5F5F5F5F5F5F5F5F5F5F5F5F5F5F5E2F5F5F5F5F5F5F5F5F5F5F5F5F5F5E2F5F5F5F5F5F5F5F5F5F5F5E2E2E2
310
F5F5F5F5F5F5F5F5F5F5F5E2F5F5F5F5F5F5F5F5F5F5F5F5F5F5E2F5F5F5F5F5F5F5F5F5F5F5F5F5F5F5F5F5F5F5F5F5F5F5F5E2F5F5F5F5F5E2F5E2F5F5F5F5F5F5F5F5F5F5F5F5F5F5F5F5F5F5F5F5F5F5F5F5F5F5F5F5F5F5F5F5F5F5F5F5F5F5F5F5F5F5F5F5F5F5F5F5F5F5F5F5F5F5F5F5F5E2F5E2F5F5F5F5F5F5F5
310
F5F5F5F5F5F5F5F5F5F5F5F5F5F5F5F5F5F5F5F5F5F5F5E2F5F5F5F5F5F5F5F5F5F5F5F5F5F5E2F5F5F5F5F5F5F5F5F5F5F5E2E2E2F5F5F5F5F5F5F5F5F5F5F5E2F5F5F5F5F5F5F5F5F5F5F5F5F5F5E2F5F5F5F5F5F5F5F5F5F5F5F5F5F5F5F5F5F5F5F5F5F5F5F5E2F5F5F5F5F5E2F5E2F5F5F5F5F5F5F5F5F5F5F5F5F5F5
310
F5F5F5F5F5F5F5F5F5F5F5F5F5E2E2E2F5F5F5F5F5F5F5F5F5F5F5F5F5F5F5F5F5F5F5F5F5F5F5F5F5F5F5E2F5E2F5F5F5F5F5F5F5F5F5F5F5F5F5F5F5F5F5F5F5F5F5F5F5F5F5F5F5F5F5F5E2F5F5F5F5F5F5F5F5F5F5F5F5F5F5E2F5F5F5F5F5F5F5F5F5F5F5E2E2E2F5F5F5F5F5F5F5F5F5F5F5E2F5F5F5F5F5F5F5F5F5
310
F5F5F5F5F5E2F5F5F5F5F5F5F5F5F5F5F5F5F5F5F5F5F5F5F5F5F5F5F5F5E2F5F5F5F5F5E2F5E2F5F5F5F5F5F5F5F5F5F5F5F5F5F5F5F5F5F5F5F5F5F5F5F5F5F5E2E2E2E2E2E2F5F5F5F5F5F5F5F5F5F5F5F5F5F5F5F5F5F5F5F5F5F5F5F5F5E2F5E2F5F5F5F5F5F5F5F5F5F5F5F5F5F5F5F5F5F5F5F5F5F5F5F5F5F5F5F5
310
F5F5E2F5F5F5F5F5F5F5F5F5F5F5F5F5F5E2F5F5F5F5F5F5F5F5F5F5F5E2E2E2F5F5F5F5F5F5F5F5F5F5F5E2F5F5F5F5F5F5F5F5F5F5F5F5F5F5E2F5F5F5F5F5F5F5F5F5F5F5F5F5F5F5F5F5F5F5F5F5E2E2E2E2E2F5F5F5F5E2F5E2F5F5F5F5F5F5F5F5F5F5F5F5F5F5F5F5F5F5F5F5F5F5F5F5F5F5E2E2F5E2E2E2E2F5F5
310
F5F5F5F5F5F5F5F5F5F5F5F5F5F5F5F5F5F5F5F5F5F5E2F5E2F5F5F5F5F5F5F5F5F5F5F5F5F5F5F5F5F5F5F5F5F5F5F5F5F5F5F5F5F5F5E2F5F5F5F5F5F5F5F5F5F5F5F5F5F5E2F5F5F5F5F5F5F5F5F5F5F5E2E2E2F5F5F5F5F5F5F5F5F5F5F5E2F5F5F5F5F5F5F5F5F5F5F5F5F5F5E2F5F5F5F5F5F5F5F5F5F5F5F5F5F5F5
310
F5F5F5F5F5F5E2E2E2E2E2F5F5F5F5E2F5E2F5F5F5F5F5F5F5F5F5F5F5F5F5F5F5F5F5F5F5F5F5F5F5F5F5E2F5F5F5F5F5F5F5F5F5F5F5F5F5F5F5F5F5F5F5F5F5F5F5F5F5F5F5F5F5F5F5E2F5E2F5F5F5F5F5F5F5F5F5F5F5F5F5F5F5F5F5F5F5F5F5F5F5F5F5F5F5F5F5F5E2F5F5F5F5F5F5F5F5F5F5F5F5F5F5E2F5F5F5
310
F5F5F5F5F5F5F5F5E2E2E2F5F5F5F5F5F5F5F5F5F5F5E2F5F5F5F5F5F5F5F5F5F5F5F5F5F5E2F5F5F5F5F5F5F5F5F5F5F5F5F5F5F5F5F5F5F5F5F5E2E2E2E2E2F5F5F5F5F5F5E2F5F5F5F5F5F5F5F5F5F5F5F5F5F5F5F5F5F5F5F5F5F5F5E2E2E2F5F5F5F5F5F5F5F5F5F5F5F5F5F5F5F5F5F5F5F5F5F5F5F5F5F5F5F5F5F5
310
F5E2F5F5F5F5F5F5F5F5F5F5F5F5F5F5F5F5F5F5F5F5F5F5F5F5F5F5F5F5F5F5F5F5E2F5F5F5F5F5F5F5F5F5F5F5F5F5F5E2F5F5F5F5F5F5F5F5F5F5F5E2E2E2F5F5F5F5F5F5F5F5F5F5F5E2F5F5F5F5F5F5F5F5F5F5F5F5F5F5E2F5F5F5F5F5F5F5F5F5F5F5F5F5F5F5F5F5F5F5F5F5F5E2E2E2F5F5F5F5F5F5F5E2F5F5F5
310
F5F5F5F5F5F5F5F5F5F5F5F5F5F5F5F5F5F5F5F5E2E2F5F5F5F5F5F5F5E2E2F5F5F5F5F5F5F5F5F5F5F5F5F5F5F5F5F5F5F5F5F5F5F5E2F5F5F5F5F5F5F5F5F5F5F5F5F5F5F5F5F5F5F5F5F5F5F5F5F5F5F5F5F5F5F5F5E2F5F5F5F5F5F5F5F5F5F5F5F5F5F5E2F5F5F5F5F5F5F5F5F5F5F5E2E2E2F5F5F5F5F5F5F5F5F5F5
310
F5E2F5F5F5F5F5F5F5F5F5F5F5F5F5F5E2F5F5F5F5F5F5F5F5F5F5F5F5F5F5F5F5F5F5F5F5F5F5E2E2E2F5F5F5F5F5F5F5E2F5F5F5F5F5F5F5F5F5F5F5F5F5F5F5F5F5F5F5F5F5F5F5E2F5F5F5F5F5F5F5F5E2E2F5F5F5F5F5F5F5F5F5F5F5F5F5F5F5F5F5F5F5F5F5F5F5E2F5F5F5F5F5F5F5F5F5F5F5F5F5F5F5F5F5F5F5
310
F5F5F5F5F5F5F5F5F5F5F5F5F5E2F5F5F5F5F5F5F5F5F5F5F5F5F5F5E2F5F5F5F5F5F5F5F5F5F5F5E2E2E2F5F5F5F5F5F5F5F5F5F5F5E2F5F5F5F5F5F5F5F5F5F5F5F5F5F5E2F5F5F5F5F5F5F5F5F5F5F5F5F5F5F5F5F5F5F5F5F5F5E2E2E2F5F5F5F5F5E2F5E2F5F5F5F5F5F5F5F5F5F5F5F5F5F5F5F5F5F5F5F5F5F5F5F5
310
E2F5F5F5F5F5F5E2E2F5F5F5F5F5F5F5F5F5F5F5F5F5F5F5F5F5F5F5F5F5F5F5F5E2F5E2F5F5F5F5F5F5F5F5F5F5F5F5F5F5F5F5F5F5F5F5F5F5F5F5F5F5F5F5F5F5E2F5F5F5F5F5F5F5F5F5F5F5F5F5F5E2F5F5F5F5F5F5F5F5F5F5F5E2E2E2F5F5F5F5F5F5F5F5F5F5F5E2F5F5F5F5F5F5F5F5F5F5F5F5F5F5E2F5F5F5F5
310
F5F5F5F5F5F5F5F5F5F5F5F5F5F5F5F5F5F5F5F5E2F5F5F5F5F5E2F5E2F5F5F5F5F5F5F5F5F5F5F5F5F5F5F5F5F5F5F5F5F5F5F5F5E2F5E2F5F5F5E2E2E2F5F5F5F5F5F5F5F5F5F5F5F5F5F5F5F5F5F5F5F5F5F5F5F5E2F5E2F5F5F5F5F5F5F5F5F5F5F5F5F5F5F5F5F5F5F5F5F5F5F5F5F5F5F5F5F5F5E2F5F5F5F5F5F5F5
310
F5F5F5F5F5F5F5E2F5F5F5F5F5F5F5F5F5F5F5E2E2E2F5F5F5F5F5F5F5F5F5F5F5E2F5F5F5F5F5F5F5F5F5F5F5F5F5F5E2F5F5F5F5F5F5F5F5F5F5F5F5F5F5F5F5F5F5F5F5F5F5F5F5E2F5F5F5F5F5E2F5E2F5F5F5F5F5F5F5F5F5F5F5F5F5F5F5F5F5F5F5F5F5F5F5F5F5E2E2E2E2E2E2E2F5F5F5F5F5F5F5F5F5F5F5F5F5
310
F5F5F5F5F5F5F5F5F5F5F5F5E2F5E2F5F5F5F5F5F5F5F5F5F5F5F5F5F5F5F5F5F5F5F5F5F5F5F5F5F5F5F5F5F5E2F5F5F5F5F5F5F5F5F5F5F5F5F5F5E2F5F5F5F5F5F5F5F5F5F5F5E2E2E2F5F5F5F5F5F5F5F5F5F5F5E2F5F5F5F5F5F5F5F5F5F5F5F5F5F5E2F5F5F5F5F5F5F5F5F5F5F5F5F5F5F5F5F5F5F5F5F5F5F5F5E2
310
F5F5F5F5F5E2F5E2F5F5F5F5F5F5F5F5F5F5F5F5F5F5F5F5F5F5F5F5F5F5F5F5F5F5F5F5F5E2E2F5F5F5F5F5F5F5F5F5F5F5F5F5F5F5F5F5F5F5F5F5F5F5F5F5F5E2F5E2F5F5F5F5F5F5F5F5F5F5F5F5F5F5F5F5F5F5F5F5F5F5F5F5F5F5F5F5F5F5E2F5F5F5F5F5F5F5F5F5F5F5F5F5F5E2F5F5F5F5F5F5F5F5F5F5F5E2E2
310
E2F5F5F5F5F5F5F5F5F5F5F5F5F5F5F5F5F5F5F5F5F5F5F5F5F5F5E2F5F5F5F5F5F5F5F5F5F5F5F5F5F5F5F5F5F5F5F5F5F5F5F5E2F5F5F5F5F5E2F5E2F5F5F5F5F5F5F5F5F5F5F5F5F5F5F5F5F5F5F5F5F5F5F5F5F5F5F5F5F5F5F5F5F5F5F5F5F5F5F5F5F5F5F5F5F5F5F5F5F5F5F5F5F5F5F5F5F5E2F5E2F5F5F5F5F5F5
310
F5F5F5F5F5F5F5F5F5F5F5F5F5F5F5F5F5F5F5F5F5F5F5F5E2F5F5F5F5F5F5F5F5F5F5F5F5F5F5F5F5F5F5F5F5F5F5F5F5F5F5E2E2E2F5F5F5F5F5F5F5F5F5F5F5F5F5F5F5F5F5F5F5F5F5F5F5F5F5F5E2F5F5F5F5F5F5F5F5F5F5F5F5F5F5F5F5F5F5F5F5F5F5F5F5E2F5F5F5F5F5E2F5E2F5F5F5F5F5F5F5F5F5F5F5F5F5
310
F5F5F5F5F5F5F5F5F5F5F5F5F5F5F5F5F5F5F5F5F5F5F5F5F5F5F5F5F5F5F5F5F5F5F5F5F5F5F5F5F5F5F5F5E2F5E2F5F5F5F5F5F5F5F5F5F5F5F5F5F5F5F5F5F5F5F5F5F5F5F5F5F5F5F5F5F5E2F5F5F5F5F5F5F5F5F5F5F5F5F5F5F5F5F5F5F5F5F5F5F5F5F5F5E2E2E2F5F5F5F5F5F5F5F5F5F5F5F5F5F5F5F5F5F5F5F5
310
F5F5F5F5F5F5E2F5F5F5F5F5F5F5F5F5F5F5F5F5F5F5F5F5F5F5F5F5F5F5F5E2F5F5F5F5F5E2F5E2F5F5F5F5F5F5F5F5F5F5F5F5F5F5F5F5F5F5F5F5F5F5F5F5F5F5F5F5F5F5F5F5F5F5F5F5F5F5F5F5F5F5F5F5F5F5F5F5F5F5F5F5F5F5F5F5F5E2F5E2F5F5F5F5F5F5F5F5F5F5F5F5F5F5F5F5F5F5F5F5F5F5F5F5F5F5F5
310
F5F5F5E2F5F5F5F5F5F5F5F5F5F5F5F5F5F5F5F5F5F5F5F5F5F5F5F5F5F5E2E2E2F5F5F5F5F5F5F5F5F5F5F5F5F5F5F5F5F5F5F5F5F5F5F5F5F5F5E2F5F5F5F5F5F5F5F5F5F5F5F5F5F5F5F5F5F5F5F5F5F5F5F5E2F5F5F5F5F5E2F5E2F5F5F5F5F5F5F5F5F5F5F5F5F5F5F5F5F5F5F5F5F5F5F5F5F5F5F5F5F5F5F5F5F5F5
310
F5F5F5F5F5F5F5F5F5F5F5F5F5F5F5F5F5F5F5F5F5F5F5E2F5E2F5F5F5F5F5F5F5F5F5F5F5F5F5F5F5F5F5F5F5F5F5F5F5F5F5F5F5F5F5F5E2F5F5F5F5F5F5F5F5F5F5F5F5F5F5F5F5F5F5F5F5F5F5F5F5F5F5E2E2E2F5F5F5F5F5F5F5F5F5F5F5F5F5F5F5F5F5F5F5F5F5F5F5F5F5F5E2F5F5F5F5F5F5F5F5F5F5F5F5F5F5
310
F5F5F5F5F5F5F5F5F5F5E2F5F5F5F5F5E2F5E2F5F5F5F5F5F5F5F5F5F5F5F5F5F5F5F5F5F5F5F5F5F5F5F5F5F5F5F5F5F5F5F5F5F5F5F5F5F5F5F5F5F5F5F5F5F5F5F5F5F5F5F5F5F5F5F5F5E2F5E2F5F5F5F5F5F5F5F5F5F5F5F5F5F5F5F5F5F5F5F5F5F5F5F5F5F5F5F5F5F5E2F5F5F5F5F5F5F5F5F5F5F5F5F5F5F5F5F5
310
F5F5F5F5F5F5F5F5F5E2E2E2F5F5F5F5F5F5F5F5F5F5F5F5F5F5F5F5F5F5F5F5F5F5F5F5F5F5E2F5F5F5F5F5F5F5F5F5F5F5F5F5F5F5F5F5F5F5F5F5F5F5F5E2F5F5F5F5F5F5F5E2F5F5F5F5F5E2E2E2E2E2E2E2E2F5F5F5F5F5F5F5F5F5F5F5F5F5F5F5F5F5F5F5F5F5F5F5F5F5F5F5F5F5F5F5F5F5F5F5F5F5F5F5F5F5F5
310
F5F5E2F5F5F5F5F5F5F5F5F5F5F5F5F5F5F5F5F5F5F5F5F5F5F5F5F5F5F5F5F5F5F5F5E2F5F5F5F5F5F5F5F5F5F5F5F5F5F5F5F5F5F5F5F5F5F5F5F5F5F5E2E2E2F5F5F5F5F5F5F5F5F5F5F5F5F5F5F5F5F5F5F5F5F5F5F5F5F5F5E2F5F5F5F5F5F5F5F5F5F5F5F5F5F5F5F5F5F5F5F5F5F5F5F5E2F5F5F5F5F5F5F5E2F5F5
310
F5F5F5E2E2E2E2E2E2E2E2F5F5F5F5F5F5F5F5F5F5F5F5F5F5F5F5F5F5F5F5F5F5F5F5F5F5F5F5F5F5F5F5F5F5F5F5F5F5F5F5F5F5F5F5E2F5F5F5F5F5F5F5F5F5F5F5F5F5F5F5F5F5F5F5F5F5F5F5F5F5F5F5F5F5F5F5F5E2F5F5F5F5F5F5F5F5F5F5F5F5F5F5F5F5F5F5F5F5F5F5F5F5F5F5E2E2E2F5F5F5F5F5F5F5F5F5
310
F5F5F5F5F5F5F5F5F5F5F5F5F5F5F5F5F5E2F5F5F5F5F5F5F5F5F5F5F5F5F5F5F5F5F5F5F5F5F5F5F5F5E2F5F5F5F5F5F5F5E2F5F5F5F5F5E2E2E2E2E2E2E2E2F5F5F5F5F5F5F5F5F5F5F5F5F5F5F5F5F5F5F5F5F5F5F5F5F5F5F5F5F5F5F5F5F5F5F5F5F5F5F5F5F5F5F5F5E2F5F5F5F5F5F5F5F5F5F5F5F5F5F5F5F5F5F5
310
F5F5F5F5F5F5F5F5F5F5F5F5F5F5E2F5F5F5F5F5F5F5F5F5F5F5F5F5F5F5F5F5F5F5F5F5F5F5F5F5F5E2E2E2F5F5F5F5F5F5F5F5F5F5F5F5F5F5F5F5F5F5F5F5F5F5F5F5F5F5E2F5F5F5F5F5F5F5F5F5F5F5F5F5F5F5F5F5F5F5F5F5F5F5F5E2F5F5F5F5F5E2F5E2F5F5F5E2E2F5E2E2E2E2F5F5F5F5F5F5F5F5F5F5F5F5F5
310
F5F5F5F5F5F5F5F5F5F5F5F5F5F5F5F5F5F5F5F5F5F5F5F5F5F5F5F5F5F5F5F5F5F5E2F5E2F5F5F5F5F5F5F5F5F5F5F5F5F5F5F5F5F5F5F5F5F5F5F5F5F5F5F5F5F5F5E2F5F5F5F5F5F5F5F5F5F5F5F5F5F5F5F5F5F5F5F5F5F5F5F5F5F5E2E2E2F5F5F5F5F5F5F5F5F5F5F5E2F5F5F5F5F5F5F5F5F5F5F5F5F5F5E2F5F5F5
310
F5F5F5F5F5F5F5F5F5F5F5F5F5F5F5F5F5F5F5F5F5E2F5F5F5F5F5E2F5E2F5F5E2F5F5F5E2E2E2E2F5F5F5F5F5F5F5F5F5F5F5F5F5F5F5F5F5F5F5F5F5F5F5F5F5F5F5F5F5F5F5F5F5F5F5F5F5F5F5F5F5F5F5F5F5F5F5E2F5E2F5F5F5F5F5F5F5F5F5F5F5F5F5F5F5F5F5F5F5F5F5F5F5F5F5F5F5F5F5F5E2F5F5F5F5F5F5
310
F5F5F5F5F5F5F5F5E2F5F5F5F5F5F5F5F5F5F5F5E2E2E2F5F5F5F5F5F5F5F5F5F5F5E2F5F5F5F5F5F5F5F5F5F5F5F5F5F5E2F5F5F5F5F5F5F5F5F5F5F5F5F5F5F5F5F5F5F5F5F5F5F5F5E2F5F5F5F5F5E2F5E2F5F5E2F5F5F5E2E2E2E2F5F5F5F5F5F5F5F5F5F5F5F5F5F5F5F5F5F5F5F5F5F5F5F5F5F5F5F5F5F5F5F5F5F5
310
F5F5F5F5F5F5F5F5F5F5F5F5F5E2F5E2F5F5F5F5F5F5F5F5F5F5F5F5F5F5F5F5F5F5F5F5F5F5F5F5F5F5F5F5F5F5E2F5F5F5F5F5F5F5F5F5F5F5F5F5F5E2F5F5F5F5F5F5F5F5F5F5F5E2E2E2F5F5F5F5F5F5F5F5F5F5F5E2F5F5F5F5F5F5F5F5F5F5F5F5F5F5E2F5F5F5F5F5F5F5F5F5F5F5F5F5F5F5F5F5F5F5F5F5F5F5F5
310
E2F5F5F5F5F5E2F5E2E2E2F5F5F5F5F5F5F5F5F5F5F5F5F5F5F5F5F5F5F5F5F5F5F5F5F5F5F5F5F5F5F5F5F5F5F5F5F5F5F5F5F5F5F5F5F5F5F5F5F5F5F5F5F5F5E2E2F5E2F5F5F5F5F5F5F5F5F5F5F5F5F5F5F5F5F5F5F5F5F5F5F5F5F5F5F5F5F5F5E2F5F5F5F5F5F5F5F5F5F5F5F5F5F5E2F5F5F5F5F5F5F5F5F5F5F5E2
310
E2E2F5F5F5F5F5F5F5F5F5F5F5E2F5F5F5F5F5F5F5F5F5F5F5F5F5F5E2F5F5F5F5F5F5F5F5F5F5F5F5F5F5F5F5F5F5F5F5F5F5F5E2E2F5F5F5F5F5E2F5E2E2E2E2E2E2E2E2E2E2E2F5F5F5E2E2E2E2E2E2E2E2F5F5F5E2E2E2E2E2E2E2E2E2F5F5F5E2E2E2E2E2E2E2E2F5F5F5E2E2E2E2E2E2E2E2E2E2E2F5E2F5F5F5F5F5
310
F5F5F5F5F5F5F5F5F5F5F5F5F5F5F5F5F5F5F5F5F5F5F5F5F5E2F5F5F5F5F5F5F5F5F5F5F5F5F5F5E2F5F5F5F5F5F5F5F5F5F5F5E2E2E2F5F5F5F5F5F5F5F5F5F5F5E2F5F5F5F5F5F5F5F5F5F5F5F5F5F5E2F5F5F5F5F5F5F5F5F5F5F5F5F5F5F5F5F5F5F5F5F5F5F5E2E2E2E2E2E2E2E2E2E2E2E2E2E2E2E2E2E2E2E2E2E2
310
E2E2E2E2E2E2E2E2E2E2E2E2E2E2E2E2E2E2E2E2E2E2E2E2E2E2E2E2E2E2E2E2E2E2E2E2E2E2E2E2E2E2E2E2E2E2F5E2F5F5F5F5F5F5F5F5F5F5F5F5F5F5F5F5F5F5F5F5F5F5F5F5F5F5F5F5F5F5E2F5F5F5F5F5F5F5F5F5F5F5F5F5F5E2F5F5F5F5F5F5F5F5F5F5F5E2E2E2F5F5F5F5F5F5F5F5F5F5F5E2F5F5F5F5F5F5F5
310
F5F5F5F5F5F5F5E2F5F5F5F5F5F5F5F5F5F5F5F5F5F5F5F5F5F5F5F5F5F5F5F5F5F5F5F5F5F5E2F5E2F5F5F5F5F5F5F5F5F5F5F5F5F5F5F5F5F5F5F5F5F5F5F5F5F5F5F5F5F5F5F5F5F5F5F5F5F5F5F5F5F5F5F5F5F5F5F5F5F5F5F5F5F5F5F5F5F5E2F5E2F5F5F5F5F5F5F5F5F5F5F5F5F5F5F5F5F5F5F5F5F5F5F5F5F5F5
310
F5F5F5F5E2F5F5F5F5F5F5F5F5F5F5F5F5F5F5E2F5F5F5F5F5F5F5F5F5F5F5E2E2E2F5F5F5F5F5F5F5F5F5F5F5E2F5F5F5F5F5F5F5F5F5F5F5F5F5F5E2F5F5F5F5F5F5F5F5F5F5F5F5F5F5F5F5F5F5F5F5F5F5F5F5F5F5F5F5F5F5E2E2E2E2E2E2E2F5F5F5E2E2E2E2E2E2E2E2E2F5F5F5E2E2E2E2E2E2E2E2F5F5F5E2E2E2
310
E2E2E2E2E2F5F5F5E2E2E2E2E2E2E2E2E2F5F5F5E2E2E2E2E2E2E2F5F5F5F5F5F5F5F5F5F5F5F5F5F5F5F5F5F5F5F5F5F5F5F5F5F5F5F5F5F5E2F5F5F5F5F5F5F5F5F5F5F5F5F5F5E2F5F5F5F5F5F5F5F5F5F5F5E2E2E2F5F5F5F5F5F5F5F5F5F5F5E2F5F5F5F5F5F5F5F5F5F5F5F5F5F5E2F5F5F5F5F5F5F5F5F5F5F5F5F5
310
F5F5F5F5F5F5F5F5F5F5F5F5F5F5F5F5F5F5F5E2F5F5F5F5F5F5F5F5F5F5F5F5F5F5F5F5F5F5F5F5F5F5F5F5F5F5E2E2E2E2F5F5F5F5F5F5F5F5F5F5F5F5F5F5F5F5F5F5F5F5F5F5F5F5F5F5F5E2F5F5F5F5F5F5F5F5F5F5F5F5F5F5F5F5F5F5F5F5F5F5F5F5F5F5F5F5F5F5F5F5E2F5F5F5F5F5F5F5F5F5F5F5F5F5F5E2F5
310
F5F5F5F5F5F5F5F5F5F5E2E2E2F5F5F5F5F5F5F5F5F5F5F5E2F5F5F5F5F5F5F5F5F5F5F5F5F5F5E2F5F5F5F5F5F5F5F5F5F5F5F5F5F5F5F5F5F5F5F5F5F5F5F5F5F5F5F5F5F5F5F5E2F5F5F5F5F5F5F5F5F5F5F5F5F5F5F5F5F5F5F5F5F5F5F5F5F5F5E2E2E2E2F5F5F5F5F5F5F5F5F5F5F5F5F5F5F5F5F5F5F5F5F5F5F5F5
310
F5F5F5E2F5F5F5F5F5F5F5F5F5F5F5F5F5F5F5F5F5F5F5F5F5F5F5F5F5F5F5F5F5F5F5F5E2F5F5F5F5F5F5F5F5F5F5F5F5F5F5E2F5F5F5F5F5F5F5F5F5F5F5E2E2E2F5F5F5F5F5F5F5F5F5F5F5E2F5F5F5F5F5F5F5F5F5F5F5F5F5F5E2F5F5F5F5F5F5F5F5F5F5F5F5F5F5F5F5F5F5F5F5F5F5F5F5F5F5F5F5F5F5F5F5E2F5
310
F5F5F5F5F5F5F5F5F5F5F5F5F5F5F5F5F5F5F5F5F5F5F5F5F5E2E2E2E2F5F5F5F5F5F5F5F5F5F5F5F5F5F5F5F5F5F5F5F5F5F5F5F5F5F5F5E2F5F5F5F5F5F5F5F5F5F5F5F5F5F5F5F5F5F5F5F5F5F5F5F5F5F5F5F5F5F5F5F5E2F5F5F5F5F5F5F5F5F5F5F5F5F5F5E2F5F5F5F5F5F5F5F5F5F5F5E2E2E2F5F5F5F5F5F5F5F5
310
F5F5F5E2F5F5F5F5F5F5F5F5F5F5F5F5F5F5E2F5F5F5F5F5F5F5F5F5F5F5F5F5F5F5F5F5F5F5F5F5F5F5F5F5F5F5F5F5F5F5F5E2E2E2E2E2E2E2E2E2E2E2E2E2E2E2E2E2E2E2E2E2E2E2E2E2E2E2E2E2E2E2F5E2E2E2E2E2E2E2E2E2E2E2E2E2E2E2E2E2E2E2E2E2E2E2E2E2E2E2F5F5F5F5F5F5F5F5F5F5F5F5F5F5F5F5F5
310
F5F5F5F5F5F5F5F5F5F5F5F5F5F5F5E2F5F5F5F5F5F5F5F5F5F5F5F5F5F5E2F5F5F5F5F5F5F5F5F5F5F5E2E2E2F5F5F5F5F5F5F5F5F5F5F5E2F5F5F5F5F5F5F5F5F5F5F5F5F5F5E2F5F5F5F5F5F5F5F5F5F5F5F5F5F5F5F5F5F5F5F5F5F5F5F5F5F5F5F5F5F5F5F5E2F5F5F5F5F5F5F5F5F5F5F5F5F5F5F5F5F5F5F5F5F5F5
310
F5F5F5F5E2E2E2E2F5F5F5F5F5F5F5F5F5F5F5F5F5F5F5F5F5F5F5F5F5F5F5F5F5F5F5E2F5F5F5F5F5F5F5F5F5F5F5F5F5F5F5F5F5F5F5F5F5F5F5F5F5F5F5F5F5F5F5F5E2F5F5F5F5F5F5F5F5F5F5F5F5F5F5E2F5F5F5F5F5F5F5F5F5F5F5E2E2E2F5F5F5F5F5F5F5F5F5F5F5E2F5F5F5F5F5F5F5F5F5F5F5F5F5F5E2F5F5
310
F5F5F5F5F5F5F5F5F5F5F5F5F5F5F5F5F5F5F5F5F5F5F5F5F5F5F5F5F5F5F5F5F5F5F5F5F5F5F5F5F5F5F5F5F5F5F5F5F5F5F5F5F5F5F5F5F5E2E2E2E2F5F5F5F5F5F5F5F5F5F5F5F5F5F5F5F5F5F5F5F5F5F5F5F5F5F5F5F5F5F5F5F5F5F5F5F5F5F5F5F5F5F5F5F5F5F5F5F5F5F5F5F5F5F5F5F5F5F5F5F5E2F5F5F5F5F5
310
F5F5F5F5F5F5F5F5F5E2F5F5F5F5F5F5F5F5F5F5F5E2E2E2F5F5F5F5F5F5F5F5F5F5F5E2F5F5F5F5F5F5F5F5F5F5F5F5F5F5E2F5F5F5F5F5F5F5F5F5F5F5F5F5F5F5F5F5F5F5F5F5F5F5F5F5F5F5F5F5F5F5F5F5F5F5F5F5F5F5F5F5F5F5F5F5F5F5F5F5F5F5F5F5F5F5F5F5F5F5F5F5F5F5F5F5F5F5F5F5F5F5F5F5F5F5F5
310
F5F5F5F5F5F5F5F5F5F5F5F5F5F5F5F5F5F5F5F5F5F5F5F5F5F5F5F5F5F5F5F5F5F5F5F5F5F5F5F5F5F5F5F5F5F5F5E2F5F5F5F5F5F5F5F5F5F5F5F5F5F5E2F5F5F5F5F5F5F5F5F5F5F5E2E2E2F5F5F5F5F5F5F5F5F5F5F5E2F5F5F5F5F5F5F5F5F5F5F5F5F5F5E2F5F5F5F5F5F5F5F5F5F5F5F5F5F5F5F5F5F5F5F5F5F5F5
310
F5F5F5F5F5F5F5F5F5F5F5F5F5F5F5F5F5F5F5F5F5F5F5F5F5F5F5F5F5F5F5F5F5F5F5F5F5F5F5F5F5F5F5F5F5F5F5F5F5F5F5F5F5F5F5F5F5F5F5F5F5F5F5F5F5F5F5F5F5F5F5F5F5F5F5F5F5F5F5F5F5F5F5F5F5F5F5F5F5F5F5F5F5F5F5F5F5F5F5F5E2F5F5F5F5F5F5F5F5F5F5F5F5F5F5E2F5F5F5F5F5F5F5F5F5F5F5
310
E2E2E2F5F5F5F5F5F5F5F5F5F5F5F5F5F5F5F5F5F5F5F5F5F5F5F5F5F5E2F5F5F5F5F5F5F5F5F5F5F5F5F5F5F5F5F5F5F5F5F5F5F5F5F5F5F5F5F5F5F5F5F5F5F5F5F5F5F5F5F5F5F5F5F5F5F5F5F5F5F5F5F5F5F5F5F5F5F5F5F5F5F5F5F5F5F5F5F5F5F5F5F5F5F5F5F5F5F5F5F5F5F5F5F5F5F5F5F5F5F5F5F5F5F5F5F5
310
F5F5F5F5F5F5F5F5F5F5F5F5F5F5F5F5F5F5F5F5F5F5F5F5F5F5E2F5F5F5F5F5F5F5F5F5F5F5F5F5F5F5F5F5F5F5F5F5F5F5F5F5F5E2E2E2F5F5F5F5F5F5F5F5F5F5F5F5F5F5F5F5F5F5F5F5F5F5F5F5F5F5E2F5F5F5F5F5F5F5F5F5F5F5F5F5F5F5F5F5F5F5F5F5F5F5F5F5F5F5F5F5F5F5F5F5F5F5F5F5F5F5F5F5F5F5F5
310
F5F5F5F5F5F5F5F5F5F5F5F5F5F5F5F5F5F5F5F5F5F5F5F5F5F5F5F5F5F5F5F5F5F5F5F5F5F5F5F5F5F5F5F5F5F5F5F5F5F5F5F5F5F5F5F5F5F5F5F5F5F5F5F5F5F5F5F5F5F5F5F5F5F5F5F5F5F5F5E2F5F5F5F5F5F5F5F5F5F5F5F5F5F5F5F5F5F5F5F5F5F5F5F5F5F5E2E2E2F5F5F5F5F5F5F5F5F5F5F5F5F5F5F5F5F5F5
310
F5F5F5F5F5F5F5F5E2F5F5F5F5F5F5F5F5F5F5F5F5F5F5F5F5F5F5F5F5F5F5F5F5F5F5F5F5F5F5F5F5F5F5F5F5F5F5F5F5F5F5F5F5F5F5F5F5F5F5F5F5F5F5F5F5F5F5F5F5F5F5F5F5F5F5F5F5F5F5F5F5F5F5F5F5F5F5F5F5F5F5F5F5F5F5F5F5F5F5F5F5F5F5F5F5F5F5F5F5F5F5F5F5F5F5F5F5F5F5F5F5F5F5F5F5F5F5
310
F5F5F5F5F5E2F5F5F5F5F5F5F5F5F5F5F5F5F5F5F5F5F5F5F5F5F5F5F5F5F5F5E2E2E2F5F5F5F5F5F5F5F5F5F5F5F5F5F5F5F5F5F5F5F5F5F5F5F5F5F5E2F5F5F5F5F5F5F5F5F5F5F5F5F5F5F5F5F5F5F5F5F5F5F5F5F5F5F5F5F5F5F5F5F5F5F5F5F5F5F5F5F5F5F5F5F5F5F5F5F5F5F5F5F5F5F5F5F5F5F5F5F5F5F5F5F5
310
F5F5F5F5F5F5F5F5F5F5F5F5F5F5F5F5F5F5F5F5F5F5F5F5F5F5F5F5F5F5F5F5F5F5F5F5F5F5F5F5F5F5F5F5F5F5F5F5F5F5F5F5F5F5F5F5F5F5E2F5F5F5F5F5F5F5F5F5F5F5F5F5F5F5F5F5F5F5F5F5F5F5F5F5F5E2E2E2F5F5F5F5F5F5F5F5F5F5F5F5F5F5F5F5F5F5F5F5F5F5F5F5F5F5E2F5F5F5F5F5F5F5F5F5F5F5F5
310
F5F5F5F5F5F5F5F5F5F5F5F5F5F5F5F5F5F5F5F5F5F5F5F5F5F5F5F5F5F5F5F5F5F5F5E2F5F5F5F5F5F5F5F5F5F5F5F5F5F5F5F5F5F5F5F5F5F5F5F5F5F5F5F5F5F5F5F5F5F5F5F5F5F5F5F5F5F5F5F5F5F5F5F5F5F5F5F5F5F5F5F5F5F5F5F5F5F5F5F5F5F5F5F5F5F5F5F5F5F5F5E2F5F5F5F5F5F5F5F5F5F5F5F5F5F5F5
310
F5F5F5F5F5F5F5F5F5F5F5E2E2E2F5F5F5F5F5F5F5F5F5F5F5F5F5F5F5F5F5F5F5F5F5F5F5F5F5F5E2F5F5F5F5F5F5F5F5F5F5F5F5F5F5F5F5F5F5F5F5F5F5F5F5F5F5F5F5F5F5F5F5F5F5F5F5F5F5F5F5F5F5F5F5F5F5F5E2F5F5F5F5F5F5F5F5F5F5F5F5F5F5F5F5F5F5F5F5F5F5F5F5F5F5F5F5F5F5F5F5F5F5F5F5F5F5
310
F5F5F5F5F5F5F5F5F5F5F5F5F5F5F5F5F5F5F5F5F5F5F5F5F5F5F5F5F5F5F5F5F5F5F5F5F5E2F5F5F5F5F5F5F5F5F5F5F5F5F5F5F5F5F5F5F5F5F5F5F5F5F5F5E2E2E2F5F5F5F5F5F5F5F5F5F5F5F5F5F5F5F5F5F5F5F5F5F5F5F5F5F5E2F5F5F5F5F5F5F5F5F5F5F5F5F5F5F5F5F5F5F5F5F5F5F5F5F5F5F5F5F5F5F5F5F5
310
F5F5F5F5F5F5F5F5F5E2E2E2E2E2E2E2E2E2F5F5F5F5E2F5E2F5F5E2E2E2F5E2F5F5F5E2F5F5F5F5F5E2E2E2F5F5F5F5F5F5F5F5F5F5F5F5F5F5F5F5F5F5F5F5F5F5F5F5F5F5F5F5F5F5F5F5F5F5F5F5F5F5F5F5F5F5F5F5F5F5E2F5F5F5F5F5F5F5F5F5F5F5F5F5F5F5F5F5F5F5F5F5F5F5F5F5F5E2E2E2F5F5F5F5F5F5F5
310
F5F5F5F5F5F5F5F5F5F5F5F5F5F5F5F5F5F5F5E2F5F5F5F5F5F5F5F5F5F5F5F5F5F5F5F5F5F5F5F5F5F5F5F5F5F5F5F5F5F5F5F5F5F5F5F5F5F5F5F5F5F5E2F5F5F5E2E2F5F5F5E2F5F5E2F5E2E2F5E2F5F5E2F5E2F5F5F5E2F5F5F5F5F5F5E2F5F5F5F5F5F5F5F5F5F5F5F5F5F5F5F5F5F5F5F5F5F5F5F5F5F5F5F5F5F5F5
310
F5F5F5F5F5F5F5F5F5F5F5F5F5F5F5F5E2F5F5F5F5F5F5F5F5F5F5F5F5F5F5F5F5F5F5F5F5F5F5F5F5F5F5E2E2E2F5F5F5F5F5F5F5F5F5F5F5E2F5F5F5F5F5F5F5F5F5F5F5F5F5F5E2F5F5F5F5F5F5F5F5F5F5F5F5F5F5F5F5F5F5F5F5F5F5F5F5F5F5F5F5F5F5F5F5F5F5F5F5F5F5F5F5F5F5E2F5F5F5E2E2F5F5F5E2F5F5
310
E2F5F5E2F5E2F5F5E2F5E2F5F5F5E2F5F5F5F5F5F5E2F5F5F5F5F5F5F5F5F5F5F5F5F5F5F5F5F5F5F5F5F5F5F5F5F5F5F5F5F5F5F5F5F5F5F5F5F5F5F5F5F5F5F5F5F5F5F5E2F5F5F5F5F5F5F5F5F5F5F5F5F5F5E2F5F5F5F5F5F5F5F5F5F5F5E2E2E2F5F5F5F5F5F5F5F5F5F5F5E2F5F5F5F5F5F5F5F5F5F5F5F5F5F5E2F5
310
F5F5F5F5F5F5F5F5F5F5F5F5F5F5F5F5F5F5F5F5F5F5F5F5F5F5F5F5F5F5F5F5F5F5F5F5F5F5F5F5F5E2F5F5F5E2E2E2E2E2F5E2E2E2E2E2E2F5F5E2E2E2F5E2E2E2E2F5F5F5F5F5F5F5E2F5F5F5F5F5F5F5F5F5F5F5F5F5F5F5F5F5F5F5F5F5F5F5F5F5F5F5F5F5F5F5F5F5F5F5F5F5F5F5F5F5F5F5F5F5F5F5E2F5F5F5F5
310
F5F5F5F5F5F5F5F5F5F5E2F5F5F5F5F5F5F5F5F5F5F5E2E2E2F5F5F5F5F5F5F5F5F5F5F5E2F5F5F5F5F5F5F5F5F5F5F5F5F5F5E2F5F5F5F5F5F5F5F5F5F5F5F5F5F5F5F5F5F5F5F5F5F5F5F5F5F5F5F5F5F5F5F5F5F5F5F5F5F5F5F5F5F5E2F5F5F5E2F5F5F5F5F5F5F5E2F5F5E2F5F5F5F5F5F5F5F5F5F5F5F5F5F5F5F5E2
310
E2F5F5F5F5F5F5F5F5F5F5F5F5F5F5F5F5F5F5F5F5F5F5F5F5F5F5F5F5F5F5F5F5F5F5F5F5F5F5F5F5F5F5F5F5F5F5F5E2F5F5F5F5F5F5F5F5F5F5F5F5F5F5E2F5F5F5F5F5F5F5F5F5F5F5E2E2E2F5F5F5F5F5F5F5F5F5F5F5E2F5F5F5F5F5F5F5F5F5F5F5F5F5F5E2F5F5F5F5F5F5F5F5F5F5F5F5F5F5F5F5F5F5F5F5F5F5
310
F5F5F5F5F5F5F5F5F5F5F5F5F5F5F5F5F5F5F5F5E2E2E2E2E2F5F5F5F5F5F5F5E2F5F5E2F5F5F5F5F5F5F5F5F5F5F5F5F5F5F5F5F5E2F5F5F5F5F5F5F5F5F5F5F5F5F5F5F5F5F5F5F5F5F5F5F5F5F5F5F5F5F5F5F5F5F5F5F5F5F5F5F5F5F5F5F5F5F5F5F5E2F5F5F5F5F5F5F5F5F5F5F5F5F5F5E2F5F5F5F5F5F5F5F5F5F5
310
F5E2E2E2F5F5F5F5F5F5F5F5F5F5F5E2F5F5F5F5F5F5F5F5F5F5F5F5F5F5E2F5F5F5F5F5F5F5F5F5F5F5F5F5F5F5F5F5F5F5F5F5F5F5F5F5F5F5F5F5F5F5F5F5F5F5F5F5F5F5F5F5F5F5F5F5F5F5F5F5F5F5F5F5F5F5F5F5F5F5F5F5F5F5F5F5F5F5F5F5F5F5F5F5F5F5F5F5F5F5F5F5F5F5F5F5F5F5F5F5F5F5F5F5F5F5F5
310
F5F5F5F5F5F5F5F5F5F5F5F5F5F5F5F5F5F5F5F5F5F5F5F5F5F5F5E2F5F5F5F5F5F5F5F5F5F5F5F5F5F5E2F5F5F5F5F5F5F5F5F5F5F5E2E2E2F5F5F5F5F5F5F5F5F5F5F5E2F5F5F5F5F5F5F5F5F5F5F5F5F5F5E2F5F5F5F5F5F5F5F5F5F5F5F5F5F5F5F5F5F5F5F5F5F5F5F5F5F5F5F5F5F5F5F5F5F5F5F5F5F5F5F5F5F5F5
310
F5F5F5F5F5F5F5F5F5F5F5F5F5F5F5F5F5F5F5F5F5F5F5F5F5F5F5F5F5F5F5F5F5F5F5F5F5F5F5F5F5F5F5F5F5F5F5F5F5F5F5F5F5F5F5F5F5F5F5F5F5F5F5F5F5F5F5F5F5F5F5F5F5F5F5F5F5F5F5F5E2F5F5F5F5F5F5F5F5F5F5F5F5F5F5E2F5F5F5F5F5F5F5F5F5F5F5E2E2E2F5F5F5F5F5F5F5F5F5F5F5E2F5F5F5F5F5
310
F5F5F5F5F5F5F5F5F5E2F5F5F5F5F5F5F5F5F5F5F5F5F5F5F5F5F5F5F5F5F5F5F5F5F5F5F5F5F5F5F5F5F5F5F5F5F5F5F5F5F5F5F5F5F5F5F5F5F5F5F5F5F5F5F5F5F5F5F5F5F5F5F5F5F5F5F5F5F5F5F5F5F5F5F5F5F5F5F5F5F5F5F5F5F5F5F5F5F5F5F5F5F5F5F5F5F5F5F5F5F5F5F5F5F5F5F5F5F5F5F5F5F5F5F5F5F5
310
F5F5F5F5F5F5E2F5F5F5F5F5F5F5F5F5F5F5F5F5F5E2F5F5F5F5F5F5F5F5F5F5F5E2E2E2F5F5F5F5F5F5F5F5F5F5F5E2F5F5F5F5F5F5F5F5F5F5F5F5F5F5E2F5F5F5F5F5F5F5F5F5F5F5F5F5F5F5F5F5F5F5F5F5F5F5F5F5F5F5F5F5F5F5F5F5F5F5F5F5F5F5F5F5F5F5F5F5F5F5F5F5F5F5F5F5F5F5F5F5F5F5F5F5F5F5F5
310
F5F5F5F5F5F5F5F5F5F5F5F5F5F5F5F5F5F5F5F5F5F5F5F5F5F5F5F5F5F5F5F5F5F5F5F5F5F5F5F5F5F5F5F5F5F5F5F5F5F5F5F5F5F5F5F5F5F5F5E2F5F5F5F5F5F5F5F5F5F5F5F5F5F5E2F5F5F5F5F5F5F5F5F5F5F5E2E2E2F5F5F5F5F5F5F5F5F5F5F5E2F5F5F5F5F5F5F5F5F5F5F5F5F5F5E2F5F5F5F5F5F5F5F5F5F5F5
310
F5F5F5F5F5F5F5F5F5F5F5F5F5F5F5F5F5F5F5F5F5F5F5F5F5F5F5F5F5F5F5F5F5F5F5F5F5F5F5F5F5F5F5F5F5F5F5F5F5F5F5F5F5F5F5F5F5F5F5F5F5F5F5F5F5F5F5F5F5F5F5F5F5F5F5F5F5F5F5F5F5F5F5F5F5F5F5F5F5F5F5F5F5F5F5F5F5F5F5F5F5F5F5F5F5F5F5F5F5F5F5F5E2F5F5F5F5F5F5F5F5F5F5F5F5F5F5
310
E2F5F5F5F5F5F5F5F5F5F5F5E2E2E2F5F5F5F5F5F5F5F5F5F5F5E2F5F5F5F5F5F5F5F5F5F5F5F5F5F5E2F5F5F5F5F5F5F5F5F5F5F5F5F5F5F5F5F5F5F5F5F5F5F5F5F5F5F5F5F5F5F5F5F5F5F5F5F5F5E2F5F5E2F5F5F5F5E2E2E2E2F5E2E2E2F5F5E2E2E2F5F5F5E2E2E2E2E2E2E2E2F5F5E2E2E2E2F5F5F5E2E2E2F5F5F5
310
F5F5F5F5F5F5F5F5F5F5F5F5F5F5F5F5F5F5F5F5F5F5F5F5F5F5F5F5F5F5F5F5F5F5F5F5F5F5E2F5F5F5F5F5F5F5F5F5F5F5F5F5F5E2F5F5F5F5F5F5F5F5F5F5F5E2E2E2F5F5F5F5F5F5F5F5F5F5F5E2F5F5F5F5F5F5F5F5F5F5F5F5F5F5E2F5F5F5F5F5F5F5F5F5F5F5F5F5F5F5F5F5F5F5F5F5F5F5F5F5F5F5F5F5F5F5F5
310
F5F5F5F5F5E2E2F5E2E2F5F5F5F5E2F5F5F5E2F5F5F5E2E2F5F5F5E2F5F5E2F5F5F5E2F5F5F5E2F5E2F5F5F5F5F5E2F5F5F5E2F5F5F5F5F5F5F5F5F5F5F5F5F5F5F5F5F5F5F5F5F5F5F5F5F5F5F5F5F5F5F5F5F5F5F5F5F5F5F5F5E2F5F5F5F5F5F5F5F5F5F5F5F5F5F5E2F5F5F5F5F5F5F5F5F5F5F5E2E2E2F5F5F5F5F5F5
310
F5F5F5F5F5E2F5F5F5F5F5F5F5F5F5F5F5F5F5F5E2F5F5F5F5F5F5F5F5F5F5F5F5F5F5F5F5F5F5F5F5F5F5F5F5F5F5F5F5F5F5F5F5F5F5F5F5F5E2F5E2E2F5E2F5F5F5E2F5F5F5F5F5F5F5E2E2F5F5F5E2F5F5F5E2E2F5E2F5F5F5E2F5E2F5F5F5F5F5F5F5F5F5E2F5F5F5F5F5F5F5F5F5F5F5F5F5F5F5F5F5F5F5F5F5F5F5
310
F5F5F5F5F5F5F5F5F5F5F5F5F5F5F5F5F5E2F5F5F5F5F5F5F5F5F5F5F5F5F5F5E2F5F5F5F5F5F5F5F5F5F5F5E2E2E2F5F5F5F5F5F5F5F5F5F5F5E2F5F5F5F5F5F5F5F5F5F5F5F5F5F5E2F5F5F5F5F5F5F5F5F5F5F5F5F5F5F5F5F5F5F5F5F5F5F5F5F5F5F5F5F5F5F5F5F5F5F5F5F5E2F5E2E2F5E2F5F5F5E2F5F5F5F5F5E2
310
E2F5E2F5F5F5E2F5F5F5F5F5E2E2F5F5F5E2F5E2F5F5F5F5F5F5E2E2E2F5F5F5F5F5F5F5F5F5F5F5F5F5F5F5F5F5F5F5F5F5F5F5F5F5F5F5F5F5F5F5F5F5F5F5F5F5F5F5F5F5E2F5F5F5F5F5F5F5F5F5F5F5F5F5F5E2F5F5F5F5F5F5F5F5F5F5F5E2E2E2F5F5F5F5F5F5F5F5F5F5F5E2F5F5F5F5F5F5F5F5F5F5F5F5F5F5E2
310
F5F5F5F5F5F5F5F5F5F5F5F5F5F5F5F5F5F5F5F5F5F5F5F5F5F5F5F5F5F5F5F5F5F5F5F5E2F5F5E2E2F5E2F5F5F5E2F5F5F5F5F5F5F5E2E2F5F5F5E2F5F5F5F5F5F5E2F5F5F5E2F5E2F5F5F5F5F5E2F5F5F5F5F5F5F5F5F5F5F5F5F5F5F5F5F5F5F5F5F5F5F5F5F5F5F5F5F5F5F5F5F5F5F5F5F5F5F5F5F5F5F5F5E2F5F5F5
310
F5F5F5F5F5F5F5F5F5F5F5E2F5F5F5F5F5F5F5F5F5F5F5E2E2E2F5F5F5F5F5F5F5F5F5F5F5E2F5F5F5F5F5F5F5F5F5F5F5F5F5F5E2F5F5F5F5F5F5F5F5F5F5F5F5F5F5F5F5F5F5F5F5F5F5F5F5F5F5F5F5F5F5F5F5F5F5F5F5E2F5F5E2E2F5F5E2F5F5E2F5F5F5E2F5F5F5E2E2F5F5F5E2F5F5E2F5F5F5E2F5F5F5E2F5E2F5
310
F5F5F5F5E2F5F5F5E2F5F5F5F5F5F5F5F5F5F5F5F5F5F5F5F5F5F5F5F5F5F5F5F5F5F5F5F5F5F5F5F5F5F5F5F5F5F5F5F5E2F5F5F5F5F5F5F5F5F5F5F5F5F5F5E2F5F5F5F5F5F5F5F5F5F5F5E2E2E2F5F5F5F5F5F5F5F5F5F5F5F5F5F5F5F5F5F5F5F5F5F5F5F5F5F5E2F5F5F5F5F5F5F5F5F5F5F5F5F5F5F5F5F5F5F5F5F5
310
F5F5F5F5F5F5F5F5F5F5F5F5F5F5F5E2F5F5F5E2F5F5E2F5F5E2F5F5F5F5E2E2E2F5F5E2E2E2F5F5F5F5E2E2E2F5E2E2E2F5F5E2F5F5F5F5F5F5E2E2E2F5F5F5F5F5F5F5F5F5F5F5F5F5F5F5F5F5F5F5F5F5F5F5F5F5F5F5F5F5F5F5F5F5F5F5F5F5F5F5F5F5E2F5F5F5F5F5F5F5F5F5F5F5F5F5F5F5F5F5F5F5F5F5F5F5F5
310
F5F5E2E2E2F5F5F5F5F5F5F5F5F5F5F5F5F5F5F5F5F5F5F5F5F5F5F5F5F5F5E2F5F5F5F5F5F5F5F5F5F5F5F5F5F5F5F5F5F5F5F5F5F5F5F5F5F5F5F5F5F5F5F5F5F5F5F5F5F5F5F5F5F5F5F5F5F5F5F5F5F5F5F5F5F5F5F5F5F5F5F5F5F5F5F5F5F5F5F5F5F5F5F5F5F5F5F5F5F5F5F5F5F5F5F5F5F5F5F5F5F5F5F5F5F5F5
310
F5F5F5F5F5F5F5F5F5F5F5F5F5F5F5F5F5F5F5F5F5F5F5F5F5F5F5F5E2F5F5F5F5F5F5F5F5F5F5F5F5F5F5F5F5F5F5F5F5F5F5F5F5F5F5E2E2E2F5F5F5F5F5F5F5F5F5F5F5F5F5F5F5F5F5F5F5F5F5F5F5F5F5F5E2F5F5F5F5F5F5F5F5F5F5F5F5F5F5F5F5F5F5F5F5F5F5F5F5F5F5F5F5F5F5F5F5F5F5F5F5F5F5F5F5F5F5
310
F5F5F5F5F5F5F5F5F5F5F5F5F5F5F5F5F5F5F5F5F5F5F5F5F5F5F5F5F5F5F5F5F5F5F5F5F5F5F5F5F5F5F5F5F5F5F5F5F5F5F5F5F5F5F5F5F5F5F5F5F5F5F5F5F5F5F5F5F5F5F5F5F5F5F5F5F5F5F5F5F5E2F5F5F5F5F5F5F5F5F5F5F5F5F5F5F5F5F5F5F5F5F5F5F5F5F5F5E2E2E2F5F5F5F5F5F5F5F5F5F5F5F5F5F5F5F5
310
F5F5F5F5F5F5F5F5F5F5E2F5F5F5F5F5F5F5F5F5F5F5F5F5F5F5F5F5F5F5F5F5F5F5F5F5F5F5F5F5F5F5F5F5F5F5F5F5F5F5F5F5F5F5F5F5F5F5F5F5F5F5F5F5F5F5F5F5F5F5F5F5F5F5F5F5F5F5F5F5F5F5F5F5F5F5F5F5F5F5F5F5F5F5F5F5F5F5F5F5F5F5F5F5F5F5F5F5F5F5F5F5F5F5F5F5F5F5F5F5F5F5F5F5F5F5F5
310
F5F5F5F5F5F5F5E2F5F5F5F5F5F5F5F5F5F5F5F5F5F5F5F5F5F5F5F5F5F5F5F5F5F5E2E2E2F5F5F5F5F5F5F5F5F5F5F5F5F5F5F5F5F5F5F5F5F5F5F5F5F5F5E2E2E2E2E2E2E2E2E2E2E2E2E2E2E2E2E2E2E2E2E2E2E2E2E2E2E2E2E2E2E2E2E2E2E2E2E2E2E2E2E2E2E2E2E2E2E2E2E2E2E2E2E2E2E2E2E2E2E2E2E2E2E2E2
310
E2E2E2E2E2E2E2E2E2E2E2E2E2E2E2E2E2E2E2E2E2E2E2E2E2E2E2E2E2E2E2E2E2E2E2E2E2E2E2E2E2E2E2E2E2E2E2E2E2E2E2E2E2E2E2E2E2E2E2E2E2F5F5F5F5F5F5F5F5F5F5F5F5F5F5F5F5F5F5F5F5F5F5F5F5F5F5E2E2E2F5F5F5F5F5F5F5F5F5F5F5F5F5F5F5F5F5F5F5F5F5F5F5F5F5F5F5F5F5F5F5F5F5F5F5F5F5
310
F5F5F5F5F5F5F5F5F5F5F5F5F5F5F5F5F5F5F5F5F5F5F5F5F5F5F5F5F5F5F5F5F5F5F5F5F5F5F5F5F5F5F5F5F5F5F5F5F5F5F5F5F5F5F5F5F5F5F5F5F5F5F5F5F5F5F5F5F5F5F5F5F5F5F5F5F5F5F5F5F5F5F5F5F5F5F5F5F5F5F5F5F5F5F5F5F5F5F5F5F5F5F5F5F5F5F5F5F5F5F5F5F5F5F5F5F5F5F5F5F5F5F5F5F5F5F5
310
F5F5F5F5F5F5F5F5F5F5F5F5F5E2E2E2F5F5F5F5F5F5F5F5F5F5F5F5F5F5F5F5F5F5F5F5F5F5F5F5F5F5F5F5F5F5F5F5F5F5F5F5F5F5F5F5F5F5F5F5F5F5F5F5F5F5F5F5F5F5F5F5F5F5F5F5F5F5F5F5F5F5F5F5F5F5F5F5F5F5F5F5F5F5F5F5F5F5F5F5F5F5F5F5F5F5F5F5F5F5F5F5F5F5F5F5F5F5F5F5F5F5F5F5F5F5F5
310
F5F5F5F5F5F5F5F5F5F5F5F5F5F5F5F5F5F5F5F5F5F5F5F5F5F5F5F5F5F5F5F5F5F5F5F5F5F5F5F5F5F5F5F5F5F5F5F5F5F5F5F5F5F5F5F5F5F5F5F5F5F5F5F5F5F5E2E2E2F5F5F5F5F5F5F5F5F5F5F5F5F5F5F5F5F5F5F5F5F5F5F5F5F5F5F5F5F5F5F5F5F5F5F5F5F5F5F5F5F5F5F5F5F5F5F5F5F5F5F5F5F5F5F5F5F5F5
310
F5F5F5F5F5F5F5F5F5F5F5F5F5F5F5F5F5F5F5F5F5F5F5F5F5F5F5F5F5F5F5F5F5F5F5F5F5F5F5F5F5F5F5F5F5F5F5F5F5F5F5F5F5F5F5F5F5F5F5F5F5F5F5F5F5F5F5F5F5F5F5F5F5F5F5F5F5F5F5F5F5F5F5F5F5F5F5F5F5F5F5F5F5F5F5F5F5F5F5F5F5F5F5F5F5F5F5F5F5F5F5F5F5F5F5F5F5F5F5E2E2E2F5F5F5F5F5
310
F5F5F5F5F5F5E2F5F5F5F5F5F5F5F5F5F5F5F5F5F5F5F5F5F5F5F5F5F5F5F5F5F5F5F5F5F5F5F5F5F5F5F5F5F5F5F5F5F5F5F5F5F5F5F5F5F5F5F5F5F5F5F5F5F5F5F5F5F5F5F5F5F5F5F5F5F5F5F5F5F5F5F5F5F5F5F5F5F5F5F5F5F5F5F5F5F5F5F5F5F5F5F5F5F5F5F5F5F5F5F5F5F5F5F5F5F5F5F5F5F5F5F5F5F5F5F5
310
F5F5F5F5F5F5F5F5F5F5F5F5F5F5F5F5F5F5F5F5F5F5F5F5F5F5F5F5F5F5F5F5F5E2F5F5F5F5F5F5F5F5F5F5F5E2E2E2F5F5F5F5F5F5F5F5F5F5F5E2F5F5F5F5F5F5F5F5F5F5F5F5F5F5F5F5F5F5F5F5F5F5F5F5F5F5F5F5F5F5F5F5F5F5F5F5F5F5F5F5F5F5F5F5F5F5F5F5F5F5F5F5F5F5F5F5F5F5F5F5F5F5F5F5F5F5F5
310
F5F5F5F5F5F5F5F5F5F5F5F5F5F5F5F5F5F5F5F5F5F5F5F5F5F5F5F5F5F5F5F5F5F5F5F5F5F5F5F5F5F5F5F5F5F5F5F5F5F5F5F5F5F5F5F5F5F5F5F5F5F5F5F5F5F5F5F5F5F5F5F5F5F5F5F5F5F5F5F5F5F5F5F5F5F5E2F5F5F5F5F5F5F5F5F5F5F5E2E2E2F5F5F5F5F5F5F5F5F5F5F5E2F5F5F5F5F5F5F5F5F5F5F5F5F5F5
310
F5F5F5F5F5F5F5F5F5F5F5F5F5F5F5F5F5F5F5F5F5F5F5F5F5F5F5F5F5F5F5F5F5F5F5F5F5F5F5F5F5F5F5F5F5F5F5F5F5F5F5F5F5F5F5F5F5F5F5F5F5F5F5F5F5F5F5F5F5F5F5F5F5F5F5F5F5F5F5F5F5F5F5F5F5F5F5F5F5F5F5F5F5F5F5F5F5F5F5F5F5F5F5F5F5F5F5F5F5F5F5F5F5F5F5F5F5F5F5F5F5F5F5F5F5F5F5
310
F5F5F5F5F5F5F5F5F5F5F5F5E2F5F5F5F5F5F5F5F5F5F5F5E2E2E2F5F5F5F5F5F5F5F5F5F5F5E2F5F5F5F5F5F5F5F5F5F5F5F5F5F5F5F5F5F5F5F5F5F5F5F5F5F5F5F5F5F5F5F5F5F5F5F5F5F5F5F5F5F5F5F5F5F5F5F5F5F5F5F5F5F5F5F5F5F5F5F5F5F5F5F5F5F5F5F5F5F5F5F5F5F5F5F5F5F5F5F5F5F5F5F5F5F5F5F5
310
F5F5F5F5F5F5F5F5F5F5F5F5F5F5F5F5F5F5F5F5F5F5F5F5F5F5F5F5F5F5F5F5F5F5F5F5F5F5F5F5F5F5F5F5F5F5F5F5F5F5F5F5F5F5F5F5F5F5F5F5F5F5F5F5F5E2F5F5F5F5F5F5F5F5F5F5F5E2E2E2F5F5F5F5F5F5F5F5F5F5F5E2F5F5F5F5F5F5F5F5F5F5F5F5F5F5F5F5F5F5F5F5F5F5F5F5F5F5F5F5F5F5F5F5F5F5F5
310
F5F5F5F5F5F5F5F5F5F5F5F5F5F5F5F5F5F5F5F5F5F5F5F5F5F5F5F5F5F5F5F5F5F5F5F5F5F5F5F5F5F5F5F5F5F5F5F5F5F5F5F5F5F5F5F5F5F5F5F5F5F5F5F5F5F5F5F5F5F5F5F5F5F5F5F5F5F5F5F5F5F5F5F5F5F5F5F5F5F5F5F5F5F5F5F5F5F5F5F5F5F5F5F5F5F5F5F5F5F5F5F5F5F5F5F5F5F5E2F5F5F5F5F5F5F5F5
310
F5F5F5E2E2E2F5F5F5F5F5F5F5F5F5F5F5E2F5F5F5F5F5F5F5F5F5F5F5F5F5F5F5F5F5F5F5F5F5F5F5F5F5F5F5F5F5F5F5F5F5F5F5F5F5F5F5F5F5F5F5F5F5F5F5F5F5F5F5F5F5F5F5F5F5F5F5F5F5F5F5F5F5F5F5F5F5F5F5F5F5F5F5F5F5F5F5F5F5F5F5F5F5F5F5F5F5F5F5F5F5F5F5F5F5F5F5F5F5F5F5F5F5F5F5F5F5
310
F5F5F5F5F5F5F5F5F5F5F5F5F5F5F5F5F5F5F5F5F5F5F5F5F5F5F5F5F5F5F5F5F5F5F5F5F5F5F5F5F5F5F5F5E2F5F5F5F5F5F5F5F5F5F5F5E2E2E2F5F5F5F5F5F5F5F5F5F5F5E2F5F5F5F5F5F5F5F5F5F5F5F5F5F5F5F5F5F5F5F5F5F5F5F5F5F5F5F5F5F5F5F5F5F5F5F5F5F5F5F5F5F5F5F5F5F5F5F5F5F5F5F5F5F5F5F5
310
F5F5F5F5F5F5F5F5F5F5F5F5F5F5F5F5F5F5F5F5F5F5F5F5F5F5F5F5F5F5F5F5F5F5F5F5F5F5F5F5F5F5F5F5F5F5F5F5F5F5F5F5F5F5F5F5F5F5F5F5F5F5F5F5F5F5F5F5F5F5F5F5F5F5F5F5F5F5F5F5F5F5F5F5F5F5F5F5F5F5F5F5F5F5F5F5F5E2F5F5F5F5F5F5F5F5F5F5F5E2E2E2F5F5F5F5F5F5F5F5F5F5F5E2E2E2E2
310
E2E2E2E2E2F5F5F5F5F5F5F5F5F5E2E2E2E2E2E2E2E2E2E2E2E2E2E2E2E2F5F5F5F5F5F5F5F5F5F5E2E2E2E2E2E2E2E2E2E2E2E2E2E2E2E2F5F5F5F5F5F5F5F5F5E2E2E2E2E2E2E2E2E2E2E2E2E2E2E2E2E2F5F5F5F5F5F5F5F5F5E2E2E2E2E2E2E2E2E2E2E2E2E2E2E2E2F5F5F5F5F5F5F5F5F5F5E2E2E2E2E2E2E2E2E2E2
310
E2E2E2E2E2E2F5F5F5F5F5F5F5F5F5E2E2E2E2E2E2E2E2E2F5F5F5F5F5F5F5F5F5F5F5E2E2E2F5F5F5F5F5F5F5F5F5F5F5F5F5F5F5F5F5F5F5F5F5F5F5F5F5F5F5F5F5F5F5F5F5F5F5F5F5F5F5F5F5F5F5F5F5F5F5F5F5F5F5F5F5F5F5F5F5F5F5F5F5F5F5F5F5F5F5F5F5F5F5F5F5F5F5F5F5F5F5F5F5F5F5F5F5F5F5F5F5
310
F5F5F5F5F5F5F5F5F5F5F5F5F5F5F5F5F5F5F5F5F5F5F5F5F5F5F5F5F5F5F5F5F5F5F5F5F5F5F5F5F5F5F5F5F5F5F5F5F5F5F5F5F5F5F5F5F5F5F5F5F5F5F5F5F5F5F5F5F5F5F5F5F5F5F5F5F5F5F5F5F5F5F5F5F5F5F5F5E2E2E2F5F5F5F5F5F5F5F5F5F5F5F5F5F5F5F5F5F5F5F5F5F5F5F5F5F5F5F5F5F5F5F5F5F5F5F5
310
F5F5F5F5F5F5F5F5F5F5F5F5F5F5F5F5F5F5F5F5F5F5F5F5F5F5F5F5F5F5F5F5F5F5F5F5F5F5F5F5F5F5F5F5F5F5F5F5F5F5F5F5F5F5F5F5F5F5F5F5F5F5F5F5F5F5F5F5F5F5F5F5F5F5F5F5F5F5F5F5F5F5F5F5F5F5F5F5F5F5F5F5F5F5F5F5F5F5F5F5F5F5F5F5F5F5F5F5F5F5F5F5F5F5F5F5F5F5F5F5F5F5F5F5F5F5F5
310
F5F5F5F5F5F5F5F5F5F5F5F5F5F5E2E2E2F5F5F5F5F5F5F5F5F5F5F5F5F5F5F5F5F5F5F5F5F5F5F5F5F5F5F5F5F5F5F5F5F5F5F5F5F5F5F5F5F5F5F5F5F5F5F5F5F5F5F5F5F5F5F5F5F5F5F5F5F5F5F5F5F5F5F5F5F5F5F5F5F5F5F5F5F5F5F5F5F5F5F5F5F5F5F5F5F5F5F5F5F5F5F5F5F5F5F5F5F5F5F5F5F5F5F5F5F5F5
310
F5F5F5F5F5F5F5F5F5F5F5F5F5F5F5F5F5F5F5F5F5F5F5F5F5F5F5F5F5F5F5F5F5F5F5F5F5F5F5F5F5F5F5F5F5F5F5F5F5F5F5F5F5F5F5F5F5F5F5F5F5F5F5F5F5F5F5E2E2E2F5F5F5F5F5F5F5F5F5F5F5F5F5F5F5F5F5F5F5F5F5F5F5F5F5F5F5F5F5F5F5F5F5F5F5F5F5F5F5F5F5F5F5F5F5F5F5F5F5F5F5F5F5F5F5F5F5
310
F5F5F5F5F5F5F5F5F5F5F5F5F5F5F5F5F5F5F5F5F5F5F5F5F5F5F5F5F5F5F5F5F5F5F5F5F5F5F5F5F5F5F5F5F5F5F5F5F5F5F5F5F5F5F5F5F5F5F5F5F5F5F5F5F5F5F5F5F5F5F5F5F5F5F5F5F5F5F5F5F5F5F5F5F5F5F5F5F5F5F5F5F5F5F5F5F5F5F5F5F5F5F5F5F5F5F5F5F5F5F5F5F5F5F5F5F5F5F5F5E2EFE2E2E2E2E2
310
E2E2E2E2E2E2E2E2E2E2E2E2E2E2E2E2E2E2E2E2E2E2E2E2E2E2E2E2E2E2E2E2E2E2E2E2E2E2E2E2E2E2E2E2E2E2E2E2E2E2E2E2E2E2E2E2E2E2E2E2E2E2E2E2E2E2E2E2E2E2E2E2E2E2E2E2E2E2E2E2E2E2E2E2E2E2E2E2E2E2E2E2E2E2E2E2E2E2E2E2E2E2E2E2E2E2E2E2E2E2E2E2E2E2E2E2E2E2E2E2E2E2E2E2E2E2E2
310
E2E2E2E2E2E2E2E2E2E2E2E2E2E2E2E2E2E2E2E2E2E2E2E2E2E2E2E2E2E2E2E2E2E2E2E2E2E2E2E2E2E2E2E2E2E2E2EF
  0
XRECORD
  5
A6D
102
{ACAD_REACTORS
330
A6C
102
}
330
A6C
100
AcDbXrecord
280
     1
102
MATERIAL
148
0.0
149
0.0
149
0.0
 93
        0
 94
       63
282
     0
 72
     1
 77
     1
171
     1
175
     1
179
     1
273
     0
  0
XRECORD
  5
A6B
102
{ACAD_REACTORS
330
A6A
102
}
330
A6A
100
AcDbXrecord
280
     1
102
MATERIAL
148
0.0
149
0.0
149
0.0
 93
        0
 94
       63
282
     0
 72
     1
 77
     1
171
     1
175
     1
179
     1
273
     0
  0
XRECORD
  5
A6F
102
{ACAD_REACTORS
330
A6E
102
}
330
A6E
100
AcDbXrecord
280
     1
102
MATERIAL
148
0.0
149
0.0
149
0.0
 93
        0
 94
       63
282
     0
 72
     1
 77
     1
171
     1
175
     1
179
     1
273
     0
  0
XRECORD
  5
ADD
102
{ACAD_REACTORS
330
ADC
102
}
330
ADC
100
AcDbXrecord
280
     1
102
ACAD_ROUNDTRIP_PRE2007_TABLESTYLE
 90
      512
 91
        0
  1

 92
      512
 93
        0
  2

 94
      512
 95
        0
  3

  0
ENDSEC
  0
EOF
