  0
SECTION
  2
HEADER
  9
$ACADVER
  1
AC1015
  9
$ACADMAINTVER
 70
    20
  9
$DWGCODEPAGE
  3
ANSI_936
  9
$INSBASE
 10
0.0
 20
0.0
 30
0.0
  9
$EXTMIN
 10
101.9087781688274
 20
-2038.532773907677
 30
0.0
  9
$EXTMAX
 10
11776.99517314638
 20
999.1029759956129
 30
0.0
  9
$LIMMIN
 10
0.0
 20
0.0
  9
$LIMMAX
 10
12.0
 20
9.0
  9
$ORTHOMODE
 70
     0
  9
$REGENMODE
 70
     1
  9
$FILLMODE
 70
     1
  9
$QTEXTMODE
 70
     0
  9
$MIRRTEXT
 70
     1
  9
$LTSCALE
 40
1.0
  9
$ATTMODE
 70
     1
  9
$TEXTSIZE
 40
0.2
  9
$TRACEWID
 40
0.05
  9
$TEXTSTYLE
  7
Standard
  9
$CLAYER
  8
0
  9
$CELTYPE
  6
ByLayer
  9
$CECOLOR
 62
   256
  9
$CELTSCALE
 40
1.0
  9
$DISPSILH
 70
     0
  9
$DIMSCALE
 40
1.0
  9
$DIMASZ
 40
0.18
  9
$DIMEXO
 40
0.0625
  9
$DIMDLI
 40
0.38
  9
$DIMRND
 40
0.0
  9
$DIMDLE
 40
0.0
  9
$DIMEXE
 40
0.18
  9
$DIMTP
 40
0.0
  9
$DIMTM
 40
0.0
  9
$DIMTXT
 40
0.18
  9
$DIMCEN
 40
0.09
  9
$DIMTSZ
 40
0.0
  9
$DIMTOL
 70
     0
  9
$DIMLIM
 70
     0
  9
$DIMTIH
 70
     1
  9
$DIMTOH
 70
     1
  9
$DIMSE1
 70
     0
  9
$DIMSE2
 70
     0
  9
$DIMTAD
 70
     0
  9
$DIMZIN
 70
     0
  9
$DIMBLK
  1

  9
$DIMASO
 70
     1
  9
$DIMSHO
 70
     1
  9
$DIMPOST
  1

  9
$DIMAPOST
  1

  9
$DIMALT
 70
     0
  9
$DIMALTD
 70
     2
  9
$DIMALTF
 40
25.4
  9
$DIMLFAC
 40
1.0
  9
$DIMTOFL
 70
     0
  9
$DIMTVP
 40
0.0
  9
$DIMTIX
 70
     0
  9
$DIMSOXD
 70
     0
  9
$DIMSAH
 70
     0
  9
$DIMBLK1
  1

  9
$DIMBLK2
  1

  9
$DIMSTYLE
  2
Standard
  9
$DIMCLRD
 70
     0
  9
$DIMCLRE
 70
     0
  9
$DIMCLRT
 70
     0
  9
$DIMTFAC
 40
1.0
  9
$DIMGAP
 40
0.09
  9
$DIMJUST
 70
     0
  9
$DIMSD1
 70
     0
  9
$DIMSD2
 70
     0
  9
$DIMTOLJ
 70
     1
  9
$DIMTZIN
 70
     0
  9
$DIMALTZ
 70
     0
  9
$DIMALTTZ
 70
     0
  9
$DIMUPT
 70
     0
  9
$DIMDEC
 70
     4
  9
$DIMTDEC
 70
     4
  9
$DIMALTU
 70
     2
  9
$DIMALTTD
 70
     2
  9
$DIMTXSTY
  7
Standard
  9
$DIMAUNIT
 70
     0
  9
$DIMADEC
 70
     0
  9
$DIMALTRND
 40
0.0
  9
$DIMAZIN
 70
     0
  9
$DIMDSEP
 70
    46
  9
$DIMATFIT
 70
     3
  9
$DIMFRAC
 70
     0
  9
$DIMLDRBLK
  1

  9
$DIMLUNIT
 70
     2
  9
$DIMLWD
 70
    -2
  9
$DIMLWE
 70
    -2
  9
$DIMTMOVE
 70
     0
  9
$LUNITS
 70
     2
  9
$LUPREC
 70
     4
  9
$SKETCHINC
 40
0.1
  9
$FILLETRAD
 40
0.0
  9
$AUNITS
 70
     0
  9
$AUPREC
 70
     0
  9
$MENU
  1
.
  9
$ELEVATION
 40
0.0
  9
$PELEVATION
 40
0.0
  9
$THICKNESS
 40
0.0
  9
$LIMCHECK
 70
     0
  9
$CHAMFERA
 40
0.5
  9
$CHAMFERB
 40
0.5
  9
$CHAMFERC
 40
1.0
  9
$CHAMFERD
 40
0.0
  9
$SKPOLY
 70
     0
  9
$TDCREATE
 40
2455841.606800220
  9
$TDUCREATE
 40
2455841.273466887
  9
$TDUPDATE
 40
2459756.633054815
  9
$TDUUPDATE
 40
2459756.299721481
  9
$TDINDWG
 40
0.0506739120
  9
$TDUSRTIMER
 40
0.0506739120
  9
$USRTIMER
 70
     1
  9
$ANGBASE
 50
0.0
  9
$ANGDIR
 70
     0
  9
$PDMODE
 70
     0
  9
$PDSIZE
 40
0.0
  9
$PLINEWID
 40
0.0
  9
$SPLFRAME
 70
     0
  9
$SPLINETYPE
 70
     6
  9
$SPLINESEGS
 70
     8
  9
$HANDSEED
  5
4E25
  9
$SURFTAB1
 70
     6
  9
$SURFTAB2
 70
     6
  9
$SURFTYPE
 70
     6
  9
$SURFU
 70
     6
  9
$SURFV
 70
     6
  9
$UCSBASE
  2

  9
$UCSNAME
  2

  9
$UCSORG
 10
0.0
 20
0.0
 30
0.0
  9
$UCSXDIR
 10
1.0
 20
0.0
 30
0.0
  9
$UCSYDIR
 10
0.0
 20
1.0
 30
0.0
  9
$UCSORTHOREF
  2

  9
$UCSORTHOVIEW
 70
     0
  9
$UCSORGTOP
 10
0.0
 20
0.0
 30
0.0
  9
$UCSORGBOTTOM
 10
0.0
 20
0.0
 30
0.0
  9
$UCSORGLEFT
 10
0.0
 20
0.0
 30
0.0
  9
$UCSORGRIGHT
 10
0.0
 20
0.0
 30
0.0
  9
$UCSORGFRONT
 10
0.0
 20
0.0
 30
0.0
  9
$UCSORGBACK
 10
0.0
 20
0.0
 30
0.0
  9
$PUCSBASE
  2

  9
$PUCSNAME
  2

  9
$PUCSORG
 10
0.0
 20
0.0
 30
0.0
  9
$PUCSXDIR
 10
1.0
 20
0.0
 30
0.0
  9
$PUCSYDIR
 10
0.0
 20
1.0
 30
0.0
  9
$PUCSORTHOREF
  2

  9
$PUCSORTHOVIEW
 70
     0
  9
$PUCSORGTOP
 10
0.0
 20
0.0
 30
0.0
  9
$PUCSORGBOTTOM
 10
0.0
 20
0.0
 30
0.0
  9
$PUCSORGLEFT
 10
0.0
 20
0.0
 30
0.0
  9
$PUCSORGRIGHT
 10
0.0
 20
0.0
 30
0.0
  9
$PUCSORGFRONT
 10
0.0
 20
0.0
 30
0.0
  9
$PUCSORGBACK
 10
0.0
 20
0.0
 30
0.0
  9
$USERI1
 70
     0
  9
$USERI2
 70
     0
  9
$USERI3
 70
     0
  9
$USERI4
 70
     0
  9
$USERI5
 70
     0
  9
$USERR1
 40
0.0
  9
$USERR2
 40
0.0
  9
$USERR3
 40
0.0
  9
$USERR4
 40
0.0
  9
$USERR5
 40
0.0
  9
$WORLDVIEW
 70
     1
  9
$SHADEDGE
 70
     3
  9
$SHADEDIF
 70
    70
  9
$TILEMODE
 70
     1
  9
$MAXACTVP
 70
    64
  9
$PINSBASE
 10
0.0
 20
0.0
 30
0.0
  9
$PLIMCHECK
 70
     0
  9
$PEXTMIN
 10
1.000000000000000E+20
 20
1.000000000000000E+20
 30
1.000000000000000E+20
  9
$PEXTMAX
 10
-1.000000000000000E+20
 20
-1.000000000000000E+20
 30
-1.000000000000000E+20
  9
$PLIMMIN
 10
0.0
 20
0.0
  9
$PLIMMAX
 10
12.0
 20
9.0
  9
$UNITMODE
 70
     0
  9
$VISRETAIN
 70
     1
  9
$PLINEGEN
 70
     0
  9
$PSLTSCALE
 70
     1
  9
$TREEDEPTH
 70
  3020
  9
$CMLSTYLE
  2
Standard
  9
$CMLJUST
 70
     0
  9
$CMLSCALE
 40
1.0
  9
$PROXYGRAPHICS
 70
     1
  9
$MEASUREMENT
 70
     0
  9
$CELWEIGHT
370
    -1
  9
$ENDCAPS
280
     0
  9
$JOINSTYLE
280
     0
  9
$LWDISPLAY
290
     0
  9
$INSUNITS
 70
     1
  9
$HYPERLINKBASE
  1

  9
$STYLESHEET
  1
Monochrome.ctb
  9
$XEDIT
290
     1
  9
$CEPSNTYPE
380
     0
  9
$PSTYLEMODE
290
     1
  9
$FINGERPRINTGUID
  2
{168A8766-4015-4ABD-915A-AD1ECBE2E3C2}
  9
$VERSIONGUID
  2
{0E3F5D88-C549-4DF6-927B-7536CDCAAFD3}
  9
$EXTNAMES
290
     1
  9
$PSVPSCALE
 40
0.0
  9
$OLESTARTUP
290
     0
  0
ENDSEC
  0
SECTION
  2
CLASSES
  0
CLASS
  1
ACDBDICTIONARYWDFLT
  2
AcDbDictionaryWithDefault
  3
ObjectDBX Classes
 90
        0
280
     0
281
     0
  0
CLASS
  1
VISUALSTYLE
  2
AcDbVisualStyle
  3
ObjectDBX Classes
 90
     4095
280
     0
281
     0
  0
CLASS
  1
DIMASSOC
  2
AcDbDimAssoc
  3
"AcDbDimAssoc|Product Desc:     AcDim ARX App For Dimension|Company:          Autodesk, Inc.|WEB Address:      www.autodesk.com"
 90
    32768
280
     0
281
     0
  0
CLASS
  1
MATERIAL
  2
AcDbMaterial
  3
ObjectDBX Classes
 90
     1024
280
     0
281
     0
  0
CLASS
  1
TABLESTYLE
  2
AcDbTableStyle
  3
ObjectDBX Classes
 90
     4095
280
     0
281
     0
  0
CLASS
  1
DICTIONARYVAR
  2
AcDbDictionaryVar
  3
ObjectDBX Classes
 90
        0
280
     0
281
     0
  0
CLASS
  1
SORTENTSTABLE
  2
AcDbSortentsTable
  3
ObjectDBX Classes
 90
    32768
280
     0
281
     0
  0
CLASS
  1
ACDBPLACEHOLDER
  2
AcDbPlaceHolder
  3
ObjectDBX Classes
 90
        0
280
     0
281
     0
  0
CLASS
  1
LAYOUT
  2
AcDbLayout
  3
ObjectDBX Classes
 90
        0
280
     0
281
     0
  0
ENDSEC
  0
SECTION
  2
TABLES
  0
TABLE
  2
VPORT
  5
8
330
0
100
AcDbSymbolTable
 70
     1
  0
VPORT
  5
27
330
8
100
AcDbSymbolTableRecord
100
AcDbViewportTableRecord
  2
*Active
 70
     0
 10
0.0
 20
0.0
 11
1.0
 21
1.0
 12
819.5478070387434
 22
596.2118707608022
 13
0.0
 23
0.0
 14
0.5
 24
0.5
 15
0.5
 25
0.5
 16
0.0
 26
0.0
 36
1.0
 17
0.0
 27
0.0
 37
0.0
 40
1068.485871455522
 41
2.294999999999999
 42
50.0
 43
0.0
 44
0.0
 50
0.0
 51
0.0
 71
     0
 72
   100
 73
     1
 74
     3
 75
     1
 76
     0
 77
     0
 78
     0
281
     0
 65
     1
110
0.0
120
0.0
130
0.0
111
1.0
121
0.0
131
0.0
112
0.0
122
1.0
132
0.0
 79
     0
146
0.0
  0
ENDTAB
  0
TABLE
  2
LTYPE
  5
5
330
0
100
AcDbSymbolTable
 70
     8
  0
LTYPE
  5
14
330
5
100
AcDbSymbolTableRecord
100
AcDbLinetypeTableRecord
  2
ByBlock
 70
     0
  3

 72
    65
 73
     0
 40
0.0
  0
LTYPE
  5
15
330
5
100
AcDbSymbolTableRecord
100
AcDbLinetypeTableRecord
  2
ByLayer
 70
     0
  3

 72
    65
 73
     0
 40
0.0
  0
LTYPE
  5
16
330
5
100
AcDbSymbolTableRecord
100
AcDbLinetypeTableRecord
  2
Continuous
 70
     0
  3
Solid line
 72
    65
 73
     0
 40
0.0
  0
LTYPE
  5
5B
330
5
100
AcDbSymbolTableRecord
100
AcDbLinetypeTableRecord
  2
CENTERX2
 70
     0
  3
Center (2x) ________  __  ________  __  _____
 72
    65
 73
     4
 40
101.6
 49
63.5
 74
     4
 75
     0
340
0
 46
1.0
 50
0.0
 44
0.0
 45
0.0
 49
-12.7
 74
     4
 75
     0
340
0
 46
1.0
 50
0.0
 44
0.0
 45
0.0
 49
12.7
 74
     4
 75
     0
340
0
 46
1.0
 50
0.0
 44
0.0
 45
0.0
 49
-12.7
 74
     4
 75
     0
340
0
 46
1.0
 50
0.0
 44
0.0
 45
0.0
  0
LTYPE
  5
192
330
5
100
AcDbSymbolTableRecord
100
AcDbLinetypeTableRecord
  2
CENTER
 70
     0
  3
Center ____ _ ____ _ ____ _ ____ _ ____ _ ____
 72
    65
 73
     4
 40
50.8
 49
31.75
 74
     4
 75
     0
340
0
 46
1.0
 50
0.0
 44
0.0
 45
0.0
 49
-6.349999999999999
 74
     4
 75
     0
340
0
 46
1.0
 50
0.0
 44
0.0
 45
0.0
 49
6.349999999999999
 74
     4
 75
     0
340
0
 46
1.0
 50
0.0
 44
0.0
 45
0.0
 49
-6.349999999999999
 74
     4
 75
     0
340
0
 46
1.0
 50
0.0
 44
0.0
 45
0.0
  0
LTYPE
  5
112E
330
5
100
AcDbSymbolTableRecord
100
AcDbLinetypeTableRecord
  2
DASHED
 70
     0
  3
Dashed __ __ __ __ __ __ __ __ __ __ __ __ __ _
 72
    65
 73
     2
 40
19.05
 49
12.7
 74
     4
 75
     0
340
0
 46
1.0
 50
0.0
 44
0.0
 45
0.0
 49
-6.349999999999999
 74
     4
 75
     0
340
0
 46
1.0
 50
0.0
 44
0.0
 45
0.0
  0
LTYPE
  5
121B
330
5
100
AcDbSymbolTableRecord
100
AcDbLinetypeTableRecord
  2
ACAD_ISO02W100
 70
     0
  3
ISO dash __ __ __ __ __ __ __ __ __ __ __ __ __
 72
    65
 73
     2
 40
15.0
 49
12.0
 74
     4
 75
     0
340
0
 46
1.0
 50
0.0
 44
0.0
 45
0.0
 49
-3.0
 74
     4
 75
     0
340
0
 46
1.0
 50
0.0
 44
0.0
 45
0.0
  0
LTYPE
  5
121C
330
5
100
AcDbSymbolTableRecord
100
AcDbLinetypeTableRecord
  2
DIVIDE
 70
     0
  3
Divide ____ . . ____ . . ____ . . ____ . . ____
 72
    65
 73
     6
 40
31.75
 49
12.7
 74
     4
 75
     0
340
0
 46
1.0
 50
0.0
 44
0.0
 45
0.0
 49
-6.349999999999999
 74
     4
 75
     0
340
0
 46
1.0
 50
0.0
 44
0.0
 45
0.0
 49
0.0
 74
     4
 75
     0
340
0
 46
1.0
 50
0.0
 44
0.0
 45
0.0
 49
-6.349999999999999
 74
     4
 75
     0
340
0
 46
1.0
 50
0.0
 44
0.0
 45
0.0
 49
0.0
 74
     4
 75
     0
340
0
 46
1.0
 50
0.0
 44
0.0
 45
0.0
 49
-6.349999999999999
 74
     4
 75
     0
340
0
 46
1.0
 50
0.0
 44
0.0
 45
0.0
  0
LTYPE
  5
4099
330
5
100
AcDbSymbolTableRecord
100
AcDbLinetypeTableRecord
  2
HIDDEN2
 70
     0
  3
Hidden (.5x) _ _ _ _ _ _ _ _ _ _ _ _ _ _ _ _ _
 72
    65
 73
     2
 40
4.762499999999999
 49
3.174999999999999
 74
     4
 75
     0
340
0
 46
1.0
 50
0.0
 44
0.0
 45
0.0
 49
-1.587499999999999
 74
     4
 75
     0
340
0
 46
1.0
 50
0.0
 44
0.0
 45
0.0
  0
LTYPE
  5
409A
330
5
100
AcDbSymbolTableRecord
100
AcDbLinetypeTableRecord
  2
CENTER2
 70
     0
  3
Center (.5x) ___ _ ___ _ ___ _ ___ _ ___ _ ___
 72
    65
 73
     4
 40
28.575
 49
19.05
 74
     4
 75
     0
340
0
 46
1.0
 50
0.0
 44
0.0
 45
0.0
 49
-3.174999999999998
 74
     4
 75
     0
340
0
 46
1.0
 50
0.0
 44
0.0
 45
0.0
 49
3.174999999999998
 74
     4
 75
     0
340
0
 46
1.0
 50
0.0
 44
0.0
 45
0.0
 49
-3.174999999999998
 74
     4
 75
     0
340
0
 46
1.0
 50
0.0
 44
0.0
 45
0.0
  0
ENDTAB
  0
TABLE
  2
LAYER
  5
2
102
{ACAD_XDICTIONARY
360
36E2
102
}
330
0
100
AcDbSymbolTable
 70
    19
  0
LAYER
  5
10
330
2
100
AcDbSymbolTableRecord
100
AcDbLayerTableRecord
  2
0
 70
     0
 62
     7
  6
Continuous
370
    -3
390
F
  0
LAYER
  5
5C
330
2
100
AcDbSymbolTableRecord
100
AcDbLayerTableRecord
  2
粗实线
 70
     0
 62
     7
  6
Continuous
370
    30
390
F
1001
AcAecLayerStandard
1000

1000

  0
LAYER
  5
5D
330
2
100
AcDbSymbolTableRecord
100
AcDbLayerTableRecord
  2
中心线
 70
     0
 62
     1
  6
CENTERX2
370
    15
390
F
1001
AcAecLayerStandard
1000

1000

  0
LAYER
  5
5E
330
2
100
AcDbSymbolTableRecord
100
AcDbLayerTableRecord
  2
标注
 70
     0
 62
     4
  6
Continuous
370
    15
390
F
1001
AcAecLayerStandard
1000

1000

  0
LAYER
  5
5F
330
2
100
AcDbSymbolTableRecord
100
AcDbLayerTableRecord
  2
Defpoints
 70
     0
 62
     7
  6
Continuous
290
     0
370
    -3
390
F
  0
LAYER
  5
118
330
2
100
AcDbSymbolTableRecord
100
AcDbLayerTableRecord
  2
图层1粗线
 70
     0
 62
     7
  6
Continuous
370
    -3
390
F
1001
AcAecLayerStandard
1000

1000

  0
LAYER
  5
193
330
2
100
AcDbSymbolTableRecord
100
AcDbLayerTableRecord
  2
细实线
 70
     0
 62
     3
  6
Continuous
370
    15
390
F
1001
AcAecLayerStandard
1000

1000

  0
LAYER
  5
357
330
2
100
AcDbSymbolTableRecord
100
AcDbLayerTableRecord
  2
图层2
 70
     0
 62
     7
  6
Continuous
370
    30
390
F
1001
AcAecLayerStandard
1000

1000

  0
LAYER
  5
358
330
2
100
AcDbSymbolTableRecord
100
AcDbLayerTableRecord
  2
图层3
 70
     0
 62
     7
  6
Continuous
370
    18
390
F
1001
AcAecLayerStandard
1000

1000

  0
LAYER
  5
4E7
330
2
100
AcDbSymbolTableRecord
100
AcDbLayerTableRecord
  2
文字
 70
     0
 62
     1
  6
Continuous
370
    15
390
F
1001
AcAecLayerStandard
1000

1000

  0
LAYER
  5
4E8
330
2
100
AcDbSymbolTableRecord
100
AcDbLayerTableRecord
  2
不可见
 70
     0
 62
     2
  6
Continuous
290
     0
370
    15
390
F
1001
AcAecLayerStandard
1000

1000

  0
LAYER
  5
4E9
330
2
100
AcDbSymbolTableRecord
100
AcDbLayerTableRecord
  2
图层2细线
 70
     0
 62
     3
  6
Continuous
370
    -3
390
F
1001
AcAecLayerStandard
1000

1000

  0
LAYER
  5
4EA
330
2
100
AcDbSymbolTableRecord
100
AcDbLayerTableRecord
  2
图框线
 70
     0
 62
     7
  6
Continuous
370
    13
390
F
1001
AcAecLayerStandard
1000

1000

  0
LAYER
  5
4EB
330
2
100
AcDbSymbolTableRecord
100
AcDbLayerTableRecord
  2
图层 1
 70
     0
 62
     7
  6
Continuous
370
    -3
390
F
  0
LAYER
  5
112F
330
2
100
AcDbSymbolTableRecord
100
AcDbLayerTableRecord
  2
图层1
 70
     0
 62
     7
  6
DASHED
370
    25
390
F
1001
AcAecLayerStandard
1000

1000

  0
LAYER
  5
121D
330
2
100
AcDbSymbolTableRecord
100
AcDbLayerTableRecord
  2
虚线
 70
     0
 62
     2
  6
ACAD_ISO02W100
370
    15
390
F
1001
AcAecLayerStandard
1000

1000

  0
LAYER
  5
121E
330
2
100
AcDbSymbolTableRecord
100
AcDbLayerTableRecord
  2
剖切线
 70
     0
 62
   241
  6
Continuous
370
    15
390
F
1001
AcAecLayerStandard
1000

1000

  0
LAYER
  5
3D01
330
2
100
AcDbSymbolTableRecord
100
AcDbLayerTableRecord
  2
Layer 1
 70
     0
 62
     7
  6
Continuous
370
    -3
390
F
  0
LAYER
  5
46AF
330
2
100
AcDbSymbolTableRecord
100
AcDbLayerTableRecord
  2
LABEL
 70
     0
 62
     7
  6
Continuous
370
    -3
390
F
  0
ENDTAB
  0
TABLE
  2
STYLE
  5
3
330
0
100
AcDbSymbolTable
 70
     5
  0
STYLE
  5
11
330
3
100
AcDbSymbolTableRecord
100
AcDbTextStyleTableRecord
  2
Standard
 70
     0
 40
0.0
 41
1.0
 50
0.0
 71
     0
 42
0.2
  3
txt
  4

  0
STYLE
  5
5A
330
3
100
AcDbSymbolTableRecord
100
AcDbTextStyleTableRecord
  2
样式 8
 70
     0
 40
10.0
 41
0.7
 50
0.0
 71
     0
 42
10.0
  3
txt.shx
  4
gbcbig.shx
  0
STYLE
  5
117
330
3
100
AcDbSymbolTableRecord
100
AcDbTextStyleTableRecord
  2
样式 1
 70
     0
 40
5.0
 41
1.0
 50
0.0
 71
     0
 42
5.0
  3
txt.shx
  4
gbcbig.shx
  0
STYLE
  5
356
330
3
100
AcDbSymbolTableRecord
100
AcDbTextStyleTableRecord
  2
样式 2
 70
     0
 40
0.0
 41
0.35
 50
0.0
 71
     0
 42
2.5
  3
txt.shx
  4
gbcbig.shx
  0
STYLE
  5
4E6
330
3
100
AcDbSymbolTableRecord
100
AcDbTextStyleTableRecord
  2
样式 3
 70
     0
 40
3.5
 41
0.7
 50
0.0
 71
     0
 42
5.0
  3
txt.shx
  4
gbcbig.shx
  0
ENDTAB
  0
TABLE
  2
VIEW
  5
6
330
0
100
AcDbSymbolTable
 70
     0
  0
ENDTAB
  0
TABLE
  2
UCS
  5
7
330
0
100
AcDbSymbolTable
 70
     0
  0
ENDTAB
  0
TABLE
  2
APPID
  5
9
330
0
100
AcDbSymbolTable
 70
    55
  0
APPID
  5
12
330
9
100
AcDbSymbolTableRecord
100
AcDbRegAppTableRecord
  2
ACAD
 70
     0
  0
APPID
  5
3B
330
9
100
AcDbSymbolTableRecord
100
AcDbRegAppTableRecord
  2
ACAD_PSEXT
 70
     0
  0
APPID
  5
3C
330
9
100
AcDbSymbolTableRecord
100
AcDbRegAppTableRecord
  2
AcAecLayerStandard
 70
     0
  0
APPID
  5
3D
330
9
100
AcDbSymbolTableRecord
100
AcDbRegAppTableRecord
  2
ACAD_DSTYLE_DIMTEXT_FILL
 70
     0
  0
APPID
  5
3E
330
9
100
AcDbSymbolTableRecord
100
AcDbRegAppTableRecord
  2
DCO15
 70
     0
  0
APPID
  5
3F
330
9
100
AcDbSymbolTableRecord
100
AcDbRegAppTableRecord
  2
ACAD_DSTYLE_DIMEXT_LENGTH
 70
     0
  0
APPID
  5
40
330
9
100
AcDbSymbolTableRecord
100
AcDbRegAppTableRecord
  2
ACAD_DSTYLE_DIMEXT_ENABLED
 70
     0
  0
APPID
  5
41
330
9
100
AcDbSymbolTableRecord
100
AcDbRegAppTableRecord
  2
ACAD_DSTYLE_DIM_LINETYPE
 70
     0
  0
APPID
  5
42
330
9
100
AcDbSymbolTableRecord
100
AcDbRegAppTableRecord
  2
ACAD_DSTYLE_DIM_EXT1_LINETYPE
 70
     0
  0
APPID
  5
43
330
9
100
AcDbSymbolTableRecord
100
AcDbRegAppTableRecord
  2
ACAD_DSTYLE_DIM_EXT2_LINETYPE
 70
     0
  0
APPID
  5
44
330
9
100
AcDbSymbolTableRecord
100
AcDbRegAppTableRecord
  2
ACAD_EXEMPT_FROM_CAD_STANDARDS
 70
     0
  0
APPID
  5
45
330
9
100
AcDbSymbolTableRecord
100
AcDbRegAppTableRecord
  2
AcadAnnoPO
 70
     0
  0
APPID
  5
46
330
9
100
AcDbSymbolTableRecord
100
AcDbRegAppTableRecord
  2
AcadAnnotative
 70
     0
  0
APPID
  5
47
330
9
100
AcDbSymbolTableRecord
100
AcDbRegAppTableRecord
  2
ACAD_DSTYLE_DIMJAG
 70
     0
  0
APPID
  5
48
330
9
100
AcDbSymbolTableRecord
100
AcDbRegAppTableRecord
  2
ACAD_DSTYLE_DIMTALN
 70
     0
  0
APPID
  5
49
330
9
100
AcDbSymbolTableRecord
100
AcDbRegAppTableRecord
  2
ACAD_MLEADERVER
 70
     0
  0
APPID
  5
4A
330
9
100
AcDbSymbolTableRecord
100
AcDbRegAppTableRecord
  2
ACAD_DSTYLE_DIMRADIAL_EXTENSION
 70
     0
  0
APPID
  5
4B
330
9
100
AcDbSymbolTableRecord
100
AcDbRegAppTableRecord
  2
ACAD_DSTYLE_DIMBREAK
 70
     0
  0
APPID
  5
4C
330
9
100
AcDbSymbolTableRecord
100
AcDbRegAppTableRecord
  2
ACAD_DSTYLE_DIMARC_LENGTH_SYMBOL
 70
     0
  0
APPID
  5
4D
330
9
100
AcDbSymbolTableRecord
100
AcDbRegAppTableRecord
  2
ACAD_DSTYLE_DIMJOGGED_JOGANGLE_SYMBOL
 70
     0
  0
APPID
  5
4E
330
9
100
AcDbSymbolTableRecord
100
AcDbRegAppTableRecord
  2
MCAD_NO_VIS
 70
     0
  0
APPID
  5
4F
330
9
100
AcDbSymbolTableRecord
100
AcDbRegAppTableRecord
  2
ACAD_TEMP_GRAPHIC
 70
     0
  0
APPID
  5
50
330
9
100
AcDbSymbolTableRecord
100
AcDbRegAppTableRecord
  2
AD_DRAW
 70
     0
  0
APPID
  5
51
330
9
100
AcDbSymbolTableRecord
100
AcDbRegAppTableRecord
  2
ACATTRIBSERVICES
 70
     0
  0
APPID
  5
52
330
9
100
AcDbSymbolTableRecord
100
AcDbRegAppTableRecord
  2
DESIGNERASSEMBLIES
 70
     0
  0
APPID
  5
53
330
9
100
AcDbSymbolTableRecord
100
AcDbRegAppTableRecord
  2
ACADM_DIM_EDIT
 70
     0
  0
APPID
  5
54
330
9
100
AcDbSymbolTableRecord
100
AcDbRegAppTableRecord
  2
AMDT_DM_ADJ
 70
     0
  0
APPID
  5
55
330
9
100
AcDbSymbolTableRecord
100
AcDbRegAppTableRecord
  2
GENIUS_GENODEF_13
 70
     0
  0
APPID
  5
56
330
9
100
AcDbSymbolTableRecord
100
AcDbRegAppTableRecord
  2
GENIUS_GENOBJ-N-FIL_13
 70
     0
  0
APPID
  5
57
330
9
100
AcDbSymbolTableRecord
100
AcDbRegAppTableRecord
  2
ACAD_DIMASSOC_CALC_DIMLFAC
 70
     0
  0
APPID
  5
58
330
9
100
AcDbSymbolTableRecord
100
AcDbRegAppTableRecord
  2
ACAD_DIMASSOC_DIMLFAC
 70
     0
  0
APPID
  5
59
330
9
100
AcDbSymbolTableRecord
100
AcDbRegAppTableRecord
  2
ACAD_DIMASSOC_OVERRIDDEN_DIMLFAC
 70
     0
  0
APPID
  5
4E5
330
9
100
AcDbSymbolTableRecord
100
AcDbRegAppTableRecord
  2
CAXA
 70
     0
  0
APPID
  5
1BF7
330
9
100
AcDbSymbolTableRecord
100
AcDbRegAppTableRecord
  2
AVE_RENDER
 70
     0
  0
APPID
  5
1BF8
330
9
100
AcDbSymbolTableRecord
100
AcDbRegAppTableRecord
  2
AVE_ENTITY_MATERIAL
 70
     0
  0
APPID
  5
1BF9
330
9
100
AcDbSymbolTableRecord
100
AcDbRegAppTableRecord
  2
AVE_FINISH
 70
     0
  0
APPID
  5
1BFA
330
9
100
AcDbSymbolTableRecord
100
AcDbRegAppTableRecord
  2
AVE_MATERIAL
 70
     0
  0
APPID
  5
1BFB
330
9
100
AcDbSymbolTableRecord
100
AcDbRegAppTableRecord
  2
AVE_GLOBAL
 70
     0
  0
APPID
  5
1BFC
330
9
100
AcDbSymbolTableRecord
100
AcDbRegAppTableRecord
  2
GENIUS_GENBLLY_14
 70
     0
  0
APPID
  5
1BFD
330
9
100
AcDbSymbolTableRecord
100
AcDbRegAppTableRecord
  2
ODA
 70
     0
  0
APPID
  5
1BFE
330
9
100
AcDbSymbolTableRecord
100
AcDbRegAppTableRecord
  2
RAK
 70
     0
  0
APPID
  5
1BFF
330
9
100
AcDbSymbolTableRecord
100
AcDbRegAppTableRecord
  2
AcDbDynamicBlockGUID
 70
     0
  0
APPID
  5
1C00
330
9
100
AcDbSymbolTableRecord
100
AcDbRegAppTableRecord
  2
AcDbBlockRepETag
 70
     0
  0
APPID
  5
1C01
330
9
100
AcDbSymbolTableRecord
100
AcDbRegAppTableRecord
  2
ACAUTHENVIRON
 70
     0
  0
APPID
  5
1C02
330
9
100
AcDbSymbolTableRecord
100
AcDbRegAppTableRecord
  2
AcDbDynamicBlockTrueName
 70
     0
  0
APPID
  5
4097
330
9
100
AcDbSymbolTableRecord
100
AcDbRegAppTableRecord
  2
AcDbAttr
 70
     0
  0
APPID
  5
4098
330
9
100
AcDbSymbolTableRecord
100
AcDbRegAppTableRecord
  2
AcDbBlockRepBTag
 70
     0
  0
APPID
  5
45F4
330
9
100
AcDbSymbolTableRecord
100
AcDbRegAppTableRecord
  2
AcadStringInfo
 70
     0
  0
APPID
  5
4894
330
9
100
AcDbSymbolTableRecord
100
AcDbRegAppTableRecord
  2
ACAD_NAV_VCDISPLAY
 70
     0
  0
APPID
  5
4895
330
9
100
AcDbSymbolTableRecord
100
AcDbRegAppTableRecord
  2
ACAD_DSTYLE_DIMANGULAR_EXT
 70
     0
  0
APPID
  5
4896
330
9
100
AcDbSymbolTableRecord
100
AcDbRegAppTableRecord
  2
ACAD_DSTYLE_DIMFLIPARROW_W
 70
     0
  0
APPID
  5
4897
330
9
100
AcDbSymbolTableRecord
100
AcDbRegAppTableRecord
  2
ACAD_DSTYLE_DIMJOGGED_JOGA
 70
     0
  0
APPID
  5
4898
330
9
100
AcDbSymbolTableRecord
100
AcDbRegAppTableRecord
  2
ACAD_DSTYLE_DIMINSPECT
 70
     0
  0
APPID
  5
4899
330
9
100
AcDbSymbolTableRecord
100
AcDbRegAppTableRecord
  2
GENIUS_GENOREF_13
 70
     0
  0
APPID
  5
489A
330
9
100
AcDbSymbolTableRecord
100
AcDbRegAppTableRecord
  2
ACADANNOMONITORALERTICONDI
 70
     0
  0
ENDTAB
  0
TABLE
  2
DIMSTYLE
  5
A
330
0
100
AcDbSymbolTable
 70
     6
100
AcDbDimStyleTable
 71
     1
340
25
  0
DIMSTYLE
105
25
330
A
100
AcDbSymbolTableRecord
100
AcDbDimStyleTableRecord
  2
Standard
 70
     0
340
11
  0
DIMSTYLE
105
60
330
A
100
AcDbSymbolTableRecord
100
AcDbDimStyleTableRecord
  2
副本 (3) ISO-25 4
 70
     0
 41
14.0
 42
0.0
 43
10.0
 44
6.0
 73
     0
 74
     0
 77
     1
 78
     8
140
20.0
141
7.5
143
0.03937007874016
147
1.5
171
     3
172
     1
271
     1
272
     1
274
     3
283
     0
284
     8
340
11
  0
DIMSTYLE
105
119
330
A
100
AcDbSymbolTableRecord
100
AcDbDimStyleTableRecord
  2
副本 ISO-25
 70
     0
 41
12.0
 42
0.0
 43
10.0
 44
5.0
 73
     0
 74
     0
 77
     1
 78
     8
140
18.0
141
1.5
143
0.03937007874016
147
1.5
171
     3
172
     1
271
     1
272
     1
274
     3
278
    44
283
     0
284
     8
340
11
  0
DIMSTYLE
105
359
330
A
100
AcDbSymbolTableRecord
100
AcDbDimStyleTableRecord
  2
ISO-25
 70
     0
 41
17.0
 42
3.0
 43
3.75
 44
1.25
 73
     0
 77
     1
 78
     8
140
19.0
141
80.0
143
0.03937007874016
147
7.0
170
     1
171
     3
172
     1
271
     2
272
     2
273
     7
274
     3
283
     0
284
     8
340
11
  0
DIMSTYLE
105
4EC
330
A
100
AcDbSymbolTableRecord
100
AcDbDimStyleTableRecord
  2
英寸
 70
     0
 41
12.0
 42
0.0
 43
10.0
 44
3.75
 73
     0
 74
     0
 77
     1
 78
     8
140
16.0
141
7.5
143
0.03937007874016
147
2.0
170
     1
171
     3
172
     1
179
     1
271
     1
272
     1
273
     7
274
     3
283
     0
284
     8
340
11
  0
DIMSTYLE
105
468D
330
A
100
AcDbSymbolTableRecord
100
AcDbDimStyleTableRecord
  2
LXF
 70
     0
 41
18.0
 42
0.0
 43
10.0
 44
2.5
 73
     0
 74
     0
 77
     1
 78
     8
140
20.0
141
0.0
143
0.03937007874016
147
3.0
171
     3
172
     1
178
     6
179
     1
271
     1
272
     1
274
     3
283
     0
284
     8
340
11
  0
ENDTAB
  0
TABLE
  2
BLOCK_RECORD
  5
1
330
0
100
AcDbSymbolTable
 70
    42
  0
BLOCK_RECORD
  5
1F
330
1
100
AcDbSymbolTableRecord
100
AcDbBlockTableRecord
  2
*Model_Space
340
22
  0
BLOCK_RECORD
  5
1B
330
1
100
AcDbSymbolTableRecord
100
AcDbBlockTableRecord
  2
*Paper_Space
340
1E
  0
BLOCK_RECORD
  5
23
330
1
100
AcDbSymbolTableRecord
100
AcDbBlockTableRecord
  2
*Paper_Space0
340
24
  0
BLOCK_RECORD
  5
3D85
330
1
100
AcDbSymbolTableRecord
100
AcDbBlockTableRecord
  2
WMF0
340
0
  0
BLOCK_RECORD
  5
3E4E
330
1
100
AcDbSymbolTableRecord
100
AcDbBlockTableRecord
  2
AN-3206 drawing
340
0
  0
BLOCK_RECORD
  5
41C7
330
1
100
AcDbSymbolTableRecord
100
AcDbBlockTableRecord
  2
*D3
340
0
  0
BLOCK_RECORD
  5
41D5
330
1
100
AcDbSymbolTableRecord
100
AcDbBlockTableRecord
  2
*D4
340
0
  0
BLOCK_RECORD
  5
41E3
330
1
100
AcDbSymbolTableRecord
100
AcDbBlockTableRecord
  2
*D5
340
0
  0
BLOCK_RECORD
  5
41F1
330
1
100
AcDbSymbolTableRecord
100
AcDbBlockTableRecord
  2
*D6
340
0
  0
BLOCK_RECORD
  5
41FF
330
1
100
AcDbSymbolTableRecord
100
AcDbBlockTableRecord
  2
*D7
340
0
  0
BLOCK_RECORD
  5
420D
330
1
100
AcDbSymbolTableRecord
100
AcDbBlockTableRecord
  2
*D8
340
0
  0
BLOCK_RECORD
  5
421E
330
1
100
AcDbSymbolTableRecord
100
AcDbBlockTableRecord
  2
*D9
340
0
  0
BLOCK_RECORD
  5
422F
330
1
100
AcDbSymbolTableRecord
100
AcDbBlockTableRecord
  2
*D10
340
0
  0
BLOCK_RECORD
  5
42F0
330
1
100
AcDbSymbolTableRecord
100
AcDbBlockTableRecord
  2
*D11
340
0
  0
BLOCK_RECORD
  5
42FC
330
1
100
AcDbSymbolTableRecord
100
AcDbBlockTableRecord
  2
*D12
340
0
  0
BLOCK_RECORD
  5
4308
330
1
100
AcDbSymbolTableRecord
100
AcDbBlockTableRecord
  2
*D13
340
0
  0
BLOCK_RECORD
  5
4314
330
1
100
AcDbSymbolTableRecord
100
AcDbBlockTableRecord
  2
*D14
340
0
  0
BLOCK_RECORD
  5
4320
330
1
100
AcDbSymbolTableRecord
100
AcDbBlockTableRecord
  2
*D15
340
0
  0
BLOCK_RECORD
  5
432C
330
1
100
AcDbSymbolTableRecord
100
AcDbBlockTableRecord
  2
*D16
340
0
  0
BLOCK_RECORD
  5
4338
330
1
100
AcDbSymbolTableRecord
100
AcDbBlockTableRecord
  2
*D17
340
0
  0
BLOCK_RECORD
  5
4347
330
1
100
AcDbSymbolTableRecord
100
AcDbBlockTableRecord
  2
*D18
340
0
  0
BLOCK_RECORD
  5
4411
330
1
100
AcDbSymbolTableRecord
100
AcDbBlockTableRecord
  2
*D19
340
0
  0
BLOCK_RECORD
  5
441D
330
1
100
AcDbSymbolTableRecord
100
AcDbBlockTableRecord
  2
*D20
340
0
  0
BLOCK_RECORD
  5
4429
330
1
100
AcDbSymbolTableRecord
100
AcDbBlockTableRecord
  2
*D21
340
0
  0
BLOCK_RECORD
  5
4435
330
1
100
AcDbSymbolTableRecord
100
AcDbBlockTableRecord
  2
*D22
340
0
  0
BLOCK_RECORD
  5
4441
330
1
100
AcDbSymbolTableRecord
100
AcDbBlockTableRecord
  2
*D23
340
0
  0
BLOCK_RECORD
  5
444D
330
1
100
AcDbSymbolTableRecord
100
AcDbBlockTableRecord
  2
*D24
340
0
  0
BLOCK_RECORD
  5
4679
330
1
100
AcDbSymbolTableRecord
100
AcDbBlockTableRecord
  2
*D25
340
0
  0
BLOCK_RECORD
  5
4689
330
1
100
AcDbSymbolTableRecord
100
AcDbBlockTableRecord
  2
*D26
340
0
  0
BLOCK_RECORD
  5
4998
330
1
100
AcDbSymbolTableRecord
100
AcDbBlockTableRecord
  2
*D27
340
0
  0
BLOCK_RECORD
  5
49DA
330
1
100
AcDbSymbolTableRecord
100
AcDbBlockTableRecord
  2
*D28
340
0
  0
BLOCK_RECORD
  5
49FC
330
1
100
AcDbSymbolTableRecord
100
AcDbBlockTableRecord
  2
*D29
340
0
  0
BLOCK_RECORD
  5
4BE2
330
1
100
AcDbSymbolTableRecord
100
AcDbBlockTableRecord
  2
*D30
340
0
  0
BLOCK_RECORD
  5
4BFC
330
1
100
AcDbSymbolTableRecord
100
AcDbBlockTableRecord
  2
*D31
340
0
  0
BLOCK_RECORD
  5
4C1C
330
1
100
AcDbSymbolTableRecord
100
AcDbBlockTableRecord
  2
*D32
340
0
  0
BLOCK_RECORD
  5
4C5A
330
1
100
AcDbSymbolTableRecord
100
AcDbBlockTableRecord
  2
*D33
340
0
  0
BLOCK_RECORD
  5
4D2A
330
1
100
AcDbSymbolTableRecord
100
AcDbBlockTableRecord
  2
*D34
340
0
  0
BLOCK_RECORD
  5
4D38
330
1
100
AcDbSymbolTableRecord
100
AcDbBlockTableRecord
  2
*D35
340
0
  0
BLOCK_RECORD
  5
4D46
330
1
100
AcDbSymbolTableRecord
100
AcDbBlockTableRecord
  2
*D36
340
0
  0
BLOCK_RECORD
  5
4D52
330
1
100
AcDbSymbolTableRecord
100
AcDbBlockTableRecord
  2
*D37
340
0
  0
BLOCK_RECORD
  5
4D5E
330
1
100
AcDbSymbolTableRecord
100
AcDbBlockTableRecord
  2
*D38
340
0
  0
BLOCK_RECORD
  5
4D6A
330
1
100
AcDbSymbolTableRecord
100
AcDbBlockTableRecord
  2
*D39
340
0
  0
BLOCK_RECORD
  5
4D76
330
1
100
AcDbSymbolTableRecord
100
AcDbBlockTableRecord
  2
*D40
340
0
  0
BLOCK_RECORD
  5
4D82
330
1
100
AcDbSymbolTableRecord
100
AcDbBlockTableRecord
  2
*D41
340
0
  0
ENDTAB
  0
ENDSEC
  0
SECTION
  2
BLOCKS
  0
BLOCK
  5
20
330
1F
100
AcDbEntity
  8
0
100
AcDbBlockBegin
  2
*Model_Space
 70
     0
 10
0.0
 20
0.0
 30
0.0
  3
*Model_Space
  1

  0
ENDBLK
  5
21
330
1F
100
AcDbEntity
  8
0
100
AcDbBlockEnd
  0
BLOCK
  5
1C
330
1B
100
AcDbEntity
 67
     1
  8
0
100
AcDbBlockBegin
  2
*Paper_Space
 70
     0
 10
0.0
 20
0.0
 30
0.0
  3
*Paper_Space
  1

  0
ENDBLK
  5
1D
330
1B
100
AcDbEntity
 67
     1
  8
0
100
AcDbBlockEnd
  0
BLOCK
  5
39
330
23
100
AcDbEntity
 67
     1
  8
0
100
AcDbBlockBegin
  2
*Paper_Space0
 70
     0
 10
0.0
 20
0.0
 30
0.0
  3
*Paper_Space0
  1

  0
ENDBLK
  5
3A
330
23
100
AcDbEntity
 67
     1
  8
0
100
AcDbBlockEnd
  0
BLOCK
  5
3D86
330
3D85
100
AcDbEntity
  8
0
100
AcDbBlockBegin
  2
WMF0
 70
     0
 10
0.0
 20
0.0
 30
0.0
  3
WMF0
  1

  0
LWPOLYLINE
  5
3D77
330
3D85
100
AcDbEntity
  8
0
 62
     7
370
     0
100
AcDbPolyline
 90
       75
 70
     1
 43
0.0
 10
443.938630618862
 20
2020.315222057084
 10
453.9792458509528
 20
2020.315222057084
 10
459.7167402692901
 20
2005.97148601124
 10
459.7167402692901
 20
2005.97148601124
 10
486.9698387563933
 20
1944.293421014112
 10
503.4651352091136
 20
1907.716894097211
 10
509.9198164297432
 20
1894.807531655951
 10
513.5057504412039
 20
1886.918476830737
 10
513.5057504412039
 20
1886.918476830737
 10
515.6573108480805
 20
1884.766916423861
 10
517.8088712549572
 20
1883.332542819276
 10
519.9604316618338
 20
1881.898169214692
 10
522.8291788710023
 20
1881.898169214692
 10
522.8291788710023
 20
1881.898169214692
 10
524.980739277879
 20
1881.1809824124
 10
527.1322996847556
 20
1881.1809824124
 10
527.8494864870475
 20
1880.463795610108
 10
527.8494864870475
 20
1879.029422005523
 10
527.8494864870475
 20
1876.160674796355
 10
527.8494864870475
 20
1876.160674796355
 10
527.8494864870475
 20
1874.72630119177
 10
527.1322996847556
 20
1874.009114389478
 10
524.980739277879
 20
1873.291927587186
 10
468.3229818967965
 20
1873.291927587186
 10
468.3229818967965
 20
1873.291927587186
 10
467.6057950945041
 20
1874.009114389478
 10
466.1714214899197
 20
1876.160674796355
 10
466.8886082922121
 20
1879.746608807815
 10
466.8886082922121
 20
1879.746608807815
 10
467.6057950945041
 20
1881.1809824124
 10
468.3229818967965
 20
1881.898169214692
 10
474.777663117426
 20
1881.898169214692
 10
474.777663117426
 20
1881.898169214692
 10
479.0807839311792
 20
1881.898169214692
 10
482.6667179426401
 20
1883.332542819276
 10
484.8182783495166
 20
1885.484103226153
 10
485.5354651518085
 20
1889.070037237614
 10
485.5354651518085
 20
1889.070037237614
 10
484.8182783495166
 20
1892.655971249075
 10
482.6667179426401
 20
1898.393465667412
 10
474.0604763151337
 20
1919.909069736178
 10
410.9480377134216
 20
1919.909069736178
 10
400.9074224813311
 20
1894.807531655951
 10
400.9074224813311
 20
1894.807531655951
 10
400.1902356790387
 20
1891.938784446782
 10
399.4730488767467
 20
1889.070037237614
 10
399.4730488767467
 20
1889.070037237614
 10
400.1902356790387
 20
1886.201290028445
 10
402.3417960859155
 20
1883.332542819276
 10
405.2105432950843
 20
1881.898169214692
 10
409.513664108837
 20
1881.898169214692
 10
415.2511585271748
 20
1881.898169214692
 10
415.2511585271748
 20
1881.898169214692
 10
416.6855321317592
 20
1881.1809824124
 10
417.402718934051
 20
1879.029422005523
 10
417.402718934051
 20
1875.443487994061
 10
417.402718934051
 20
1875.443487994061
 10
416.6855321317592
 20
1874.009114389478
 10
415.968345329467
 20
1873.291927587186
 10
368.6340163781828
 20
1873.291927587186
 10
368.6340163781828
 20
1873.291927587186
 10
367.1996427735985
 20
1874.009114389478
 10
366.4824559713063
 20
1876.160674796355
 10
366.4824559713063
 20
1879.746608807815
 10
366.4824559713063
 20
1879.746608807815
 10
367.1996427735985
 20
1881.1809824124
 10
368.6340163781828
 20
1881.898169214692
 10
368.6340163781828
 20
1881.898169214692
 10
373.6543239942282
 20
1881.898169214692
 10
375.8058844011046
 20
1882.615356016984
 10
377.9574448079813
 20
1884.049729621569
 10
380.1090052148578
 20
1886.201290028445
 10
382.2605656217344
 20
1889.787224039906
 10
388.715246842364
 20
1901.262212876581
 10
443.938630618862
 20
2020.315222057084
  0
LWPOLYLINE
  5
3D78
330
3D85
100
AcDbEntity
  8
0
 62
     7
370
     0
100
AcDbPolyline
 90
        4
 70
     1
 43
0.0
 10
443.22144381657
 20
1993.062123569981
 10
414.5339717248825
 20
1928.515311363684
 10
470.474542303673
 20
1928.515311363684
 10
443.22144381657
 20
1993.062123569981
  0
LWPOLYLINE
  5
3D79
330
3D85
100
AcDbEntity
  8
0
 62
     7
370
     0
100
AcDbPolyline
 90
      104
 70
     1
 43
0.0
 10
703.5602530486328
 20
2011.708980429578
 10
703.5602530486328
 20
2011.708980429578
 10
702.8430662463407
 20
2010.274606824993
 10
702.1258794440488
 20
2010.274606824993
 10
697.8227586302955
 20
2009.557420022701
 10
697.8227586302955
 20
2009.557420022701
 10
692.8024510142502
 20
2009.557420022701
 10
688.499330200497
 20
2009.557420022701
 10
685.6305829913281
 20
2008.123046418117
 10
683.4790225844519
 20
2006.688672813532
 10
682.7618357821595
 20
2003.819925604364
 10
682.0446489798674
 20
1999.51680479061
 10
682.0446489798674
 20
1985.173068744767
 10
682.0446489798674
 20
1874.009114389478
 10
682.0446489798674
 20
1874.009114389478
 10
681.327462177575
 20
1872.574740784894
 10
679.8930885729909
 20
1871.857553982601
 10
671.2868469454847
 20
1871.857553982601
 10
655.5087372950564
 20
1894.090344853659
 10
592.3962986933442
 20
1975.849640314968
 10
592.3962986933442
 20
1975.849640314968
 10
583.7900570658381
 20
1986.607442349351
 10
575.1838154383317
 20
1995.213683976857
 10
575.1838154383317
 20
1912.020014910964
 10
575.1838154383317
 20
1912.020014910964
 10
575.9010022406243
 20
1894.807531655951
 10
576.6181890429162
 20
1889.787224039906
 10
578.0525626475007
 20
1885.484103226153
 10
580.204123054377
 20
1883.332542819276
 10
583.0728702635457
 20
1881.898169214692
 10
587.375991077299
 20
1881.1809824124
 10
593.1134854956366
 20
1881.1809824124
 10
593.1134854956366
 20
1881.1809824124
 10
598.1337931116819
 20
1881.1809824124
 10
598.850979913974
 20
1880.463795610108
 10
598.850979913974
 20
1879.029422005523
 10
598.850979913974
 20
1874.72630119177
 10
598.850979913974
 20
1874.72630119177
 10
598.850979913974
 20
1874.009114389478
 10
597.4166063093897
 20
1873.291927587186
 10
542.9104093351837
 20
1873.291927587186
 10
542.9104093351837
 20
1873.291927587186
 10
541.4760357305993
 20
1873.291927587186
 10
541.4760357305993
 20
1874.009114389478
 10
540.7588489283069
 20
1875.443487994061
 10
540.7588489283069
 20
1875.443487994061
 10
540.7588489283069
 20
1879.029422005523
 10
541.4760357305993
 20
1880.463795610108
 10
542.1932225328913
 20
1881.1809824124
 10
544.344782939768
 20
1881.1809824124
 10
544.344782939768
 20
1881.1809824124
 10
550.0822773581054
 20
1881.1809824124
 10
554.3853981718585
 20
1881.898169214692
 10
557.9713321833194
 20
1882.615356016984
 10
560.1228925901961
 20
1884.049729621569
 10
562.2744529970724
 20
1886.918476830737
 10
562.9916397993647
 20
1890.504410842198
 10
563.708826601657
 20
1895.524718458243
 10
563.708826601657
 20
1901.979399678873
 10
563.708826601657
 20
1985.173068744767
 10
563.708826601657
 20
1985.173068744767
 10
563.708826601657
 20
1998.799617988318
 10
562.9916397993647
 20
2003.102738802072
 10
561.5572661947805
 20
2005.97148601124
 10
559.4057057879039
 20
2008.123046418117
 10
556.5369585787351
 20
2008.840233220409
 10
552.2338377649821
 20
2009.557420022701
 10
546.4963433466444
 20
2009.557420022701
 10
546.4963433466444
 20
2009.557420022701
 10
542.1932225328913
 20
2010.274606824993
 10
541.4760357305993
 20
2010.991793627285
 10
540.7588489283069
 20
2011.708980429578
 10
540.7588489283069
 20
2011.708980429578
 10
541.4760357305993
 20
2016.729288045623
 10
541.4760357305993
 20
2017.446474847915
 10
542.1932225328913
 20
2017.446474847915
 10
587.375991077299
 20
2017.446474847915
 10
587.375991077299
 20
2017.446474847915
 10
600.2853535185582
 20
1999.51680479061
 10
651.9228032835957
 20
1932.101245375145
 10
651.9228032835957
 20
1932.101245375145
 10
669.8524733409002
 20
1909.868454504087
 10
669.8524733409002
 20
1985.173068744767
 10
669.8524733409002
 20
1985.173068744767
 10
669.8524733409002
 20
1999.51680479061
 10
668.4180997363157
 20
2003.819925604364
 10
666.9837261317316
 20
2006.688672813532
 10
664.8321657248549
 20
2008.123046418117
 10
661.2462317133941
 20
2009.557420022701
 10
656.943110899641
 20
2009.557420022701
 10
651.2056164813035
 20
2009.557420022701
 10
651.2056164813035
 20
2009.557420022701
 10
646.185308865258
 20
2010.274606824993
 10
645.468122062966
 20
2010.991793627285
 10
645.468122062966
 20
2011.708980429578
 10
645.468122062966
 20
2016.01210124333
 10
645.468122062966
 20
2016.01210124333
 10
646.185308865258
 20
2017.446474847915
 10
648.3368692721348
 20
2017.446474847915
 10
701.4086926417563
 20
2017.446474847915
 10
701.4086926417563
 20
2017.446474847915
 10
702.8430662463407
 20
2016.729288045623
 10
703.5602530486328
 20
2016.01210124333
 10
703.5602530486328
 20
2011.708980429578
  0
LWPOLYLINE
  5
3D7A
330
3D85
100
AcDbEntity
  8
0
 62
     7
370
     0
100
AcDbPolyline
 90
      122
 70
     1
 43
0.0
 10
831.2195038566416
 20
1971.546519501215
 10
831.2195038566416
 20
1971.546519501215
 10
829.7851302520575
 20
1972.263706303508
 10
829.0679434497651
 20
1972.980893105799
 10
828.350756647473
 20
1976.566827117261
 10
828.350756647473
 20
1976.566827117261
 10
826.9163830428889
 20
1983.738695140182
 10
824.04763583372
 20
1990.910563163104
 10
820.461701822259
 20
1996.648057581441
 10
815.4413942062134
 20
2001.668365197487
 10
809.7038997878765
 20
2005.97148601124
 10
803.9664053695387
 20
2009.557420022701
 10
797.5117241489091
 20
2010.991793627285
 10
790.3398561259872
 20
2011.708980429578
 10
790.3398561259872
 20
2011.708980429578
 10
785.319548509942
 20
2011.708980429578
 10
780.2992408938968
 20
2010.991793627285
 10
775.9961200801434
 20
2009.557420022701
 10
770.9758124640982
 20
2007.405859615825
 10
766.6726916503453
 20
2005.254299208948
 10
763.0867576388842
 20
2001.668365197487
 10
759.5008236274233
 20
1998.799617988318
 10
755.9148896159626
 20
1994.496497174565
 10
753.0461424067937
 20
1990.193376360812
 10
750.1773951976248
 20
1985.173068744767
 10
748.0258347907485
 20
1980.152761128722
 10
745.8742743838719
 20
1975.132453512676
 10
744.4399007792875
 20
1969.394959094339
 10
743.7227139769952
 20
1962.940277873709
 10
743.005527174703
 20
1956.485596653079
 10
742.2883403724107
 20
1950.030915432449
 10
742.2883403724107
 20
1950.030915432449
 10
743.005527174703
 20
1942.859047409528
 10
743.7227139769952
 20
1936.404366188898
 10
744.4399007792875
 20
1929.949684968268
 10
746.5914611861641
 20
1924.212190549931
 10
748.7430215930403
 20
1917.757509329301
 10
750.8945819999171
 20
1912.737201713255
 10
753.7633292090859
 20
1907.716894097211
 10
756.6320764182546
 20
1902.696586481164
 10
760.2180104297156
 20
1899.110652469704
 10
763.8039444411766
 20
1894.807531655951
 10
768.1070652549292
 20
1891.938784446782
 10
772.4101860686827
 20
1889.070037237614
 10
777.4304936847279
 20
1886.918476830737
 10
781.7336144984807
 20
1885.484103226153
 10
787.4711089168187
 20
1884.049729621569
 10
792.4914165328639
 20
1884.049729621569
 10
792.4914165328639
 20
1884.049729621569
 10
797.5117241489091
 20
1884.049729621569
 10
802.5320317649542
 20
1885.484103226153
 10
806.8351525787074
 20
1886.918476830737
 10
811.8554601947527
 20
1888.352850435322
 10
816.1585810085059
 20
1890.504410842198
 10
820.461701822259
 20
1893.373158051367
 10
824.04763583372
 20
1896.959092062828
 10
827.6335698451806
 20
1900.545026074289
 10
827.6335698451806
 20
1900.545026074289
 10
829.7851302520575
 20
1903.413773283457
 10
831.2195038566416
 20
1904.13096008575
 10
831.936690658934
 20
1903.413773283457
 10
836.2398114726872
 20
1900.545026074289
 10
836.2398114726872
 20
1900.545026074289
 10
836.9569982749792
 20
1900.545026074289
 10
836.9569982749792
 20
1899.110652469704
 10
836.9569982749792
 20
1899.110652469704
 10
836.2398114726872
 20
1896.959092062828
 10
834.0882510658106
 20
1893.373158051367
 10
829.7851302520575
 20
1888.352850435322
 10
824.7648226360123
 20
1883.332542819276
 10
816.8757678107981
 20
1879.029422005523
 10
812.572646997045
 20
1876.877861598647
 10
808.269526183292
 20
1874.72630119177
 10
802.5320317649542
 20
1872.574740784894
 10
796.7945373466168
 20
1871.857553982601
 10
790.3398561259872
 20
1871.140367180309
 10
783.8851749053576
 20
1870.423180378017
 10
783.8851749053576
 20
1870.423180378017
 10
776.7133068824358
 20
1871.140367180309
 10
770.2586256618062
 20
1871.857553982601
 10
763.8039444411766
 20
1873.291927587186
 10
757.3492632205467
 20
1876.160674796355
 10
751.6117688022093
 20
1879.029422005523
 10
746.5914611861641
 20
1882.615356016984
 10
741.5711535701185
 20
1886.201290028445
 10
736.5508459540732
 20
1891.221597644491
 10
732.2477251403204
 20
1896.241905260536
 10
728.6617911288592
 20
1901.262212876581
 10
725.7930439196907
 20
1907.716894097211
 10
722.924296710522
 20
1914.17157531784
 10
720.7727363036451
 20
1920.62625653847
 10
719.3383626990611
 20
1927.798124561392
 10
718.6211758967687
 20
1935.687179386606
 10
717.9039890944767
 20
1942.859047409528
 10
717.9039890944767
 20
1942.859047409528
 10
718.6211758967687
 20
1951.465289037034
 10
720.0555495013531
 20
1960.07153066454
 10
721.4899231059376
 20
1967.960585489754
 10
723.6414835128141
 20
1975.132453512676
 10
727.2274175242751
 20
1981.587134733306
 10
730.8133515357359
 20
1988.041815953935
 10
735.1164723494887
 20
1994.496497174565
 10
740.1367799655344
 20
1999.51680479061
 10
745.8742743838719
 20
2004.537112406656
 10
751.6117688022093
 20
2008.840233220409
 10
758.066450022839
 20
2012.42616723187
 10
765.2383180457608
 20
2015.294914441039
 10
773.1273728709749
 20
2017.446474847915
 10
781.0164276961886
 20
2019.598035254792
 10
789.622669323695
 20
2020.315222057084
 10
798.2289109512013
 20
2021.032408859376
 10
798.2289109512013
 20
2021.032408859376
 10
807.5523393809998
 20
2020.315222057084
 10
816.1585810085059
 20
2018.8808484525
 10
825.4820094383044
 20
2016.729288045623
 10
835.5226246703947
 20
2013.143354034162
 10
836.9569982749792
 20
1980.869947931014
 10
836.9569982749792
 20
1980.869947931014
 10
836.9569982749792
 20
1972.980893105799
 10
836.2398114726872
 20
1972.263706303508
 10
835.5226246703947
 20
1971.546519501215
 10
831.2195038566416
 20
1971.546519501215
  0
LWPOLYLINE
  5
3D7B
330
3D85
100
AcDbEntity
  8
0
 62
     7
370
     0
100
AcDbPolyline
 90
       70
 70
     1
 43
0.0
 10
998.3240287907207
 20
1946.444981420989
 10
998.3240287907207
 20
1946.444981420989
 10
997.6068419884287
 20
1938.555926595775
 10
996.8896551861362
 20
1930.66687177056
 10
994.7380947792597
 20
1922.777816945347
 10
992.5865343723835
 20
1916.323135724717
 10
989.7177871632147
 20
1909.151267701795
 10
986.1318531517538
 20
1902.696586481164
 10
981.8287323380003
 20
1896.959092062828
 10
977.5256115242475
 20
1891.938784446782
 10
972.5053039082022
 20
1886.918476830737
 10
966.7678094898647
 20
1882.615356016984
 10
961.0303150715273
 20
1879.029422005523
 10
954.5756338508978
 20
1876.160674796355
 10
947.4037658279755
 20
1874.009114389478
 10
940.2318978050541
 20
1871.857553982601
 10
933.060029782132
 20
1871.140367180309
 10
925.170974956918
 20
1870.423180378017
 10
925.170974956918
 20
1870.423180378017
 10
917.2819201317039
 20
1871.140367180309
 10
910.8272389110743
 20
1871.857553982601
 10
903.6553708881523
 20
1873.291927587186
 10
897.2006896675226
 20
1876.160674796355
 10
891.4631952491854
 20
1879.029422005523
 10
885.7257008308479
 20
1881.898169214692
 10
879.98820641251
 20
1886.201290028445
 10
875.6850855987572
 20
1890.504410842198
 10
871.3819647850042
 20
1895.524718458243
 10
867.0788439712511
 20
1901.262212876581
 10
864.2100967620821
 20
1906.999707294918
 10
861.3413495529135
 20
1913.454388515548
 10
859.1897891460366
 20
1919.909069736178
 10
857.7554155414526
 20
1927.0809377591
 10
856.3210419368683
 20
1934.969992584314
 10
856.3210419368683
 20
1942.141860607236
 10
856.3210419368683
 20
1942.141860607236
 10
856.3210419368683
 20
1950.748102234742
 10
857.7554155414526
 20
1958.637157059956
 10
859.1897891460366
 20
1966.52621188517
 10
861.3413495529135
 20
1973.698079908092
 10
864.2100967620821
 20
1980.869947931014
 10
867.7960307735432
 20
1987.324629151643
 10
872.0991515872963
 20
1993.062123569981
 10
877.1194592033417
 20
1998.799617988318
 10
882.1397668193869
 20
2003.819925604364
 10
887.8772612377243
 20
2008.123046418117
 10
893.6147556560619
 20
2011.708980429578
 10
900.0694368766916
 20
2014.577727638746
 10
907.2413048996134
 20
2017.446474847915
 10
914.4131729225353
 20
2018.8808484525
 10
922.302227747749
 20
2020.315222057084
 10
930.1912825729631
 20
2020.315222057084
 10
930.1912825729631
 20
2020.315222057084
 10
937.3631505958853
 20
2020.315222057084
 10
944.535018618807
 20
2018.8808484525
 10
951.7068866417288
 20
2017.446474847915
 10
958.1615678623585
 20
2015.294914441039
 10
963.8990622806959
 20
2012.42616723187
 10
969.6365566990337
 20
2008.840233220409
 10
974.6568643150787
 20
2004.537112406656
 10
979.6771719311239
 20
2000.233991592903
 10
983.980292744877
 20
1995.213683976857
 10
987.5662267563381
 20
1989.476189558519
 10
990.4349739655067
 20
1983.738695140182
 10
993.3037211746755
 20
1976.566827117261
 10
995.4552815815517
 20
1970.112145896631
 10
996.8896551861362
 20
1962.223091071417
 10
997.6068419884287
 20
1954.334036246203
 10
998.3240287907207
 20
1946.444981420989
 10
998.3240287907207
 20
1946.444981420989
  0
LWPOLYLINE
  5
3D7C
330
3D85
100
AcDbEntity
  8
0
 62
     7
370
     0
100
AcDbPolyline
 90
       68
 70
     1
 43
0.0
 10
881.4225800170945
 20
1945.727794618697
 10
881.4225800170945
 20
1945.727794618697
 10
881.4225800170945
 20
1938.555926595775
 10
882.1397668193869
 20
1931.384058572852
 10
883.5741404239714
 20
1924.929377352223
 10
885.0085140285557
 20
1918.474696131594
 10
886.44288763314
 20
1912.737201713255
 10
888.5944480400167
 20
1906.999707294918
 10
891.4631952491854
 20
1901.979399678873
 10
894.331942458354
 20
1896.959092062828
 10
897.2006896675226
 20
1893.373158051367
 10
900.7866236789835
 20
1889.787224039906
 10
905.0897444927368
 20
1886.201290028445
 10
908.6756785041977
 20
1883.332542819276
 10
912.9787993179505
 20
1881.898169214692
 10
917.999106933996
 20
1879.746608807815
 10
922.302227747749
 20
1879.029422005523
 10
927.3225353637942
 20
1879.029422005523
 10
927.3225353637942
 20
1879.029422005523
 10
932.3428429798395
 20
1879.029422005523
 10
937.3631505958853
 20
1879.746608807815
 10
941.6662714096382
 20
1881.1809824124
 10
945.9693922233913
 20
1883.332542819276
 10
950.2725130371443
 20
1886.201290028445
 10
953.8584470486052
 20
1889.070037237614
 10
957.4443810600664
 20
1892.655971249075
 10
960.3131282692347
 20
1896.959092062828
 10
963.1818754784037
 20
1901.262212876581
 10
966.0506226875723
 20
1906.282520492626
 10
968.202183094449
 20
1912.020014910964
 10
969.6365566990337
 20
1917.757509329301
 10
971.0709303036175
 20
1924.212190549931
 10
971.7881171059101
 20
1930.66687177056
 10
972.5053039082022
 20
1945.010607816404
 10
972.5053039082022
 20
1945.010607816404
 10
971.7881171059101
 20
1959.354343862248
 10
971.0709303036175
 20
1965.809025082878
 10
969.6365566990337
 20
1972.263706303508
 10
967.4849962921566
 20
1978.001200721845
 10
966.0506226875723
 20
1983.738695140182
 10
963.1818754784037
 20
1988.759002756227
 10
960.3131282692347
 20
1993.779310372273
 10
957.4443810600664
 20
1998.082431186026
 10
953.8584470486052
 20
2001.668365197487
 10
950.2725130371443
 20
2004.537112406656
 10
946.6865790256836
 20
2007.405859615825
 10
942.3834582119303
 20
2009.557420022701
 10
938.0803373981771
 20
2010.991793627285
 10
933.060029782132
 20
2012.42616723187
 10
928.0397221660866
 20
2012.42616723187
 10
928.0397221660866
 20
2012.42616723187
 10
923.0194145500414
 20
2012.42616723187
 10
917.999106933996
 20
2010.991793627285
 10
912.9787993179505
 20
2009.557420022701
 10
908.6756785041977
 20
2008.123046418117
 10
904.3725576904446
 20
2005.254299208948
 10
900.7866236789835
 20
2002.385551999779
 10
897.2006896675226
 20
1998.799617988318
 10
894.331942458354
 20
1994.496497174565
 10
891.4631952491854
 20
1990.193376360812
 10
888.5944480400167
 20
1985.173068744767
 10
886.44288763314
 20
1979.435574326429
 10
885.0085140285557
 20
1973.698079908092
 10
883.5741404239714
 20
1967.243398687462
 10
882.1397668193869
 20
1960.07153066454
 10
881.4225800170945
 20
1952.899662641618
 10
881.4225800170945
 20
1945.727794618697
 10
881.4225800170945
 20
1945.727794618697
  0
LWPOLYLINE
  5
3D7D
330
3D85
100
AcDbEntity
  8
0
 62
     7
370
     0
100
AcDbPolyline
 90
      104
 70
     1
 43
0.0
 10
1176.903542561475
 20
2011.708980429578
 10
1176.903542561475
 20
2011.708980429578
 10
1176.186355759182
 20
2010.274606824993
 10
1175.46916895689
 20
2010.274606824993
 10
1171.166048143137
 20
2009.557420022701
 10
1171.166048143137
 20
2009.557420022701
 10
1166.145740527092
 20
2009.557420022701
 10
1161.842619713339
 20
2009.557420022701
 10
1158.97387250417
 20
2008.123046418117
 10
1156.822312097293
 20
2006.688672813532
 10
1156.105125295001
 20
2003.819925604364
 10
1155.387938492709
 20
1999.51680479061
 10
1155.387938492709
 20
1985.173068744767
 10
1155.387938492709
 20
1874.009114389478
 10
1155.387938492709
 20
1874.009114389478
 10
1154.670751690417
 20
1872.574740784894
 10
1153.236378085833
 20
1871.857553982601
 10
1144.630136458326
 20
1871.857553982601
 10
1128.852026807898
 20
1894.090344853659
 10
1065.739588206186
 20
1975.849640314968
 10
1065.739588206186
 20
1975.849640314968
 10
1057.13334657868
 20
1986.607442349351
 10
1048.527104951173
 20
1995.213683976857
 10
1048.527104951173
 20
1912.020014910964
 10
1048.527104951173
 20
1912.020014910964
 10
1049.244291753466
 20
1894.807531655951
 10
1049.961478555758
 20
1889.787224039906
 10
1051.395852160342
 20
1885.484103226153
 10
1053.547412567219
 20
1883.332542819276
 10
1056.416159776388
 20
1881.898169214692
 10
1060.719280590141
 20
1881.1809824124
 10
1066.456775008478
 20
1881.1809824124
 10
1066.456775008478
 20
1881.1809824124
 10
1071.477082624523
 20
1881.1809824124
 10
1072.194269426816
 20
1880.463795610108
 10
1072.194269426816
 20
1879.029422005523
 10
1072.194269426816
 20
1874.72630119177
 10
1072.194269426816
 20
1874.72630119177
 10
1072.194269426816
 20
1874.009114389478
 10
1070.759895822231
 20
1873.291927587186
 10
1016.253698848025
 20
1873.291927587186
 10
1016.253698848025
 20
1873.291927587186
 10
1015.536512045733
 20
1873.291927587186
 10
1014.819325243441
 20
1874.009114389478
 10
1014.102138441149
 20
1875.443487994061
 10
1014.102138441149
 20
1875.443487994061
 10
1014.102138441149
 20
1879.029422005523
 10
1014.819325243441
 20
1880.463795610108
 10
1015.536512045733
 20
1881.1809824124
 10
1017.68807245261
 20
1881.1809824124
 10
1017.68807245261
 20
1881.1809824124
 10
1023.425566870947
 20
1881.1809824124
 10
1027.7286876847
 20
1881.898169214692
 10
1031.314621696161
 20
1882.615356016984
 10
1033.466182103038
 20
1884.049729621569
 10
1035.617742509914
 20
1886.918476830737
 10
1036.334929312206
 20
1890.504410842198
 10
1037.052116114499
 20
1895.524718458243
 10
1037.052116114499
 20
1901.979399678873
 10
1037.052116114499
 20
1985.173068744767
 10
1037.052116114499
 20
1985.173068744767
 10
1037.052116114499
 20
1998.799617988318
 10
1036.334929312206
 20
2003.102738802072
 10
1034.900555707622
 20
2005.97148601124
 10
1032.748995300746
 20
2008.123046418117
 10
1029.880248091577
 20
2008.840233220409
 10
1025.577127277824
 20
2009.557420022701
 10
1019.839632859486
 20
2009.557420022701
 10
1019.839632859486
 20
2009.557420022701
 10
1015.536512045733
 20
2010.274606824993
 10
1014.819325243441
 20
2010.991793627285
 10
1014.102138441149
 20
2011.708980429578
 10
1014.102138441149
 20
2011.708980429578
 10
1014.819325243441
 20
2016.729288045623
 10
1014.819325243441
 20
2017.446474847915
 10
1015.536512045733
 20
2017.446474847915
 10
1060.719280590141
 20
2017.446474847915
 10
1060.719280590141
 20
2017.446474847915
 10
1073.6286430314
 20
1999.51680479061
 10
1125.266092796437
 20
1932.101245375145
 10
1125.266092796437
 20
1932.101245375145
 10
1143.195762853742
 20
1909.868454504087
 10
1143.195762853742
 20
1985.173068744767
 10
1143.195762853742
 20
1985.173068744767
 10
1143.195762853742
 20
1999.51680479061
 10
1141.761389249158
 20
2003.819925604364
 10
1140.327015644573
 20
2006.688672813532
 10
1138.175455237697
 20
2008.123046418117
 10
1134.589521226236
 20
2009.557420022701
 10
1130.286400412483
 20
2009.557420022701
 10
1124.548905994145
 20
2009.557420022701
 10
1124.548905994145
 20
2009.557420022701
 10
1119.5285983781
 20
2010.274606824993
 10
1118.811411575808
 20
2010.991793627285
 10
1118.811411575808
 20
2011.708980429578
 10
1118.811411575808
 20
2016.01210124333
 10
1118.811411575808
 20
2016.01210124333
 10
1119.5285983781
 20
2017.446474847915
 10
1121.680158784976
 20
2017.446474847915
 10
1174.751982154598
 20
2017.446474847915
 10
1174.751982154598
 20
2017.446474847915
 10
1176.186355759182
 20
2016.729288045623
 10
1176.903542561475
 20
2016.01210124333
 10
1176.903542561475
 20
2011.708980429578
  0
LWPOLYLINE
  5
3D7E
330
3D85
100
AcDbEntity
  8
0
 62
     7
370
     0
100
AcDbPolyline
 90
       75
 70
     1
 43
0.0
 10
1255.794090813615
 20
2020.315222057084
 10
1265.117519243413
 20
2020.315222057084
 10
1271.572200464043
 20
2005.97148601124
 10
1271.572200464043
 20
2005.97148601124
 10
1298.825298951146
 20
1944.293421014112
 10
1315.320595403866
 20
1907.716894097211
 10
1321.775276624496
 20
1894.807531655951
 10
1325.361210635957
 20
1886.918476830737
 10
1325.361210635957
 20
1886.918476830737
 10
1327.512771042833
 20
1884.766916423861
 10
1329.66433144971
 20
1883.332542819276
 10
1331.815891856586
 20
1881.898169214692
 10
1333.967452263463
 20
1881.898169214692
 10
1333.967452263463
 20
1881.898169214692
 10
1336.836199472632
 20
1881.1809824124
 10
1338.987759879508
 20
1881.1809824124
 10
1339.7049466818
 20
1880.463795610108
 10
1339.7049466818
 20
1879.029422005523
 10
1339.7049466818
 20
1876.160674796355
 10
1339.7049466818
 20
1876.160674796355
 10
1339.7049466818
 20
1874.72630119177
 10
1338.987759879508
 20
1874.009114389478
 10
1336.836199472632
 20
1873.291927587186
 10
1280.178442091549
 20
1873.291927587186
 10
1280.178442091549
 20
1873.291927587186
 10
1278.744068486965
 20
1874.009114389478
 10
1278.026881684673
 20
1876.160674796355
 10
1278.744068486965
 20
1879.746608807815
 10
1278.744068486965
 20
1879.746608807815
 10
1278.744068486965
 20
1881.1809824124
 10
1280.178442091549
 20
1881.898169214692
 10
1285.915936509887
 20
1881.898169214692
 10
1285.915936509887
 20
1881.898169214692
 10
1290.936244125932
 20
1881.898169214692
 10
1294.522178137393
 20
1883.332542819276
 10
1295.956551741977
 20
1885.484103226153
 10
1296.673738544269
 20
1889.070037237614
 10
1296.673738544269
 20
1889.070037237614
 10
1296.673738544269
 20
1892.655971249075
 10
1294.522178137393
 20
1898.393465667412
 10
1285.915936509887
 20
1919.909069736178
 10
1222.803497908174
 20
1919.909069736178
 10
1212.762882676084
 20
1894.807531655951
 10
1212.762882676084
 20
1894.807531655951
 10
1212.045695873792
 20
1891.938784446782
 10
1211.328509071499
 20
1889.070037237614
 10
1211.328509071499
 20
1889.070037237614
 10
1212.045695873792
 20
1886.201290028445
 10
1214.197256280668
 20
1883.332542819276
 10
1217.066003489837
 20
1881.898169214692
 10
1221.36912430359
 20
1881.898169214692
 10
1227.106618721928
 20
1881.898169214692
 10
1227.106618721928
 20
1881.898169214692
 10
1228.540992326512
 20
1881.1809824124
 10
1229.258179128804
 20
1879.029422005523
 10
1229.258179128804
 20
1875.443487994061
 10
1229.258179128804
 20
1875.443487994061
 10
1228.540992326512
 20
1874.009114389478
 10
1227.82380552422
 20
1873.291927587186
 10
1179.772289770643
 20
1873.291927587186
 10
1179.772289770643
 20
1873.291927587186
 10
1179.055102968351
 20
1874.009114389478
 10
1178.337916166059
 20
1876.160674796355
 10
1178.337916166059
 20
1879.746608807815
 10
1178.337916166059
 20
1879.746608807815
 10
1179.055102968351
 20
1881.1809824124
 10
1180.489476572935
 20
1881.898169214692
 10
1180.489476572935
 20
1881.898169214692
 10
1185.509784188981
 20
1881.898169214692
 10
1187.661344595857
 20
1882.615356016984
 10
1189.812905002734
 20
1884.049729621569
 10
1191.96446540961
 20
1886.201290028445
 10
1194.116025816487
 20
1889.787224039906
 10
1200.570707037116
 20
1901.262212876581
 10
1255.794090813615
 20
2020.315222057084
  0
LWPOLYLINE
  5
3D7F
330
3D85
100
AcDbEntity
  8
0
 62
     7
370
     0
100
AcDbPolyline
 90
        4
 70
     1
 43
0.0
 10
1255.076904011323
 20
1993.062123569981
 10
1226.389431919636
 20
1928.515311363684
 10
1282.330002498426
 20
1928.515311363684
 10
1255.076904011323
 20
1993.062123569981
  0
LWPOLYLINE
  5
3D80
330
3D85
100
AcDbEntity
  8
0
 62
     7
370
     0
100
AcDbPolyline
 90
       46
 70
     1
 43
2.868747209168737
 10
908.6756785041977
 20
1802.29043416026
 10
908.6756785041977
 20
1802.29043416026
 10
908.6756785041977
 20
1802.29043416026
 10
908.6756785041977
 20
1802.29043416026
 10
900.7866236789835
 20
1802.29043416026
 10
892.1803820514774
 20
1803.007620962552
 10
882.8569536216789
 20
1805.159181369428
 10
872.8163383895886
 20
1807.310741776305
 10
849.8663607162384
 20
1814.482609799227
 10
824.7648226360123
 20
1823.806038229025
 10
798.2289109512013
 20
1834.563840263408
 10
769.5414388595137
 20
1846.756015902375
 10
709.2977474669702
 20
1873.291927587186
 10
709.2977474669702
 20
1873.291927587186
 10
650.4884296790112
 20
1899.827839271997
 10
622.518144389616
 20
1911.302828108672
 10
595.2650459025131
 20
1922.060630143054
 10
570.1635078222866
 20
1931.384058572852
 10
547.9307169512289
 20
1938.555926595775
 10
537.8901017191384
 20
1940.707487002651
 10
528.5666732893401
 20
1942.859047409528
 10
519.9604316618338
 20
1944.293421014112
 10
512.0713768366197
 20
1944.293421014112
 10
512.0713768366197
 20
1946.444981420989
 10
512.0713768366197
 20
1946.444981420989
 10
519.9604316618338
 20
1946.444981420989
 10
528.5666732893401
 20
1945.010607816404
 10
537.8901017191384
 20
1942.859047409528
 10
547.9307169512289
 20
1940.707487002651
 10
570.8806946245788
 20
1933.535618979729
 10
595.9822327048052
 20
1924.212190549931
 10
623.2353311919084
 20
1913.454388515548
 10
651.2056164813035
 20
1901.262212876581
 10
710.7321210715547
 20
1875.443487994061
 10
710.7321210715547
 20
1875.443487994061
 10
770.2586256618062
 20
1848.907576309252
 10
798.9460977534935
 20
1836.715400670284
 10
825.4820094383044
 20
1825.957598635902
 10
850.5835475185309
 20
1816.634170206103
 10
872.8163383895886
 20
1809.462302183181
 10
882.8569536216789
 20
1807.310741776305
 10
892.1803820514774
 20
1805.87636817172
 10
900.7866236789835
 20
1804.441994567136
 10
907.9584917019056
 20
1804.441994567136
 10
908.6756785041977
 20
1804.441994567136
 10
908.6756785041977
 20
1802.29043416026
  0
LWPOLYLINE
  5
3D81
330
3D85
100
AcDbEntity
  8
0
 62
     7
370
     0
100
AcDbPolyline
 90
      134
 70
     1
 43
2.868747209168737
 10
953.8584470486052
 20
1830.260719449655
 10
953.8584470486052
 20
1830.260719449655
 10
953.8584470486052
 20
1830.260719449655
 10
945.9693922233913
 20
1831.695093054239
 10
938.0803373981771
 20
1833.129466658824
 10
938.0803373981771
 20
1833.129466658824
 10
930.9084693752556
 20
1835.2810270657
 10
923.7366013523336
 20
1837.432587472576
 10
923.7366013523336
 20
1837.432587472576
 10
915.1303597248274
 20
1841.73570828633
 10
906.5241180973213
 20
1846.038829100083
 10
898.6350632721071
 20
1851.77632351842
 10
890.7460084468931
 20
1857.513817936758
 10
883.5741404239714
 20
1863.968499157387
 10
877.1194592033417
 20
1871.140367180309
 10
870.664777982712
 20
1879.029422005523
 10
865.6444703666666
 20
1887.635663633029
 10
865.6444703666666
 20
1887.635663633029
 10
865.6444703666666
 20
1887.635663633029
 10
865.6444703666666
 20
1887.635663633029
 10
865.6444703666666
 20
1887.635663633029
 10
859.1897891460366
 20
1899.827839271997
 10
854.886668332284
 20
1912.020014910964
 10
854.886668332284
 20
1912.020014910964
 10
852.0179211231152
 20
1924.212190549931
 10
849.8663607162384
 20
1936.404366188898
 10
849.8663607162384
 20
1936.404366188898
 10
849.8663607162384
 20
1945.010607816404
 10
849.8663607162384
 20
1952.899662641618
 10
850.5835475185309
 20
1960.788717466832
 10
852.0179211231152
 20
1968.677772292046
 10
854.1694815299917
 20
1976.566827117261
 10
856.3210419368683
 20
1984.455881942475
 10
859.1897891460366
 20
1991.627749965396
 10
862.775723157498
 20
1998.799617988318
 10
866.3616571689589
 20
2005.97148601124
 10
870.664777982712
 20
2013.143354034162
 10
875.6850855987572
 20
2019.598035254792
 10
881.4225800170945
 20
2025.335529673129
 10
887.1600744354322
 20
2031.790210893759
 10
893.6147556560619
 20
2036.810518509804
 10
900.0694368766916
 20
2041.830826125849
 10
907.2413048996134
 20
2046.851133741895
 10
907.2413048996134
 20
2046.851133741895
 10
907.2413048996134
 20
2046.851133741895
 10
907.2413048996134
 20
2046.851133741895
 10
907.2413048996134
 20
2046.851133741895
 10
917.999106933996
 20
2051.87144135794
 10
928.756908968379
 20
2056.174562171694
 10
928.756908968379
 20
2056.174562171694
 10
939.5147110027616
 20
2059.043309380862
 10
950.2725130371443
 20
2061.194869787739
 10
950.2725130371443
 20
2061.194869787739
 10
957.4443810600664
 20
2061.91205659003
 10
964.616249082988
 20
2062.629243392323
 10
971.7881171059101
 20
2061.91205659003
 10
978.9599851288318
 20
2061.91205659003
 10
985.4146663494615
 20
2060.477682985446
 10
992.5865343723835
 20
2059.043309380862
 10
999.7584023953052
 20
2057.608935776277
 10
1006.213083615935
 20
2055.457375369401
 10
1012.667764836564
 20
2052.588628160232
 10
1019.122446057194
 20
2049.002694148772
 10
1025.577127277824
 20
2046.133946939603
 10
1031.314621696161
 20
2041.830826125849
 10
1037.769302916791
 20
2037.527705312097
 10
1042.789610532836
 20
2033.224584498343
 10
1048.527104951173
 20
2028.204276882298
 10
1053.547412567219
 20
2022.46678246396
 10
1052.113038962634
 20
2021.032408859376
 10
1052.113038962634
 20
2021.032408859376
 10
1047.092731346589
 20
2026.769903277713
 10
1041.355236928252
 20
2031.790210893759
 10
1036.334929312206
 20
2036.093331707512
 10
1030.597434893869
 20
2040.396452521265
 10
1024.142753673239
 20
2043.982386532726
 10
1018.405259254902
 20
2047.568320544187
 10
1011.950578034272
 20
2050.437067753356
 10
1005.495896813642
 20
2053.305814962524
 10
991.8693475700912
 20
2056.891748973985
 10
978.2427983265396
 20
2059.043309380862
 10
964.616249082988
 20
2059.760496183154
 10
950.9896998394363
 20
2059.043309380862
 10
950.9896998394363
 20
2059.043309380862
 10
940.2318978050541
 20
2056.891748973985
 10
929.4740957706713
 20
2054.023001764816
 10
929.4740957706713
 20
2054.023001764816
 10
918.7162937362883
 20
2049.719880951063
 10
908.6756785041977
 20
2044.699573335018
 10
908.6756785041977
 20
2044.699573335018
 10
908.6756785041977
 20
2044.699573335018
 10
908.6756785041977
 20
2044.699573335018
 10
908.6756785041977
 20
2044.699573335018
 10
901.5038104812758
 20
2040.396452521265
 10
895.0491292606461
 20
2035.37614490522
 10
888.5944480400167
 20
2029.638650486882
 10
882.8569536216789
 20
2023.901156068545
 10
877.8366460056338
 20
2018.163661650207
 10
872.8163383895886
 20
2011.708980429578
 10
868.5132175758353
 20
2005.254299208948
 10
864.9272835643746
 20
1998.082431186026
 10
861.3413495529135
 20
1990.910563163104
 10
858.4726023437449
 20
1983.738695140182
 10
856.3210419368683
 20
1975.849640314968
 10
854.1694815299917
 20
1968.677772292046
 10
852.7351079254074
 20
1960.788717466832
 10
852.0179211231152
 20
1952.899662641618
 10
852.0179211231152
 20
1945.010607816404
 10
852.0179211231152
 20
1937.12155299119
 10
852.0179211231152
 20
1937.12155299119
 10
854.1694815299917
 20
1924.929377352223
 10
857.0382287391604
 20
1912.737201713255
 10
857.0382287391604
 20
1912.737201713255
 10
861.3413495529135
 20
1900.545026074289
 10
867.0788439712511
 20
1889.070037237614
 10
867.0788439712511
 20
1889.070037237614
 10
867.0788439712511
 20
1889.070037237614
 10
867.0788439712511
 20
1889.070037237614
 10
867.0788439712511
 20
1889.070037237614
 10
872.8163383895886
 20
1880.463795610108
 10
878.553832807926
 20
1872.574740784894
 10
885.0085140285557
 20
1865.402872761972
 10
892.1803820514774
 20
1858.948191541342
 10
899.3522500743994
 20
1853.210697123005
 10
907.2413048996134
 20
1848.190389506959
 10
915.8475465271195
 20
1843.170081890914
 10
924.4537881546259
 20
1839.584147879453
 10
924.4537881546259
 20
1839.584147879453
 10
931.6256561775476
 20
1837.432587472576
 10
938.7975242004696
 20
1835.2810270657
 10
938.7975242004696
 20
1835.2810270657
 10
953.8584470486052
 20
1832.412279856531
 10
953.8584470486052
 20
1832.412279856531
 10
953.8584470486052
 20
1830.260719449655
  0
LWPOLYLINE
  5
3D82
330
3D85
100
AcDbEntity
  8
0
 62
     7
370
     0
100
AcDbPolyline
 90
      164
 70
     1
 43
2.868747209168737
 10
973.9396775127866
 20
1833.129466658824
 10
973.9396775127866
 20
1833.129466658824
 10
966.7678094898647
 20
1837.432587472576
 10
961.0303150715273
 20
1841.73570828633
 10
961.0303150715273
 20
1841.73570828633
 10
956.727194257774
 20
1846.756015902375
 10
953.1412602463133
 20
1851.77632351842
 10
951.7068866417288
 20
1857.513817936758
 10
950.9896998394363
 20
1863.251312355094
 10
950.9896998394363
 20
1863.251312355094
 10
950.2725130371443
 20
1868.271619971141
 10
950.9896998394363
 20
1873.291927587186
 10
952.424073444021
 20
1878.312235203231
 10
953.8584470486052
 20
1882.615356016984
 10
953.8584470486052
 20
1882.615356016984
 10
956.727194257774
 20
1887.635663633029
 10
960.3131282692347
 20
1891.938784446782
 10
960.3131282692347
 20
1891.938784446782
 10
963.8990622806959
 20
1895.524718458243
 10
968.202183094449
 20
1899.110652469704
 10
972.5053039082022
 20
1901.979399678873
 10
976.0912379196632
 20
1904.13096008575
 10
980.3943587334163
 20
1905.565333690334
 10
984.6974795471693
 20
1906.999707294918
 10
989.0006003609224
 20
1907.716894097211
 10
993.3037211746755
 20
1907.716894097211
 10
993.3037211746755
 20
1907.716894097211
 10
1000.475589197597
 20
1906.999707294918
 10
1006.930270418227
 20
1904.848146888042
 10
1006.930270418227
 20
1904.848146888042
 10
1010.516204429688
 20
1903.413773283457
 10
1013.384951638856
 20
1901.262212876581
 10
1019.122446057194
 20
1896.959092062828
 10
1019.122446057194
 20
1896.959092062828
 10
1022.708380068655
 20
1894.090344853659
 10
1025.577127277824
 20
1890.504410842198
 10
1027.7286876847
 20
1886.918476830737
 10
1029.880248091577
 20
1882.615356016984
 10
1031.314621696161
 20
1878.312235203231
 10
1032.748995300746
 20
1874.009114389478
 10
1033.466182103038
 20
1869.705993575725
 10
1033.466182103038
 20
1864.685685959679
 10
1033.466182103038
 20
1864.685685959679
 10
1033.466182103038
 20
1864.685685959679
 10
1033.466182103038
 20
1864.685685959679
 10
1032.748995300746
 20
1855.362257529881
 10
1031.314621696161
 20
1846.038829100083
 10
1031.314621696161
 20
1846.038829100083
 10
1029.880248091577
 20
1841.018521484037
 10
1027.7286876847
 20
1835.998213867992
 10
1027.7286876847
 20
1835.998213867992
 10
1024.142753673239
 20
1830.260719449655
 10
1019.839632859486
 20
1824.523225031317
 10
1014.102138441149
 20
1819.502917415272
 10
1008.364644022811
 20
1815.199796601518
 10
1001.192775999889
 20
1810.896675787766
 10
992.5865343723835
 20
1808.027928578597
 10
983.263105942585
 20
1805.159181369428
 10
973.2224907104944
 20
1803.007620962552
 10
973.2224907104944
 20
1803.007620962552
 10
973.2224907104944
 20
1803.007620962552
 10
963.8990622806959
 20
1802.29043416026
 10
953.1412602463133
 20
1802.29043416026
 10
941.6662714096382
 20
1804.441994567136
 10
929.4740957706713
 20
1806.593554974013
 10
915.8475465271195
 20
1810.179488985474
 10
902.220997283568
 20
1815.199796601518
 10
887.1600744354322
 20
1820.220104217564
 10
871.3819647850042
 20
1826.674785438194
 10
838.3913718795637
 20
1841.018521484037
 10
803.9664053695387
 20
1857.513817936758
 10
768.1070652549292
 20
1875.443487994061
 10
731.5305383380282
 20
1893.373158051367
 10
731.5305383380282
 20
1893.373158051367
 10
669.8524733409002
 20
1924.212190549931
 10
639.7306276446286
 20
1938.555926595775
 10
610.325968750649
 20
1952.182475839325
 10
582.3556834612539
 20
1963.657464676001
 10
555.8197717764428
 20
1973.698079908092
 10
543.6275961374758
 20
1978.001200721845
 10
532.1526073008008
 20
1981.587134733306
 10
520.677618464126
 20
1984.455881942475
 10
509.9198164297432
 20
1986.607442349351
 10
510.6370032320354
 20
1988.041815953935
 10
510.6370032320354
 20
1988.041815953935
 10
521.394805266418
 20
1986.607442349351
 10
532.1526073008008
 20
1983.738695140182
 10
544.344782939768
 20
1980.152761128722
 10
556.5369585787351
 20
1975.849640314968
 10
583.0728702635457
 20
1965.809025082878
 10
611.0431555529412
 20
1954.334036246203
 10
640.4478144469208
 20
1940.707487002651
 10
670.5696601431925
 20
1926.363750956807
 10
732.2477251403204
 20
1895.524718458243
 10
732.2477251403204
 20
1895.524718458243
 10
804.683592171831
 20
1859.665378343634
 10
839.1085586818558
 20
1843.170081890914
 10
872.0991515872963
 20
1828.826345845071
 10
887.1600744354322
 20
1823.088851426733
 10
902.220997283568
 20
1817.351357008395
 10
916.5647333294119
 20
1812.33104939235
 10
929.4740957706713
 20
1808.745115380889
 10
941.6662714096382
 20
1806.593554974013
 10
953.1412602463133
 20
1804.441994567136
 10
963.8990622806959
 20
1804.441994567136
 10
972.5053039082022
 20
1805.159181369428
 10
972.5053039082022
 20
1805.159181369428
 10
972.5053039082022
 20
1805.159181369428
 10
982.5459191402925
 20
1807.310741776305
 10
991.8693475700912
 20
1809.462302183181
 10
999.7584023953052
 20
1813.048236194642
 10
1006.930270418227
 20
1816.634170206103
 10
1012.667764836564
 20
1820.937291019856
 10
1017.68807245261
 20
1825.957598635902
 10
1021.991193266363
 20
1831.695093054239
 10
1024.859940475531
 20
1836.715400670284
 10
1024.859940475531
 20
1836.715400670284
 10
1027.011500882408
 20
1841.73570828633
 10
1029.163061289285
 20
1846.756015902375
 10
1029.163061289285
 20
1846.756015902375
 10
1030.597434893869
 20
1855.362257529881
 10
1031.314621696161
 20
1864.685685959679
 10
1031.314621696161
 20
1864.685685959679
 10
1031.314621696161
 20
1864.685685959679
 10
1031.314621696161
 20
1864.685685959679
 10
1031.314621696161
 20
1868.988806773432
 10
1030.597434893869
 20
1873.291927587186
 10
1029.163061289285
 20
1877.595048400939
 10
1027.7286876847
 20
1881.898169214692
 10
1025.577127277824
 20
1885.484103226153
 10
1023.425566870947
 20
1889.070037237614
 10
1017.68807245261
 20
1895.524718458243
 10
1017.68807245261
 20
1895.524718458243
 10
1012.667764836564
 20
1899.827839271997
 10
1006.213083615935
 20
1902.696586481164
 10
1006.213083615935
 20
1902.696586481164
 10
999.7584023953052
 20
1904.848146888042
 10
993.3037211746755
 20
1905.565333690334
 10
993.3037211746755
 20
1905.565333690334
 10
989.0006003609224
 20
1905.565333690334
 10
985.4146663494615
 20
1904.848146888042
 10
981.111545535708
 20
1903.413773283457
 10
977.5256115242475
 20
1901.979399678873
 10
973.2224907104944
 20
1899.827839271997
 10
969.6365566990337
 20
1896.959092062828
 10
965.3334358852802
 20
1894.090344853659
 10
961.7475018738195
 20
1889.787224039906
 10
961.7475018738195
 20
1889.787224039906
 10
958.8787546646507
 20
1886.201290028445
 10
956.727194257774
 20
1881.898169214692
 10
956.727194257774
 20
1881.898169214692
 10
954.5756338508978
 20
1877.595048400939
 10
953.1412602463133
 20
1872.574740784894
 10
953.1412602463133
 20
1868.271619971141
 10
953.1412602463133
 20
1863.251312355094
 10
953.1412602463133
 20
1863.251312355094
 10
953.8584470486052
 20
1858.23100473905
 10
955.2928206531897
 20
1853.210697123005
 10
958.1615678623585
 20
1848.190389506959
 10
962.4646886761116
 20
1843.170081890914
 10
962.4646886761116
 20
1843.170081890914
 10
968.202183094449
 20
1839.584147879453
 10
974.6568643150787
 20
1835.998213867992
 10
973.9396775127866
 20
1833.129466658824
  0
LWPOLYLINE
  5
3D83
330
3D85
100
AcDbEntity
  8
0
 62
     7
370
     0
100
AcDbPolyline
 90
       84
 70
     1
 43
2.868747209168737
 10
808.269526183292
 20
1934.969992584314
 10
809.7038997878765
 20
1934.252805782022
 10
809.7038997878765
 20
1934.252805782022
 10
809.7038997878765
 20
1934.252805782022
 10
824.7648226360123
 20
1919.909069736178
 10
839.8257454841481
 20
1904.848146888042
 10
839.8257454841481
 20
1904.848146888042
 10
852.7351079254074
 20
1891.221597644491
 10
866.3616571689589
 20
1878.312235203231
 10
879.98820641251
 20
1866.120059564264
 10
894.331942458354
 20
1855.362257529881
 10
901.5038104812758
 20
1850.341949913836
 10
909.3928653064898
 20
1845.32164229779
 10
917.2819201317039
 20
1841.73570828633
 10
924.4537881546259
 20
1838.149774274869
 10
933.060029782132
 20
1835.2810270657
 10
940.9490846073461
 20
1833.846653461116
 10
949.555326234852
 20
1832.412279856531
 10
958.1615678623585
 20
1831.695093054239
 10
958.1615678623585
 20
1831.695093054239
 10
970.3537435013256
 20
1832.412279856531
 10
979.6771719311239
 20
1833.846653461116
 10
979.6771719311239
 20
1833.846653461116
 10
983.263105942585
 20
1834.563840263408
 10
986.1318531517538
 20
1836.715400670284
 10
992.5865343723835
 20
1840.301334681745
 10
992.5865343723835
 20
1840.301334681745
 10
995.4552815815517
 20
1843.887268693206
 10
997.6068419884287
 20
1847.473202704667
 10
998.3240287907207
 20
1851.77632351842
 10
997.6068419884287
 20
1855.362257529881
 10
997.6068419884287
 20
1855.362257529881
 10
996.8896551861362
 20
1858.23100473905
 10
995.4552815815517
 20
1860.382565145927
 10
995.4552815815517
 20
1860.382565145927
 10
993.3037211746755
 20
1861.816938750511
 10
991.8693475700912
 20
1863.251312355094
 10
991.8693475700912
 20
1863.251312355094
 10
989.7177871632147
 20
1863.251312355094
 10
987.5662267563381
 20
1863.251312355094
 10
985.4146663494615
 20
1862.534125552803
 10
983.980292744877
 20
1860.382565145927
 10
981.8287323380003
 20
1861.816938750511
 10
981.8287323380003
 20
1861.816938750511
 10
984.6974795471693
 20
1863.968499157387
 10
987.5662267563381
 20
1865.402872761972
 10
990.4349739655067
 20
1865.402872761972
 10
992.5865343723835
 20
1864.685685959679
 10
992.5865343723835
 20
1864.685685959679
 10
995.4552815815517
 20
1863.251312355094
 10
996.8896551861362
 20
1861.099751948219
 10
996.8896551861362
 20
1861.099751948219
 10
999.041215593013
 20
1858.948191541342
 10
999.7584023953052
 20
1856.079444332173
 10
999.7584023953052
 20
1856.079444332173
 10
1000.475589197597
 20
1851.77632351842
 10
999.7584023953052
 20
1847.473202704667
 10
997.6068419884287
 20
1842.452895088622
 10
994.0209079769676
 20
1838.866961077161
 10
994.0209079769676
 20
1838.866961077161
 10
987.5662267563381
 20
1834.563840263408
 10
980.3943587334163
 20
1831.695093054239
 10
980.3943587334163
 20
1831.695093054239
 10
971.0709303036175
 20
1830.260719449655
 10
958.1615678623585
 20
1829.543532647363
 10
958.1615678623585
 20
1829.543532647363
 10
948.83813943256
 20
1830.260719449655
 10
940.9490846073461
 20
1831.695093054239
 10
932.3428429798395
 20
1833.846653461116
 10
924.4537881546259
 20
1836.715400670284
 10
915.8475465271195
 20
1839.584147879453
 10
908.6756785041977
 20
1843.887268693206
 10
900.7866236789835
 20
1848.190389506959
 10
893.6147556560619
 20
1853.210697123005
 10
879.2710196102182
 20
1864.685685959679
 10
864.9272835643746
 20
1876.877861598647
 10
851.3007343208229
 20
1889.787224039906
 10
838.3913718795637
 20
1903.413773283457
 10
838.3913718795637
 20
1903.413773283457
 10
823.3304490314278
 20
1918.474696131594
 10
808.269526183292
 20
1932.818432177437
 10
808.269526183292
 20
1932.818432177437
 10
806.8351525787074
 20
1933.535618979729
 10
808.269526183292
 20
1934.969992584314
  0
ENDBLK
  5
3D87
330
3D85
100
AcDbEntity
  8
0
100
AcDbBlockEnd
  0
BLOCK
  5
3E4F
330
3E4E
100
AcDbEntity
  8
0
100
AcDbBlockBegin
  2
AN-3206 drawing
 70
     0
 10
0.0
 20
0.0
 30
0.0
  3
AN-3206 drawing
  1

  0
LWPOLYLINE
  5
3D89
330
3E4E
100
AcDbEntity
  8
Layer 1
 62
     7
370
    13
100
AcDbPolyline
 90
        2
 70
     0
 43
0.0
 10
148.0819172806878
 20
66.84449868120555
 10
148.0819172806878
 20
61.63723685525043
  0
LWPOLYLINE
  5
3D8A
330
3E4E
100
AcDbEntity
  8
Layer 1
 62
     7
370
    13
100
AcDbPolyline
 90
        2
 70
     0
 43
0.0
 10
148.0819172806878
 20
68.66454262606302
 10
148.0819172806878
 20
67.77570799086858
  0
LWPOLYLINE
  5
3D8B
330
3E4E
100
AcDbEntity
  8
Layer 1
 62
     7
370
    13
100
AcDbPolyline
 90
        2
 70
     0
 43
0.0
 10
148.0819172806878
 20
74.04095864034393
 10
148.0819172806878
 20
69.55372177080602
  0
LWPOLYLINE
  5
3D8C
330
3E4E
100
AcDbEntity
  8
Layer 1
 62
     7
370
    13
100
AcDbPolyline
 90
        2
 70
     0
 43
0.0
 10
148.0819172806878
 20
75.86134709474993
 10
148.0819172806878
 20
74.97216795000695
  0
LWPOLYLINE
  5
3D8D
330
3E4E
100
AcDbEntity
  8
Layer 1
 62
     7
370
    13
100
AcDbPolyline
 90
        2
 70
     0
 43
0.0
 10
148.0819172806878
 20
81.23776310903085
 10
148.0819172806878
 20
76.75018172994441
  0
LWPOLYLINE
  5
3D8E
330
3E4E
100
AcDbEntity
  8
Layer 1
 62
     7
370
    13
100
AcDbPolyline
 90
        2
 70
     0
 43
0.0
 10
148.0819172806878
 20
83.05815156343681
 10
148.0819172806878
 20
82.16897241869387
  0
LWPOLYLINE
  5
3D8F
330
3E4E
100
AcDbEntity
  8
Layer 1
 62
     7
370
    13
100
AcDbPolyline
 90
        2
 70
     0
 43
0.0
 10
148.0819172806878
 20
88.43422306816924
 10
148.0819172806878
 20
83.94698619863133
  0
LWPOLYLINE
  5
3D90
330
3E4E
100
AcDbEntity
  8
Layer 1
 62
     7
370
    13
100
AcDbPolyline
 90
        2
 70
     0
 43
0.0
 10
148.0819172806878
 20
90.25461152257523
 10
148.0819172806878
 20
89.36577688738077
  0
LWPOLYLINE
  5
3D91
330
3E4E
100
AcDbEntity
  8
Layer 1
 62
     7
370
    13
100
AcDbPolyline
 90
        2
 70
     0
 43
0.0
 10
148.0819172806878
 20
95.63102753685614
 10
148.0819172806878
 20
91.14379066731823
  0
LWPOLYLINE
  5
3D92
330
3E4E
100
AcDbEntity
  8
Layer 1
 62
     7
370
    13
100
AcDbPolyline
 90
        2
 70
     0
 43
0.0
 10
148.0819172806878
 20
97.45141599126215
 10
148.0819172806878
 20
96.5198621720506
  0
LWPOLYLINE
  5
3D93
330
3E4E
100
AcDbEntity
  8
Layer 1
 62
     7
370
    13
100
AcDbPolyline
 90
        2
 70
     0
 43
0.0
 10
148.0819172806878
 20
102.827832005543
 10
148.0819172806878
 20
98.34025062645658
  0
LWPOLYLINE
  5
3D94
330
3E4E
100
AcDbEntity
  8
Layer 1
 62
     7
370
    13
100
AcDbPolyline
 90
        2
 70
     0
 43
0.0
 10
148.0819172806878
 20
104.6478759504005
 10
148.0819172806878
 20
103.7166666407375
  0
LWPOLYLINE
  5
3D95
330
3E4E
100
AcDbEntity
  8
Layer 1
 62
     7
370
    13
100
AcDbPolyline
 90
        2
 70
     0
 43
0.0
 10
148.0819172806878
 20
110.0242919646814
 10
148.0819172806878
 20
105.5370550951435
  0
LWPOLYLINE
  5
3D96
330
3E4E
100
AcDbEntity
  8
Layer 1
 62
     7
370
    13
100
AcDbPolyline
 90
        2
 70
     0
 43
0.0
 10
148.0819172806878
 20
111.8446804190874
 10
148.0819172806878
 20
110.9132988546501
  0
LWPOLYLINE
  5
3D97
330
3E4E
100
AcDbEntity
  8
Layer 1
 62
     7
370
    13
100
AcDbPolyline
 90
        2
 70
     0
 43
0.0
 10
148.0819172806878
 20
117.2209241785941
 10
148.0819172806878
 20
112.7336873090561
  0
LWPOLYLINE
  5
3D98
330
3E4E
100
AcDbEntity
  8
Layer 1
 62
     7
370
    13
100
AcDbPolyline
 90
        2
 70
     0
 43
0.0
 10
148.0819172806878
 20
119.0413126330001
 10
148.0819172806878
 20
118.1099310685628
  0
LWPOLYLINE
  5
3D99
330
3E4E
100
AcDbEntity
  8
Layer 1
 62
     7
370
    13
100
AcDbPolyline
 90
        2
 70
     0
 43
0.0
 10
148.0819172806878
 20
124.417728647281
 10
148.0819172806878
 20
119.9303195229688
  0
LWPOLYLINE
  5
3D9A
330
3E4E
100
AcDbEntity
  8
Layer 1
 62
     7
370
    13
100
AcDbPolyline
 90
        2
 70
     0
 43
0.0
 10
148.0819172806878
 20
126.2379448469127
 10
148.0819172806878
 20
125.3067355372497
  0
LWPOLYLINE
  5
3D9B
330
3E4E
100
AcDbEntity
  8
Layer 1
 62
     7
370
    13
100
AcDbPolyline
 90
        2
 70
     0
 43
0.0
 10
148.0819172806878
 20
132.3764159825309
 10
148.0819172806878
 20
127.1269517368814
  0
LWPOLYLINE
  5
3D9C
330
3E4E
100
AcDbEntity
  8
Layer 1
 62
     7
370
    13
100
AcDbPolyline
 90
        2
 70
     0
 43
0.0
 10
203.3694986470743
 20
96.98563908165638
 10
209.1265977124753
 20
96.98563908165638
  0
LWPOLYLINE
  5
3D9D
330
3E4E
100
AcDbEntity
  8
Layer 1
 62
     7
370
    13
100
AcDbPolyline
 90
        2
 70
     0
 43
0.0
 10
201.5914848671369
 20
96.98563908165638
 10
202.4803195023313
 20
96.98563908165638
  0
LWPOLYLINE
  5
3D9E
330
3E4E
100
AcDbEntity
  8
Layer 1
 62
     7
370
    13
100
AcDbPolyline
 90
        2
 70
     0
 43
0.0
 10
196.1726941783874
 20
96.98563908165638
 10
200.6599310479253
 20
96.98563908165638
  0
LWPOLYLINE
  5
3D9F
330
3E4E
100
AcDbEntity
  8
Layer 1
 62
     7
370
    13
100
AcDbPolyline
 90
        2
 70
     0
 43
0.0
 10
194.3946803984499
 20
96.98563908165638
 10
195.2835150336444
 20
96.98563908165638
  0
LWPOLYLINE
  5
3DA0
330
3E4E
100
AcDbEntity
  8
Layer 1
 62
     7
370
    13
100
AcDbPolyline
 90
        2
 70
     0
 43
0.0
 10
188.9758897097005
 20
96.98563908165638
 10
193.4634710887869
 20
96.98563908165638
  0
LWPOLYLINE
  5
3DA1
330
3E4E
100
AcDbEntity
  8
Layer 1
 62
     7
370
    13
100
AcDbPolyline
 90
        2
 70
     0
 43
0.0
 10
187.197875929763
 20
96.98563908165638
 10
188.087055074506
 20
96.98563908165638
  0
LWPOLYLINE
  5
3DA2
330
3E4E
100
AcDbEntity
  8
Layer 1
 62
     7
370
    13
100
AcDbPolyline
 90
        2
 70
     0
 43
0.0
 10
181.7794297505621
 20
96.98563908165638
 10
186.3090412945686
 20
96.98563908165638
  0
LWPOLYLINE
  5
3DA3
330
3E4E
100
AcDbEntity
  8
Layer 1
 62
     7
370
    13
100
AcDbPolyline
 90
        2
 70
     0
 43
0.0
 10
180.0014159706245
 20
96.98563908165638
 10
180.8902506058191
 20
96.98563908165638
  0
LWPOLYLINE
  5
3DA4
330
3E4E
100
AcDbEntity
  8
Layer 1
 62
     7
370
    13
100
AcDbPolyline
 90
        2
 70
     0
 43
0.0
 10
174.582625281875
 20
96.98563908165638
 10
179.1122368258815
 20
96.98563908165638
  0
LWPOLYLINE
  5
3DA5
330
3E4E
100
AcDbEntity
  8
Layer 1
 62
     7
370
    13
100
AcDbPolyline
 90
        2
 70
     0
 43
0.0
 10
172.8046115019376
 20
96.98563908165638
 10
173.6937906466806
 20
96.98563908165638
  0
LWPOLYLINE
  5
3DA6
330
3E4E
100
AcDbEntity
  8
Layer 1
 62
     7
370
    13
100
AcDbPolyline
 90
        2
 70
     0
 43
0.0
 10
167.3861653227366
 20
96.98563908165638
 10
171.9157768667433
 20
96.98563908165638
  0
LWPOLYLINE
  5
3DA7
330
3E4E
100
AcDbEntity
  8
Layer 1
 62
     7
370
    13
100
AcDbPolyline
 90
        2
 70
     0
 43
0.0
 10
165.6081515427993
 20
96.98563908165638
 10
166.4969861779938
 20
96.98563908165638
  0
LWPOLYLINE
  5
3DA8
330
3E4E
100
AcDbEntity
  8
Layer 1
 62
     7
370
    13
100
AcDbPolyline
 90
        2
 70
     0
 43
0.0
 10
160.1893608540499
 20
96.98563908165638
 10
164.7189723980563
 20
96.98563908165638
  0
LWPOLYLINE
  5
3DA9
330
3E4E
100
AcDbEntity
  8
Layer 1
 62
     7
370
    13
100
AcDbPolyline
 90
        2
 70
     0
 43
0.0
 10
158.4113470741124
 20
96.98563908165638
 10
159.3001817093069
 20
96.98563908165638
  0
LWPOLYLINE
  5
3DAA
330
3E4E
100
AcDbEntity
  8
Layer 1
 62
     7
370
    13
100
AcDbPolyline
 90
        2
 70
     0
 43
0.0
 10
152.9925563853629
 20
96.98563908165638
 10
157.5221679293694
 20
96.98563908165638
  0
LWPOLYLINE
  5
3DAB
330
3E4E
100
AcDbEntity
  8
Layer 1
 62
     7
370
    13
100
AcDbPolyline
 90
        2
 70
     0
 43
0.0
 10
151.2145426054255
 20
96.98563908165638
 10
152.1037217501685
 20
96.98563908165638
  0
LWPOLYLINE
  5
3DAC
330
3E4E
100
AcDbEntity
  8
Layer 1
 62
     7
370
    13
100
AcDbPolyline
 90
        2
 70
     0
 43
0.0
 10
145.8382988459189
 20
96.98563908165638
 10
150.3257079702311
 20
96.98563908165638
  0
LWPOLYLINE
  5
3DAD
330
3E4E
100
AcDbEntity
  8
Layer 1
 62
     7
370
    13
100
AcDbPolyline
 90
        2
 70
     0
 43
0.0
 10
144.0180826462871
 20
96.98563908165638
 10
144.9069172814816
 20
96.98563908165638
  0
LWPOLYLINE
  5
3DAE
330
3E4E
100
AcDbEntity
  8
Layer 1
 62
     7
370
    13
100
AcDbPolyline
 90
        2
 70
     0
 43
0.0
 10
138.6416666320062
 20
96.98563908165638
 10
143.1290757563184
 20
96.98563908165638
  0
LWPOLYLINE
  5
3DAF
330
3E4E
100
AcDbEntity
  8
Layer 1
 62
     7
370
    13
100
AcDbPolyline
 90
        2
 70
     0
 43
0.0
 10
136.8212781776002
 20
96.98563908165638
 10
137.7102850675689
 20
96.98563908165638
  0
LWPOLYLINE
  5
3DB0
330
3E4E
100
AcDbEntity
  8
Layer 1
 62
     7
370
    13
100
AcDbPolyline
 90
        2
 70
     0
 43
0.0
 10
131.4450344180936
 20
96.98563908165638
 10
135.9322712876315
 20
96.98563908165638
  0
LWPOLYLINE
  5
3DB1
330
3E4E
100
AcDbEntity
  8
Layer 1
 62
     7
370
    13
100
AcDbPolyline
 90
        2
 70
     0
 43
0.0
 10
129.6246459636876
 20
96.98563908165638
 10
130.5136528536563
 20
96.98563908165638
  0
LWPOLYLINE
  5
3DB2
330
3E4E
100
AcDbEntity
  8
Layer 1
 62
     7
370
    13
100
AcDbPolyline
 90
        2
 70
     0
 43
0.0
 10
124.2484022041809
 20
96.98563908165638
 10
128.7356390737189
 20
96.98563908165638
  0
LWPOLYLINE
  5
3DB3
330
3E4E
100
AcDbEntity
  8
Layer 1
 62
     7
370
    13
100
AcDbPolyline
 90
        2
 70
     0
 43
0.0
 10
122.4280137497749
 20
96.98563908165638
 10
123.3170206397436
 20
96.98563908165638
  0
LWPOLYLINE
  5
3DB4
330
3E4E
100
AcDbEntity
  8
Layer 1
 62
     7
370
    13
100
AcDbPolyline
 90
        2
 70
     0
 43
0.0
 10
117.051597735494
 20
96.98563908165638
 10
121.5390068598062
 20
96.98563908165638
  0
LWPOLYLINE
  5
3DB5
330
3E4E
100
AcDbEntity
  8
Layer 1
 62
     7
370
    13
100
AcDbPolyline
 90
        2
 70
     0
 43
0.0
 10
115.2313815358623
 20
96.98563908165638
 10
116.120388425831
 20
96.98563908165638
  0
LWPOLYLINE
  5
3DB6
330
3E4E
100
AcDbEntity
  8
Layer 1
 62
     7
370
    13
100
AcDbPolyline
 90
        2
 70
     0
 43
0.0
 10
109.8549655215814
 20
96.98563908165638
 10
114.3423746458936
 20
96.98563908165638
  0
LWPOLYLINE
  5
3DB7
330
3E4E
100
AcDbEntity
  8
Layer 1
 62
     7
370
    13
100
AcDbPolyline
 90
        2
 70
     0
 43
0.0
 10
108.0347493219496
 20
96.98563908165638
 10
108.9235839571441
 20
96.98563908165638
  0
LWPOLYLINE
  5
3DB8
330
3E4E
100
AcDbEntity
  8
Layer 1
 62
     7
370
    13
100
AcDbPolyline
 90
        2
 70
     0
 43
0.0
 10
102.6583333076687
 20
96.98563908165638
 10
107.1457424319809
 20
96.98563908165638
  0
LWPOLYLINE
  5
3DB9
330
3E4E
100
AcDbEntity
  8
Layer 1
 62
     7
370
    13
100
AcDbPolyline
 90
        2
 70
     0
 43
0.0
 10
100.8379448532627
 20
96.98563908165638
 10
101.7693264177
 20
96.98563908165638
  0
LWPOLYLINE
  5
3DBA
330
3E4E
100
AcDbEntity
  8
Layer 1
 62
     7
370
    13
100
AcDbPolyline
 90
        2
 70
     0
 43
0.0
 10
95.46170109375609
 20
96.98563908165638
 10
99.948937963294
 20
96.98563908165638
  0
LWPOLYLINE
  5
3DBB
330
3E4E
100
AcDbEntity
  8
Layer 1
 62
     7
370
    13
100
AcDbPolyline
 90
        2
 70
     0
 43
0.0
 10
93.64131263935007
 20
96.98563908165638
 10
94.57269420378741
 20
96.98563908165638
  0
LWPOLYLINE
  5
3DBC
330
3E4E
100
AcDbEntity
  8
Layer 1
 62
     7
370
    13
100
AcDbPolyline
 90
        2
 70
     0
 43
0.0
 10
86.99503442920608
 20
96.98563908165638
 10
92.75230574938136
 20
96.98563908165638
  0
LWPOLYLINE
  5
3DBD
330
3E4E
100
AcDbEntity
  8
Layer 1
 62
     7
370
    20
100
AcDbPolyline
 90
        4
 70
     0
 43
0.0
 10
200.787055071331
 20
82.16897241869387
 10
200.9985839341254
 20
92.03262530251269
 10
200.9985839341254
 20
101.9386528608
 10
200.787055071331
 20
111.8023057446189
  0
LWPOLYLINE
  5
3DBE
330
3E4E
100
AcDbEntity
  8
Layer 1
 62
     7
370
    20
100
AcDbPolyline
 90
       15
 70
     0
 43
0.0
 10
108.9659586316127
 20
125.4760619803497
 10
107.0186184085752
 20
125.2643608627811
 10
105.1560275344749
 20
124.7985839531753
 10
103.3780137545374
 20
124.0790757610809
 10
101.6847493235371
 20
123.1476941966436
 10
100.1606390808626
 20
121.9624090949434
 10
98.80602753606241
 20
120.6076252953689
 10
97.66294485405651
 20
119.0836873074687
 10
96.73173554439344
 20
117.3902506216941
 10
96.01205509752475
 20
115.6124090965309
 10
95.54627818791898
 20
113.7072712931878
 10
95.33474932512465
 20
111.8023057446189
 10
95.12304820755606
 20
101.9386528608
 10
95.12304820755606
 20
92.03262530251269
 10
95.33474932512465
 20
82.16897241869387
  0
LWPOLYLINE
  5
3DBF
330
3E4E
100
AcDbEntity
  8
Layer 1
 62
     7
370
    20
100
AcDbPolyline
 90
       12
 70
     0
 43
0.0
 10
95.33474932512465
 20
82.16897241869387
 10
95.54627818791898
 20
80.26383461535072
 10
96.01205509752475
 20
78.40141599602465
 10
96.73173554439344
 20
76.58102754161864
 10
97.66294485405651
 20
74.93013778508691
 10
98.80602753606241
 20
73.36365286794381
 10
100.1606390808626
 20
72.00904132314358
 10
101.6847493235371
 20
70.86595864113768
 10
103.3780137545374
 20
69.89237465700607
 10
105.1560275344749
 20
69.17269421013738
 10
107.0186184085752
 20
68.7069173005316
 10
108.9659586316127
 20
68.49538843773726
  0
LWPOLYLINE
  5
3DC0
330
3E4E
100
AcDbEntity
  8
Layer 1
 62
     7
370
    20
100
AcDbPolyline
 90
       12
 70
     0
 43
0.0
 10
187.197875929763
 20
68.49538843773726
 10
189.1030137331062
 20
68.7069173005316
 10
190.9657768619808
 20
69.17269421013738
 10
192.7437906419182
 20
69.89237465700607
 10
194.4370550729185
 20
70.86595864113768
 10
195.961165315593
 20
72.00904132314358
 10
197.3157768603933
 20
73.36365286794381
 10
198.4585150328507
 20
74.93013778508691
 10
199.4324435265308
 20
76.58102754161864
 10
200.1097492989309
 20
78.40141599602465
 10
200.5751816989882
 20
80.26383461535072
 10
200.787055071331
 20
82.16897241869387
  0
LWPOLYLINE
  5
3DC1
330
3E4E
100
AcDbEntity
  8
Layer 1
 62
     7
370
    20
100
AcDbPolyline
 90
       12
 70
     0
 43
0.0
 10
200.787055071331
 20
111.8023057446189
 10
200.5751816989882
 20
113.7072712931878
 10
200.1097492989309
 20
115.6124090965309
 10
199.4324435265308
 20
117.3902506216941
 10
198.4585150328507
 20
119.0836873074687
 10
197.3157768603933
 20
120.6076252953689
 10
195.961165315593
 20
121.9624090949434
 10
194.4370550729185
 20
123.1476941966436
 10
192.7437906419182
 20
124.0790757610809
 10
190.9657768619808
 20
124.7985839531753
 10
189.1030137331062
 20
125.2643608627811
 10
187.197875929763
 20
125.4760619803497
  0
LWPOLYLINE
  5
3DC2
330
3E4E
100
AcDbEntity
  8
Layer 1
 62
     7
370
    20
100
AcDbPolyline
 90
        6
 70
     0
 43
0.0
 10
108.9659586316127
 20
68.49538843773726
 10
124.587055090381
 20
68.02961152813145
 10
140.2503539688436
 20
67.77570799086858
 10
155.8712781728377
 20
67.77570799086858
 10
171.5347493060746
 20
68.02961152813145
 10
187.197875929763
 20
68.49538843773726
  0
LWPOLYLINE
  5
3DC3
330
3E4E
100
AcDbEntity
  8
Layer 1
 62
     7
370
    20
100
AcDbPolyline
 90
        6
 70
     0
 43
0.0
 10
187.197875929763
 20
125.4760619803497
 10
171.5347493060746
 20
125.9416666351812
 10
155.8712781728377
 20
126.1957424272184
 10
140.2503539688436
 20
126.1957424272184
 10
124.587055090381
 20
125.9416666351812
 10
108.9659586316127
 20
125.4760619803497
  0
LWPOLYLINE
  5
3DC4
330
3E4E
100
AcDbEntity
  8
Layer 1
 62
     7
370
    20
100
AcDbPolyline
 90
       14
 70
     0
 43
0.0
 10
186.859223043563
 20
64.0501817331194
 10
189.018264384169
 20
64.17730575652512
 10
191.1349310503065
 20
64.55833331719374
 10
193.2092230419755
 20
65.23563908959387
 10
195.1567355197872
 20
66.12481823433686
 10
197.0194986486618
 20
67.22518173232565
 10
198.7127630796621
 20
68.53776311220584
 10
200.2365288127881
 20
70.06152884533185
 10
201.5491101926683
 20
71.75513778588066
 10
202.6918483651257
 20
73.61755640520674
 10
203.5386528354
 20
75.56506888301846
 10
204.2159586078002
 20
77.63936087468739
 10
204.5969861684688
 20
79.75602754082489
 10
204.7241101918745
 20
81.91506888143095
  0
LWPOLYLINE
  5
3DC5
330
3E4E
100
AcDbEntity
  8
Layer 1
 62
     7
370
    20
100
AcDbPolyline
 90
       14
 70
     0
 43
0.0
 10
91.39769420458113
 20
81.91506888143095
 10
91.52464597321259
 20
79.75602754082489
 10
91.94804820834979
 20
77.63936087468739
 10
92.58297930628136
 20
75.56506888301846
 10
93.47198619625006
 20
73.61755640520674
 10
94.57269420378741
 20
71.75513778588066
 10
95.88493107411904
 20
70.06152884533185
 10
97.40904131679357
 20
68.53776311220584
 10
99.10230574779388
 20
67.22518173232565
 10
100.9650688766684
 20
66.12481823433686
 10
102.9124090997059
 20
65.23563908959387
 10
104.9867010913748
 20
64.55833331719374
 10
107.1033677575123
 20
64.17730575652512
 10
109.2624090981184
 20
64.0501817331194
  0
LWPOLYLINE
  5
3DC6
330
3E4E
100
AcDbEntity
  8
Layer 1
 62
     7
370
    20
100
AcDbPolyline
 90
       14
 70
     0
 43
0.0
 10
109.2624090981184
 20
129.9209241754191
 10
107.1033677575123
 20
129.7939724067876
 10
104.9867010913748
 20
129.412944846119
 10
102.9124090997059
 20
128.7780137481874
 10
100.9650688766684
 20
127.8890068582187
 10
99.10230574779388
 20
126.7459241762127
 10
97.40904131679357
 20
125.4336873058811
 10
95.88493107411904
 20
123.9097493179809
 10
94.57269420378741
 20
122.2163126322063
 10
93.47198619625006
 20
120.353721758106
 10
92.58297930628136
 20
118.4063815350685
 10
91.94804820834979
 20
116.3319172886253
 10
91.52464597321259
 20
114.2152506224878
 10
91.39769420458113
 20
112.056381536656
  0
LWPOLYLINE
  5
3DC7
330
3E4E
100
AcDbEntity
  8
Layer 1
 62
     7
370
    20
100
AcDbPolyline
 90
       15
 70
     0
 43
0.0
 10
109.2624090981184
 20
129.9209241754191
 10
186.859223043563
 20
129.9209241754191
 10
189.018264384169
 20
129.7939724067876
 10
191.1349310503065
 20
129.412944846119
 10
193.2092230419755
 20
128.7780137481874
 10
195.1567355197872
 20
127.8890068582187
 10
197.0194986486618
 20
126.7459241762127
 10
198.7127630796621
 20
125.4336873058811
 10
200.2365288127881
 20
123.9097493179809
 10
201.5491101926683
 20
122.2163126322063
 10
202.6918483651257
 20
120.353721758106
 10
203.5386528354
 20
118.4063815350685
 10
204.2159586078002
 20
116.3319172886253
 10
204.5969861684688
 20
114.2152506224878
 10
204.7241101918745
 20
112.056381536656
  0
LWPOLYLINE
  5
3DC8
330
3E4E
100
AcDbEntity
  8
Layer 1
 62
     7
370
    20
100
AcDbPolyline
 90
        2
 70
     0
 43
0.0
 10
109.2624090981184
 20
64.0501817331194
 10
186.859223043563
 20
64.0501817331194
  0
LWPOLYLINE
  5
3DC9
330
3E4E
100
AcDbEntity
  8
Layer 1
 62
     7
370
    20
100
AcDbPolyline
 90
        2
 70
     0
 43
0.0
 10
91.39769420458113
 20
112.056381536656
 10
91.39769420458113
 20
81.91506888143095
  0
LWPOLYLINE
  5
3DCA
330
3E4E
100
AcDbEntity
  8
Layer 1
 62
     7
370
    20
100
AcDbPolyline
 90
        2
 70
     0
 43
0.0
 10
204.7241101918745
 20
112.056381536656
 10
204.7241101918745
 20
81.91506888143095
  0
LWPOLYLINE
  5
3DCB
330
3E4E
100
AcDbEntity
  8
Layer 1
 62
     7
370
    13
100
AcDbPolyline
 90
        2
 70
     0
 43
0.0
 10
213.6138345820132
 20
124.2484022041809
 10
213.6138345820132
 20
69.72287595913178
  0
LWPOLYLINE
  5
3DCC
330
3E4E
100
AcDbEntity
  8
Layer 1
 62
     7
370
    13
100
AcDbPolyline
 90
        2
 70
     0
 43
0.0
 10
148.0819172806878
 20
67.7333333164
 10
214.4606390522876
 20
67.7333333164
  0
LWPOLYLINE
  5
3DCD
330
3E4E
100
AcDbEntity
  8
Layer 1
 62
     7
370
    13
100
AcDbPolyline
 90
        2
 70
     0
 43
0.0
 10
148.0819172806878
 20
126.2379448469127
 10
214.4606390522876
 20
126.2379448469127
  0
LWPOLYLINE
  5
3DCE
330
3E4E
100
AcDbEntity
  8
Layer 1
 62
     7
370
     0
100
AcDbPolyline
 90
        4
 70
     0
 43
0.0
 10
213.2751816958132
 20
124.2484022041809
 10
213.9528319777618
 20
124.2484022041809
 10
213.6138345820132
 20
126.2379448469127
 10
213.2751816958132
 20
124.2484022041809
  0
HATCH
  5
3DCF
330
3E4E
100
AcDbEntity
  8
Layer 1
 62
     7
100
AcDbHatch
 10
0.0
 20
0.0
 30
0.0
210
0.0
220
0.0
230
1.0
  2
SOLID
 70
     1
 71
     0
 91
        1
 92
        1
 93
        3
 72
     1
 10
213.2751816958132
 20
124.2484022041809
 11
213.9528319777618
 21
124.2484022041809
 72
     1
 10
213.9528319777618
 20
124.2484022041809
 11
213.6138345820132
 21
126.2379448469127
 72
     1
 10
213.6138345820132
 20
126.2379448469127
 11
213.2751816958132
 21
124.2484022041809
 97
        0
 75
     0
 76
     1
 98
        0
  0
LWPOLYLINE
  5
3DD0
330
3E4E
100
AcDbEntity
  8
Layer 1
 62
     7
370
     0
100
AcDbPolyline
 90
        4
 70
     0
 43
0.0
 10
213.2751816958132
 20
69.72287595913178
 10
213.9528319777618
 20
69.72287595913178
 10
213.6138345820132
 20
67.7333333164
 10
213.2751816958132
 20
69.72287595913178
  0
HATCH
  5
3DD1
330
3E4E
100
AcDbEntity
  8
Layer 1
 62
     7
100
AcDbHatch
 10
0.0
 20
0.0
 30
0.0
210
0.0
220
0.0
230
1.0
  2
SOLID
 70
     1
 71
     0
 91
        1
 92
        1
 93
        3
 72
     1
 10
213.2751816958132
 20
69.72287595913178
 11
213.9528319777618
 21
69.72287595913178
 72
     1
 10
213.9528319777618
 20
69.72287595913178
 11
213.6138345820132
 21
67.7333333164
 72
     1
 10
213.6138345820132
 20
67.7333333164
 11
213.2751816958132
 21
69.72287595913178
 97
        0
 75
     0
 76
     1
 98
        0
  0
LWPOLYLINE
  5
3DD2
330
3E4E
100
AcDbEntity
  8
Layer 1
 62
     7
370
    13
100
AcDbPolyline
 90
        2
 70
     0
 43
0.0
 10
220.6835150272944
 20
66.0400688853997
 10
220.6835150272944
 20
127.9313815326873
  0
LWPOLYLINE
  5
3DD3
330
3E4E
100
AcDbEntity
  8
Layer 1
 62
     7
370
    13
100
AcDbPolyline
 90
        2
 70
     0
 43
0.0
 10
148.0819172806878
 20
129.9209241754191
 10
221.5303194975688
 20
129.9209241754191
  0
LWPOLYLINE
  5
3DD4
330
3E4E
100
AcDbEntity
  8
Layer 1
 62
     7
370
    13
100
AcDbPolyline
 90
        2
 70
     0
 43
0.0
 10
148.0819172806878
 20
64.0501817331194
 10
221.5303194975688
 20
64.0501817331194
  0
LWPOLYLINE
  5
3DD5
330
3E4E
100
AcDbEntity
  8
Layer 1
 62
     7
370
    13
100
AcDbPolyline
 90
        6
 70
     0
 43
0.0
 10
212.0053194999501
 20
99.82198619466259
 10
212.4710964095558
 20
100.2877631042683
 10
212.9365288096131
 20
100.2877631042683
 10
213.4023057192189
 20
99.82198619466259
 10
213.4023057192189
 20
98.89077688499954
 10
212.9365288096131
 20
98.42499997539377
  0
LWPOLYLINE
  5
3DD6
330
3E4E
100
AcDbEntity
  8
Layer 1
 62
     7
370
    13
100
AcDbPolyline
 90
        7
 70
     0
 43
0.0
 10
211.0317355158185
 20
98.42499997539377
 10
210.5659586062127
 20
98.89077688499954
 10
210.5659586062127
 20
99.82198619466259
 10
211.0317355158185
 20
100.2877631042683
 10
211.5395425903443
 20
100.2877631042683
 10
212.0053194999501
 20
99.82198619466259
 10
212.0053194999501
 20
99.35620928505681
  0
LWPOLYLINE
  5
3DD7
330
3E4E
100
AcDbEntity
  8
Layer 1
 62
     7
370
    13
100
AcDbPolyline
 90
        3
 70
     0
 43
0.0
 10
213.4023057192189
 20
96.98563908165638
 10
210.5659586062127
 20
96.98563908165638
 10
211.0317355158185
 20
96.5198621720506
  0
LWPOLYLINE
  5
3DD8
330
3E4E
100
AcDbEntity
  8
Layer 1
 62
     7
370
    13
100
AcDbPolyline
 90
        2
 70
     0
 43
0.0
 10
213.4023057192189
 20
96.5198621720506
 10
213.4023057192189
 20
97.45141599126215
  0
LWPOLYLINE
  5
3DD9
330
3E4E
100
AcDbEntity
  8
Layer 1
 62
     7
370
    13
100
AcDbPolyline
 90
        4
 70
     0
 43
0.0
 10
213.4023057192189
 20
95.08050127831319
 10
210.5659586062127
 20
95.08050127831319
 10
212.4710964095558
 20
93.6835150590444
 10
212.4710964095558
 20
95.58865286238756
  0
LWPOLYLINE
  5
3DDA
330
3E4E
100
AcDbEntity
  8
Layer 1
 62
     7
370
     0
100
AcDbPolyline
 90
        4
 70
     0
 43
0.0
 10
220.3872368155629
 20
66.0400688853997
 10
221.0221679134944
 20
66.0400688853997
 10
220.6835150272944
 20
64.0501817331194
 10
220.3872368155629
 20
66.0400688853997
  0
HATCH
  5
3DDB
330
3E4E
100
AcDbEntity
  8
Layer 1
 62
     7
100
AcDbHatch
 10
0.0
 20
0.0
 30
0.0
210
0.0
220
0.0
230
1.0
  2
SOLID
 70
     1
 71
     0
 91
        1
 92
        1
 93
        3
 72
     1
 10
220.3872368155629
 20
66.0400688853997
 11
221.0221679134944
 21
66.0400688853997
 72
     1
 10
221.0221679134944
 20
66.0400688853997
 11
220.6835150272944
 21
64.0501817331194
 72
     1
 10
220.6835150272944
 20
64.0501817331194
 11
220.3872368155629
 21
66.0400688853997
 97
        0
 75
     0
 76
     1
 98
        0
  0
LWPOLYLINE
  5
3DDC
330
3E4E
100
AcDbEntity
  8
Layer 1
 62
     7
370
     0
100
AcDbPolyline
 90
        4
 70
     0
 43
0.0
 10
220.3872368155629
 20
127.9313815326873
 10
221.0221679134944
 20
127.9313815326873
 10
220.6835150272944
 20
129.9209241754191
 10
220.3872368155629
 20
127.9313815326873
  0
HATCH
  5
3DDD
330
3E4E
100
AcDbEntity
  8
Layer 1
 62
     7
100
AcDbHatch
 10
0.0
 20
0.0
 30
0.0
210
0.0
220
0.0
230
1.0
  2
SOLID
 70
     1
 71
     0
 91
        1
 92
        1
 93
        3
 72
     1
 10
220.3872368155629
 20
127.9313815326873
 11
221.0221679134944
 21
127.9313815326873
 72
     1
 10
221.0221679134944
 20
127.9313815326873
 11
220.6835150272944
 21
129.9209241754191
 72
     1
 10
220.6835150272944
 20
129.9209241754191
 11
220.3872368155629
 21
127.9313815326873
 97
        0
 75
     0
 76
     1
 98
        0
  0
LWPOLYLINE
  5
3DDE
330
3E4E
100
AcDbEntity
  8
Layer 1
 62
     7
370
    13
100
AcDbPolyline
 90
        2
 70
     0
 43
0.0
 10
199.0514159658621
 20
55.54148490364934
 10
97.07038843059351
 20
55.54148490364934
  0
LWPOLYLINE
  5
3DDF
330
3E4E
100
AcDbEntity
  8
Layer 1
 62
     7
370
    13
100
AcDbPolyline
 90
        2
 70
     0
 43
0.0
 10
95.08067353308748
 20
96.98563908165638
 10
95.08067353308748
 20
54.69468043337494
  0
LWPOLYLINE
  5
3DE0
330
3E4E
100
AcDbEntity
  8
Layer 1
 62
     7
370
    13
100
AcDbPolyline
 90
        2
 70
     0
 43
0.0
 10
201.0409586085939
 20
96.98563908165638
 10
201.0409586085939
 20
54.69468043337494
  0
LWPOLYLINE
  5
3DE1
330
3E4E
100
AcDbEntity
  8
Layer 1
 62
     7
370
    13
100
AcDbPolyline
 90
        9
 70
     0
 43
0.0
 10
220.0062092548943
 20
98.89077688499954
 10
220.4719861645001
 20
99.35620928505681
 10
220.4719861645001
 20
100.2877631042683
 10
220.0062092548943
 20
100.7531955043256
 10
219.0749999452313
 20
100.7531955043256
 10
218.6092230356255
 20
100.2877631042683
 10
218.6092230356255
 20
98.89077688499954
 10
217.6356390514939
 20
98.89077688499954
 10
217.6356390514939
 20
100.7531955043256
  0
LWPOLYLINE
  5
3DE2
330
3E4E
100
AcDbEntity
  8
Layer 1
 62
     7
370
    13
100
AcDbPolyline
 90
       10
 70
     0
 43
0.0
 10
219.0749999452313
 20
96.05442977199336
 10
219.0749999452313
 20
97.45141599126215
 10
219.5407768548371
 20
97.9168483913194
 10
220.0062092548943
 20
97.9168483913194
 10
220.4719861645001
 20
97.45141599126215
 10
220.4719861645001
 20
96.5198621720506
 10
220.0062092548943
 20
96.05442977199336
 10
218.6092230356255
 20
96.05442977199336
 10
217.6356390514939
 20
96.98563908165638
 10
217.6356390514939
 20
97.45141599126215
  0
LWPOLYLINE
  5
3DE3
330
3E4E
100
AcDbEntity
  8
Layer 1
 62
     7
370
    13
100
AcDbPolyline
 90
        4
 70
     0
 43
0.0
 10
220.4719861645001
 20
94.61506887825596
 10
217.6356390514939
 20
94.61506887825596
 10
219.5407768548371
 20
93.21808265898715
 10
219.5407768548371
 20
95.08050127831319
  0
LWPOLYLINE
  5
3DE4
330
3E4E
100
AcDbEntity
  8
Layer 1
 62
     7
370
     0
100
AcDbPolyline
 90
        4
 70
     0
 43
0.0
 10
199.0514159658621
 20
55.8801377898494
 10
199.0514159658621
 20
55.20283201744931
 10
201.0409586085939
 20
55.54148490364934
 10
199.0514159658621
 20
55.8801377898494
  0
HATCH
  5
3DE5
330
3E4E
100
AcDbEntity
  8
Layer 1
 62
     7
100
AcDbHatch
 10
0.0
 20
0.0
 30
0.0
210
0.0
220
0.0
230
1.0
  2
SOLID
 70
     1
 71
     0
 91
        1
 92
        1
 93
        3
 72
     1
 10
199.0514159658621
 20
55.8801377898494
 11
199.0514159658621
 21
55.20283201744931
 72
     1
 10
199.0514159658621
 20
55.20283201744931
 11
201.0409586085939
 21
55.54148490364934
 72
     1
 10
201.0409586085939
 20
55.54148490364934
 11
199.0514159658621
 21
55.8801377898494
 97
        0
 75
     0
 76
     1
 98
        0
  0
LWPOLYLINE
  5
3DE6
330
3E4E
100
AcDbEntity
  8
Layer 1
 62
     7
370
     0
100
AcDbPolyline
 90
        4
 70
     0
 43
0.0
 10
97.07038843059351
 20
55.8801377898494
 10
97.07038843059351
 20
55.20283201744931
 10
95.08067353308748
 20
55.54148490364934
 10
97.07038843059351
 20
55.8801377898494
  0
HATCH
  5
3DE7
330
3E4E
100
AcDbEntity
  8
Layer 1
 62
     7
100
AcDbHatch
 10
0.0
 20
0.0
 30
0.0
210
0.0
220
0.0
230
1.0
  2
SOLID
 70
     1
 71
     0
 91
        1
 92
        1
 93
        3
 72
     1
 10
97.07038843059351
 20
55.8801377898494
 11
97.07038843059351
 21
55.20283201744931
 72
     1
 10
97.07038843059351
 20
55.20283201744931
 11
95.08067353308748
 21
55.54148490364934
 72
     1
 10
95.08067353308748
 20
55.54148490364934
 11
97.07038843059351
 21
55.8801377898494
 97
        0
 75
     0
 76
     1
 98
        0
  0
LWPOLYLINE
  5
3DE8
330
3E4E
100
AcDbEntity
  8
Layer 1
 62
     7
370
    13
100
AcDbPolyline
 90
        2
 70
     0
 43
0.0
 10
93.38740910208718
 20
50.29184840322565
 10
202.7342230395942
 20
50.29184840322565
  0
LWPOLYLINE
  5
3DE9
330
3E4E
100
AcDbEntity
  8
Layer 1
 62
     7
370
    13
100
AcDbPolyline
 90
        2
 70
     0
 43
0.0
 10
204.7241101918745
 20
96.98563908165638
 10
204.7241101918745
 20
49.44538844249977
  0
LWPOLYLINE
  5
3DEA
330
3E4E
100
AcDbEntity
  8
Layer 1
 62
     7
370
    13
100
AcDbPolyline
 90
        2
 70
     0
 43
0.0
 10
91.39769420458113
 20
96.98563908165638
 10
91.39769420458113
 20
49.44538844249977
  0
LWPOLYLINE
  5
3DEB
330
3E4E
100
AcDbEntity
  8
Layer 1
 62
     7
370
    13
100
AcDbPolyline
 90
        4
 70
     0
 43
0.0
 10
150.4104573191682
 20
57.14999998571251
 10
149.9446804095624
 20
56.68422307610672
 10
149.9446804095624
 20
56.21879067604947
 10
150.4104573191682
 20
55.75301376644368
  0
LWPOLYLINE
  5
3DEC
330
3E4E
100
AcDbEntity
  8
Layer 1
 62
     7
370
    13
100
AcDbPolyline
 90
       13
 70
     0
 43
0.0
 10
150.4104573191682
 20
55.75301376644368
 10
151.3840413032998
 20
55.75301376644368
 10
151.8498182129056
 20
56.21879067604947
 10
151.8498182129056
 20
56.68422307610672
 10
151.3840413032998
 20
57.14999998571251
 10
150.4104573191682
 20
57.14999998571251
 10
149.9446804095624
 20
57.61577689531828
 10
149.9446804095624
 20
58.12358396984411
 10
150.4104573191682
 20
58.58936087944988
 10
151.3840413032998
 20
58.58936087944988
 10
151.8498182129056
 20
58.12358396984411
 10
151.8498182129056
 20
57.61577689531828
 10
151.3840413032998
 20
57.14999998571251
  0
LWPOLYLINE
  5
3DED
330
3E4E
100
AcDbEntity
  8
Layer 1
 62
     7
370
    13
100
AcDbPolyline
 90
        4
 70
     0
 43
0.0
 10
148.5476941902936
 20
55.75301376644368
 10
148.5476941902936
 20
58.58936087944988
 10
147.1083332965562
 20
56.68422307610672
 10
149.0134710998994
 20
56.68422307610672
  0
LWPOLYLINE
  5
3DEE
330
3E4E
100
AcDbEntity
  8
Layer 1
 62
     7
370
    13
100
AcDbPolyline
 90
        3
 70
     0
 43
0.0
 10
144.2719861835501
 20
58.58936087944988
 10
146.1769517321189
 20
58.58936087944988
 10
144.7799655128501
 20
55.75301376644368
  0
LWPOLYLINE
  5
3DEF
330
3E4E
100
AcDbEntity
  8
Layer 1
 62
     7
370
     0
100
AcDbPolyline
 90
        4
 70
     0
 43
0.0
 10
93.38740910208718
 20
50.6305012894257
 10
93.38740910208718
 20
49.95319551702559
 10
91.39769420458113
 20
50.29184840322565
 10
93.38740910208718
 20
50.6305012894257
  0
HATCH
  5
3DF0
330
3E4E
100
AcDbEntity
  8
Layer 1
 62
     7
100
AcDbHatch
 10
0.0
 20
0.0
 30
0.0
210
0.0
220
0.0
230
1.0
  2
SOLID
 70
     1
 71
     0
 91
        1
 92
        1
 93
        3
 72
     1
 10
93.38740910208718
 20
50.6305012894257
 11
93.38740910208718
 21
49.95319551702559
 72
     1
 10
93.38740910208718
 20
49.95319551702559
 11
91.39769420458113
 21
50.29184840322565
 72
     1
 10
91.39769420458113
 20
50.29184840322565
 11
93.38740910208718
 21
50.6305012894257
 97
        0
 75
     0
 76
     1
 98
        0
  0
LWPOLYLINE
  5
3DF1
330
3E4E
100
AcDbEntity
  8
Layer 1
 62
     7
370
     0
100
AcDbPolyline
 90
        4
 70
     0
 43
0.0
 10
202.7342230395942
 20
50.6305012894257
 10
202.7342230395942
 20
49.95319551702559
 10
204.7241101918745
 20
50.29184840322565
 10
202.7342230395942
 20
50.6305012894257
  0
HATCH
  5
3DF2
330
3E4E
100
AcDbEntity
  8
Layer 1
 62
     7
100
AcDbHatch
 10
0.0
 20
0.0
 30
0.0
210
0.0
220
0.0
230
1.0
  2
SOLID
 70
     1
 71
     0
 91
        1
 92
        1
 93
        3
 72
     1
 10
202.7342230395942
 20
50.6305012894257
 11
202.7342230395942
 21
49.95319551702559
 72
     1
 10
202.7342230395942
 20
49.95319551702559
 11
204.7241101918745
 21
50.29184840322565
 72
     1
 10
204.7241101918745
 20
50.29184840322565
 11
202.7342230395942
 21
50.6305012894257
 97
        0
 75
     0
 76
     1
 98
        0
  0
LWPOLYLINE
  5
3DF3
330
3E4E
100
AcDbEntity
  8
Layer 1
 62
     7
370
    13
100
AcDbPolyline
 90
        2
 70
     0
 43
0.0
 10
186.859223043563
 20
112.056381536656
 10
195.3682643825814
 20
127.7620550895872
  0
LWPOLYLINE
  5
3DF4
330
3E4E
100
AcDbEntity
  8
Layer 1
 62
     7
370
    13
100
AcDbPolyline
 90
       10
 70
     0
 43
0.0
 10
211.7514159626872
 20
134.9163126290313
 10
213.1907768564246
 20
134.9163126290313
 10
213.6562092564818
 20
134.4507079741998
 10
213.6562092564818
 20
133.984931064594
 10
213.1907768564246
 20
133.5193264097625
 10
212.2168483627444
 20
133.5193264097625
 10
211.7514159626872
 20
133.984931064594
 10
211.7514159626872
 20
135.3819172838628
 10
212.7249999468188
 20
136.3556735227687
 10
213.1907768564246
 20
136.3556735227687
  0
LWPOLYLINE
  5
3DF5
330
3E4E
100
AcDbEntity
  8
Layer 1
 62
     7
370
    13
100
AcDbPolyline
 90
       10
 70
     0
 43
0.0
 10
208.915068849681
 20
135.8476941934686
 10
209.4228759242068
 20
136.3556735227687
 10
210.3544297434183
 20
136.3556735227687
 10
210.8198621434756
 20
135.8476941934686
 10
210.8198621434756
 20
135.3819172838628
 10
210.3544297434183
 20
134.9163126290313
 10
209.4228759242068
 20
134.9163126290313
 10
208.915068849681
 20
134.4507079741998
 10
208.915068849681
 20
133.5193264097625
 10
210.8198621434756
 20
133.5193264097625
  0
LWPOLYLINE
  5
3DF6
330
3E4E
100
AcDbEntity
  8
Layer 1
 62
     7
370
    13
100
AcDbPolyline
 90
        3
 70
     0
 43
0.0
 10
207.5180826304122
 20
133.5193264097625
 10
207.5180826304122
 20
136.3556735227687
 10
207.0523057208064
 20
135.8476941934686
  0
LWPOLYLINE
  5
3DF7
330
3E4E
100
AcDbEntity
  8
Layer 1
 62
     7
370
    13
100
AcDbPolyline
 90
        2
 70
     0
 43
0.0
 10
207.0523057208064
 20
133.5193264097625
 10
207.9835150304694
 20
133.5193264097625
  0
LWPOLYLINE
  5
3DF8
330
3E4E
100
AcDbEntity
  8
Layer 1
 62
     7
370
    13
100
AcDbPolyline
 90
        2
 70
     0
 43
0.0
 10
204.681735517406
 20
134.9163126290313
 10
206.0787217366748
 20
133.5193264097625
  0
LWPOLYLINE
  5
3DF9
330
3E4E
100
AcDbEntity
  8
Layer 1
 62
     7
370
    13
100
AcDbPolyline
 90
        7
 70
     0
 43
0.0
 10
204.2159586078002
 20
133.5193264097625
 10
204.2159586078002
 20
136.3556735227687
 10
205.612944827069
 20
136.3556735227687
 10
206.0787217366748
 20
135.8476941934686
 10
206.0787217366748
 20
135.3819172838628
 10
205.612944827069
 20
134.9163126290313
 10
204.2159586078002
 20
134.9163126290313
  0
LWPOLYLINE
  5
3DFA
330
3E4E
100
AcDbEntity
  8
Layer 1
 62
     7
370
    13
100
AcDbPolyline
 90
        2
 70
     0
 43
0.0
 10
201.379611494794
 20
134.9163126290313
 10
203.2847492981372
 20
134.9163126290313
  0
LWPOLYLINE
  5
3DFB
330
3E4E
100
AcDbEntity
  8
Layer 1
 62
     7
370
    13
100
AcDbPolyline
 90
        4
 70
     0
 43
0.0
 10
199.9402506010566
 20
133.5193264097625
 10
199.9402506010566
 20
136.3556735227687
 10
198.5432643817878
 20
134.4507079741998
 10
200.448402185131
 20
134.4507079741998
  0
LWPOLYLINE
  5
3DFC
330
3E4E
100
AcDbEntity
  8
Layer 1
 62
     7
370
    13
100
AcDbPolyline
 90
        3
 70
     0
 43
0.0
 10
213.6562092564818
 20
133.3076252921939
 10
198.3317355189934
 20
133.3076252921939
 10
196.2998182017931
 20
129.5400688695247
  0
LWPOLYLINE
  5
3DFD
330
3E4E
100
AcDbEntity
  8
Layer 1
 62
     7
370
    13
100
AcDbPolyline
 90
        9
 70
     0
 43
0.0
 10
150.4104573191682
 20
50.50372177556852
 10
150.918264393694
 20
50.50372177556852
 10
151.3840413032998
 20
50.96949868517429
 10
151.3840413032998
 20
52.87429197896893
 10
150.918264393694
 20
53.34006888857469
 10
150.4104573191682
 20
53.34006888857469
 10
149.9446804095624
 20
52.87429197896893
 10
149.9446804095624
 20
50.96949868517429
 10
150.4104573191682
 20
50.50372177556852
  0
LWPOLYLINE
  5
3DFE
330
3E4E
100
AcDbEntity
  8
Layer 1
 62
     7
370
    13
100
AcDbPolyline
 90
        9
 70
     0
 43
0.0
 10
148.0819172806878
 20
50.50372177556852
 10
148.5476941902936
 20
50.50372177556852
 10
149.0134710998994
 20
50.96949868517429
 10
149.0134710998994
 20
52.87429197896893
 10
148.5476941902936
 20
53.34006888857469
 10
148.0819172806878
 20
53.34006888857469
 10
147.5739379513877
 20
52.87429197896893
 10
147.5739379513877
 20
50.96949868517429
 10
148.0819172806878
 20
50.50372177556852
  0
LWPOLYLINE
  5
3DFF
330
3E4E
100
AcDbEntity
  8
Layer 1
 62
     7
370
    13
100
AcDbPolyline
 90
        4
 70
     0
 43
0.0
 10
145.2457424224559
 20
51.90070799483732
 10
144.7799655128501
 20
51.43493108523154
 10
144.7799655128501
 20
50.96949868517429
 10
145.2457424224559
 20
50.50372177556852
  0
LWPOLYLINE
  5
3E00
330
3E4E
100
AcDbEntity
  8
Layer 1
 62
     7
370
    13
100
AcDbPolyline
 90
       13
 70
     0
 43
0.0
 10
145.2457424224559
 20
50.50372177556852
 10
146.1769517321189
 20
50.50372177556852
 10
146.6427286417247
 20
50.96949868517429
 10
146.6427286417247
 20
51.43493108523154
 10
146.1769517321189
 20
51.90070799483732
 10
145.2457424224559
 20
51.90070799483732
 10
144.7799655128501
 20
52.36648490444309
 10
144.7799655128501
 20
52.87429197896893
 10
145.2457424224559
 20
53.34006888857469
 10
146.1769517321189
 20
53.34006888857469
 10
146.6427286417247
 20
52.87429197896893
 10
146.6427286417247
 20
52.36648490444309
 10
146.1769517321189
 20
51.90070799483732
  0
LWPOLYLINE
  5
3E01
330
3E4E
100
AcDbEntity
  8
Layer 1
 62
     7
370
     0
100
AcDbPolyline
 90
        4
 70
     0
 43
0.0
 10
196.003195480513
 20
129.6670206381562
 10
196.5960964135246
 20
129.3707424264247
 10
195.3682643825814
 20
127.7620550895872
 10
196.003195480513
 20
129.6670206381562
  0
HATCH
  5
3E02
330
3E4E
100
AcDbEntity
  8
Layer 1
 62
     7
100
AcDbHatch
 10
0.0
 20
0.0
 30
0.0
210
0.0
220
0.0
230
1.0
  2
SOLID
 70
     1
 71
     0
 91
        1
 92
        1
 93
        3
 72
     1
 10
196.003195480513
 20
129.6670206381562
 11
196.5960964135246
 21
129.3707424264247
 72
     1
 10
196.5960964135246
 20
129.3707424264247
 11
195.3682643825814
 21
127.7620550895872
 72
     1
 10
195.3682643825814
 20
127.7620550895872
 11
196.003195480513
 21
129.6670206381562
 97
        0
 75
     0
 76
     1
 98
        0
  0
LWPOLYLINE
  5
3E03
330
3E4E
100
AcDbEntity
  8
Layer 1
 62
     7
370
    13
100
AcDbPolyline
 90
        2
 70
     0
 43
0.0
 10
146.0499999634875
 20
87.24911022124329
 10
148.0819172806878
 20
109.3469861922813
  0
LWPOLYLINE
  5
3E04
330
3E4E
100
AcDbEntity
  8
Layer 1
 62
     7
370
    30
100
AcDbPolyline
 90
       41
 70
     0
 43
0.0
 10
156.5485839452378
 20
96.98563908165638
 10
156.4638345963006
 20
98.29787595198805
 10
156.1675563845692
 20
99.61045733186821
 10
155.6173746355748
 20
100.8379448532627
 10
154.9400688631747
 20
101.9810275352686
 10
154.0932643929003
 20
102.9969861938688
 10
153.0773057343001
 20
103.8437906641432
 10
151.9342230522942
 20
104.5634711110119
 10
150.7067355308997
 20
105.0712781855377
 10
149.394498660568
 20
105.3677286520435
 10
148.0819172806878
 20
105.4946804206749
 10
146.7273057358876
 20
105.3677286520435
 10
145.4572712852503
 20
105.0712781855377
 10
144.1874090893872
 20
104.5634711110119
 10
143.0867010818498
 20
103.8437906641432
 10
142.0707424232496
 20
102.9969861938688
 10
141.1817355332809
 20
101.9810275352686
 10
140.5042575061066
 20
100.8379448532627
 10
139.9962781768065
 20
99.61045733186821
 10
139.6576252906064
 20
98.29787595198805
 10
139.5730481964435
 20
96.98563908165638
 10
139.6576252906064
 20
95.67340221132472
 10
139.9962781768065
 20
94.36116534099303
 10
140.5042575061066
 20
93.13333331004999
 10
141.1817355332809
 20
91.99025062804413
 10
142.0707424232496
 20
90.97429196944391
 10
143.0867010818498
 20
90.12783200871806
 10
144.1874090893872
 20
89.40815156184935
 10
145.4572712852503
 20
88.89999997777502
 10
146.7273057358876
 20
88.6037217660435
 10
148.0819172806878
 20
88.4765977426378
 10
149.394498660568
 20
88.6037217660435
 10
150.7067355308997
 20
88.89999997777502
 10
151.9342230522942
 20
89.40815156184935
 10
153.0773057343001
 20
90.12783200871806
 10
154.0932643929003
 20
90.97429196944391
 10
154.9400688631747
 20
91.99025062804413
 10
155.6173746355748
 20
93.13333331004999
 10
156.1675563845692
 20
94.36116534099303
 10
156.4638345963006
 20
95.67340221132472
 10
156.5485839452378
 20
96.98563908165638
  0
LWPOLYLINE
  5
3E05
330
3E4E
100
AcDbEntity
  8
Layer 1
 62
     7
370
    30
100
AcDbPolyline
 90
       37
 70
     0
 43
0.0
 10
155.8712781728377
 20
96.98563908165638
 10
155.7444986589805
 20
98.34025062645658
 10
155.405501263232
 20
99.65283200633681
 10
154.812944839769
 20
100.8803195277313
 10
154.0508897184317
 20
101.9810275352686
 10
153.0773057343001
 20
102.9546115194002
 10
151.9765977267628
 20
103.7166666407375
 10
150.7491102053682
 20
104.3092230642004
 10
149.4365288254881
 20
104.6478759504005
 10
148.0819172806878
 20
104.7749999738062
 10
146.7273057358876
 20
104.6478759504005
 10
145.4150688655559
 20
104.3092230642004
 10
144.1874090893872
 20
103.7166666407375
 10
143.0443264073812
 20
102.9546115194002
 10
142.112944842944
 20
101.9810275352686
 10
141.3086873019124
 20
100.8803195277313
 10
140.7583332981437
 20
99.65283200633681
 10
140.3773057374751
 20
98.34025062645658
 10
140.2927286433122
 20
96.98563908165638
 10
140.3773057374751
 20
95.63102753685614
 10
140.7583332981437
 20
94.31879066652449
 10
141.3086873019124
 20
93.09095863558143
 10
142.112944842944
 20
91.99025062804413
 10
143.0443264073812
 20
91.01666664391251
 10
144.1874090893872
 20
90.25461152257523
 10
145.4150688655559
 20
89.66205509911226
 10
146.7273057358876
 20
89.32340221291218
 10
148.0819172806878
 20
89.19627818950649
 10
149.4365288254881
 20
89.32340221291218
 10
150.7491102053682
 20
89.66205509911226
 10
151.9765977267628
 20
90.25461152257523
 10
153.0773057343001
 20
91.01666664391251
 10
154.0508897184317
 20
91.99025062804413
 10
154.812944839769
 20
93.09095863558143
 10
155.405501263232
 20
94.31879066652449
 10
155.7444986589805
 20
95.63102753685614
 10
155.8712781728377
 20
96.98563908165638
  0
LWPOLYLINE
  5
3E06
330
3E4E
100
AcDbEntity
  8
Layer 1
 62
     7
370
    30
100
AcDbPolyline
 90
       37
 70
     0
 43
0.0
 10
154.4742919535689
 20
96.98563908165638
 10
154.3471679301632
 20
98.0863470891937
 10
154.0508897184317
 20
99.18705509673102
 10
153.5854573183744
 20
100.2030137553312
 10
152.9501817108944
 20
101.0918483905256
 10
152.1884710991056
 20
101.8962781863315
 10
151.256917279894
 20
102.531209284263
 10
150.2409586212939
 20
102.9969861938688
 10
149.1826252882252
 20
103.2932644056003
 10
148.0819172806878
 20
103.3780137545374
 10
146.9390068534562
 20
103.2932644056003
 10
145.8806735203875
 20
102.9969861938688
 10
144.8647148617873
 20
102.531209284263
 10
143.9757079718186
 20
101.8962781863315
 10
143.1712781760127
 20
101.0918483905256
 10
142.5363470780812
 20
100.2030137553312
 10
142.0707424232496
 20
99.18705509673102
 10
141.7742919567439
 20
98.0863470891937
 10
141.689714862581
 20
96.98563908165638
 10
141.7742919567439
 20
95.88493107411904
 10
142.0707424232496
 20
94.78422306658172
 10
142.5363470780812
 20
93.81063908245012
 10
143.1712781760127
 20
92.87942977278708
 10
143.9757079718186
 20
92.11737465144985
 10
144.8647148617873
 20
91.4400688790497
 10
145.8806735203875
 20
90.97429196944391
 10
146.9390068534562
 20
90.720388432181
 10
148.0819172806878
 20
90.5932644087753
 10
149.1826252882252
 20
90.720388432181
 10
150.2409586212939
 20
90.97429196944391
 10
151.256917279894
 20
91.4400688790497
 10
152.1884710991056
 20
92.11737465144985
 10
152.9501817108944
 20
92.87942977278708
 10
153.5854573183744
 20
93.81063908245012
 10
154.0508897184317
 20
94.78422306658172
 10
154.3471679301632
 20
95.88493107411904
 10
154.4742919535689
 20
96.98563908165638
  0
LWPOLYLINE
  5
3E07
330
3E4E
100
AcDbEntity
  8
Layer 1
 62
     7
370
    20
100
AcDbPolyline
 90
        2
 70
     0
 43
0.0
 10
204.7241101918745
 20
183.0492919464252
 10
204.7241101918745
 20
183.2186183895252
  0
LWPOLYLINE
  5
3E08
330
3E4E
100
AcDbEntity
  8
Layer 1
 62
     7
370
    20
100
AcDbPolyline
 90
        2
 70
     0
 43
0.0
 10
148.0819172806878
 20
150.7913126250626
 10
156.5485839452378
 20
150.7913126250626
  0
LWPOLYLINE
  5
3E09
330
3E4E
100
AcDbEntity
  8
Layer 1
 62
     7
370
    13
100
AcDbPolyline
 90
        2
 70
     0
 43
0.0
 10
148.0819172806878
 20
179.9590412961561
 10
148.0819172806878
 20
185.0813815183998
  0
LWPOLYLINE
  5
3E0A
330
3E4E
100
AcDbEntity
  8
Layer 1
 62
     7
370
    13
100
AcDbPolyline
 90
        2
 70
     0
 43
0.0
 10
148.0819172806878
 20
178.1810275162186
 10
148.0819172806878
 20
179.0700344061873
  0
LWPOLYLINE
  5
3E0B
330
3E4E
100
AcDbEntity
  8
Layer 1
 62
     7
370
    13
100
AcDbPolyline
 90
        2
 70
     0
 43
0.0
 10
148.0819172806878
 20
172.7624090822434
 10
148.0819172806878
 20
177.2496459517813
  0
LWPOLYLINE
  5
3E0C
330
3E4E
100
AcDbEntity
  8
Layer 1
 62
     7
370
    13
100
AcDbPolyline
 90
        2
 70
     0
 43
0.0
 10
148.0819172806878
 20
170.9843953023059
 10
148.0819172806878
 20
171.8734021922747
  0
LWPOLYLINE
  5
3E0D
330
3E4E
100
AcDbEntity
  8
Layer 1
 62
     7
370
    13
100
AcDbPolyline
 90
        2
 70
     0
 43
0.0
 10
148.0819172806878
 20
165.5656046135565
 10
148.0819172806878
 20
170.0953884123373
  0
LWPOLYLINE
  5
3E0E
330
3E4E
100
AcDbEntity
  8
Layer 1
 62
     7
370
    13
100
AcDbPolyline
 90
        2
 70
     0
 43
0.0
 10
148.0819172806878
 20
163.7875908336191
 10
148.0819172806878
 20
164.6765977235878
  0
LWPOLYLINE
  5
3E0F
330
3E4E
100
AcDbEntity
  8
Layer 1
 62
     7
370
    13
100
AcDbPolyline
 90
        2
 70
     0
 43
0.0
 10
148.0819172806878
 20
158.3689723996438
 10
148.0819172806878
 20
162.8985839436503
  0
LWPOLYLINE
  5
3E10
330
3E4E
100
AcDbEntity
  8
Layer 1
 62
     7
370
    13
100
AcDbPolyline
 90
        2
 70
     0
 43
0.0
 10
148.0819172806878
 20
156.5909586197064
 10
148.0819172806878
 20
157.4799655096752
  0
LWPOLYLINE
  5
3E11
330
3E4E
100
AcDbEntity
  8
Layer 1
 62
     7
370
    13
100
AcDbPolyline
 90
        2
 70
     0
 43
0.0
 10
148.0819172806878
 20
151.1723401857311
 10
148.0819172806878
 20
155.7019517297377
  0
LWPOLYLINE
  5
3E12
330
3E4E
100
AcDbEntity
  8
Layer 1
 62
     7
370
    13
100
AcDbPolyline
 90
        2
 70
     0
 43
0.0
 10
148.0819172806878
 20
149.3943264057937
 10
148.0819172806878
 20
150.2833332957625
  0
LWPOLYLINE
  5
3E13
330
3E4E
100
AcDbEntity
  8
Layer 1
 62
     7
370
    13
100
AcDbPolyline
 90
        2
 70
     0
 43
0.0
 10
148.0819172806878
 20
143.3829792935813
 10
148.0819172806878
 20
148.5053195158251
  0
LWPOLYLINE
  5
3E14
330
3E4E
100
AcDbEntity
  8
Layer 1
 62
     7
370
    20
100
AcDbPolyline
 90
        2
 70
     0
 43
0.0
 10
94.27641599205593
 20
183.2186183895252
 10
148.0819172806878
 20
183.2186183895252
  0
LWPOLYLINE
  5
3E15
330
3E4E
100
AcDbEntity
  8
Layer 1
 62
     7
370
    20
100
AcDbPolyline
 90
        3
 70
     0
 43
0.0
 10
94.95372176445602
 20
182.4143608484936
 10
94.74202064688737
 20
182.879965503325
 10
94.27641599205593
 20
183.0492919464252
  0
LWPOLYLINE
  5
3E16
330
3E4E
100
AcDbEntity
  8
Layer 1
 62
     7
370
    20
100
AcDbPolyline
 90
        3
 70
     0
 43
0.0
 10
95.12304820755606
 20
182.4143608484936
 10
94.86897241551885
 20
182.9647148522623
 10
94.27641599205593
 20
183.2186183895252
  0
LWPOLYLINE
  5
3E17
330
3E4E
100
AcDbEntity
  8
Layer 1
 62
     7
370
    20
100
AcDbPolyline
 90
        2
 70
     0
 43
0.0
 10
94.27641599205593
 20
183.0492919464252
 10
91.39769420458113
 20
183.0492919464252
  0
LWPOLYLINE
  5
3E18
330
3E4E
100
AcDbEntity
  8
Layer 1
 62
     7
370
    20
100
AcDbPolyline
 90
        2
 70
     0
 43
0.0
 10
94.95372176445602
 20
182.4143608484936
 10
95.96968042305617
 20
159.1310275209811
  0
LWPOLYLINE
  5
3E19
330
3E4E
100
AcDbEntity
  8
Layer 1
 62
     7
370
    20
100
AcDbPolyline
 90
        2
 70
     0
 43
0.0
 10
95.08067353308748
 20
183.2186183895252
 10
96.13900686615622
 20
159.1734021954497
  0
LWPOLYLINE
  5
3E1A
330
3E4E
100
AcDbEntity
  8
Layer 1
 62
     7
370
    20
100
AcDbPolyline
 90
        4
 70
     0
 43
0.0
 10
139.4882988475064
 20
150.6219861819625
 10
140.2079792943751
 20
150.0716321781939
 10
141.6473401881125
 20
149.6060275233624
 10
148.0819172806878
 20
149.6060275233624
  0
LWPOLYLINE
  5
3E1B
330
3E4E
100
AcDbEntity
  8
Layer 1
 62
     7
370
    20
100
AcDbPolyline
 90
        2
 70
     0
 43
0.0
 10
139.4882988475064
 20
150.6219861819625
 10
102.8700344252373
 20
152.2306735188
  0
LWPOLYLINE
  5
3E1C
330
3E4E
100
AcDbEntity
  8
Layer 1
 62
     7
370
    20
100
AcDbPolyline
 90
        3
 70
     0
 43
0.0
 10
139.5730481964435
 20
150.7913126250626
 10
140.2927286433122
 20
150.1985839468253
 10
141.689714862581
 20
149.7753539664624
  0
LWPOLYLINE
  5
3E1D
330
3E4E
100
AcDbEntity
  8
Layer 1
 62
     7
370
    20
100
AcDbPolyline
 90
        2
 70
     0
 43
0.0
 10
148.0819172806878
 20
149.7753539664624
 10
141.689714862581
 20
149.7753539664624
  0
LWPOLYLINE
  5
3E1E
330
3E4E
100
AcDbEntity
  8
Layer 1
 62
     7
370
    20
100
AcDbPolyline
 90
        2
 70
     0
 43
0.0
 10
148.0819172806878
 20
150.1985839468253
 10
140.2927286433122
 20
150.1985839468253
  0
LWPOLYLINE
  5
3E1F
330
3E4E
100
AcDbEntity
  8
Layer 1
 62
     7
370
    20
100
AcDbPolyline
 90
        2
 70
     0
 43
0.0
 10
139.5730481964435
 20
150.7913126250626
 10
102.9124090997059
 20
152.3999999619
  0
LWPOLYLINE
  5
3E20
330
3E4E
100
AcDbEntity
  8
Layer 1
 62
     7
370
    20
100
AcDbPolyline
 90
        2
 70
     0
 43
0.0
 10
141.689714862581
 20
149.6060275233624
 10
141.689714862581
 20
149.7753539664624
  0
LWPOLYLINE
  5
3E21
330
3E4E
100
AcDbEntity
  8
Layer 1
 62
     7
370
    20
100
AcDbPolyline
 90
        3
 70
     0
 43
0.0
 10
91.39769420458113
 20
183.0492919464252
 10
91.39769420458113
 20
183.2186183895252
 10
94.27641599205593
 20
183.2186183895252
  0
LWPOLYLINE
  5
3E22
330
3E4E
100
AcDbEntity
  8
Layer 1
 62
     7
370
    20
100
AcDbPolyline
 90
        2
 70
     0
 43
0.0
 10
148.0819172806878
 20
150.7913126250626
 10
139.5730481964435
 20
150.7913126250626
  0
LWPOLYLINE
  5
3E23
330
3E4E
100
AcDbEntity
  8
Layer 1
 62
     7
370
    20
100
AcDbPolyline
 90
        2
 70
     0
 43
0.0
 10
201.8453884043998
 20
183.2186183895252
 10
148.0819172806878
 20
183.2186183895252
  0
LWPOLYLINE
  5
3E24
330
3E4E
100
AcDbEntity
  8
Layer 1
 62
     7
370
    20
100
AcDbPolyline
 90
        3
 70
     0
 43
0.0
 10
201.8453884043998
 20
183.0492919464252
 10
201.379611494794
 20
182.879965503325
 10
201.1680826319997
 20
182.4143608484936
  0
LWPOLYLINE
  5
3E25
330
3E4E
100
AcDbEntity
  8
Layer 1
 62
     7
370
    20
100
AcDbPolyline
 90
        3
 70
     0
 43
0.0
 10
201.8453884043998
 20
183.2186183895252
 10
201.2528319809368
 20
182.9647148522623
 10
200.9985839341254
 20
182.4143608484936
  0
LWPOLYLINE
  5
3E26
330
3E4E
100
AcDbEntity
  8
Layer 1
 62
     7
370
    20
100
AcDbPolyline
 90
        2
 70
     0
 43
0.0
 10
201.8453884043998
 20
183.0492919464252
 10
204.7241101918745
 20
183.0492919464252
  0
LWPOLYLINE
  5
3E27
330
3E4E
100
AcDbEntity
  8
Layer 1
 62
     7
370
    20
100
AcDbPolyline
 90
        2
 70
     0
 43
0.0
 10
201.1680826319997
 20
182.4143608484936
 10
200.1521239733995
 20
159.1310275209811
  0
LWPOLYLINE
  5
3E28
330
3E4E
100
AcDbEntity
  8
Layer 1
 62
     7
370
    20
100
AcDbPolyline
 90
        2
 70
     0
 43
0.0
 10
201.0409586085939
 20
183.2186183895252
 10
199.9826252755252
 20
159.1734021954497
  0
LWPOLYLINE
  5
3E29
330
3E4E
100
AcDbEntity
  8
Layer 1
 62
     7
370
    20
100
AcDbPolyline
 90
        4
 70
     0
 43
0.0
 10
156.633333294175
 20
150.6219861819625
 10
155.9560275217749
 20
150.0716321781939
 10
154.4742919535689
 20
149.6060275233624
 10
148.0819172806878
 20
149.6060275233624
  0
LWPOLYLINE
  5
3E2A
330
3E4E
100
AcDbEntity
  8
Layer 1
 62
     7
370
    20
100
AcDbPolyline
 90
        2
 70
     0
 43
0.0
 10
156.633333294175
 20
150.6219861819625
 10
193.251597716444
 20
152.2306735188
  0
LWPOLYLINE
  5
3E2B
330
3E4E
100
AcDbEntity
  8
Layer 1
 62
     7
370
    20
100
AcDbPolyline
 90
        3
 70
     0
 43
0.0
 10
156.5485839452378
 20
150.7913126250626
 10
155.8712781728377
 20
150.1985839468253
 10
154.4742919535689
 20
149.7753539664624
  0
LWPOLYLINE
  5
3E2C
330
3E4E
100
AcDbEntity
  8
Layer 1
 62
     7
370
    20
100
AcDbPolyline
 90
        2
 70
     0
 43
0.0
 10
148.0819172806878
 20
149.7753539664624
 10
154.4742919535689
 20
149.7753539664624
  0
LWPOLYLINE
  5
3E2D
330
3E4E
100
AcDbEntity
  8
Layer 1
 62
     7
370
    20
100
AcDbPolyline
 90
        2
 70
     0
 43
0.0
 10
148.0819172806878
 20
150.1985839468253
 10
155.8712781728377
 20
150.1985839468253
  0
LWPOLYLINE
  5
3E2E
330
3E4E
100
AcDbEntity
  8
Layer 1
 62
     7
370
    20
100
AcDbPolyline
 90
        2
 70
     0
 43
0.0
 10
156.5485839452378
 20
150.7913126250626
 10
193.2092230419755
 20
152.3999999619
  0
LWPOLYLINE
  5
3E2F
330
3E4E
100
AcDbEntity
  8
Layer 1
 62
     7
370
    20
100
AcDbPolyline
 90
        2
 70
     0
 43
0.0
 10
154.4742919535689
 20
149.6060275233624
 10
154.4742919535689
 20
149.7753539664624
  0
LWPOLYLINE
  5
3E30
330
3E4E
100
AcDbEntity
  8
Layer 1
 62
     7
370
    20
100
AcDbPolyline
 90
        2
 70
     0
 43
0.0
 10
201.8453884043998
 20
183.2186183895252
 10
204.7241101918745
 20
183.2186183895252
  0
LWPOLYLINE
  5
3E31
330
3E4E
100
AcDbEntity
  8
Layer 1
 62
     7
370
    13
100
AcDbPolyline
 90
        2
 70
     0
 43
0.0
 10
88.01099308780628
 20
181.2289034920192
 10
88.01099308780628
 20
152.7810275225686
  0
LWPOLYLINE
  5
3E32
330
3E4E
100
AcDbEntity
  8
Layer 1
 62
     7
370
    13
100
AcDbPolyline
 90
        2
 70
     0
 43
0.0
 10
139.5730481964435
 20
150.7913126250626
 10
87.1643608723061
 20
150.7913126250626
  0
LWPOLYLINE
  5
3E33
330
3E4E
100
AcDbEntity
  8
Layer 1
 62
     7
370
    13
100
AcDbPolyline
 90
        2
 70
     0
 43
0.0
 10
91.39769420458113
 20
183.2186183895252
 10
87.1643608723061
 20
183.2186183895252
  0
LWPOLYLINE
  5
3E34
330
3E4E
100
AcDbEntity
  8
Layer 1
 62
     7
370
     0
100
AcDbPolyline
 90
        4
 70
     0
 43
0.0
 10
87.6723402016062
 20
181.2289034920192
 10
88.30727129953777
 20
181.2289034920192
 10
88.01099308780628
 20
183.2186183895252
 10
87.6723402016062
 20
181.2289034920192
  0
HATCH
  5
3E35
330
3E4E
100
AcDbEntity
  8
Layer 1
 62
     7
100
AcDbHatch
 10
0.0
 20
0.0
 30
0.0
210
0.0
220
0.0
230
1.0
  2
SOLID
 70
     1
 71
     0
 91
        1
 92
        1
 93
        3
 72
     1
 10
87.6723402016062
 20
181.2289034920192
 11
88.30727129953777
 21
181.2289034920192
 72
     1
 10
88.30727129953777
 20
181.2289034920192
 11
88.01099308780628
 21
183.2186183895252
 72
     1
 10
88.01099308780628
 20
183.2186183895252
 11
87.6723402016062
 21
181.2289034920192
 97
        0
 75
     0
 76
     1
 98
        0
  0
LWPOLYLINE
  5
3E36
330
3E4E
100
AcDbEntity
  8
Layer 1
 62
     7
370
     0
100
AcDbPolyline
 90
        4
 70
     0
 43
0.0
 10
87.6723402016062
 20
152.7810275225686
 10
88.30727129953777
 20
152.7810275225686
 10
88.01099308780628
 20
150.7913126250626
 10
87.6723402016062
 20
152.7810275225686
  0
HATCH
  5
3E37
330
3E4E
100
AcDbEntity
  8
Layer 1
 62
     7
100
AcDbHatch
 10
0.0
 20
0.0
 30
0.0
210
0.0
220
0.0
230
1.0
  2
SOLID
 70
     1
 71
     0
 91
        1
 92
        1
 93
        3
 72
     1
 10
87.6723402016062
 20
152.7810275225686
 11
88.30727129953777
 21
152.7810275225686
 72
     1
 10
88.30727129953777
 20
152.7810275225686
 11
88.01099308780628
 21
150.7913126250626
 72
     1
 10
88.01099308780628
 20
150.7913126250626
 11
87.6723402016062
 21
152.7810275225686
 97
        0
 75
     0
 76
     1
 98
        0
  0
LWPOLYLINE
  5
3E38
330
3E4E
100
AcDbEntity
  8
Layer 1
 62
     7
370
    13
100
AcDbPolyline
 90
       10
 70
     0
 43
0.0
 10
87.79929197023767
 20
169.3757079654686
 10
87.79929197023767
 20
169.8413126203001
 10
86.82570798610607
 20
170.7726941847374
 10
85.42872176683728
 20
170.7726941847374
 10
84.96294485723145
 20
170.3069172751316
 10
84.96294485723145
 20
169.3757079654686
 10
85.42872176683728
 20
168.9099310558628
 10
85.89432642166878
 20
168.9099310558628
 10
86.3599310765003
 20
169.3757079654686
 10
86.3599310765003
 20
170.7726941847374
  0
LWPOLYLINE
  5
3E39
330
3E4E
100
AcDbEntity
  8
Layer 1
 62
     7
370
    13
100
AcDbPolyline
 90
       10
 70
     0
 43
0.0
 10
85.42872176683728
 20
166.0735839428566
 10
84.96294485723145
 20
166.5393608524624
 10
84.96294485723145
 20
167.4707424168996
 10
85.42872176683728
 20
167.9363470717311
 10
85.89432642166878
 20
167.9363470717311
 10
86.3599310765003
 20
167.4707424168996
 10
86.3599310765003
 20
166.5393608524624
 10
86.82570798610607
 20
166.0735839428566
 10
87.79929197023767
 20
166.0735839428566
 10
87.79929197023767
 20
167.9363470717311
  0
LWPOLYLINE
  5
3E3A
330
3E4E
100
AcDbEntity
  8
Layer 1
 62
     7
370
    13
100
AcDbPolyline
 90
       10
 70
     0
 43
0.0
 10
85.42872176683728
 20
163.2374090846247
 10
84.96294485723145
 20
163.7030137394562
 10
84.96294485723145
 20
164.6343953038934
 10
85.42872176683728
 20
165.099999958725
 10
85.89432642166878
 20
165.099999958725
 10
86.3599310765003
 20
164.6343953038934
 10
86.3599310765003
 20
163.7030137394562
 10
86.82570798610607
 20
163.2374090846247
 10
87.79929197023767
 20
163.2374090846247
 10
87.79929197023767
 20
165.099999958725
  0
LWPOLYLINE
  5
3E3B
330
3E4E
100
AcDbEntity
  8
Layer 1
 62
     7
370
    20
100
AcDbPolyline
 90
        2
 70
     0
 43
0.0
 10
200.9985839341254
 20
182.4143608484936
 10
201.0409586085939
 20
183.2186183895252
  0
SPLINE
  5
3E3C
330
3E4E
100
AcDbEntity
  8
Layer 1
 62
     7
370
    13
100
AcDbSpline
210
0.0
220
0.0
230
1.0
 70
    27
 71
     3
 72
    11
 73
     7
 74
     0
 42
0.0000000001
 43
0.0000000001
 40
0.0
 40
0.0
 40
0.0
 40
0.0
 40
1.0
 40
1.0
 40
1.0
 40
2.0
 40
2.0
 40
2.0
 40
2.0
 10
156.5909586197064
 20
150.7913126250626
 30
0.0
 10
156.5909586197064
 20
150.7913126250626
 30
0.0
 10
156.5485839452378
 20
150.7913126250626
 30
0.0
 10
156.5485839452378
 20
150.7913126250626
 30
0.0
 10
156.5485839452378
 20
150.7913126250626
 30
0.0
 10
156.5909586197064
 20
150.7913126250626
 30
0.0
 10
156.5909586197064
 20
150.7913126250626
 30
0.0
  0
LWPOLYLINE
  5
3E3D
330
3E4E
100
AcDbEntity
  8
Layer 1
 62
     7
370
    13
100
AcDbPolyline
 90
        2
 70
     0
 43
0.0
 10
148.1242919551564
 20
150.7913126250626
 10
148.0819172806878
 20
150.7913126250626
  0
LWPOLYLINE
  5
3E3E
330
3E4E
100
AcDbEntity
  8
Layer 1
 62
     7
370
    13
100
AcDbPolyline
 90
        2
 70
     0
 43
0.0
 10
193.1248182025868
 20
152.3999999619
 10
193.0824435281183
 20
152.3999999619
  0
LWPOLYLINE
  5
3E3F
330
3E4E
100
AcDbEntity
  8
Layer 1
 62
     7
370
    13
100
AcDbPolyline
 90
        2
 70
     0
 43
0.0
 10
201.1680826319997
 20
182.4143608484936
 10
201.1680826319997
 20
181.3136528409563
  0
LWPOLYLINE
  5
3E40
330
3E4E
100
AcDbEntity
  8
Layer 1
 62
     7
370
    20
100
AcDbPolyline
 90
        9
 70
     0
 43
0.0
 10
193.2092230419755
 20
152.3999999619
 10
194.5218044218556
 20
152.569326405
 10
195.7492919432502
 20
152.9927286401372
 10
196.8923746252561
 20
153.6276597380688
 10
197.9083332838562
 20
154.4742919535689
 10
198.7551377541306
 20
155.4480481924748
 10
199.3900688520622
 20
156.5909586197064
 10
199.8134710871994
 20
157.8609930703438
 10
199.9826252755252
 20
159.1734021954497
  0
LWPOLYLINE
  5
3E41
330
3E4E
100
AcDbEntity
  8
Layer 1
 62
     7
370
    20
100
AcDbPolyline
 90
        9
 70
     0
 43
0.0
 10
193.251597716444
 20
152.2306735188
 10
194.5638345867757
 20
152.3999999619
 10
195.8340412921873
 20
152.8234021970372
 10
197.0194986486618
 20
153.4583332949686
 10
198.0354573072619
 20
154.3473401849374
 10
198.8819172679878
 20
155.3632988435376
 10
199.559223040388
 20
156.5063815255435
 10
199.9826252755252
 20
157.7764159761809
 10
200.1521239733995
 20
159.1310275209811
  0
LWPOLYLINE
  5
3E42
330
3E4E
100
AcDbEntity
  8
Layer 1
 62
     7
370
    20
100
AcDbPolyline
 90
        9
 70
     0
 43
0.0
 10
95.96968042305617
 20
159.1310275209811
 10
96.18138154062478
 20
157.7764159761809
 10
96.56240910129342
 20
156.5063815255435
 10
97.23971487369354
 20
155.3632988435376
 10
98.0863470891937
 20
154.3473401849374
 10
99.10230574779388
 20
153.4583332949686
 10
100.2875908494941
 20
152.8234021970372
 10
101.5576253001314
 20
152.3999999619
 10
102.8700344252373
 20
152.2306735188
  0
LWPOLYLINE
  5
3E43
330
3E4E
100
AcDbEntity
  8
Layer 1
 62
     7
370
    20
100
AcDbPolyline
 90
        9
 70
     0
 43
0.0
 10
96.13900686615622
 20
159.1734021954497
 10
96.30833330925623
 20
157.8609930703438
 10
96.73173554439344
 20
156.5909586197064
 10
97.36666664232501
 20
155.4480481924748
 10
98.21329885782517
 20
154.4742919535689
 10
99.22925751642535
 20
153.6276597380688
 10
100.3723401984312
 20
152.9927286401372
 10
101.5999999746
 20
152.569326405
 10
102.9124090997059
 20
152.3999999619
  0
LWPOLYLINE
  5
3E44
330
3E4E
100
AcDbEntity
  8
Layer 1
 62
     7
370
    13
100
AcDbPolyline
 90
        9
 70
     0
 43
0.0
 10
108.7966321885126
 20
81.83031953249381
 10
109.0083333060812
 20
82.25372176763102
 10
108.8390068629812
 20
82.88865286556257
 10
107.1879448516752
 20
83.81986217522559
 10
106.5530137537437
 20
83.65070798689982
 10
106.3413126361751
 20
83.22730575176263
 10
106.5106390792751
 20
82.59237465383106
 10
108.1193264161125
 20
81.66116534416804
 10
108.7966321885126
 20
81.83031953249381
  0
LWPOLYLINE
  5
3E45
330
3E4E
100
AcDbEntity
  8
Layer 1
 62
     7
370
    13
100
AcDbPolyline
 90
        9
 70
     0
 43
0.0
 10
107.6113470868124
 20
79.79840221529347
 10
107.823048204381
 20
80.17942977596209
 10
107.653721761281
 20
80.85673554836221
 10
106.0450344244436
 20
81.78794485802525
 10
105.3677286520435
 20
81.6187906696995
 10
105.1560275344749
 20
81.19538843456226
 10
105.3253539775749
 20
80.56045733663072
 10
106.9764159888809
 20
79.62890351741916
 10
107.6113470868124
 20
79.79840221529347
  0
LWPOLYLINE
  5
3E46
330
3E4E
100
AcDbEntity
  8
Layer 1
 62
     7
370
    13
100
AcDbPolyline
 90
        3
 70
     0
 43
0.0
 10
106.6799655223751
 20
78.1471679492132
 10
104.2246459700376
 20
79.54449867803055
 10
104.3939724131376
 20
78.90922307055048
  0
LWPOLYLINE
  5
3E47
330
3E4E
100
AcDbEntity
  8
Layer 1
 62
     7
370
    13
100
AcDbPolyline
 90
        2
 70
     0
 43
0.0
 10
106.4260619851122
 20
77.72411022362454
 10
106.8916666399437
 20
78.57057018435043
  0
LWPOLYLINE
  5
3E48
330
3E4E
100
AcDbEntity
  8
Layer 1
 62
     7
370
    13
100
AcDbPolyline
 90
        2
 70
     0
 43
0.0
 10
104.012944852469
 20
76.41152884374434
 10
105.9602850755064
 20
76.91968042781869
  0
LWPOLYLINE
  5
3E49
330
3E4E
100
AcDbEntity
  8
Layer 1
 62
     7
370
    13
100
AcDbPolyline
 90
        7
 70
     0
 43
0.0
 10
105.0290757658434
 20
75.26879067128698
 10
102.5735839587316
 20
76.70815156502435
 10
103.251061985906
 20
77.93563908641887
 10
103.9283677583061
 20
78.10513778429315
 10
104.3093953189747
 20
77.85088973748172
 10
104.4787217620747
 20
77.2159586395502
 10
103.8014159896746
 20
75.98847111815564
  0
LWPOLYLINE
  5
3E4A
330
3E4E
100
AcDbEntity
  8
Layer 1
 62
     7
370
    13
100
AcDbPolyline
 90
        2
 70
     0
 43
0.0
 10
109.5586873098499
 20
82.7194986772368
 10
103.420388429006
 20
72.09379067208073
  0
LWPOLYLINE
  5
3E4B
330
3E4E
100
AcDbEntity
  8
Layer 1
 62
     7
370
     0
100
AcDbPolyline
 90
        4
 70
     0
 43
0.0
 10
103.1239379625002
 20
72.26294486040647
 10
103.7166666407375
 20
71.966666648675
 10
102.4466321901001
 20
70.4001817315319
 10
103.1239379625002
 20
72.26294486040647
  0
HATCH
  5
3E4C
330
3E4E
100
AcDbEntity
  8
Layer 1
 62
     7
100
AcDbHatch
 10
0.0
 20
0.0
 30
0.0
210
0.0
220
0.0
230
1.0
  2
SOLID
 70
     1
 71
     0
 91
        1
 92
        1
 93
        3
 72
     1
 10
103.1239379625002
 20
72.26294486040647
 11
103.7166666407375
 21
71.966666648675
 72
     1
 10
103.7166666407375
 20
71.966666648675
 11
102.4466321901001
 21
70.4001817315319
 72
     1
 10
102.4466321901001
 20
70.4001817315319
 11
103.1239379625002
 21
72.26294486040647
 97
        0
 75
     0
 76
     1
 98
        0
  0
ENDBLK
  5
3E50
330
3E4E
100
AcDbEntity
  8
0
100
AcDbBlockEnd
  0
BLOCK
  5
41C8
330
41C7
100
AcDbEntity
  8
0
100
AcDbBlockBegin
  2
*D3
 70
     1
 10
0.0
 20
0.0
 30
0.0
  3
*D3
  1

  0
POINT
  5
41BE
330
41C7
100
AcDbEntity
  8
Defpoints
  6
ByBlock
100
AcDbPoint
 10
921.5417594195459
 20
707.7705901885377
 30
0.0
  0
POINT
  5
41BF
330
41C7
100
AcDbEntity
  8
Defpoints
  6
ByBlock
100
AcDbPoint
 10
566.5
 20
710.6871347267403
 30
0.0
  0
LINE
  5
41C0
330
41C7
100
AcDbEntity
  8
标注
  6
ByBlock
 62
     0
370
    -2
100
AcDbLine
 10
921.5417594195459
 20
707.7705901885377
 30
0.0
 11
921.5417594195459
 21
775.8181049680392
 31
0.0
  0
LINE
  5
41C1
330
41C7
100
AcDbEntity
  8
标注
  6
ByBlock
 62
     0
370
    -2
100
AcDbLine
 10
566.5
 20
710.6871347267403
 30
0.0
 11
566.5
 21
775.8181049680392
 31
0.0
  0
LINE
  5
41C2
330
41C7
100
AcDbEntity
  8
标注
  6
ByBlock
 62
     0
370
     0
100
AcDbLine
 10
916.541759419546
 20
772.0681049680393
 30
0.0
 11
571.4999999999999
 21
772.0681049680393
 31
0.0
  0
SOLID
  5
41C3
330
41C7
100
AcDbEntity
  8
标注
  6
ByBlock
 62
     0
100
AcDbTrace
 10
921.5417594195459
 20
772.0681049680393
 30
0.0
 11
916.541759419546
 21
772.9014383013727
 31
0.0
 12
916.541759419546
 22
771.2347716347058
 32
0.0
 13
916.541759419546
 23
771.2347716347058
 33
0.0
  0
SOLID
  5
41C4
330
41C7
100
AcDbEntity
  8
标注
  6
ByBlock
 62
     0
100
AcDbTrace
 10
566.5
 20
772.0681049680393
 30
0.0
 11
571.4999999999999
 21
772.9014383013727
 31
0.0
 12
571.4999999999999
 22
771.2347716347058
 32
0.0
 13
571.4999999999999
 23
771.2347716347058
 33
0.0
  0
MTEXT
  5
41C5
330
41C7
100
AcDbEntity
  8
标注
  6
ByBlock
 62
     0
100
AcDbMText
 10
744.0
 20
780.4971636310678
 30
0.0
 40
10.0
 41
0.0
 71
     5
 72
     1
  1
\A0;{\fArial|b0|i0|c0|p34;355 [14]}
 73
     1
 44
1.0
1001
ACAD
1000
MTEXTBEGIN
1070
    73
1070
     1
1070
    44
1040
1.0
1070
    74
1070
     0
1000
MTEXTEND
  0
ENDBLK
  5
41C9
330
41C7
100
AcDbEntity
  8
0
100
AcDbBlockEnd
  0
BLOCK
  5
41D6
330
41D5
100
AcDbEntity
  8
0
100
AcDbBlockBegin
  2
*D4
 70
     1
 10
0.0
 20
0.0
 30
0.0
  3
*D4
  1

  0
POINT
  5
41CC
330
41D5
100
AcDbEntity
  8
Defpoints
  6
ByBlock
100
AcDbPoint
 10
927.8500000000004
 20
707.7890175529248
 30
0.0
  0
POINT
  5
41CD
330
41D5
100
AcDbEntity
  8
Defpoints
  6
ByBlock
100
AcDbPoint
 10
560.1499999999996
 20
709.8588725707648
 30
0.0
  0
LINE
  5
41CE
330
41D5
100
AcDbEntity
  8
标注
  6
ByBlock
 62
     0
370
    -2
100
AcDbLine
 10
927.8500000000004
 20
707.7890175529248
 30
0.0
 11
927.8500000000004
 21
797.8181049680393
 31
0.0
  0
LINE
  5
41CF
330
41D5
100
AcDbEntity
  8
标注
  6
ByBlock
 62
     0
370
    -2
100
AcDbLine
 10
560.1499999999996
 20
709.8588725707648
 30
0.0
 11
560.1499999999996
 21
797.8181049680393
 31
0.0
  0
LINE
  5
41D0
330
41D5
100
AcDbEntity
  8
标注
  6
ByBlock
 62
     0
370
     0
100
AcDbLine
 10
922.8500000000003
 20
794.0681049680392
 30
0.0
 11
565.1499999999996
 21
794.0681049680392
 31
0.0
  0
SOLID
  5
41D1
330
41D5
100
AcDbEntity
  8
标注
  6
ByBlock
 62
     0
100
AcDbTrace
 10
927.8500000000004
 20
794.0681049680392
 30
0.0
 11
922.8500000000003
 21
794.9014383013727
 31
0.0
 12
922.8500000000003
 22
793.2347716347058
 32
0.0
 13
922.8500000000003
 23
793.2347716347058
 33
0.0
  0
SOLID
  5
41D2
330
41D5
100
AcDbEntity
  8
标注
  6
ByBlock
 62
     0
100
AcDbTrace
 10
560.1499999999996
 20
794.0681049680392
 30
0.0
 11
565.1499999999996
 21
794.9014383013727
 31
0.0
 12
565.1499999999996
 22
793.2347716347058
 32
0.0
 13
565.1499999999996
 23
793.2347716347058
 33
0.0
  0
MTEXT
  5
41D3
330
41D5
100
AcDbEntity
  8
标注
  6
ByBlock
 62
     0
100
AcDbMText
 10
744.0
 20
802.6267679966887
 30
0.0
 40
10.0
 41
0.0
 71
     5
 72
     1
  1
\A0;{\fArial|b0|i0|c0|p34;367.7 [14 1/2]}
 73
     1
 44
1.0
1001
ACAD
1000
MTEXTBEGIN
1070
    73
1070
     1
1070
    44
1040
1.0
1070
    74
1070
     0
1000
MTEXTEND
  0
ENDBLK
  5
41D7
330
41D5
100
AcDbEntity
  8
0
100
AcDbBlockEnd
  0
BLOCK
  5
41E4
330
41E3
100
AcDbEntity
  8
0
100
AcDbBlockBegin
  2
*D5
 70
     1
 10
0.0
 20
0.0
 30
0.0
  3
*D5
  1

  0
POINT
  5
41DA
330
41E3
100
AcDbEntity
  8
Defpoints
  6
ByBlock
100
AcDbPoint
 10
915.1499999999996
 20
707.7705901885377
 30
0.0
  0
POINT
  5
41DB
330
41E3
100
AcDbEntity
  8
Defpoints
  6
ByBlock
100
AcDbPoint
 10
572.8500000000003
 20
712.067571653366
 30
0.0
  0
LINE
  5
41DC
330
41E3
100
AcDbEntity
  8
标注
  6
ByBlock
 62
     0
370
    -2
100
AcDbLine
 10
915.1499999999996
 20
707.7705901885377
 30
0.0
 11
915.1499999999996
 21
753.5868685989233
 31
0.0
  0
LINE
  5
41DD
330
41E3
100
AcDbEntity
  8
标注
  6
ByBlock
 62
     0
370
    -2
100
AcDbLine
 10
572.8500000000003
 20
712.067571653366
 30
0.0
 11
572.8500000000003
 21
753.5868685989233
 31
0.0
  0
LINE
  5
41DE
330
41E3
100
AcDbEntity
  8
标注
  6
ByBlock
 62
     0
370
     0
100
AcDbLine
 10
910.1499999999996
 20
749.8368685989232
 30
0.0
 11
577.8500000000003
 21
749.8368685989232
 31
0.0
  0
SOLID
  5
41DF
330
41E3
100
AcDbEntity
  8
标注
  6
ByBlock
 62
     0
100
AcDbTrace
 10
915.1499999999996
 20
749.8368685989232
 30
0.0
 11
910.1499999999996
 21
750.6702019322567
 31
0.0
 12
910.1499999999996
 22
749.0035352655898
 32
0.0
 13
910.1499999999996
 23
749.0035352655898
 33
0.0
  0
SOLID
  5
41E0
330
41E3
100
AcDbEntity
  8
标注
  6
ByBlock
 62
     0
100
AcDbTrace
 10
572.8500000000003
 20
749.8368685989232
 30
0.0
 11
577.8500000000003
 21
750.6702019322567
 31
0.0
 12
577.8500000000003
 22
749.0035352655898
 32
0.0
 13
577.8500000000003
 23
749.0035352655898
 33
0.0
  0
MTEXT
  5
41E1
330
41E3
100
AcDbEntity
  8
标注
  6
ByBlock
 62
     0
100
AcDbMText
 10
744.0
 20
758.3955316275726
 30
0.0
 40
10.0
 41
0.0
 71
     5
 72
     1
  1
\A0;{\fArial|b0|i0|c0|p34;342.3 [13 1/2]}
 73
     1
 44
1.0
1001
ACAD
1000
MTEXTBEGIN
1070
    73
1070
     1
1070
    44
1040
1.0
1070
    74
1070
     0
1000
MTEXTEND
  0
ENDBLK
  5
41E5
330
41E3
100
AcDbEntity
  8
0
100
AcDbBlockEnd
  0
BLOCK
  5
41F2
330
41F1
100
AcDbEntity
  8
0
100
AcDbBlockBegin
  2
*D6
 70
     1
 10
0.0
 20
0.0
 30
0.0
  3
*D6
  1

  0
POINT
  5
41E8
330
41F1
100
AcDbEntity
  8
Defpoints
  6
ByBlock
100
AcDbPoint
 10
552.2901343503372
 20
698.0000000000013
 30
0.0
  0
POINT
  5
41E9
330
41F1
100
AcDbEntity
  8
Defpoints
  6
ByBlock
100
AcDbPoint
 10
564.1088526660969
 20
343.0000000000001
 30
0.0
  0
LINE
  5
41EA
330
41F1
100
AcDbEntity
  8
标注
  6
ByBlock
 62
     0
370
    -2
100
AcDbLine
 10
552.2901343503372
 20
698.0000000000013
 30
0.0
 11
494.9569112894769
 21
698.0000000000013
 31
0.0
  0
LINE
  5
41EB
330
41F1
100
AcDbEntity
  8
标注
  6
ByBlock
 62
     0
370
    -2
100
AcDbLine
 10
564.1088526660969
 20
343.0000000000001
 30
0.0
 11
494.9569112894769
 21
343.0000000000001
 31
0.0
  0
LINE
  5
41EC
330
41F1
100
AcDbEntity
  8
标注
  6
ByBlock
 62
     0
370
     0
100
AcDbLine
 10
498.7069112894769
 20
693.0000000000013
 30
0.0
 11
498.7069112894769
 21
348.0000000000001
 31
0.0
  0
SOLID
  5
41ED
330
41F1
100
AcDbEntity
  8
标注
  6
ByBlock
 62
     0
100
AcDbTrace
 10
498.7069112894769
 20
698.0000000000013
 30
0.0
 11
497.8735779561429
 21
693.0000000000013
 31
0.0
 12
499.5402446228109
 22
693.0000000000013
 32
0.0
 13
499.5402446228109
 23
693.0000000000013
 33
0.0
  0
SOLID
  5
41EE
330
41F1
100
AcDbEntity
  8
标注
  6
ByBlock
 62
     0
100
AcDbTrace
 10
498.7069112894769
 20
343.0000000000001
 30
0.0
 11
497.8735779561429
 21
348.0000000000001
 31
0.0
 12
499.5402446228109
 22
348.0000000000001
 32
0.0
 13
499.5402446228109
 23
348.0000000000001
 33
0.0
  0
MTEXT
  5
41EF
330
41F1
100
AcDbEntity
  8
标注
  6
ByBlock
 62
     0
100
AcDbMText
 10
490.2778526264483
 20
520.6036740981644
 30
0.0
 40
10.0
 41
0.0
 71
     5
 72
     1
  1
\A0;{\fArial|b0|i0|c0|p34;355 [14]}
 11
0.0
 21
1.0
 31
0.0
 73
     1
 44
1.0
1001
ACAD
1000
MTEXTBEGIN
1070
    73
1070
     1
1070
    44
1040
1.0
1070
    74
1070
     0
1000
MTEXTEND
  0
ENDBLK
  5
41F3
330
41F1
100
AcDbEntity
  8
0
100
AcDbBlockEnd
  0
BLOCK
  5
4200
330
41FF
100
AcDbEntity
  8
0
100
AcDbBlockBegin
  2
*D7
 70
     1
 10
0.0
 20
0.0
 30
0.0
  3
*D7
  1

  0
POINT
  5
41F6
330
41FF
100
AcDbEntity
  8
Defpoints
  6
ByBlock
100
AcDbPoint
 10
553.4122443279938
 20
704.3500000000014
 30
0.0
  0
POINT
  5
41F7
330
41FF
100
AcDbEntity
  8
Defpoints
  6
ByBlock
100
AcDbPoint
 10
564.7211469660923
 20
336.6500000000003
 30
0.0
  0
LINE
  5
41F8
330
41FF
100
AcDbEntity
  8
标注
  6
ByBlock
 62
     0
370
    -2
100
AcDbLine
 10
553.4122443279938
 20
704.3500000000014
 30
0.0
 11
470.9569112894769
 21
704.3500000000014
 31
0.0
  0
LINE
  5
41F9
330
41FF
100
AcDbEntity
  8
标注
  6
ByBlock
 62
     0
370
    -2
100
AcDbLine
 10
564.7211469660923
 20
336.6500000000003
 30
0.0
 11
470.9569112894769
 21
336.6500000000003
 31
0.0
  0
LINE
  5
41FA
330
41FF
100
AcDbEntity
  8
标注
  6
ByBlock
 62
     0
370
     0
100
AcDbLine
 10
474.7069112894769
 20
699.3500000000014
 30
0.0
 11
474.7069112894769
 21
341.6500000000003
 31
0.0
  0
SOLID
  5
41FB
330
41FF
100
AcDbEntity
  8
标注
  6
ByBlock
 62
     0
100
AcDbTrace
 10
474.7069112894769
 20
704.3500000000014
 30
0.0
 11
473.8735779561429
 21
699.3500000000014
 31
0.0
 12
475.5402446228108
 22
699.3500000000014
 32
0.0
 13
475.5402446228108
 23
699.3500000000014
 33
0.0
  0
SOLID
  5
41FC
330
41FF
100
AcDbEntity
  8
标注
  6
ByBlock
 62
     0
100
AcDbTrace
 10
474.7069112894769
 20
336.6500000000003
 30
0.0
 11
473.8735779561429
 21
341.6500000000003
 31
0.0
 12
475.5402446228108
 22
341.6500000000003
 32
0.0
 13
475.5402446228108
 23
341.6500000000003
 33
0.0
  0
MTEXT
  5
41FD
330
41FF
100
AcDbEntity
  8
标注
  6
ByBlock
 62
     0
100
AcDbMText
 10
466.1482482608271
 20
520.5000000000008
 30
0.0
 40
10.0
 41
0.0
 71
     5
 72
     1
  1
\A0;{\fArial|b0|i0|c0|p34;367.7 [14 1/2]}
 11
0.0
 21
1.0
 31
0.0
 73
     1
 44
1.0
1001
ACAD
1000
MTEXTBEGIN
1070
    73
1070
     1
1070
    44
1040
1.0
1070
    74
1070
     0
1000
MTEXTEND
  0
ENDBLK
  5
4201
330
41FF
100
AcDbEntity
  8
0
100
AcDbBlockEnd
  0
BLOCK
  5
420E
330
420D
100
AcDbEntity
  8
0
100
AcDbBlockBegin
  2
*D8
 70
     1
 10
0.0
 20
0.0
 30
0.0
  3
*D8
  1

  0
POINT
  5
4204
330
420D
100
AcDbEntity
  8
Defpoints
  6
ByBlock
100
AcDbPoint
 10
552.5234933372694
 20
691.6500000000014
 30
0.0
  0
POINT
  5
4205
330
420D
100
AcDbEntity
  8
Defpoints
  6
ByBlock
100
AcDbPoint
 10
565.6188349482181
 20
349.3500000000003
 30
0.0
  0
LINE
  5
4206
330
420D
100
AcDbEntity
  8
标注
  6
ByBlock
 62
     0
370
    -2
100
AcDbLine
 10
552.5234933372694
 20
691.6500000000014
 30
0.0
 11
518.2282003005838
 21
691.6500000000014
 31
0.0
  0
LINE
  5
4207
330
420D
100
AcDbEntity
  8
标注
  6
ByBlock
 62
     0
370
    -2
100
AcDbLine
 10
565.6188349482181
 20
349.3500000000001
 30
0.0
 11
518.2282003005838
 21
349.3500000000001
 31
0.0
  0
LINE
  5
4208
330
420D
100
AcDbEntity
  8
标注
  6
ByBlock
 62
     0
370
     0
100
AcDbLine
 10
521.9782003005839
 20
686.6500000000014
 30
0.0
 11
521.9782003005839
 21
354.3500000000002
 31
0.0
  0
SOLID
  5
4209
330
420D
100
AcDbEntity
  8
标注
  6
ByBlock
 62
     0
100
AcDbTrace
 10
521.9782003005839
 20
691.6500000000014
 30
0.0
 11
521.1448669672499
 21
686.6500000000014
 31
0.0
 12
522.8115336339178
 22
686.6500000000014
 32
0.0
 13
522.8115336339178
 23
686.6500000000014
 33
0.0
  0
SOLID
  5
420A
330
420D
100
AcDbEntity
  8
标注
  6
ByBlock
 62
     0
100
AcDbTrace
 10
521.9782003005839
 20
349.3500000000001
 30
0.0
 11
521.1448669672499
 21
354.3500000000002
 31
0.0
 12
522.8115336339178
 22
354.3500000000002
 32
0.0
 13
522.8115336339178
 23
354.3500000000002
 33
0.0
  0
MTEXT
  5
420B
330
420D
100
AcDbEntity
  8
标注
  6
ByBlock
 62
     0
100
AcDbMText
 10
513.4195372719341
 20
520.5000000000008
 30
0.0
 40
10.0
 41
0.0
 71
     5
 72
     1
  1
\A0;{\fArial|b0|i0|c0|p34;342.3 [13 1/2]}
 11
0.0
 21
1.0
 31
0.0
 73
     1
 44
1.0
1001
ACAD
1000
MTEXTBEGIN
1070
    73
1070
     1
1070
    44
1040
1.0
1070
    74
1070
     0
1000
MTEXTEND
  0
ENDBLK
  5
420F
330
420D
100
AcDbEntity
  8
0
100
AcDbBlockEnd
  0
BLOCK
  5
421F
330
421E
100
AcDbEntity
  8
0
100
AcDbBlockBegin
  2
*D9
 70
     1
 10
0.0
 20
0.0
 30
0.0
  3
*D9
  1

  0
LINE
  5
4212
330
421E
100
AcDbEntity
  8
标注
 62
     0
370
    -2
100
AcDbLine
 10
915.149999999995
 20
520.5000000000007
 30
0.0
 11
915.149999999995
 21
507.3424166213237
 31
0.0
  0
LINE
  5
4213
330
421E
100
AcDbEntity
  8
标注
 62
     0
370
    -2
100
AcDbLine
 10
921.4999999999973
 20
520.4999999999934
 30
0.0
 11
921.4999999999973
 21
507.3424166213237
 31
0.0
  0
LINE
  5
4214
330
421E
100
AcDbEntity
  8
标注
 62
     0
370
     0
100
AcDbLine
 10
926.4999999999972
 20
511.0924166213237
 30
0.0
 11
931.4999999999972
 21
511.0924166213237
 31
0.0
  0
LINE
  5
4215
330
421E
100
AcDbEntity
  8
标注
 62
     0
370
     0
100
AcDbLine
 10
910.1499999999951
 20
511.0924166213237
 30
0.0
 11
842.0507503410599
 21
511.0924166213237
 31
0.0
  0
LINE
  5
4216
330
421E
100
AcDbEntity
  8
标注
 62
     0
370
     0
100
AcDbLine
 10
921.4999999999973
 20
511.0924166213237
 30
0.0
 11
915.149999999995
 21
511.0924166213237
 31
0.0
  0
SOLID
  5
4217
330
421E
100
AcDbEntity
  8
标注
 62
     0
100
AcDbTrace
 10
926.4999999999972
 20
511.925749954657
 30
0.0
 11
926.4999999999972
 21
510.2590832879904
 31
0.0
 12
921.4999999999973
 22
511.0924166213237
 32
0.0
 13
921.4999999999973
 23
511.0924166213237
 33
0.0
  0
SOLID
  5
4218
330
421E
100
AcDbEntity
  8
标注
 62
     0
100
AcDbTrace
 10
910.1499999999951
 20
511.925749954657
 30
0.0
 11
910.1499999999951
 21
510.2590832879904
 31
0.0
 12
915.149999999995
 22
511.0924166213237
 32
0.0
 13
915.149999999995
 23
511.0924166213237
 33
0.0
  0
MTEXT
  5
4219
330
421E
100
AcDbEntity
  8
标注
 62
     0
100
AcDbMText
 10
868.5766712141857
 20
519.5658136199595
 30
0.0
 40
10.0
 41
0.0
 71
     5
 72
     1
  1
{\fArial|b0|i0|c0|p34;6.4 [1/4]}
 73
     1
 44
1.0
1001
ACAD
1000
MTEXTBEGIN
1070
    73
1070
     1
1070
    44
1040
1.0
1070
    74
1070
     0
1000
MTEXTEND
  0
POINT
  5
421A
330
421E
100
AcDbEntity
  8
Defpoints
 62
     0
100
AcDbPoint
 10
915.149999999995
 20
520.5000000000007
 30
0.0
  0
POINT
  5
421B
330
421E
100
AcDbEntity
  8
Defpoints
 62
     0
100
AcDbPoint
 10
921.4999999999973
 20
520.4999999999934
 30
0.0
  0
POINT
  5
421C
330
421E
100
AcDbEntity
  8
Defpoints
 62
     0
100
AcDbPoint
 10
921.4999999999973
 20
511.0924166213237
 30
0.0
  0
ENDBLK
  5
4220
330
421E
100
AcDbEntity
  8
0
100
AcDbBlockEnd
  0
BLOCK
  5
4230
330
422F
100
AcDbEntity
  8
0
100
AcDbBlockBegin
  2
*D10
 70
     1
 10
0.0
 20
0.0
 30
0.0
  3
*D10
  1

  0
LINE
  5
4223
330
422F
100
AcDbEntity
  8
标注
 62
     0
370
    -2
100
AcDbLine
 10
921.4999999999973
 20
520.4999999999934
 30
0.0
 11
921.4999999999973
 21
485.8424166213238
 31
0.0
  0
LINE
  5
4224
330
422F
100
AcDbEntity
  8
标注
 62
     0
370
    -2
100
AcDbLine
 10
927.8499999999993
 20
520.5000000000007
 30
0.0
 11
927.8499999999993
 21
485.8424166213238
 31
0.0
  0
LINE
  5
4225
330
422F
100
AcDbEntity
  8
标注
 62
     0
370
     0
100
AcDbLine
 10
932.8499999999994
 20
489.5924166213237
 30
0.0
 11
937.8499999999995
 21
489.5924166213237
 31
0.0
  0
LINE
  5
4226
330
422F
100
AcDbEntity
  8
标注
 62
     0
370
     0
100
AcDbLine
 10
916.4999999999972
 20
489.5924166213237
 30
0.0
 11
848.4007503410621
 21
489.5924166213237
 31
0.0
  0
LINE
  5
4227
330
422F
100
AcDbEntity
  8
标注
 62
     0
370
     0
100
AcDbLine
 10
927.8499999999993
 20
489.5924166213237
 30
0.0
 11
921.4999999999973
 21
489.5924166213237
 31
0.0
  0
SOLID
  5
4228
330
422F
100
AcDbEntity
  8
标注
 62
     0
100
AcDbTrace
 10
932.8499999999994
 20
490.425749954657
 30
0.0
 11
932.8499999999994
 21
488.7590832879904
 31
0.0
 12
927.8499999999993
 22
489.5924166213237
 32
0.0
 13
927.8499999999993
 23
489.5924166213237
 33
0.0
  0
SOLID
  5
4229
330
422F
100
AcDbEntity
  8
标注
 62
     0
100
AcDbTrace
 10
916.4999999999972
 20
490.425749954657
 30
0.0
 11
916.4999999999972
 21
488.7590832879904
 31
0.0
 12
921.4999999999973
 22
489.5924166213237
 32
0.0
 13
921.4999999999973
 23
489.5924166213237
 33
0.0
  0
MTEXT
  5
422A
330
422F
100
AcDbEntity
  8
标注
 62
     0
100
AcDbMText
 10
874.926671214188
 20
498.0658136199594
 30
0.0
 40
10.0
 41
0.0
 71
     5
 72
     1
  1
{\fArial|b0|i0|c0|p34;6.4 [1/4]}
 73
     1
 44
1.0
1001
ACAD
1000
MTEXTBEGIN
1070
    73
1070
     1
1070
    44
1040
1.0
1070
    74
1070
     0
1000
MTEXTEND
  0
POINT
  5
422B
330
422F
100
AcDbEntity
  8
Defpoints
 62
     0
100
AcDbPoint
 10
921.4999999999973
 20
520.4999999999934
 30
0.0
  0
POINT
  5
422C
330
422F
100
AcDbEntity
  8
Defpoints
 62
     0
100
AcDbPoint
 10
927.8499999999993
 20
520.5000000000007
 30
0.0
  0
POINT
  5
422D
330
422F
100
AcDbEntity
  8
Defpoints
 62
     0
100
AcDbPoint
 10
927.8499999999993
 20
489.5924166213237
 30
0.0
  0
ENDBLK
  5
4231
330
422F
100
AcDbEntity
  8
0
100
AcDbBlockEnd
  0
BLOCK
  5
42F1
330
42F0
100
AcDbEntity
  8
0
100
AcDbBlockBegin
  2
*D11
 70
     1
 10
0.0
 20
0.0
 30
0.0
  3
*D11
  1

  0
POINT
  5
42F2
330
42F0
100
AcDbEntity
  8
Defpoints
  6
ByBlock
100
AcDbPoint
 10
2177.541759419546
 20
707.7705901885377
 30
0.0
  0
POINT
  5
42F3
330
42F0
100
AcDbEntity
  8
Defpoints
  6
ByBlock
100
AcDbPoint
 10
1822.5
 20
710.6871347267403
 30
0.0
  0
LINE
  5
42F4
330
42F0
100
AcDbEntity
  8
标注
  6
ByBlock
 62
     0
370
    -2
100
AcDbLine
 10
2177.541759419546
 20
707.7705901885377
 30
0.0
 11
2177.541759419546
 21
775.8181049680392
 31
0.0
  0
LINE
  5
42F5
330
42F0
100
AcDbEntity
  8
标注
  6
ByBlock
 62
     0
370
    -2
100
AcDbLine
 10
1822.5
 20
710.6871347267403
 30
0.0
 11
1822.5
 21
775.8181049680392
 31
0.0
  0
LINE
  5
42F6
330
42F0
100
AcDbEntity
  8
标注
  6
ByBlock
 62
     0
370
     0
100
AcDbLine
 10
2172.541759419546
 20
772.0681049680393
 30
0.0
 11
1827.5
 21
772.0681049680393
 31
0.0
  0
SOLID
  5
42F7
330
42F0
100
AcDbEntity
  8
标注
  6
ByBlock
 62
     0
100
AcDbTrace
 10
2177.541759419546
 20
772.0681049680393
 30
0.0
 11
2172.541759419546
 21
772.9014383013727
 31
0.0
 12
2172.541759419546
 22
771.2347716347058
 32
0.0
 13
2172.541759419546
 23
771.2347716347058
 33
0.0
  0
SOLID
  5
42F8
330
42F0
100
AcDbEntity
  8
标注
  6
ByBlock
 62
     0
100
AcDbTrace
 10
1822.5
 20
772.0681049680393
 30
0.0
 11
1827.5
 21
772.9014383013727
 31
0.0
 12
1827.5
 22
771.2347716347058
 32
0.0
 13
1827.5
 23
771.2347716347058
 33
0.0
  0
MTEXT
  5
42F9
330
42F0
100
AcDbEntity
  8
标注
  6
ByBlock
 62
     0
100
AcDbMText
 10
2000.0
 20
780.4971636310678
 30
0.0
 40
10.0
 41
0.0
 71
     5
 72
     1
  1
\A0;{\fArial|b0|i0|c0|p34;355 [14]}
 73
     1
 44
1.0
1001
ACAD
1000
MTEXTBEGIN
1070
    73
1070
     1
1070
    44
1040
1.0
1070
    74
1070
     0
1000
MTEXTEND
  0
ENDBLK
  5
42FA
330
42F0
100
AcDbEntity
  8
0
100
AcDbBlockEnd
  0
BLOCK
  5
42FD
330
42FC
100
AcDbEntity
  8
0
100
AcDbBlockBegin
  2
*D12
 70
     1
 10
0.0
 20
0.0
 30
0.0
  3
*D12
  1

  0
POINT
  5
42FE
330
42FC
100
AcDbEntity
  8
Defpoints
  6
ByBlock
100
AcDbPoint
 10
2183.85
 20
707.7890175529248
 30
0.0
  0
POINT
  5
42FF
330
42FC
100
AcDbEntity
  8
Defpoints
  6
ByBlock
100
AcDbPoint
 10
1816.15
 20
709.8588725707648
 30
0.0
  0
LINE
  5
4300
330
42FC
100
AcDbEntity
  8
标注
  6
ByBlock
 62
     0
370
    -2
100
AcDbLine
 10
2183.85
 20
707.7890175529248
 30
0.0
 11
2183.85
 21
797.8181049680393
 31
0.0
  0
LINE
  5
4301
330
42FC
100
AcDbEntity
  8
标注
  6
ByBlock
 62
     0
370
    -2
100
AcDbLine
 10
1816.15
 20
709.8588725707648
 30
0.0
 11
1816.15
 21
797.8181049680393
 31
0.0
  0
LINE
  5
4302
330
42FC
100
AcDbEntity
  8
标注
  6
ByBlock
 62
     0
370
     0
100
AcDbLine
 10
2178.85
 20
794.0681049680392
 30
0.0
 11
1821.15
 21
794.0681049680392
 31
0.0
  0
SOLID
  5
4303
330
42FC
100
AcDbEntity
  8
标注
  6
ByBlock
 62
     0
100
AcDbTrace
 10
2183.85
 20
794.0681049680392
 30
0.0
 11
2178.85
 21
794.9014383013727
 31
0.0
 12
2178.85
 22
793.2347716347058
 32
0.0
 13
2178.85
 23
793.2347716347058
 33
0.0
  0
SOLID
  5
4304
330
42FC
100
AcDbEntity
  8
标注
  6
ByBlock
 62
     0
100
AcDbTrace
 10
1816.15
 20
794.0681049680392
 30
0.0
 11
1821.15
 21
794.9014383013727
 31
0.0
 12
1821.15
 22
793.2347716347058
 32
0.0
 13
1821.15
 23
793.2347716347058
 33
0.0
  0
MTEXT
  5
4305
330
42FC
100
AcDbEntity
  8
标注
  6
ByBlock
 62
     0
100
AcDbMText
 10
2000.0
 20
802.6267679966887
 30
0.0
 40
10.0
 41
0.0
 71
     5
 72
     1
  1
\A0;{\fArial|b0|i0|c0|p34;367.7 [14 1/2]}
 73
     1
 44
1.0
1001
ACAD
1000
MTEXTBEGIN
1070
    73
1070
     1
1070
    44
1040
1.0
1070
    74
1070
     0
1000
MTEXTEND
  0
ENDBLK
  5
4306
330
42FC
100
AcDbEntity
  8
0
100
AcDbBlockEnd
  0
BLOCK
  5
4309
330
4308
100
AcDbEntity
  8
0
100
AcDbBlockBegin
  2
*D13
 70
     1
 10
0.0
 20
0.0
 30
0.0
  3
*D13
  1

  0
POINT
  5
430A
330
4308
100
AcDbEntity
  8
Defpoints
  6
ByBlock
100
AcDbPoint
 10
2171.15
 20
707.7705901885377
 30
0.0
  0
POINT
  5
430B
330
4308
100
AcDbEntity
  8
Defpoints
  6
ByBlock
100
AcDbPoint
 10
1828.85
 20
712.067571653366
 30
0.0
  0
LINE
  5
430C
330
4308
100
AcDbEntity
  8
标注
  6
ByBlock
 62
     0
370
    -2
100
AcDbLine
 10
2171.15
 20
707.7705901885377
 30
0.0
 11
2171.15
 21
753.5868685989233
 31
0.0
  0
LINE
  5
430D
330
4308
100
AcDbEntity
  8
标注
  6
ByBlock
 62
     0
370
    -2
100
AcDbLine
 10
1828.85
 20
712.067571653366
 30
0.0
 11
1828.85
 21
753.5868685989233
 31
0.0
  0
LINE
  5
430E
330
4308
100
AcDbEntity
  8
标注
  6
ByBlock
 62
     0
370
     0
100
AcDbLine
 10
2166.15
 20
749.8368685989232
 30
0.0
 11
1833.85
 21
749.8368685989232
 31
0.0
  0
SOLID
  5
430F
330
4308
100
AcDbEntity
  8
标注
  6
ByBlock
 62
     0
100
AcDbTrace
 10
2171.15
 20
749.8368685989232
 30
0.0
 11
2166.15
 21
750.6702019322567
 31
0.0
 12
2166.15
 22
749.0035352655898
 32
0.0
 13
2166.15
 23
749.0035352655898
 33
0.0
  0
SOLID
  5
4310
330
4308
100
AcDbEntity
  8
标注
  6
ByBlock
 62
     0
100
AcDbTrace
 10
1828.85
 20
749.8368685989232
 30
0.0
 11
1833.85
 21
750.6702019322567
 31
0.0
 12
1833.85
 22
749.0035352655898
 32
0.0
 13
1833.85
 23
749.0035352655898
 33
0.0
  0
MTEXT
  5
4311
330
4308
100
AcDbEntity
  8
标注
  6
ByBlock
 62
     0
100
AcDbMText
 10
2000.0
 20
758.3955316275726
 30
0.0
 40
10.0
 41
0.0
 71
     5
 72
     1
  1
\A0;{\fArial|b0|i0|c0|p34;342.3 [13 1/2]}
 73
     1
 44
1.0
1001
ACAD
1000
MTEXTBEGIN
1070
    73
1070
     1
1070
    44
1040
1.0
1070
    74
1070
     0
1000
MTEXTEND
  0
ENDBLK
  5
4312
330
4308
100
AcDbEntity
  8
0
100
AcDbBlockEnd
  0
BLOCK
  5
4315
330
4314
100
AcDbEntity
  8
0
100
AcDbBlockBegin
  2
*D14
 70
     1
 10
0.0
 20
0.0
 30
0.0
  3
*D14
  1

  0
POINT
  5
4316
330
4314
100
AcDbEntity
  8
Defpoints
  6
ByBlock
100
AcDbPoint
 10
1808.290134350337
 20
698.0000000000013
 30
0.0
  0
POINT
  5
4317
330
4314
100
AcDbEntity
  8
Defpoints
  6
ByBlock
100
AcDbPoint
 10
1820.108852666097
 20
343.0000000000001
 30
0.0
  0
LINE
  5
4318
330
4314
100
AcDbEntity
  8
标注
  6
ByBlock
 62
     0
370
    -2
100
AcDbLine
 10
1808.290134350337
 20
698.0000000000013
 30
0.0
 11
1750.956911289477
 21
698.0000000000013
 31
0.0
  0
LINE
  5
4319
330
4314
100
AcDbEntity
  8
标注
  6
ByBlock
 62
     0
370
    -2
100
AcDbLine
 10
1820.108852666097
 20
343.0000000000001
 30
0.0
 11
1750.956911289477
 21
343.0000000000001
 31
0.0
  0
LINE
  5
431A
330
4314
100
AcDbEntity
  8
标注
  6
ByBlock
 62
     0
370
     0
100
AcDbLine
 10
1754.706911289477
 20
693.0000000000013
 30
0.0
 11
1754.706911289477
 21
348.0000000000001
 31
0.0
  0
SOLID
  5
431B
330
4314
100
AcDbEntity
  8
标注
  6
ByBlock
 62
     0
100
AcDbTrace
 10
1754.706911289477
 20
698.0000000000013
 30
0.0
 11
1753.873577956143
 21
693.0000000000013
 31
0.0
 12
1755.54024462281
 22
693.0000000000013
 32
0.0
 13
1755.54024462281
 23
693.0000000000013
 33
0.0
  0
SOLID
  5
431C
330
4314
100
AcDbEntity
  8
标注
  6
ByBlock
 62
     0
100
AcDbTrace
 10
1754.706911289477
 20
343.0000000000001
 30
0.0
 11
1753.873577956143
 21
348.0000000000001
 31
0.0
 12
1755.54024462281
 22
348.0000000000001
 32
0.0
 13
1755.54024462281
 23
348.0000000000001
 33
0.0
  0
MTEXT
  5
431D
330
4314
100
AcDbEntity
  8
标注
  6
ByBlock
 62
     0
100
AcDbMText
 10
1746.277852626448
 20
520.6036740981644
 30
0.0
 40
10.0
 41
0.0
 71
     5
 72
     1
  1
\A0;{\fArial|b0|i0|c0|p34;355 [14]}
 11
0.0
 21
1.0
 31
0.0
 73
     1
 44
1.0
1001
ACAD
1000
MTEXTBEGIN
1070
    73
1070
     1
1070
    44
1040
1.0
1070
    74
1070
     0
1000
MTEXTEND
  0
ENDBLK
  5
431E
330
4314
100
AcDbEntity
  8
0
100
AcDbBlockEnd
  0
BLOCK
  5
4321
330
4320
100
AcDbEntity
  8
0
100
AcDbBlockBegin
  2
*D15
 70
     1
 10
0.0
 20
0.0
 30
0.0
  3
*D15
  1

  0
POINT
  5
4322
330
4320
100
AcDbEntity
  8
Defpoints
  6
ByBlock
100
AcDbPoint
 10
1809.412244327994
 20
704.3500000000014
 30
0.0
  0
POINT
  5
4323
330
4320
100
AcDbEntity
  8
Defpoints
  6
ByBlock
100
AcDbPoint
 10
1820.721146966092
 20
336.6500000000003
 30
0.0
  0
LINE
  5
4324
330
4320
100
AcDbEntity
  8
标注
  6
ByBlock
 62
     0
370
    -2
100
AcDbLine
 10
1809.412244327994
 20
704.3500000000014
 30
0.0
 11
1726.956911289477
 21
704.3500000000014
 31
0.0
  0
LINE
  5
4325
330
4320
100
AcDbEntity
  8
标注
  6
ByBlock
 62
     0
370
    -2
100
AcDbLine
 10
1820.721146966092
 20
336.6500000000003
 30
0.0
 11
1726.956911289477
 21
336.6500000000003
 31
0.0
  0
LINE
  5
4326
330
4320
100
AcDbEntity
  8
标注
  6
ByBlock
 62
     0
370
     0
100
AcDbLine
 10
1730.706911289477
 20
699.3500000000014
 30
0.0
 11
1730.706911289477
 21
341.6500000000003
 31
0.0
  0
SOLID
  5
4327
330
4320
100
AcDbEntity
  8
标注
  6
ByBlock
 62
     0
100
AcDbTrace
 10
1730.706911289477
 20
704.3500000000014
 30
0.0
 11
1729.873577956143
 21
699.3500000000014
 31
0.0
 12
1731.540244622811
 22
699.3500000000014
 32
0.0
 13
1731.540244622811
 23
699.3500000000014
 33
0.0
  0
SOLID
  5
4328
330
4320
100
AcDbEntity
  8
标注
  6
ByBlock
 62
     0
100
AcDbTrace
 10
1730.706911289477
 20
336.6500000000003
 30
0.0
 11
1729.873577956143
 21
341.6500000000003
 31
0.0
 12
1731.540244622811
 22
341.6500000000003
 32
0.0
 13
1731.540244622811
 23
341.6500000000003
 33
0.0
  0
MTEXT
  5
4329
330
4320
100
AcDbEntity
  8
标注
  6
ByBlock
 62
     0
100
AcDbMText
 10
1722.148248260827
 20
520.5000000000008
 30
0.0
 40
10.0
 41
0.0
 71
     5
 72
     1
  1
\A0;{\fArial|b0|i0|c0|p34;367.7 [14 1/2]}
 11
0.0
 21
1.0
 31
0.0
 73
     1
 44
1.0
1001
ACAD
1000
MTEXTBEGIN
1070
    73
1070
     1
1070
    44
1040
1.0
1070
    74
1070
     0
1000
MTEXTEND
  0
ENDBLK
  5
432A
330
4320
100
AcDbEntity
  8
0
100
AcDbBlockEnd
  0
BLOCK
  5
432D
330
432C
100
AcDbEntity
  8
0
100
AcDbBlockBegin
  2
*D16
 70
     1
 10
0.0
 20
0.0
 30
0.0
  3
*D16
  1

  0
POINT
  5
432E
330
432C
100
AcDbEntity
  8
Defpoints
  6
ByBlock
100
AcDbPoint
 10
1808.523493337269
 20
691.6500000000014
 30
0.0
  0
POINT
  5
432F
330
432C
100
AcDbEntity
  8
Defpoints
  6
ByBlock
100
AcDbPoint
 10
1821.618834948218
 20
349.3500000000003
 30
0.0
  0
LINE
  5
4330
330
432C
100
AcDbEntity
  8
标注
  6
ByBlock
 62
     0
370
    -2
100
AcDbLine
 10
1808.523493337269
 20
691.6500000000014
 30
0.0
 11
1774.228200300584
 21
691.6500000000014
 31
0.0
  0
LINE
  5
4331
330
432C
100
AcDbEntity
  8
标注
  6
ByBlock
 62
     0
370
    -2
100
AcDbLine
 10
1821.618834948218
 20
349.3500000000001
 30
0.0
 11
1774.228200300584
 21
349.3500000000001
 31
0.0
  0
LINE
  5
4332
330
432C
100
AcDbEntity
  8
标注
  6
ByBlock
 62
     0
370
     0
100
AcDbLine
 10
1777.978200300584
 20
686.6500000000014
 30
0.0
 11
1777.978200300584
 21
354.3500000000002
 31
0.0
  0
SOLID
  5
4333
330
432C
100
AcDbEntity
  8
标注
  6
ByBlock
 62
     0
100
AcDbTrace
 10
1777.978200300584
 20
691.6500000000014
 30
0.0
 11
1777.14486696725
 21
686.6500000000014
 31
0.0
 12
1778.811533633918
 22
686.6500000000014
 32
0.0
 13
1778.811533633918
 23
686.6500000000014
 33
0.0
  0
SOLID
  5
4334
330
432C
100
AcDbEntity
  8
标注
  6
ByBlock
 62
     0
100
AcDbTrace
 10
1777.978200300584
 20
349.3500000000001
 30
0.0
 11
1777.14486696725
 21
354.3500000000002
 31
0.0
 12
1778.811533633918
 22
354.3500000000002
 32
0.0
 13
1778.811533633918
 23
354.3500000000002
 33
0.0
  0
MTEXT
  5
4335
330
432C
100
AcDbEntity
  8
标注
  6
ByBlock
 62
     0
100
AcDbMText
 10
1769.419537271934
 20
520.5000000000008
 30
0.0
 40
10.0
 41
0.0
 71
     5
 72
     1
  1
\A0;{\fArial|b0|i0|c0|p34;342.3 [13 1/2]}
 11
0.0
 21
1.0
 31
0.0
 73
     1
 44
1.0
1001
ACAD
1000
MTEXTBEGIN
1070
    73
1070
     1
1070
    44
1040
1.0
1070
    74
1070
     0
1000
MTEXTEND
  0
ENDBLK
  5
4336
330
432C
100
AcDbEntity
  8
0
100
AcDbBlockEnd
  0
BLOCK
  5
4339
330
4338
100
AcDbEntity
  8
0
100
AcDbBlockBegin
  2
*D17
 70
     1
 10
0.0
 20
0.0
 30
0.0
  3
*D17
  1

  0
LINE
  5
433A
330
4338
100
AcDbEntity
  8
标注
 62
     0
370
    -2
100
AcDbLine
 10
2171.149999999995
 20
520.5000000000007
 30
0.0
 11
2171.149999999995
 21
507.3424166213237
 31
0.0
  0
LINE
  5
433B
330
4338
100
AcDbEntity
  8
标注
 62
     0
370
    -2
100
AcDbLine
 10
2177.499999999997
 20
520.4999999999934
 30
0.0
 11
2177.499999999997
 21
507.3424166213237
 31
0.0
  0
LINE
  5
433C
330
4338
100
AcDbEntity
  8
标注
 62
     0
370
     0
100
AcDbLine
 10
2182.499999999997
 20
511.0924166213237
 30
0.0
 11
2187.499999999997
 21
511.0924166213237
 31
0.0
  0
LINE
  5
433D
330
4338
100
AcDbEntity
  8
标注
 62
     0
370
     0
100
AcDbLine
 10
2166.149999999995
 20
511.0924166213237
 30
0.0
 11
2098.05075034106
 21
511.0924166213237
 31
0.0
  0
LINE
  5
433E
330
4338
100
AcDbEntity
  8
标注
 62
     0
370
     0
100
AcDbLine
 10
2177.499999999997
 20
511.0924166213237
 30
0.0
 11
2171.149999999995
 21
511.0924166213237
 31
0.0
  0
SOLID
  5
433F
330
4338
100
AcDbEntity
  8
标注
 62
     0
100
AcDbTrace
 10
2182.499999999997
 20
511.925749954657
 30
0.0
 11
2182.499999999997
 21
510.2590832879904
 31
0.0
 12
2177.499999999997
 22
511.0924166213237
 32
0.0
 13
2177.499999999997
 23
511.0924166213237
 33
0.0
  0
SOLID
  5
4340
330
4338
100
AcDbEntity
  8
标注
 62
     0
100
AcDbTrace
 10
2166.149999999995
 20
511.925749954657
 30
0.0
 11
2166.149999999995
 21
510.2590832879904
 31
0.0
 12
2171.149999999995
 22
511.0924166213237
 32
0.0
 13
2171.149999999995
 23
511.0924166213237
 33
0.0
  0
MTEXT
  5
4341
330
4338
100
AcDbEntity
  8
标注
 62
     0
100
AcDbMText
 10
2124.576671214186
 20
519.5658136199595
 30
0.0
 40
10.0
 41
0.0
 71
     5
 72
     1
  1
{\fArial|b0|i0|c0|p34;6.4 [1/4]}
 73
     1
 44
1.0
1001
ACAD
1000
MTEXTBEGIN
1070
    73
1070
     1
1070
    44
1040
1.0
1070
    74
1070
     0
1000
MTEXTEND
  0
POINT
  5
4342
330
4338
100
AcDbEntity
  8
Defpoints
 62
     0
100
AcDbPoint
 10
2171.149999999995
 20
520.5000000000007
 30
0.0
  0
POINT
  5
4343
330
4338
100
AcDbEntity
  8
Defpoints
 62
     0
100
AcDbPoint
 10
2177.499999999997
 20
520.4999999999934
 30
0.0
  0
POINT
  5
4344
330
4338
100
AcDbEntity
  8
Defpoints
 62
     0
100
AcDbPoint
 10
2177.499999999997
 20
511.0924166213237
 30
0.0
  0
ENDBLK
  5
4345
330
4338
100
AcDbEntity
  8
0
100
AcDbBlockEnd
  0
BLOCK
  5
4348
330
4347
100
AcDbEntity
  8
0
100
AcDbBlockBegin
  2
*D18
 70
     1
 10
0.0
 20
0.0
 30
0.0
  3
*D18
  1

  0
LINE
  5
4349
330
4347
100
AcDbEntity
  8
标注
 62
     0
370
    -2
100
AcDbLine
 10
2177.499999999997
 20
520.4999999999934
 30
0.0
 11
2177.499999999997
 21
485.8424166213238
 31
0.0
  0
LINE
  5
434A
330
4347
100
AcDbEntity
  8
标注
 62
     0
370
    -2
100
AcDbLine
 10
2183.85
 20
520.5000000000007
 30
0.0
 11
2183.85
 21
485.8424166213238
 31
0.0
  0
LINE
  5
434B
330
4347
100
AcDbEntity
  8
标注
 62
     0
370
     0
100
AcDbLine
 10
2188.849999999999
 20
489.5924166213237
 30
0.0
 11
2193.849999999999
 21
489.5924166213237
 31
0.0
  0
LINE
  5
434C
330
4347
100
AcDbEntity
  8
标注
 62
     0
370
     0
100
AcDbLine
 10
2172.499999999997
 20
489.5924166213237
 30
0.0
 11
2104.400750341062
 21
489.5924166213237
 31
0.0
  0
LINE
  5
434D
330
4347
100
AcDbEntity
  8
标注
 62
     0
370
     0
100
AcDbLine
 10
2183.85
 20
489.5924166213237
 30
0.0
 11
2177.499999999997
 21
489.5924166213237
 31
0.0
  0
SOLID
  5
434E
330
4347
100
AcDbEntity
  8
标注
 62
     0
100
AcDbTrace
 10
2188.849999999999
 20
490.425749954657
 30
0.0
 11
2188.849999999999
 21
488.7590832879904
 31
0.0
 12
2183.85
 22
489.5924166213237
 32
0.0
 13
2183.85
 23
489.5924166213237
 33
0.0
  0
SOLID
  5
434F
330
4347
100
AcDbEntity
  8
标注
 62
     0
100
AcDbTrace
 10
2172.499999999997
 20
490.425749954657
 30
0.0
 11
2172.499999999997
 21
488.7590832879904
 31
0.0
 12
2177.499999999997
 22
489.5924166213237
 32
0.0
 13
2177.499999999997
 23
489.5924166213237
 33
0.0
  0
MTEXT
  5
4350
330
4347
100
AcDbEntity
  8
标注
 62
     0
100
AcDbMText
 10
2130.926671214188
 20
498.0658136199594
 30
0.0
 40
10.0
 41
0.0
 71
     5
 72
     1
  1
{\fArial|b0|i0|c0|p34;6.4 [1/4]}
 73
     1
 44
1.0
1001
ACAD
1000
MTEXTBEGIN
1070
    73
1070
     1
1070
    44
1040
1.0
1070
    74
1070
     0
1000
MTEXTEND
  0
POINT
  5
4351
330
4347
100
AcDbEntity
  8
Defpoints
 62
     0
100
AcDbPoint
 10
2177.499999999997
 20
520.4999999999934
 30
0.0
  0
POINT
  5
4352
330
4347
100
AcDbEntity
  8
Defpoints
 62
     0
100
AcDbPoint
 10
2183.85
 20
520.5000000000007
 30
0.0
  0
POINT
  5
4353
330
4347
100
AcDbEntity
  8
Defpoints
 62
     0
100
AcDbPoint
 10
2183.85
 20
489.5924166213237
 30
0.0
  0
ENDBLK
  5
4354
330
4347
100
AcDbEntity
  8
0
100
AcDbBlockEnd
  0
BLOCK
  5
4412
330
4411
100
AcDbEntity
  8
0
100
AcDbBlockBegin
  2
*D19
 70
     1
 10
0.0
 20
0.0
 30
0.0
  3
*D19
  1

  0
POINT
  5
4413
330
4411
100
AcDbEntity
  8
Defpoints
  6
ByBlock
100
AcDbPoint
 10
921.5417594195459
 20
-435.7294098114622
 30
0.0
  0
POINT
  5
4414
330
4411
100
AcDbEntity
  8
Defpoints
  6
ByBlock
100
AcDbPoint
 10
566.5
 20
-432.8128652732597
 30
0.0
  0
LINE
  5
4415
330
4411
100
AcDbEntity
  8
标注
  6
ByBlock
 62
     0
370
    -2
100
AcDbLine
 10
921.5417594195459
 20
-435.7294098114622
 30
0.0
 11
921.5417594195459
 21
-367.6818950319607
 31
0.0
  0
LINE
  5
4416
330
4411
100
AcDbEntity
  8
标注
  6
ByBlock
 62
     0
370
    -2
100
AcDbLine
 10
566.5
 20
-432.8128652732597
 30
0.0
 11
566.5
 21
-367.6818950319607
 31
0.0
  0
LINE
  5
4417
330
4411
100
AcDbEntity
  8
标注
  6
ByBlock
 62
     0
370
     0
100
AcDbLine
 10
916.541759419546
 20
-371.4318950319607
 30
0.0
 11
571.4999999999999
 21
-371.4318950319607
 31
0.0
  0
SOLID
  5
4418
330
4411
100
AcDbEntity
  8
标注
  6
ByBlock
 62
     0
100
AcDbTrace
 10
921.5417594195459
 20
-371.4318950319607
 30
0.0
 11
916.541759419546
 21
-370.5985616986272
 31
0.0
 12
916.541759419546
 22
-372.2652283652942
 32
0.0
 13
916.541759419546
 23
-372.2652283652942
 33
0.0
  0
SOLID
  5
4419
330
4411
100
AcDbEntity
  8
标注
  6
ByBlock
 62
     0
100
AcDbTrace
 10
566.5
 20
-371.4318950319607
 30
0.0
 11
571.4999999999999
 21
-370.5985616986272
 31
0.0
 12
571.4999999999999
 22
-372.2652283652942
 32
0.0
 13
571.4999999999999
 23
-372.2652283652942
 33
0.0
  0
MTEXT
  5
441A
330
4411
100
AcDbEntity
  8
标注
  6
ByBlock
 62
     0
100
AcDbMText
 10
744.0
 20
-363.0028363689321
 30
0.0
 40
10.0
 41
0.0
 71
     5
 72
     1
  1
\A0;{\fArial|b0|i0|c0|p34;355 [14]}
 73
     1
 44
1.0
1001
ACAD
1000
MTEXTBEGIN
1070
    73
1070
     1
1070
    44
1040
1.0
1070
    74
1070
     0
1000
MTEXTEND
  0
ENDBLK
  5
441B
330
4411
100
AcDbEntity
  8
0
100
AcDbBlockEnd
  0
BLOCK
  5
441E
330
441D
100
AcDbEntity
  8
0
100
AcDbBlockBegin
  2
*D20
 70
     1
 10
0.0
 20
0.0
 30
0.0
  3
*D20
  1

  0
POINT
  5
441F
330
441D
100
AcDbEntity
  8
Defpoints
  6
ByBlock
100
AcDbPoint
 10
927.8500000000004
 20
-435.7109824470751
 30
0.0
  0
POINT
  5
4420
330
441D
100
AcDbEntity
  8
Defpoints
  6
ByBlock
100
AcDbPoint
 10
560.1499999999996
 20
-433.6411274292352
 30
0.0
  0
LINE
  5
4421
330
441D
100
AcDbEntity
  8
标注
  6
ByBlock
 62
     0
370
    -2
100
AcDbLine
 10
927.8500000000004
 20
-435.7109824470751
 30
0.0
 11
927.8500000000004
 21
-345.6818950319607
 31
0.0
  0
LINE
  5
4422
330
441D
100
AcDbEntity
  8
标注
  6
ByBlock
 62
     0
370
    -2
100
AcDbLine
 10
560.1499999999996
 20
-433.6411274292352
 30
0.0
 11
560.1499999999996
 21
-345.6818950319607
 31
0.0
  0
LINE
  5
4423
330
441D
100
AcDbEntity
  8
标注
  6
ByBlock
 62
     0
370
     0
100
AcDbLine
 10
922.8500000000003
 20
-349.4318950319607
 30
0.0
 11
565.1499999999996
 21
-349.4318950319607
 31
0.0
  0
SOLID
  5
4424
330
441D
100
AcDbEntity
  8
标注
  6
ByBlock
 62
     0
100
AcDbTrace
 10
927.8500000000004
 20
-349.4318950319607
 30
0.0
 11
922.8500000000003
 21
-348.5985616986273
 31
0.0
 12
922.8500000000003
 22
-350.2652283652942
 32
0.0
 13
922.8500000000003
 23
-350.2652283652942
 33
0.0
  0
SOLID
  5
4425
330
441D
100
AcDbEntity
  8
标注
  6
ByBlock
 62
     0
100
AcDbTrace
 10
560.1499999999996
 20
-349.4318950319607
 30
0.0
 11
565.1499999999996
 21
-348.5985616986273
 31
0.0
 12
565.1499999999996
 22
-350.2652283652942
 32
0.0
 13
565.1499999999996
 23
-350.2652283652942
 33
0.0
  0
MTEXT
  5
4426
330
441D
100
AcDbEntity
  8
标注
  6
ByBlock
 62
     0
100
AcDbMText
 10
744.0
 20
-340.8732320033114
 30
0.0
 40
10.0
 41
0.0
 71
     5
 72
     1
  1
\A0;{\fArial|b0|i0|c0|p34;367.7 [14 1/2]}
 73
     1
 44
1.0
1001
ACAD
1000
MTEXTBEGIN
1070
    73
1070
     1
1070
    44
1040
1.0
1070
    74
1070
     0
1000
MTEXTEND
  0
ENDBLK
  5
4427
330
441D
100
AcDbEntity
  8
0
100
AcDbBlockEnd
  0
BLOCK
  5
442A
330
4429
100
AcDbEntity
  8
0
100
AcDbBlockBegin
  2
*D21
 70
     1
 10
0.0
 20
0.0
 30
0.0
  3
*D21
  1

  0
POINT
  5
442B
330
4429
100
AcDbEntity
  8
Defpoints
  6
ByBlock
100
AcDbPoint
 10
915.1499999999996
 20
-435.7294098114622
 30
0.0
  0
POINT
  5
442C
330
4429
100
AcDbEntity
  8
Defpoints
  6
ByBlock
100
AcDbPoint
 10
572.8500000000003
 20
-431.432428346634
 30
0.0
  0
LINE
  5
442D
330
4429
100
AcDbEntity
  8
标注
  6
ByBlock
 62
     0
370
    -2
100
AcDbLine
 10
915.1499999999996
 20
-435.7294098114622
 30
0.0
 11
915.1499999999996
 21
-389.9131314010767
 31
0.0
  0
LINE
  5
442E
330
4429
100
AcDbEntity
  8
标注
  6
ByBlock
 62
     0
370
    -2
100
AcDbLine
 10
572.8500000000003
 20
-431.432428346634
 30
0.0
 11
572.8500000000003
 21
-389.9131314010767
 31
0.0
  0
LINE
  5
442F
330
4429
100
AcDbEntity
  8
标注
  6
ByBlock
 62
     0
370
     0
100
AcDbLine
 10
910.1499999999996
 20
-393.6631314010767
 30
0.0
 11
577.8500000000003
 21
-393.6631314010767
 31
0.0
  0
SOLID
  5
4430
330
4429
100
AcDbEntity
  8
标注
  6
ByBlock
 62
     0
100
AcDbTrace
 10
915.1499999999996
 20
-393.6631314010767
 30
0.0
 11
910.1499999999996
 21
-392.8297980677432
 31
0.0
 12
910.1499999999996
 22
-394.4964647344102
 32
0.0
 13
910.1499999999996
 23
-394.4964647344102
 33
0.0
  0
SOLID
  5
4431
330
4429
100
AcDbEntity
  8
标注
  6
ByBlock
 62
     0
100
AcDbTrace
 10
572.8500000000003
 20
-393.6631314010767
 30
0.0
 11
577.8500000000003
 21
-392.8297980677432
 31
0.0
 12
577.8500000000003
 22
-394.4964647344102
 32
0.0
 13
577.8500000000003
 23
-394.4964647344102
 33
0.0
  0
MTEXT
  5
4432
330
4429
100
AcDbEntity
  8
标注
  6
ByBlock
 62
     0
100
AcDbMText
 10
744.0
 20
-385.1044683724274
 30
0.0
 40
10.0
 41
0.0
 71
     5
 72
     1
  1
\A0;{\fArial|b0|i0|c0|p34;342.3 [13 1/2]}
 73
     1
 44
1.0
1001
ACAD
1000
MTEXTBEGIN
1070
    73
1070
     1
1070
    44
1040
1.0
1070
    74
1070
     0
1000
MTEXTEND
  0
ENDBLK
  5
4433
330
4429
100
AcDbEntity
  8
0
100
AcDbBlockEnd
  0
BLOCK
  5
4436
330
4435
100
AcDbEntity
  8
0
100
AcDbBlockBegin
  2
*D22
 70
     1
 10
0.0
 20
0.0
 30
0.0
  3
*D22
  1

  0
POINT
  5
4437
330
4435
100
AcDbEntity
  8
Defpoints
  6
ByBlock
100
AcDbPoint
 10
552.2901343503372
 20
-445.4999999999986
 30
0.0
  0
POINT
  5
4438
330
4435
100
AcDbEntity
  8
Defpoints
  6
ByBlock
100
AcDbPoint
 10
564.1088526660969
 20
-800.4999999999999
 30
0.0
  0
LINE
  5
4439
330
4435
100
AcDbEntity
  8
标注
  6
ByBlock
 62
     0
370
    -2
100
AcDbLine
 10
552.2901343503372
 20
-445.4999999999986
 30
0.0
 11
494.9569112894769
 21
-445.4999999999986
 31
0.0
  0
LINE
  5
443A
330
4435
100
AcDbEntity
  8
标注
  6
ByBlock
 62
     0
370
    -2
100
AcDbLine
 10
564.1088526660969
 20
-800.4999999999999
 30
0.0
 11
494.9569112894769
 21
-800.4999999999999
 31
0.0
  0
LINE
  5
443B
330
4435
100
AcDbEntity
  8
标注
  6
ByBlock
 62
     0
370
     0
100
AcDbLine
 10
498.7069112894769
 20
-450.4999999999986
 30
0.0
 11
498.7069112894769
 21
-795.4999999999999
 31
0.0
  0
SOLID
  5
443C
330
4435
100
AcDbEntity
  8
标注
  6
ByBlock
 62
     0
100
AcDbTrace
 10
498.7069112894769
 20
-445.4999999999986
 30
0.0
 11
497.8735779561429
 21
-450.4999999999986
 31
0.0
 12
499.5402446228109
 22
-450.4999999999986
 32
0.0
 13
499.5402446228109
 23
-450.4999999999986
 33
0.0
  0
SOLID
  5
443D
330
4435
100
AcDbEntity
  8
标注
  6
ByBlock
 62
     0
100
AcDbTrace
 10
498.7069112894769
 20
-800.4999999999999
 30
0.0
 11
497.8735779561429
 21
-795.4999999999999
 31
0.0
 12
499.5402446228109
 22
-795.4999999999999
 32
0.0
 13
499.5402446228109
 23
-795.4999999999999
 33
0.0
  0
MTEXT
  5
443E
330
4435
100
AcDbEntity
  8
标注
  6
ByBlock
 62
     0
100
AcDbMText
 10
490.2778526264483
 20
-622.8963259018355
 30
0.0
 40
10.0
 41
0.0
 71
     5
 72
     1
  1
\A0;{\fArial|b0|i0|c0|p34;355 [14]}
 11
0.0
 21
1.0
 31
0.0
 73
     1
 44
1.0
1001
ACAD
1000
MTEXTBEGIN
1070
    73
1070
     1
1070
    44
1040
1.0
1070
    74
1070
     0
1000
MTEXTEND
  0
ENDBLK
  5
443F
330
4435
100
AcDbEntity
  8
0
100
AcDbBlockEnd
  0
BLOCK
  5
4442
330
4441
100
AcDbEntity
  8
0
100
AcDbBlockBegin
  2
*D23
 70
     1
 10
0.0
 20
0.0
 30
0.0
  3
*D23
  1

  0
POINT
  5
4443
330
4441
100
AcDbEntity
  8
Defpoints
  6
ByBlock
100
AcDbPoint
 10
553.4122443279938
 20
-439.1499999999986
 30
0.0
  0
POINT
  5
4444
330
4441
100
AcDbEntity
  8
Defpoints
  6
ByBlock
100
AcDbPoint
 10
564.7211469660923
 20
-806.8499999999996
 30
0.0
  0
LINE
  5
4445
330
4441
100
AcDbEntity
  8
标注
  6
ByBlock
 62
     0
370
    -2
100
AcDbLine
 10
553.4122443279938
 20
-439.1499999999986
 30
0.0
 11
470.9569112894769
 21
-439.1499999999986
 31
0.0
  0
LINE
  5
4446
330
4441
100
AcDbEntity
  8
标注
  6
ByBlock
 62
     0
370
    -2
100
AcDbLine
 10
564.7211469660923
 20
-806.8499999999996
 30
0.0
 11
470.9569112894769
 21
-806.8499999999996
 31
0.0
  0
LINE
  5
4447
330
4441
100
AcDbEntity
  8
标注
  6
ByBlock
 62
     0
370
     0
100
AcDbLine
 10
474.7069112894769
 20
-444.1499999999986
 30
0.0
 11
474.7069112894769
 21
-801.8499999999997
 31
0.0
  0
SOLID
  5
4448
330
4441
100
AcDbEntity
  8
标注
  6
ByBlock
 62
     0
100
AcDbTrace
 10
474.7069112894769
 20
-439.1499999999986
 30
0.0
 11
473.8735779561429
 21
-444.1499999999986
 31
0.0
 12
475.5402446228108
 22
-444.1499999999986
 32
0.0
 13
475.5402446228108
 23
-444.1499999999986
 33
0.0
  0
SOLID
  5
4449
330
4441
100
AcDbEntity
  8
标注
  6
ByBlock
 62
     0
100
AcDbTrace
 10
474.7069112894769
 20
-806.8499999999996
 30
0.0
 11
473.8735779561429
 21
-801.8499999999997
 31
0.0
 12
475.5402446228108
 22
-801.8499999999997
 32
0.0
 13
475.5402446228108
 23
-801.8499999999997
 33
0.0
  0
MTEXT
  5
444A
330
4441
100
AcDbEntity
  8
标注
  6
ByBlock
 62
     0
100
AcDbMText
 10
466.1482482608271
 20
-622.9999999999992
 30
0.0
 40
10.0
 41
0.0
 71
     5
 72
     1
  1
\A0;{\fArial|b0|i0|c0|p34;367.7 [14 1/2]}
 11
0.0
 21
1.0
 31
0.0
 73
     1
 44
1.0
1001
ACAD
1000
MTEXTBEGIN
1070
    73
1070
     1
1070
    44
1040
1.0
1070
    74
1070
     0
1000
MTEXTEND
  0
ENDBLK
  5
444B
330
4441
100
AcDbEntity
  8
0
100
AcDbBlockEnd
  0
BLOCK
  5
444E
330
444D
100
AcDbEntity
  8
0
100
AcDbBlockBegin
  2
*D24
 70
     1
 10
0.0
 20
0.0
 30
0.0
  3
*D24
  1

  0
POINT
  5
444F
330
444D
100
AcDbEntity
  8
Defpoints
  6
ByBlock
100
AcDbPoint
 10
552.5234933372694
 20
-451.8499999999985
 30
0.0
  0
POINT
  5
4450
330
444D
100
AcDbEntity
  8
Defpoints
  6
ByBlock
100
AcDbPoint
 10
565.6188349482181
 20
-794.1499999999997
 30
0.0
  0
LINE
  5
4451
330
444D
100
AcDbEntity
  8
标注
  6
ByBlock
 62
     0
370
    -2
100
AcDbLine
 10
552.5234933372694
 20
-451.8499999999985
 30
0.0
 11
518.2282003005838
 21
-451.8499999999985
 31
0.0
  0
LINE
  5
4452
330
444D
100
AcDbEntity
  8
标注
  6
ByBlock
 62
     0
370
    -2
100
AcDbLine
 10
565.6188349482181
 20
-794.1499999999998
 30
0.0
 11
518.2282003005838
 21
-794.1499999999998
 31
0.0
  0
LINE
  5
4453
330
444D
100
AcDbEntity
  8
标注
  6
ByBlock
 62
     0
370
     0
100
AcDbLine
 10
521.9782003005839
 20
-456.8499999999985
 30
0.0
 11
521.9782003005839
 21
-789.1499999999998
 31
0.0
  0
SOLID
  5
4454
330
444D
100
AcDbEntity
  8
标注
  6
ByBlock
 62
     0
100
AcDbTrace
 10
521.9782003005839
 20
-451.8499999999985
 30
0.0
 11
521.1448669672499
 21
-456.8499999999985
 31
0.0
 12
522.8115336339178
 22
-456.8499999999985
 32
0.0
 13
522.8115336339178
 23
-456.8499999999985
 33
0.0
  0
SOLID
  5
4455
330
444D
100
AcDbEntity
  8
标注
  6
ByBlock
 62
     0
100
AcDbTrace
 10
521.9782003005839
 20
-794.1499999999998
 30
0.0
 11
521.1448669672499
 21
-789.1499999999998
 31
0.0
 12
522.8115336339178
 22
-789.1499999999998
 32
0.0
 13
522.8115336339178
 23
-789.1499999999998
 33
0.0
  0
MTEXT
  5
4456
330
444D
100
AcDbEntity
  8
标注
  6
ByBlock
 62
     0
100
AcDbMText
 10
513.4195372719341
 20
-622.9999999999992
 30
0.0
 40
10.0
 41
0.0
 71
     5
 72
     1
  1
\A0;{\fArial|b0|i0|c0|p34;342.3 [13 1/2]}
 11
0.0
 21
1.0
 31
0.0
 73
     1
 44
1.0
1001
ACAD
1000
MTEXTBEGIN
1070
    73
1070
     1
1070
    44
1040
1.0
1070
    74
1070
     0
1000
MTEXTEND
  0
ENDBLK
  5
4457
330
444D
100
AcDbEntity
  8
0
100
AcDbBlockEnd
  0
BLOCK
  5
467A
330
4679
100
AcDbEntity
  8
0
100
AcDbBlockBegin
  2
*D25
 70
     1
 10
0.0
 20
0.0
 30
0.0
  3
*D25
  1

  0
POINT
  5
466D
330
4679
100
AcDbEntity
  8
Defpoints
  6
ByBlock
100
AcDbPoint
 10
915.1499999999996
 20
-622.9999999999993
 30
0.0
  0
POINT
  5
466E
330
4679
100
AcDbEntity
  8
Defpoints
  6
ByBlock
100
AcDbPoint
 10
921.4999999999999
 20
-622.9999999999993
 30
0.0
  0
LINE
  5
466F
330
4679
100
AcDbEntity
  8
标注
  6
ByBlock
 62
     0
370
    -2
100
AcDbLine
 10
915.1499999999996
 20
-622.9999999999993
 30
0.0
 11
915.1499999999996
 21
-614.7499999999999
 31
0.0
  0
LINE
  5
4670
330
4679
100
AcDbEntity
  8
标注
  6
ByBlock
 62
     0
370
    -2
100
AcDbLine
 10
921.4999999999999
 20
-622.9999999999993
 30
0.0
 11
921.4999999999999
 21
-614.7499999999999
 31
0.0
  0
LINE
  5
4671
330
4679
100
AcDbEntity
  8
标注
  6
ByBlock
 62
     0
370
     0
100
AcDbLine
 10
910.1499999999996
 20
-618.5
 30
0.0
 11
905.1499999999997
 21
-618.5
 31
0.0
  0
LINE
  5
4672
330
4679
100
AcDbEntity
  8
标注
  6
ByBlock
 62
     0
370
     0
100
AcDbLine
 10
1015.5
 20
-618.5
 30
0.0
 11
926.5
 21
-618.5
 31
0.0
  0
SOLID
  5
4673
330
4679
100
AcDbEntity
  8
标注
  6
ByBlock
 62
     0
100
AcDbTrace
 10
915.1499999999996
 20
-618.5
 30
0.0
 11
910.1499999999996
 21
-619.3333333333335
 31
0.0
 12
910.1499999999996
 22
-617.6666666666664
 32
0.0
 13
910.1499999999996
 23
-617.6666666666664
 33
0.0
  0
SOLID
  5
4674
330
4679
100
AcDbEntity
  8
标注
  6
ByBlock
 62
     0
100
AcDbTrace
 10
921.4999999999999
 20
-618.5
 30
0.0
 11
926.5
 21
-619.3333333333335
 31
0.0
 12
926.5
 22
-617.6666666666664
 32
0.0
 13
926.5
 23
-617.6666666666664
 33
0.0
  0
LINE
  5
4675
330
4679
100
AcDbEntity
  8
标注
  6
ByBlock
 62
     0
370
     0
100
AcDbLine
 10
915.1499999999996
 20
-618.5
 30
0.0
 11
921.4999999999999
 21
-618.5
 31
0.0
  0
LINE
  5
4676
330
4679
100
AcDbEntity
  8
标注
  6
ByBlock
 62
     0
370
     0
100
AcDbLine
 10
915.1499999999996
 20
-622.9999999999993
 30
0.0
 11
915.1499999999996
 21
-622.9999999999993
 31
0.0
  0
MTEXT
  5
4677
330
4679
100
AcDbEntity
  8
标注
  6
ByBlock
 62
     0
100
AcDbMText
 10
973.4999999999999
 20
-611.5
 30
0.0
 40
10.0
 41
0.0
 71
     5
 72
     1
  1
\A0;6.35 [1/4]
 73
     1
 44
1.0
1001
ACAD
1000
MTEXTBEGIN
1070
    73
1070
     1
1070
    44
1040
1.0
1070
    74
1070
     0
1000
MTEXTEND
  0
ENDBLK
  5
467B
330
4679
100
AcDbEntity
  8
0
100
AcDbBlockEnd
  0
BLOCK
  5
468A
330
4689
100
AcDbEntity
  8
0
100
AcDbBlockBegin
  2
*D26
 70
     1
 10
0.0
 20
0.0
 30
0.0
  3
*D26
  1

  0
POINT
  5
467D
330
4689
100
AcDbEntity
  8
Defpoints
  6
ByBlock
100
AcDbPoint
 10
921.4999999999999
 20
-622.9999999999993
 30
0.0
  0
POINT
  5
467E
330
4689
100
AcDbEntity
  8
Defpoints
  6
ByBlock
100
AcDbPoint
 10
927.8499999999999
 20
-622.9999999999993
 30
0.0
  0
LINE
  5
467F
330
4689
100
AcDbEntity
  8
标注
  6
ByBlock
 62
     0
370
    -2
100
AcDbLine
 10
921.4999999999999
 20
-622.9999999999993
 30
0.0
 11
921.4999999999999
 21
-639.7499999999999
 31
0.0
  0
LINE
  5
4680
330
4689
100
AcDbEntity
  8
标注
  6
ByBlock
 62
     0
370
    -2
100
AcDbLine
 10
927.8499999999999
 20
-622.9999999999993
 30
0.0
 11
927.8499999999999
 21
-639.7499999999999
 31
0.0
  0
LINE
  5
4681
330
4689
100
AcDbEntity
  8
标注
  6
ByBlock
 62
     0
370
     0
100
AcDbLine
 10
916.5
 20
-636.0
 30
0.0
 11
911.5
 21
-636.0
 31
0.0
  0
LINE
  5
4682
330
4689
100
AcDbEntity
  8
标注
  6
ByBlock
 62
     0
370
     0
100
AcDbLine
 10
1021.0
 20
-636.0
 30
0.0
 11
932.85
 21
-636.0
 31
0.0
  0
SOLID
  5
4683
330
4689
100
AcDbEntity
  8
标注
  6
ByBlock
 62
     0
100
AcDbTrace
 10
921.4999999999999
 20
-636.0
 30
0.0
 11
916.5
 21
-636.8333333333334
 31
0.0
 12
916.5
 22
-635.1666666666665
 32
0.0
 13
916.5
 23
-635.1666666666665
 33
0.0
  0
SOLID
  5
4684
330
4689
100
AcDbEntity
  8
标注
  6
ByBlock
 62
     0
100
AcDbTrace
 10
927.8499999999999
 20
-636.0
 30
0.0
 11
932.85
 21
-636.8333333333334
 31
0.0
 12
932.85
 22
-635.1666666666665
 32
0.0
 13
932.85
 23
-635.1666666666665
 33
0.0
  0
LINE
  5
4685
330
4689
100
AcDbEntity
  8
标注
  6
ByBlock
 62
     0
370
     0
100
AcDbLine
 10
921.4999999999999
 20
-636.0
 30
0.0
 11
927.8499999999999
 21
-636.0
 31
0.0
  0
LINE
  5
4686
330
4689
100
AcDbEntity
  8
标注
  6
ByBlock
 62
     0
370
     0
100
AcDbLine
 10
921.4999999999999
 20
-622.9999999999993
 30
0.0
 11
921.4999999999999
 21
-622.9999999999993
 31
0.0
  0
MTEXT
  5
4687
330
4689
100
AcDbEntity
  8
标注
  6
ByBlock
 62
     0
100
AcDbMText
 10
979.0
 20
-629.0
 30
0.0
 40
10.0
 41
0.0
 71
     5
 72
     1
  1
\A0;6.35 [1/4]
 73
     1
 44
1.0
1001
ACAD
1000
MTEXTBEGIN
1070
    73
1070
     1
1070
    44
1040
1.0
1070
    74
1070
     0
1000
MTEXTEND
  0
ENDBLK
  5
468B
330
4689
100
AcDbEntity
  8
0
100
AcDbBlockEnd
  0
BLOCK
  5
4999
330
4998
100
AcDbEntity
  8
0
100
AcDbBlockBegin
  2
*D27
 70
     1
 10
0.0
 20
0.0
 30
0.0
  3
*D27
  1

  0
LINE
  5
4992
330
4998
100
AcDbEntity
  8
标注
  6
ByBlock
 62
     0
370
    -2
100
AcDbLine
 10
11762.99526079839
 20
-672.4722312629819
 30
0.0
 11
11659.32924317395
 21
-672.1053966028048
 31
0.0
  0
SOLID
  5
4993
330
4998
100
AcDbEntity
  8
标注
  6
ByBlock
 62
     0
100
AcDbTrace
 10
11776.99517314638
 20
-672.5217716350962
 30
0.0
 11
11762.9870040697
 21
-674.80554998765
 31
0.0
 12
11763.00351752707
 22
-670.1389125383139
 32
0.0
 13
11763.00351752707
 23
-670.1389125383139
 33
0.0
  0
MTEXT
  5
4994
330
4998
100
AcDbEntity
  8
标注
  6
ByBlock
 62
     0
100
AcDbMText
 10
11704.20298968926
 20
-660.7641157467005
 30
0.0
 40
20.000000000001
 41
0.0
 71
     5
 72
     1
  1
\A0;R9300
 11
0.999993739142469
 21
-0.0035385980081623
 31
0.0
 73
     1
 44
1.0
1001
ACAD
1000
MTEXTBEGIN
1070
    73
1070
     1
1070
    44
1040
1.0
1070
    74
1070
     0
1000
MTEXTEND
  0
POINT
  5
4995
330
4998
100
AcDbEntity
  8
Defpoints
  6
ByBlock
100
AcDbPoint
 10
2477.05339912128
 20
-639.6128101591675
 30
0.0
  0
POINT
  5
4996
330
4998
100
AcDbEntity
  8
Defpoints
  6
ByBlock
100
AcDbPoint
 10
11776.99517314638
 20
-672.5217716350962
 30
0.0
  0
ENDBLK
  5
499A
330
4998
100
AcDbEntity
  8
0
100
AcDbBlockEnd
  0
BLOCK
  5
49DB
330
49DA
100
AcDbEntity
  8
0
100
AcDbBlockBegin
  2
*D28
 70
     1
 10
0.0
 20
0.0
 30
0.0
  3
*D28
  1

  0
LINE
  5
49D0
330
49DA
100
AcDbEntity
  8
标注
  6
ByBlock
 62
     0
370
    -2
100
AcDbLine
 10
1936.984709520769
 20
-595.3845901530724
 30
0.0
 11
1921.999999999998
 21
-562.5
 31
0.0
  0
LINE
  5
49D1
330
49DA
100
AcDbEntity
  8
标注
  6
ByBlock
 62
     0
370
    -2
100
AcDbLine
 10
1921.999999999998
 20
-562.5
 30
0.0
 11
1845.666666666665
 21
-562.5
 31
0.0
  0
LINE
  5
49D2
330
49DA
100
AcDbEntity
  8
标注
  6
ByBlock
 62
     0
370
    -2
100
AcDbLine
 10
1951.082985283521
 20
-626.3238632621368
 30
0.0
 11
1956.88815765642
 21
-639.0635639541051
 31
0.0
  0
LINE
  5
49D3
330
49DA
100
AcDbEntity
  8
标注
  6
ByBlock
 62
     0
370
    -2
100
AcDbLine
 10
1942.789881893667
 20
-608.1242908450406
 30
0.0
 11
1945.277812910623
 21
-613.5841625701686
 31
0.0
  0
SOLID
  5
49D4
330
49DA
100
AcDbEntity
  8
标注
  6
ByBlock
 62
     0
100
AcDbTrace
 10
1945.277812910623
 20
-613.5841625701686
 30
0.0
 11
1953.206268732183
 21
-625.3563345333202
 31
0.0
 12
1948.95970183486
 22
-627.2913919909534
 32
0.0
 13
1948.95970183486
 23
-627.2913919909534
 33
0.0
  0
SOLID
  5
49D5
330
49DA
100
AcDbEntity
  8
标注
  6
ByBlock
 62
     0
100
AcDbTrace
 10
1942.789881893667
 20
-608.1242908450406
 30
0.0
 11
1939.107992969431
 21
-594.4170614242558
 31
0.0
 12
1934.861426072107
 22
-596.352118881889
 32
0.0
 13
1934.861426072107
 23
-596.352118881889
 33
0.0
  0
MTEXT
  5
49D6
330
49DA
100
AcDbEntity
  8
标注
  6
ByBlock
 62
     0
100
AcDbMText
 10
1883.833333333331
 20
-551.0
 30
0.0
 40
20.0
 41
0.0
 71
     5
 72
     1
  1
\A0;5-\U+22056
 73
     1
 44
1.0
1001
ACAD
1000
MTEXTBEGIN
1070
    73
1070
     1
1070
    44
1040
1.0
1070
    74
1070
     0
1000
MTEXTEND
  0
POINT
  5
49D7
330
49DA
100
AcDbEntity
  8
Defpoints
  6
ByBlock
100
AcDbPoint
 10
1945.277812910623
 20
-613.5841625701686
 30
0.0
  0
POINT
  5
49D8
330
49DA
100
AcDbEntity
  8
Defpoints
  6
ByBlock
100
AcDbPoint
 10
1942.789881893667
 20
-608.1242908450406
 30
0.0
  0
ENDBLK
  5
49DC
330
49DA
100
AcDbEntity
  8
0
100
AcDbBlockEnd
  0
BLOCK
  5
49FD
330
49FC
100
AcDbEntity
  8
0
100
AcDbBlockBegin
  2
*D29
 70
     1
 10
0.0
 20
0.0
 30
0.0
  3
*D29
  1

  0
POINT
  5
49F0
330
49FC
100
AcDbEntity
  8
Defpoints
  6
ByBlock
100
AcDbPoint
 10
1762.533847402145
 20
-610.8542267076054
 30
0.0
  0
POINT
  5
49F1
330
49FC
100
AcDbEntity
  8
Defpoints
  6
ByBlock
100
AcDbPoint
 10
1756.533847402145
 20
-610.8542267076054
 30
0.0
  0
LINE
  5
49F2
330
49FC
100
AcDbEntity
  8
标注
  6
ByBlock
 62
     0
370
    -2
100
AcDbLine
 10
1762.533847402145
 20
-610.8542267076054
 30
0.0
 11
1762.533847402145
 21
-650.4999999999999
 31
0.0
  0
LINE
  5
49F3
330
49FC
100
AcDbEntity
  8
标注
  6
ByBlock
 62
     0
370
    -2
100
AcDbLine
 10
1756.533847402145
 20
-610.8542267076054
 30
0.0
 11
1756.533847402145
 21
-650.4999999999999
 31
0.0
  0
LINE
  5
49F4
330
49FC
100
AcDbEntity
  8
标注
  6
ByBlock
 62
     0
370
    -2
100
AcDbLine
 10
1776.533847402145
 20
-644.5
 30
0.0
 11
1790.533847402145
 21
-644.5
 31
0.0
  0
LINE
  5
49F5
330
49FC
100
AcDbEntity
  8
标注
  6
ByBlock
 62
     0
370
    -2
100
AcDbLine
 10
1702.333333333333
 20
-644.5
 30
0.0
 11
1742.533847402145
 21
-644.5
 31
0.0
  0
SOLID
  5
49F6
330
49FC
100
AcDbEntity
  8
标注
  6
ByBlock
 62
     0
100
AcDbTrace
 10
1762.533847402145
 20
-644.5
 30
0.0
 11
1776.533847402145
 21
-642.1666666666661
 31
0.0
 12
1776.533847402145
 22
-646.8333333333338
 32
0.0
 13
1776.533847402145
 23
-646.8333333333338
 33
0.0
  0
SOLID
  5
49F7
330
49FC
100
AcDbEntity
  8
标注
  6
ByBlock
 62
     0
100
AcDbTrace
 10
1756.533847402145
 20
-644.5
 30
0.0
 11
1742.533847402145
 21
-642.1666666666661
 31
0.0
 12
1742.533847402145
 22
-646.8333333333338
 32
0.0
 13
1742.533847402145
 23
-646.8333333333338
 33
0.0
  0
LINE
  5
49F8
330
49FC
100
AcDbEntity
  8
标注
  6
ByBlock
 62
     0
370
    -2
100
AcDbLine
 10
1762.533847402145
 20
-644.5
 30
0.0
 11
1756.533847402145
 21
-644.5
 31
0.0
  0
LINE
  5
49F9
330
49FC
100
AcDbEntity
  8
标注
  6
ByBlock
 62
     0
370
    -2
100
AcDbLine
 10
1762.533847402145
 20
-610.8542267076054
 30
0.0
 11
1762.533847402145
 21
-610.8542267076054
 31
0.0
  0
MTEXT
  5
49FA
330
49FC
100
AcDbEntity
  8
标注
  6
ByBlock
 62
     0
100
AcDbMText
 10
1710.5
 20
-633.0
 30
0.0
 40
20.0
 41
0.0
 71
     5
 72
     1
  1
\A0;6
 73
     1
 44
1.0
1001
ACAD
1000
MTEXTBEGIN
1070
    73
1070
     1
1070
    44
1040
1.0
1070
    74
1070
     0
1000
MTEXTEND
  0
ENDBLK
  5
49FE
330
49FC
100
AcDbEntity
  8
0
100
AcDbBlockEnd
  0
BLOCK
  5
4BE3
330
4BE2
100
AcDbEntity
  8
0
100
AcDbBlockBegin
  2
*D30
 70
     1
 10
0.0
 20
0.0
 30
0.0
  3
*D30
  1

  0
POINT
  5
4BD9
330
4BE2
100
AcDbEntity
  8
Defpoints
  6
ByBlock
100
AcDbPoint
 10
1756.533847402145
 20
-703.354226707606
 30
0.0
  0
POINT
  5
4BDA
330
4BE2
100
AcDbEntity
  8
Defpoints
  6
ByBlock
100
AcDbPoint
 10
2131.533847402145
 20
-703.354226707606
 30
0.0
  0
LINE
  5
4BDB
330
4BE2
100
AcDbEntity
  8
标注
  6
ByBlock
 62
     0
370
    -2
100
AcDbLine
 10
1756.533847402145
 20
-703.354226707606
 30
0.0
 11
1756.533847402145
 21
-855.4999999999999
 31
0.0
  0
LINE
  5
4BDC
330
4BE2
100
AcDbEntity
  8
标注
  6
ByBlock
 62
     0
370
    -2
100
AcDbLine
 10
2131.533847402145
 20
-703.354226707606
 30
0.0
 11
2131.533847402145
 21
-855.4999999999999
 31
0.0
  0
LINE
  5
4BDD
330
4BE2
100
AcDbEntity
  8
标注
  6
ByBlock
 62
     0
370
    -2
100
AcDbLine
 10
1770.533847402145
 20
-849.5
 30
0.0
 11
2117.533847402146
 21
-849.5
 31
0.0
  0
SOLID
  5
4BDE
330
4BE2
100
AcDbEntity
  8
标注
  6
ByBlock
 62
     0
100
AcDbTrace
 10
1756.533847402145
 20
-849.5
 30
0.0
 11
1770.533847402145
 21
-851.8333333333337
 31
0.0
 12
1770.533847402145
 22
-847.1666666666662
 32
0.0
 13
1770.533847402145
 23
-847.1666666666662
 33
0.0
  0
SOLID
  5
4BDF
330
4BE2
100
AcDbEntity
  8
标注
  6
ByBlock
 62
     0
100
AcDbTrace
 10
2131.533847402145
 20
-849.5
 30
0.0
 11
2117.533847402146
 21
-851.8333333333337
 31
0.0
 12
2117.533847402146
 22
-847.1666666666662
 32
0.0
 13
2117.533847402146
 23
-847.1666666666662
 33
0.0
  0
MTEXT
  5
4BE0
330
4BE2
100
AcDbEntity
  8
标注
  6
ByBlock
 62
     0
100
AcDbMText
 10
1943.5
 20
-838.0
 30
0.0
 40
20.0
 41
0.0
 71
     5
 72
     1
  1
\A0;375
 73
     1
 44
1.0
1001
ACAD
1000
MTEXTBEGIN
1070
    73
1070
     1
1070
    44
1040
1.0
1070
    74
1070
     0
1000
MTEXTEND
  0
ENDBLK
  5
4BE4
330
4BE2
100
AcDbEntity
  8
0
100
AcDbBlockEnd
  0
BLOCK
  5
4BFD
330
4BFC
100
AcDbEntity
  8
0
100
AcDbBlockBegin
  2
*D31
 70
     1
 10
0.0
 20
0.0
 30
0.0
  3
*D31
  1

  0
POINT
  5
4BF3
330
4BFC
100
AcDbEntity
  8
Defpoints
  6
ByBlock
100
AcDbPoint
 10
1851.533847402145
 20
-798.354226707606
 30
0.0
  0
POINT
  5
4BF4
330
4BFC
100
AcDbEntity
  8
Defpoints
  6
ByBlock
100
AcDbPoint
 10
1851.533847402145
 20
-423.3542267076047
 30
0.0
  0
LINE
  5
4BF5
330
4BFC
100
AcDbEntity
  8
标注
  6
ByBlock
 62
     0
370
    -2
100
AcDbLine
 10
1851.533847402145
 20
-798.354226707606
 30
0.0
 11
1679.0
 21
-798.354226707606
 31
0.0
  0
LINE
  5
4BF6
330
4BFC
100
AcDbEntity
  8
标注
  6
ByBlock
 62
     0
370
    -2
100
AcDbLine
 10
1851.533847402145
 20
-423.3542267076047
 30
0.0
 11
1679.0
 21
-423.3542267076047
 31
0.0
  0
LINE
  5
4BF7
330
4BFC
100
AcDbEntity
  8
标注
  6
ByBlock
 62
     0
370
    -2
100
AcDbLine
 10
1685.0
 20
-784.354226707606
 30
0.0
 11
1685.0
 21
-437.3542267076047
 31
0.0
  0
SOLID
  5
4BF8
330
4BFC
100
AcDbEntity
  8
标注
  6
ByBlock
 62
     0
100
AcDbTrace
 10
1685.0
 20
-798.354226707606
 30
0.0
 11
1687.333333333334
 21
-784.354226707606
 31
0.0
 12
1682.666666666666
 22
-784.354226707606
 32
0.0
 13
1682.666666666666
 23
-784.354226707606
 33
0.0
  0
SOLID
  5
4BF9
330
4BFC
100
AcDbEntity
  8
标注
  6
ByBlock
 62
     0
100
AcDbTrace
 10
1685.0
 20
-423.3542267076047
 30
0.0
 11
1687.333333333334
 21
-437.3542267076047
 31
0.0
 12
1682.666666666666
 22
-437.3542267076047
 32
0.0
 13
1682.666666666666
 23
-437.3542267076047
 33
0.0
  0
MTEXT
  5
4BFA
330
4BFC
100
AcDbEntity
  8
标注
  6
ByBlock
 62
     0
100
AcDbMText
 10
1673.5
 20
-610.8542267076054
 30
0.0
 40
20.0
 41
0.0
 71
     5
 72
     1
  1
\A0;375
 11
0.0000000000000001
 21
1.0
 31
0.0
 73
     1
 44
1.0
1001
ACAD
1000
MTEXTBEGIN
1070
    73
1070
     1
1070
    44
1040
1.0
1070
    74
1070
     0
1000
MTEXTEND
  0
ENDBLK
  5
4BFE
330
4BFC
100
AcDbEntity
  8
0
100
AcDbBlockEnd
  0
BLOCK
  5
4C1D
330
4C1C
100
AcDbEntity
  8
0
100
AcDbBlockBegin
  2
*D32
 70
     1
 10
0.0
 20
0.0
 30
0.0
  3
*D32
  1

  0
POINT
  5
4C10
330
4C1C
100
AcDbEntity
  8
Defpoints
  6
ByBlock
100
AcDbPoint
 10
2106.533847402145
 20
-610.8542267075828
 30
0.0
  0
POINT
  5
4C11
330
4C1C
100
AcDbEntity
  8
Defpoints
  6
ByBlock
100
AcDbPoint
 10
2131.533847402145
 20
-610.8542267076054
 30
0.0
  0
LINE
  5
4C12
330
4C1C
100
AcDbEntity
  8
标注
  6
ByBlock
 62
     0
370
    -2
100
AcDbLine
 10
2106.533847402145
 20
-610.8542267075828
 30
0.0
 11
2106.533847402145
 21
-580.7762456778518
 31
0.0
  0
LINE
  5
4C13
330
4C1C
100
AcDbEntity
  8
标注
  6
ByBlock
 62
     0
370
    -2
100
AcDbLine
 10
2131.533847402145
 20
-610.8542267076054
 30
0.0
 11
2131.533847402145
 21
-580.7762456778518
 31
0.0
  0
LINE
  5
4C14
330
4C1C
100
AcDbEntity
  8
标注
  6
ByBlock
 62
     0
370
    -2
100
AcDbLine
 10
2092.533847402146
 20
-586.7762456778518
 30
0.0
 11
2078.533847402145
 21
-586.7762456778518
 31
0.0
  0
LINE
  5
4C15
330
4C1C
100
AcDbEntity
  8
标注
  6
ByBlock
 62
     0
370
    -2
100
AcDbLine
 10
2205.700514068816
 20
-586.7762456778518
 30
0.0
 11
2145.533847402146
 21
-586.7762456778518
 31
0.0
  0
SOLID
  5
4C16
330
4C1C
100
AcDbEntity
  8
标注
  6
ByBlock
 62
     0
100
AcDbTrace
 10
2106.533847402145
 20
-586.7762456778518
 30
0.0
 11
2092.533847402146
 21
-589.1095790111856
 31
0.0
 12
2092.533847402146
 22
-584.442912344518
 32
0.0
 13
2092.533847402146
 23
-584.442912344518
 33
0.0
  0
SOLID
  5
4C17
330
4C1C
100
AcDbEntity
  8
标注
  6
ByBlock
 62
     0
100
AcDbTrace
 10
2131.533847402145
 20
-586.7762456778518
 30
0.0
 11
2145.533847402146
 21
-589.1095790111856
 31
0.0
 12
2145.533847402146
 22
-584.442912344518
 32
0.0
 13
2145.533847402146
 23
-584.442912344518
 33
0.0
  0
LINE
  5
4C18
330
4C1C
100
AcDbEntity
  8
标注
  6
ByBlock
 62
     0
370
    -2
100
AcDbLine
 10
2106.533847402145
 20
-586.7762456778518
 30
0.0
 11
2131.533847402145
 21
-586.7762456778518
 31
0.0
  0
LINE
  5
4C19
330
4C1C
100
AcDbEntity
  8
标注
  6
ByBlock
 62
     0
370
    -2
100
AcDbLine
 10
2106.533847402145
 20
-610.8542267075828
 30
0.0
 11
2106.533847402145
 21
-610.8542267075828
 31
0.0
  0
MTEXT
  5
4C1A
330
4C1C
100
AcDbEntity
  8
标注
  6
ByBlock
 62
     0
100
AcDbMText
 10
2187.533847402149
 20
-575.2762456778518
 30
0.0
 40
20.0
 41
0.0
 71
     5
 72
     1
  1
\A0;25
 73
     1
 44
1.0
1001
ACAD
1000
MTEXTBEGIN
1070
    73
1070
     1
1070
    44
1040
1.0
1070
    74
1070
     0
1000
MTEXTEND
  0
ENDBLK
  5
4C1E
330
4C1C
100
AcDbEntity
  8
0
100
AcDbBlockEnd
  0
BLOCK
  5
4C5B
330
4C5A
100
AcDbEntity
  8
0
100
AcDbBlockBegin
  2
*D33
 70
     1
 10
0.0
 20
0.0
 30
0.0
  3
*D33
  1

  0
LINE
  5
4C52
330
4C5A
100
AcDbEntity
  8
标注
  6
ByBlock
 62
     0
370
    -2
100
AcDbLine
 10
2120.646113627157
 20
-449.0279930691563
 30
0.0
 11
2131.449523967984
 21
-440.1237061798144
 31
0.0
  0
LINE
  5
4C53
330
4C5A
100
AcDbEntity
  8
标注
  6
ByBlock
 62
     0
370
    -2
100
AcDbLine
 10
2131.449523967984
 20
-440.1237061798144
 30
0.0
 11
2227.782857301318
 21
-440.1237061798144
 31
0.0
  0
LINE
  5
4C54
330
4C5A
100
AcDbEntity
  8
标注
  6
ByBlock
 62
     0
370
    -2
100
AcDbLine
 10
2109.84270328633
 20
-457.9322799584984
 30
0.0
 11
2036.533847402146
 21
-518.3542267076047
 31
0.0
  0
SOLID
  5
4C55
330
4C5A
100
AcDbEntity
  8
标注
  6
ByBlock
 62
     0
100
AcDbTrace
 10
2109.84270328633
 20
-457.9322799584984
 30
0.0
 11
2122.130161442048
 21
-450.8285614592946
 31
0.0
 12
2119.162065812266
 22
-447.2274246790181
 32
0.0
 13
2119.162065812266
 23
-447.2274246790181
 33
0.0
  0
MTEXT
  5
4C56
330
4C5A
100
AcDbEntity
  8
标注
  6
ByBlock
 62
     0
100
AcDbMText
 10
2179.61619063465
 20
-428.6237061798144
 30
0.0
 40
20.0
 41
0.0
 71
     5
 72
     1
  1
\A0;4-R95
 73
     1
 44
1.0
1001
ACAD
1000
MTEXTBEGIN
1070
    73
1070
     1
1070
    44
1040
1.0
1070
    74
1070
     0
1000
MTEXTEND
  0
POINT
  5
4C57
330
4C5A
100
AcDbEntity
  8
Defpoints
  6
ByBlock
100
AcDbPoint
 10
2036.533847402146
 20
-518.3542267076047
 30
0.0
  0
POINT
  5
4C58
330
4C5A
100
AcDbEntity
  8
Defpoints
  6
ByBlock
100
AcDbPoint
 10
2109.84270328633
 20
-457.9322799584984
 30
0.0
  0
ENDBLK
  5
4C5C
330
4C5A
100
AcDbEntity
  8
0
100
AcDbBlockEnd
  0
BLOCK
  5
4D36
330
4D2A
100
AcDbEntity
  8
0
100
AcDbBlockBegin
  2
*D34
 70
     1
 10
0.0
 20
0.0
 30
0.0
  3
*D34
  1

  0
LINE
  5
4D8E
330
4D2A
100
AcDbEntity
  8
标注
 62
     0
370
    -2
100
AcDbLine
 10
824.7999999999947
 20
-1652.5
 30
0.0
 11
824.7999999999947
 21
-1665.657583378677
 31
0.0
  0
LINE
  5
4D8F
330
4D2A
100
AcDbEntity
  8
标注
 62
     0
370
    -2
100
AcDbLine
 10
831.1499999999968
 20
-1652.500000000008
 30
0.0
 11
831.1499999999968
 21
-1665.657583378677
 31
0.0
  0
LINE
  5
4D90
330
4D2A
100
AcDbEntity
  8
标注
 62
     0
370
     0
100
AcDbLine
 10
836.1499999999969
 20
-1661.907583378678
 30
0.0
 11
841.149999999997
 21
-1661.907583378678
 31
0.0
  0
LINE
  5
4D91
330
4D2A
100
AcDbEntity
  8
标注
 62
     0
370
     0
100
AcDbLine
 10
819.7999999999947
 20
-1661.907583378678
 30
0.0
 11
751.7007503410613
 21
-1661.907583378678
 31
0.0
  0
LINE
  5
4D92
330
4D2A
100
AcDbEntity
  8
标注
 62
     0
370
     0
100
AcDbLine
 10
831.1499999999968
 20
-1661.907583378678
 30
0.0
 11
824.7999999999947
 21
-1661.907583378678
 31
0.0
  0
SOLID
  5
4D93
330
4D2A
100
AcDbEntity
  8
标注
 62
     0
100
AcDbTrace
 10
836.1499999999969
 20
-1661.074250045344
 30
0.0
 11
836.1499999999969
 21
-1662.740916712011
 31
0.0
 12
831.1499999999968
 22
-1661.907583378678
 32
0.0
 13
831.1499999999968
 23
-1661.907583378678
 33
0.0
  0
SOLID
  5
4D94
330
4D2A
100
AcDbEntity
  8
标注
 62
     0
100
AcDbTrace
 10
819.7999999999947
 20
-1661.074250045344
 30
0.0
 11
819.7999999999947
 21
-1662.740916712011
 31
0.0
 12
824.7999999999947
 22
-1661.907583378678
 32
0.0
 13
824.7999999999947
 23
-1661.907583378678
 33
0.0
  0
MTEXT
  5
4D95
330
4D2A
100
AcDbEntity
  8
标注
 62
     0
100
AcDbMText
 10
778.2266712141854
 20
-1653.434186380042
 30
0.0
 40
10.0
 41
0.0
 71
     5
 72
     1
  1
{\fArial|b0|i0|c0|p34;6.4 [1/4]}
 73
     1
 44
1.0
1001
ACAD
1000
MTEXTBEGIN
1070
    73
1070
     1
1070
    44
1040
1.0
1070
    74
1070
     0
1000
MTEXTEND
  0
POINT
  5
4D96
330
4D2A
100
AcDbEntity
  8
Defpoints
 62
     0
100
AcDbPoint
 10
824.7999999999947
 20
-1652.5
 30
0.0
  0
POINT
  5
4D97
330
4D2A
100
AcDbEntity
  8
Defpoints
 62
     0
100
AcDbPoint
 10
831.1499999999968
 20
-1652.500000000008
 30
0.0
  0
POINT
  5
4D98
330
4D2A
100
AcDbEntity
  8
Defpoints
 62
     0
100
AcDbPoint
 10
831.1499999999968
 20
-1661.907583378678
 30
0.0
  0
ENDBLK
  5
4D37
330
4D2A
100
AcDbEntity
  8
0
100
AcDbBlockEnd
  0
BLOCK
  5
4D44
330
4D38
100
AcDbEntity
  8
0
100
AcDbBlockBegin
  2
*D35
 70
     1
 10
0.0
 20
0.0
 30
0.0
  3
*D35
  1

  0
LINE
  5
4D99
330
4D38
100
AcDbEntity
  8
标注
 62
     0
370
    -2
100
AcDbLine
 10
831.1499999999968
 20
-1652.500000000008
 30
0.0
 11
831.1499999999968
 21
-1687.157583378677
 31
0.0
  0
LINE
  5
4D9A
330
4D38
100
AcDbEntity
  8
标注
 62
     0
370
    -2
100
AcDbLine
 10
837.4999999999991
 20
-1652.5
 30
0.0
 11
837.4999999999991
 21
-1687.157583378677
 31
0.0
  0
LINE
  5
4D9B
330
4D38
100
AcDbEntity
  8
标注
 62
     0
370
     0
100
AcDbLine
 10
842.4999999999991
 20
-1683.407583378677
 30
0.0
 11
847.499999999999
 21
-1683.407583378677
 31
0.0
  0
LINE
  5
4D9C
330
4D38
100
AcDbEntity
  8
标注
 62
     0
370
     0
100
AcDbLine
 10
826.1499999999969
 20
-1683.407583378677
 30
0.0
 11
758.0507503410634
 21
-1683.407583378677
 31
0.0
  0
LINE
  5
4D9D
330
4D38
100
AcDbEntity
  8
标注
 62
     0
370
     0
100
AcDbLine
 10
837.4999999999991
 20
-1683.407583378677
 30
0.0
 11
831.1499999999968
 21
-1683.407583378677
 31
0.0
  0
SOLID
  5
4D9E
330
4D38
100
AcDbEntity
  8
标注
 62
     0
100
AcDbTrace
 10
842.4999999999991
 20
-1682.574250045344
 30
0.0
 11
842.4999999999991
 21
-1684.240916712011
 31
0.0
 12
837.4999999999991
 22
-1683.407583378677
 32
0.0
 13
837.4999999999991
 23
-1683.407583378677
 33
0.0
  0
SOLID
  5
4D9F
330
4D38
100
AcDbEntity
  8
标注
 62
     0
100
AcDbTrace
 10
826.1499999999969
 20
-1682.574250045344
 30
0.0
 11
826.1499999999969
 21
-1684.240916712011
 31
0.0
 12
831.1499999999968
 22
-1683.407583378677
 32
0.0
 13
831.1499999999968
 23
-1683.407583378677
 33
0.0
  0
MTEXT
  5
4DA0
330
4D38
100
AcDbEntity
  8
标注
 62
     0
100
AcDbMText
 10
784.5766712141876
 20
-1674.934186380041
 30
0.0
 40
10.0
 41
0.0
 71
     5
 72
     1
  1
{\fArial|b0|i0|c0|p34;6.4 [1/4]}
 73
     1
 44
1.0
1001
ACAD
1000
MTEXTBEGIN
1070
    73
1070
     1
1070
    44
1040
1.0
1070
    74
1070
     0
1000
MTEXTEND
  0
POINT
  5
4DA1
330
4D38
100
AcDbEntity
  8
Defpoints
 62
     0
100
AcDbPoint
 10
831.1499999999968
 20
-1652.500000000008
 30
0.0
  0
POINT
  5
4DA2
330
4D38
100
AcDbEntity
  8
Defpoints
 62
     0
100
AcDbPoint
 10
837.4999999999991
 20
-1652.5
 30
0.0
  0
POINT
  5
4DA3
330
4D38
100
AcDbEntity
  8
Defpoints
 62
     0
100
AcDbPoint
 10
837.4999999999991
 20
-1683.407583378677
 30
0.0
  0
ENDBLK
  5
4D45
330
4D38
100
AcDbEntity
  8
0
100
AcDbBlockEnd
  0
BLOCK
  5
4D50
330
4D46
100
AcDbEntity
  8
0
100
AcDbBlockBegin
  2
*D36
 70
     1
 10
0.0
 20
0.0
 30
0.0
  3
*D36
  1

  0
LINE
  5
4DA4
330
4D46
100
AcDbEntity
  8
标注
 62
     0
370
    -2
100
AcDbLine
 10
831.1917594195456
 20
-1465.229409811463
 30
0.0
 11
831.1917594195456
 21
-1397.181895031962
 31
0.0
  0
LINE
  5
4DA5
330
4D46
100
AcDbEntity
  8
标注
 62
     0
370
    -2
100
AcDbLine
 10
476.1499999999996
 20
-1462.312865273261
 30
0.0
 11
476.1499999999996
 21
-1397.181895031962
 31
0.0
  0
LINE
  5
4DA6
330
4D46
100
AcDbEntity
  8
标注
 62
     0
370
     0
100
AcDbLine
 10
826.1917594195455
 20
-1400.931895031962
 30
0.0
 11
481.1499999999996
 21
-1400.931895031962
 31
0.0
  0
SOLID
  5
4DA7
330
4D46
100
AcDbEntity
  8
标注
 62
     0
100
AcDbTrace
 10
826.1917594195455
 20
-1400.098561698628
 30
0.0
 11
826.1917594195455
 21
-1401.765228365295
 31
0.0
 12
831.1917594195456
 22
-1400.931895031962
 32
0.0
 13
831.1917594195456
 23
-1400.931895031962
 33
0.0
  0
SOLID
  5
4DA8
330
4D46
100
AcDbEntity
  8
标注
 62
     0
100
AcDbTrace
 10
481.1499999999996
 20
-1400.098561698628
 30
0.0
 11
481.1499999999996
 21
-1401.765228365295
 31
0.0
 12
476.1499999999996
 22
-1400.931895031962
 32
0.0
 13
476.1499999999996
 23
-1400.931895031962
 33
0.0
  0
MTEXT
  5
4DA9
330
4D46
100
AcDbEntity
  8
标注
 62
     0
100
AcDbMText
 10
653.6499999999996
 20
-1392.523300216137
 30
0.0
 40
10.0
 41
0.0
 71
     5
 72
     1
  1
{\fArial|b0|i0|c0|p34;355 [14]}
 73
     1
 44
1.0
1001
ACAD
1000
MTEXTBEGIN
1070
    73
1070
     1
1070
    44
1040
1.0
1070
    74
1070
     0
1000
MTEXTEND
  0
POINT
  5
4DAA
330
4D46
100
AcDbEntity
  8
Defpoints
 62
     0
100
AcDbPoint
 10
831.1917594195456
 20
-1465.229409811463
 30
0.0
  0
POINT
  5
4DAB
330
4D46
100
AcDbEntity
  8
Defpoints
 62
     0
100
AcDbPoint
 10
476.1499999999996
 20
-1462.312865273261
 30
0.0
  0
POINT
  5
4DAC
330
4D46
100
AcDbEntity
  8
Defpoints
 62
     0
100
AcDbPoint
 10
476.1499999999996
 20
-1400.931895031962
 30
0.0
  0
ENDBLK
  5
4D51
330
4D46
100
AcDbEntity
  8
0
100
AcDbBlockEnd
  0
BLOCK
  5
4D5C
330
4D52
100
AcDbEntity
  8
0
100
AcDbBlockBegin
  2
*D37
 70
     1
 10
0.0
 20
0.0
 30
0.0
  3
*D37
  1

  0
LINE
  5
4DAD
330
4D52
100
AcDbEntity
  8
标注
 62
     0
370
    -2
100
AcDbLine
 10
837.5
 20
-1465.210982447076
 30
0.0
 11
837.5
 21
-1375.181895031962
 31
0.0
  0
LINE
  5
4DAE
330
4D52
100
AcDbEntity
  8
标注
 62
     0
370
    -2
100
AcDbLine
 10
469.7999999999992
 20
-1463.141127429237
 30
0.0
 11
469.7999999999992
 21
-1375.181895031962
 31
0.0
  0
LINE
  5
4DAF
330
4D52
100
AcDbEntity
  8
标注
 62
     0
370
     0
100
AcDbLine
 10
832.4999999999999
 20
-1378.931895031962
 30
0.0
 11
474.7999999999993
 21
-1378.931895031962
 31
0.0
  0
SOLID
  5
4DB0
330
4D52
100
AcDbEntity
  8
标注
 62
     0
100
AcDbTrace
 10
832.4999999999999
 20
-1378.098561698629
 30
0.0
 11
832.4999999999999
 21
-1379.765228365295
 31
0.0
 12
837.5
 22
-1378.931895031962
 32
0.0
 13
837.5
 23
-1378.931895031962
 33
0.0
  0
SOLID
  5
4DB1
330
4D52
100
AcDbEntity
  8
标注
 62
     0
100
AcDbTrace
 10
474.7999999999993
 20
-1378.098561698629
 30
0.0
 11
474.7999999999993
 21
-1379.765228365295
 31
0.0
 12
469.7999999999992
 22
-1378.931895031962
 32
0.0
 13
469.7999999999992
 23
-1378.931895031962
 33
0.0
  0
MTEXT
  5
4DB2
330
4D52
100
AcDbEntity
  8
标注
 62
     0
100
AcDbMText
 10
653.6499999999996
 20
-1370.458498033326
 30
0.0
 40
10.0
 41
0.0
 71
     5
 72
     1
  1
{\fArial|b0|i0|c0|p34;367.7 [14 1/2]}
 73
     1
 44
1.0
1001
ACAD
1000
MTEXTBEGIN
1070
    73
1070
     1
1070
    44
1040
1.0
1070
    74
1070
     0
1000
MTEXTEND
  0
POINT
  5
4DB3
330
4D52
100
AcDbEntity
  8
Defpoints
 62
     0
100
AcDbPoint
 10
837.5
 20
-1465.210982447076
 30
0.0
  0
POINT
  5
4DB4
330
4D52
100
AcDbEntity
  8
Defpoints
 62
     0
100
AcDbPoint
 10
469.7999999999992
 20
-1463.141127429237
 30
0.0
  0
POINT
  5
4DB5
330
4D52
100
AcDbEntity
  8
Defpoints
 62
     0
100
AcDbPoint
 10
469.7999999999992
 20
-1378.931895031962
 30
0.0
  0
ENDBLK
  5
4D5D
330
4D52
100
AcDbEntity
  8
0
100
AcDbBlockEnd
  0
BLOCK
  5
4D68
330
4D5E
100
AcDbEntity
  8
0
100
AcDbBlockBegin
  2
*D38
 70
     1
 10
0.0
 20
0.0
 30
0.0
  3
*D38
  1

  0
LINE
  5
4DB6
330
4D5E
100
AcDbEntity
  8
标注
 62
     0
370
    -2
100
AcDbLine
 10
824.7999999999992
 20
-1465.229409811463
 30
0.0
 11
824.7999999999992
 21
-1419.413131401078
 31
0.0
  0
LINE
  5
4DB7
330
4D5E
100
AcDbEntity
  8
标注
 62
     0
370
    -2
100
AcDbLine
 10
482.5
 20
-1460.932428346635
 30
0.0
 11
482.5
 21
-1419.413131401078
 31
0.0
  0
LINE
  5
4DB8
330
4D5E
100
AcDbEntity
  8
标注
 62
     0
370
     0
100
AcDbLine
 10
819.7999999999993
 20
-1423.163131401078
 30
0.0
 11
487.5
 21
-1423.163131401078
 31
0.0
  0
SOLID
  5
4DB9
330
4D5E
100
AcDbEntity
  8
标注
 62
     0
100
AcDbTrace
 10
819.7999999999993
 20
-1422.329798067745
 30
0.0
 11
819.7999999999993
 21
-1423.996464734411
 31
0.0
 12
824.7999999999992
 22
-1423.163131401078
 32
0.0
 13
824.7999999999992
 23
-1423.163131401078
 33
0.0
  0
SOLID
  5
4DBA
330
4D5E
100
AcDbEntity
  8
标注
 62
     0
100
AcDbTrace
 10
487.5
 20
-1422.329798067745
 30
0.0
 11
487.5
 21
-1423.996464734411
 31
0.0
 12
482.5
 22
-1423.163131401078
 32
0.0
 13
482.5
 23
-1423.163131401078
 33
0.0
  0
MTEXT
  5
4DBB
330
4D5E
100
AcDbEntity
  8
标注
 62
     0
100
AcDbMText
 10
653.6499999999996
 20
-1414.689734402442
 30
0.0
 40
10.0
 41
0.0
 71
     5
 72
     1
  1
{\fArial|b0|i0|c0|p34;342.3 [13 1/2]}
 73
     1
 44
1.0
1001
ACAD
1000
MTEXTBEGIN
1070
    73
1070
     1
1070
    44
1040
1.0
1070
    74
1070
     0
1000
MTEXTEND
  0
POINT
  5
4DBC
330
4D5E
100
AcDbEntity
  8
Defpoints
 62
     0
100
AcDbPoint
 10
824.7999999999992
 20
-1465.229409811463
 30
0.0
  0
POINT
  5
4DBD
330
4D5E
100
AcDbEntity
  8
Defpoints
 62
     0
100
AcDbPoint
 10
482.5
 20
-1460.932428346635
 30
0.0
  0
POINT
  5
4DBE
330
4D5E
100
AcDbEntity
  8
Defpoints
 62
     0
100
AcDbPoint
 10
482.5
 20
-1423.163131401078
 30
0.0
  0
ENDBLK
  5
4D69
330
4D5E
100
AcDbEntity
  8
0
100
AcDbBlockEnd
  0
BLOCK
  5
4D74
330
4D6A
100
AcDbEntity
  8
0
100
AcDbBlockBegin
  2
*D39
 70
     1
 10
0.0
 20
0.0
 30
0.0
  3
*D39
  1

  0
LINE
  5
4DBF
330
4D6A
100
AcDbEntity
  8
标注
 62
     0
370
    -2
100
AcDbLine
 10
461.9401343503368
 20
-1475.0
 30
0.0
 11
404.6069112894763
 21
-1475.0
 31
0.0
  0
LINE
  5
4DC0
330
4D6A
100
AcDbEntity
  8
标注
 62
     0
370
    -2
100
AcDbLine
 10
473.7588526660966
 20
-1830.000000000001
 30
0.0
 11
404.6069112894763
 21
-1830.000000000001
 31
0.0
  0
LINE
  5
4DC1
330
4D6A
100
AcDbEntity
  8
标注
 62
     0
370
     0
100
AcDbLine
 10
408.3569112894763
 20
-1480.0
 30
0.0
 11
408.3569112894762
 21
-1825.000000000001
 31
0.0
  0
SOLID
  5
4DC2
330
4D6A
100
AcDbEntity
  8
标注
 62
     0
100
AcDbTrace
 10
407.5235779561429
 20
-1480.0
 30
0.0
 11
409.1902446228096
 21
-1480.0
 31
0.0
 12
408.3569112894763
 22
-1475.0
 32
0.0
 13
408.3569112894763
 23
-1475.0
 33
0.0
  0
SOLID
  5
4DC3
330
4D6A
100
AcDbEntity
  8
标注
 62
     0
100
AcDbTrace
 10
407.5235779561429
 20
-1825.000000000001
 30
0.0
 11
409.1902446228095
 21
-1825.000000000001
 31
0.0
 12
408.3569112894762
 22
-1830.000000000001
 32
0.0
 13
408.3569112894762
 23
-1830.000000000001
 33
0.0
  0
MTEXT
  5
4DC4
330
4D6A
100
AcDbEntity
  8
标注
 62
     0
100
AcDbMText
 10
399.9483164736512
 20
-1652.396325901837
 30
0.0
 40
10.0
 41
0.0
 71
     5
 72
     1
  1
{\fArial|b0|i0|c0|p34;355 [14]}
 11
0.0000000000000001
 21
1.0
 31
0.0
 73
     1
 44
1.0
1001
ACAD
1000
MTEXTBEGIN
1070
    73
1070
     1
1070
    44
1040
1.0
1070
    74
1070
     0
1000
MTEXTEND
  0
POINT
  5
4DC5
330
4D6A
100
AcDbEntity
  8
Defpoints
 62
     0
100
AcDbPoint
 10
461.9401343503368
 20
-1475.0
 30
0.0
  0
POINT
  5
4DC6
330
4D6A
100
AcDbEntity
  8
Defpoints
 62
     0
100
AcDbPoint
 10
473.7588526660966
 20
-1830.000000000001
 30
0.0
  0
POINT
  5
4DC7
330
4D6A
100
AcDbEntity
  8
Defpoints
 62
     0
100
AcDbPoint
 10
408.3569112894762
 20
-1830.000000000001
 30
0.0
  0
ENDBLK
  5
4D75
330
4D6A
100
AcDbEntity
  8
0
100
AcDbBlockEnd
  0
BLOCK
  5
4D80
330
4D76
100
AcDbEntity
  8
0
100
AcDbBlockBegin
  2
*D40
 70
     1
 10
0.0
 20
0.0
 30
0.0
  3
*D40
  1

  0
LINE
  5
4DC8
330
4D76
100
AcDbEntity
  8
标注
 62
     0
370
    -2
100
AcDbLine
 10
463.0622443279935
 20
-1468.65
 30
0.0
 11
380.6069112894763
 21
-1468.65
 31
0.0
  0
LINE
  5
4DC9
330
4D76
100
AcDbEntity
  8
标注
 62
     0
370
    -2
100
AcDbLine
 10
474.3711469660921
 20
-1836.350000000001
 30
0.0
 11
380.6069112894763
 21
-1836.350000000001
 31
0.0
  0
LINE
  5
4DCA
330
4D76
100
AcDbEntity
  8
标注
 62
     0
370
     0
100
AcDbLine
 10
384.3569112894763
 20
-1473.65
 30
0.0
 11
384.3569112894763
 21
-1831.350000000001
 31
0.0
  0
SOLID
  5
4DCB
330
4D76
100
AcDbEntity
  8
标注
 62
     0
100
AcDbTrace
 10
383.523577956143
 20
-1473.65
 30
0.0
 11
385.1902446228097
 21
-1473.65
 31
0.0
 12
384.3569112894763
 22
-1468.65
 32
0.0
 13
384.3569112894763
 23
-1468.65
 33
0.0
  0
SOLID
  5
4DCC
330
4D76
100
AcDbEntity
  8
标注
 62
     0
100
AcDbTrace
 10
383.5235779561429
 20
-1831.350000000001
 30
0.0
 11
385.1902446228096
 21
-1831.350000000001
 31
0.0
 12
384.3569112894763
 22
-1836.350000000001
 32
0.0
 13
384.3569112894763
 23
-1836.350000000001
 33
0.0
  0
MTEXT
  5
4DCD
330
4D76
100
AcDbEntity
  8
标注
 62
     0
100
AcDbMText
 10
375.8835142908408
 20
-1652.5
 30
0.0
 40
10.0
 41
0.0
 71
     5
 72
     1
  1
{\fArial|b0|i0|c0|p34;367.7 [14 1/2]}
 11
0.0000000000000001
 21
1.0
 31
0.0
 73
     1
 44
1.0
1001
ACAD
1000
MTEXTBEGIN
1070
    73
1070
     1
1070
    44
1040
1.0
1070
    74
1070
     0
1000
MTEXTEND
  0
POINT
  5
4DCE
330
4D76
100
AcDbEntity
  8
Defpoints
 62
     0
100
AcDbPoint
 10
463.0622443279935
 20
-1468.65
 30
0.0
  0
POINT
  5
4DCF
330
4D76
100
AcDbEntity
  8
Defpoints
 62
     0
100
AcDbPoint
 10
474.3711469660921
 20
-1836.350000000001
 30
0.0
  0
POINT
  5
4DD0
330
4D76
100
AcDbEntity
  8
Defpoints
 62
     0
100
AcDbPoint
 10
384.3569112894763
 20
-1836.350000000001
 30
0.0
  0
ENDBLK
  5
4D81
330
4D76
100
AcDbEntity
  8
0
100
AcDbBlockEnd
  0
BLOCK
  5
4D8C
330
4D82
100
AcDbEntity
  8
0
100
AcDbBlockBegin
  2
*D41
 70
     1
 10
0.0
 20
0.0
 30
0.0
  3
*D41
  1

  0
LINE
  5
4DD1
330
4D82
100
AcDbEntity
  8
标注
 62
     0
370
    -2
100
AcDbLine
 10
462.1734933372691
 20
-1481.35
 30
0.0
 11
427.8782003005833
 21
-1481.35
 31
0.0
  0
LINE
  5
4DD2
330
4D82
100
AcDbEntity
  8
标注
 62
     0
370
    -2
100
AcDbLine
 10
475.2688349482177
 20
-1823.650000000001
 30
0.0
 11
427.8782003005832
 21
-1823.650000000001
 31
0.0
  0
LINE
  5
4DD3
330
4D82
100
AcDbEntity
  8
标注
 62
     0
370
     0
100
AcDbLine
 10
431.6282003005833
 20
-1486.35
 30
0.0
 11
431.6282003005833
 21
-1818.650000000001
 31
0.0
  0
SOLID
  5
4DD4
330
4D82
100
AcDbEntity
  8
标注
 62
     0
100
AcDbTrace
 10
430.79486696725
 20
-1486.35
 30
0.0
 11
432.4615336339166
 21
-1486.35
 31
0.0
 12
431.6282003005833
 22
-1481.35
 32
0.0
 13
431.6282003005833
 23
-1481.35
 33
0.0
  0
SOLID
  5
4DD5
330
4D82
100
AcDbEntity
  8
标注
 62
     0
100
AcDbTrace
 10
430.7948669672499
 20
-1818.650000000001
 30
0.0
 11
432.4615336339165
 21
-1818.650000000001
 31
0.0
 12
431.6282003005833
 22
-1823.650000000001
 32
0.0
 13
431.6282003005833
 23
-1823.650000000001
 33
0.0
  0
MTEXT
  5
4DD6
330
4D82
100
AcDbEntity
  8
标注
 62
     0
100
AcDbMText
 10
423.1548033019477
 20
-1652.5
 30
0.0
 40
10.0
 41
0.0
 71
     5
 72
     1
  1
{\fArial|b0|i0|c0|p34;342.3 [13 1/2]}
 11
0.0000000000000001
 21
1.0
 31
0.0
 73
     1
 44
1.0
1001
ACAD
1000
MTEXTBEGIN
1070
    73
1070
     1
1070
    44
1040
1.0
1070
    74
1070
     0
1000
MTEXTEND
  0
POINT
  5
4DD7
330
4D82
100
AcDbEntity
  8
Defpoints
 62
     0
100
AcDbPoint
 10
462.1734933372691
 20
-1481.35
 30
0.0
  0
POINT
  5
4DD8
330
4D82
100
AcDbEntity
  8
Defpoints
 62
     0
100
AcDbPoint
 10
475.2688349482177
 20
-1823.650000000001
 30
0.0
  0
POINT
  5
4DD9
330
4D82
100
AcDbEntity
  8
Defpoints
 62
     0
100
AcDbPoint
 10
431.6282003005833
 20
-1823.650000000001
 30
0.0
  0
ENDBLK
  5
4D8D
330
4D82
100
AcDbEntity
  8
0
100
AcDbBlockEnd
  0
ENDSEC
  0
SECTION
  2
ENTITIES
  0
LINE
  5
374D
330
1F
100
AcDbEntity
  8
粗实线
100
AcDbLine
 10
1253.187942104458
 20
147.249505175886
 30
0.0
 11
793.0258950962374
 21
147.249505175886
 31
0.0
  0
LINE
  5
374E
330
1F
100
AcDbEntity
  8
图框线
100
AcDbLine
 10
1099.800593101709
 20
264.8464727446578
 30
0.0
 11
1099.800593101709
 21
147.249505175886
 31
0.0
  0
LINE
  5
374F
330
1F
100
AcDbEntity
  8
图框线
100
AcDbLine
 10
946.4132440989633
 20
264.8464727446578
 30
0.0
 11
946.4132440989633
 21
147.249505175886
 31
0.0
  0
LINE
  5
3750
330
1F
100
AcDbEntity
  8
图框线
100
AcDbLine
 10
965.5866627243327
 20
193.2657098767083
 30
0.0
 11
965.5866627243327
 21
165.1446958928822
 31
0.0
  0
LINE
  5
3751
330
1F
100
AcDbEntity
  8
图框线
100
AcDbLine
 10
984.7600813496589
 20
193.2657098767083
 30
0.0
 11
984.7600813496589
 21
165.1446958928822
 31
0.0
  0
LINE
  5
3752
330
1F
100
AcDbEntity
  8
图框线
100
AcDbLine
 10
1023.106918600326
 20
165.1446958928822
 30
0.0
 11
1023.106918600326
 21
147.249505175886
 31
0.0
  0
LINE
  5
3753
330
1F
100
AcDbEntity
  8
图框线
100
AcDbLine
 10
1003.933499974989
 20
208.6044447769939
 30
0.0
 11
1003.933499974989
 21
165.1446958928822
 31
0.0
  0
LINE
  5
3754
330
1F
100
AcDbEntity
  8
图框线
100
AcDbLine
 10
1034.610969775544
 20
208.6044447769939
 30
0.0
 11
1034.610969775544
 21
165.1446958928822
 31
0.0
  0
LINE
  5
3755
330
1F
100
AcDbEntity
  8
图框线
100
AcDbLine
 10
1069.123123301157
 20
208.6044447769939
 30
0.0
 11
1069.123123301157
 21
165.1446958928822
 31
0.0
  0
LINE
  5
3756
330
1F
100
AcDbEntity
  8
粗实线
100
AcDbLine
 10
1253.187942104458
 20
147.249505175886
 30
0.0
 11
793.0258950962374
 21
147.249505175886
 31
0.0
  0
LINE
  5
3757
330
1F
100
AcDbEntity
  8
粗实线
100
AcDbLine
 10
1253.187942104458
 20
264.8464727446578
 30
0.0
 11
793.0258950962374
 21
264.8464727446578
 31
0.0
  0
LINE
  5
3758
330
1F
100
AcDbEntity
  8
图框线
100
AcDbLine
 10
1099.800593101709
 20
208.6044447769939
 30
0.0
 11
793.0258950962374
 21
208.6044447769939
 31
0.0
  0
LINE
  5
3759
330
1F
100
AcDbEntity
  8
图框线
100
AcDbLine
 10
946.4132440989633
 20
219.852850370524
 30
0.0
 11
793.0258950962374
 21
219.852850370524
 31
0.0
  0
LINE
  5
375A
330
1F
100
AcDbEntity
  8
图框线
100
AcDbLine
 10
946.4132440989633
 20
231.101255964051
 30
0.0
 11
793.0258950962374
 21
231.101255964051
 31
0.0
  0
LINE
  5
375B
330
1F
100
AcDbEntity
  8
图框线
100
AcDbLine
 10
946.4132440989633
 20
242.349661557589
 30
0.0
 11
793.0258950962374
 21
242.349661557589
 31
0.0
  0
LINE
  5
375C
330
1F
100
AcDbEntity
  8
图框线
100
AcDbLine
 10
946.4132440989633
 20
253.5980671511278
 30
0.0
 11
793.0258950962374
 21
253.5980671511278
 31
0.0
  0
LINE
  5
375D
330
1F
100
AcDbEntity
  8
图框线
100
AcDbLine
 10
1099.800593101709
 20
193.2657098767083
 30
0.0
 11
793.0258950962374
 21
193.2657098767083
 31
0.0
  0
LINE
  5
375E
330
1F
100
AcDbEntity
  8
图框线
100
AcDbLine
 10
1099.800593101709
 20
177.9269749764316
 30
0.0
 11
793.0258950962374
 21
177.9269749764316
 31
0.0
  0
LINE
  5
375F
330
1F
100
AcDbEntity
  8
图框线
100
AcDbLine
 10
946.4132440989633
 20
162.5882400761588
 30
0.0
 11
793.0258950962374
 21
162.5882400761588
 31
0.0
  0
LINE
  5
3760
330
1F
100
AcDbEntity
  8
图框线
100
AcDbLine
 10
1099.800593101709
 20
193.2657098767083
 30
0.0
 11
946.4132440989633
 21
193.2657098767083
 31
0.0
  0
LINE
  5
3761
330
1F
100
AcDbEntity
  8
图框线
100
AcDbLine
 10
1099.800593101709
 20
177.9269749764316
 30
0.0
 11
946.4132440989633
 21
177.9269749764316
 31
0.0
  0
LINE
  5
3762
330
1F
100
AcDbEntity
  8
图框线
100
AcDbLine
 10
1099.800593101709
 20
165.1446958928822
 30
0.0
 11
946.4132440989633
 21
165.1446958928822
 31
0.0
  0
LINE
  5
3763
330
1F
100
AcDbEntity
  8
图框线
100
AcDbLine
 10
1253.187942104458
 20
223.9431796772588
 30
0.0
 11
1099.800593101709
 21
223.9431796772588
 31
0.0
  0
LINE
  5
3764
330
1F
100
AcDbEntity
  8
图框线
100
AcDbLine
 10
1253.187942104458
 20
185.5963424265577
 30
0.0
 11
1099.800593101709
 21
185.5963424265577
 31
0.0
  0
LINE
  5
3765
330
1F
100
AcDbEntity
  8
图框线
100
AcDbLine
 10
813.4775416299225
 20
208.6044447769732
 30
0.0
 11
813.4775416299225
 21
264.8464727446578
 31
0.0
  0
LINE
  5
3766
330
1F
100
AcDbEntity
  8
图框线
100
AcDbLine
 10
833.9291881636199
 20
208.6044447769732
 30
0.0
 11
833.9291881636199
 21
264.8464727446578
 31
0.0
  0
LINE
  5
3767
330
1F
100
AcDbEntity
  8
图框线
100
AcDbLine
 10
877.388937047748
 20
208.6044447769939
 30
0.0
 11
877.388937047748
 21
264.8464727446578
 31
0.0
  0
LINE
  5
3768
330
1F
100
AcDbEntity
  8
图框线
100
AcDbLine
 10
915.7357742984197
 20
208.6044447769939
 30
0.0
 11
915.7357742984197
 21
264.8464727446578
 31
0.0
  0
LINE
  5
3769
330
1F
100
AcDbEntity
  8
图框线
100
AcDbLine
 10
823.703364896777
 20
147.249505175886
 30
0.0
 11
823.703364896777
 21
208.6044447769732
 31
0.0
  0
LINE
  5
376A
330
1F
100
AcDbEntity
  8
图框线
100
AcDbLine
 10
869.7195695976043
 20
147.249505175886
 30
0.0
 11
869.7195695976043
 21
208.6044447769939
 31
0.0
  0
LINE
  5
376B
330
1F
100
AcDbEntity
  8
图框线
100
AcDbLine
 10
900.3970393981441
 20
147.249505175886
 30
0.0
 11
900.3970393981441
 21
208.6044447769939
 31
0.0
  0
MTEXT
  5
376C
330
1F
100
AcDbEntity
  8
文字
100
AcDbMText
 10
796.9341956799415
 20
217.4008441951496
 30
0.0
 40
5.189547643130322
 41
33.34932200067503
 71
     1
 72
     5
  1
{\fSimSun|b0|i0|c134|p2;标记}
 73
     1
 44
1.0
1001
ACAD
1000
MTEXTBEGIN
1070
    73
1070
     1
1070
    44
1040
1.0
1070
    74
1070
     0
1000
MTEXTEND
  0
MTEXT
  5
376D
330
1F
100
AcDbEntity
  8
文字
100
AcDbMText
 10
816.9509021156775
 20
217.3400680857459
 30
0.0
 40
5.189547643130322
 41
33.34932200067503
 71
     1
 72
     5
  1
{\fSimSun|b0|i0|c134|p2;处数}
 73
     1
 44
1.0
1001
ACAD
1000
MTEXTBEGIN
1070
    73
1070
     1
1070
    44
1040
1.0
1070
    74
1070
     0
1000
MTEXTEND
  0
MTEXT
  5
376E
330
1F
100
AcDbEntity
  8
文字
100
AcDbMText
 10
841.7629835202527
 20
216.6904325683562
 30
0.0
 40
4.151638114504257
 41
70.91381866104092
 71
     1
 72
     5
  1
{\fSimSun|b0|i0|c134|p2;\C1;更改文件号}
 73
     1
 44
1.0
1001
ACAD
1000
MTEXTBEGIN
1070
    73
1070
     1
1070
    44
1040
1.0
1070
    74
1070
     0
1000
MTEXTEND
  0
MTEXT
  5
376F
330
1F
100
AcDbEntity
  8
文字
100
AcDbMText
 10
888.5474927622734
 20
217.7201543136757
 30
0.0
 40
5.189547643130322
 41
33.34932200067503
 71
     1
 72
     5
  1
{\fSimSun|b0|i0|c134|p2;签名}
 73
     1
 44
1.0
1001
ACAD
1000
MTEXTBEGIN
1070
    73
1070
     1
1070
    44
1040
1.0
1070
    74
1070
     0
1000
MTEXTEND
  0
MTEXT
  5
3770
330
1F
100
AcDbEntity
  8
文字
100
AcDbMText
 10
925.3102247569293
 20
217.4145900999334
 30
0.0
 40
5.189547643130322
 41
33.34932200067503
 71
     1
 72
     5
  1
{\fSimSun|b0|i0|c134|p2;日期}
 73
     1
 44
1.0
1001
ACAD
1000
MTEXTBEGIN
1070
    73
1070
     1
1070
    44
1040
1.0
1070
    74
1070
     0
1000
MTEXTEND
  0
MTEXT
  5
3771
330
1F
100
AcDbEntity
  8
文字
100
AcDbMText
 10
799.6570916708568
 20
204.6087242010177
 30
0.0
 40
6.486934553912901
 41
41.68665250084379
 71
     1
 72
     5
  1
{\fSimSun|b0|i0|c134|p2;设计}
 73
     1
 44
1.0
1001
ACAD
1000
MTEXTBEGIN
1070
    73
1070
     1
1070
    44
1040
1.0
1070
    74
1070
     0
1000
MTEXTEND
  0
MTEXT
  5
3772
330
1F
100
AcDbEntity
  8
文字
100
AcDbMText
 10
799.6570916708568
 20
189.1656587210458
 30
0.0
 40
6.486934553912901
 41
41.68665250084379
 71
     1
 72
     5
  1
{\fSimSun|b0|i0|c134|p2;校对}
 73
     1
 44
1.0
1001
ACAD
1000
MTEXTBEGIN
1070
    73
1070
     1
1070
    44
1040
1.0
1070
    74
1070
     0
1000
MTEXTEND
  0
MTEXT
  5
3773
330
1F
100
AcDbEntity
  8
文字
100
AcDbMText
 10
799.6570916708568
 20
173.8739957388727
 30
0.0
 40
6.486934553912901
 41
41.68665250084379
 71
     1
 72
     5
  1
{\fSimSun|b0|i0|c134|p2;会签}
 73
     1
 44
1.0
1001
ACAD
1000
MTEXTBEGIN
1070
    73
1070
     1
1070
    44
1040
1.0
1070
    74
1070
     0
1000
MTEXTEND
  0
MTEXT
  5
3774
330
1F
100
AcDbEntity
  8
文字
100
AcDbMText
 10
799.6570916708568
 20
158.7483330908582
 30
0.0
 40
6.486934553912901
 41
41.68665250084379
 71
     1
 72
     5
  1
{\fSimSun|b0|i0|c134|p2;工艺}
 73
     1
 44
1.0
1001
ACAD
1000
MTEXTBEGIN
1070
    73
1070
     1
1070
    44
1040
1.0
1070
    74
1070
     0
1000
MTEXTEND
  0
MTEXT
  5
3775
330
1F
100
AcDbEntity
  8
文字
100
AcDbMText
 10
876.2454679122678
 20
188.2529962511831
 30
0.0
 40
6.486934553912901
 41
41.68665250084379
 71
     1
 72
     5
  1
{\fSimSun|b0|i0|c134|p2;批准}
 73
     1
 44
1.0
1001
ACAD
1000
MTEXTBEGIN
1070
    73
1070
     1
1070
    44
1040
1.0
1070
    74
1070
     0
1000
MTEXTEND
  0
MTEXT
  5
3776
330
1F
100
AcDbEntity
  8
文字
100
AcDbMText
 10
877.6279590947188
 20
157.8356824714947
 30
0.0
 40
6.486934553912901
 41
41.68665250084379
 71
     1
 72
     5
  1
{\fSimSun|b0|i0|c134|p2;日期}
 73
     1
 44
1.0
1001
ACAD
1000
MTEXTBEGIN
1070
    73
1070
     1
1070
    44
1040
1.0
1070
    74
1070
     0
1000
MTEXTEND
  0
MTEXT
  5
3777
330
1F
100
AcDbEntity
  8
文字
100
AcDbMText
 10
957.6233385507489
 20
204.735110122395
 30
0.0
 40
6.486934553912901
 41
41.68665250084379
 71
     1
 72
     5
  1
{\fSimSun|b0|i0|c134|p2;图样标记}
 73
     1
 44
1.0
1001
ACAD
1000
MTEXTBEGIN
1070
    73
1070
     1
1070
    44
1040
1.0
1070
    74
1070
     0
1000
MTEXTEND
  0
MTEXT
  5
3778
330
1F
100
AcDbEntity
  8
文字
100
AcDbMText
 10
967.8258867474399
 20
159.3023955117088
 30
0.0
 40
6.486934553912901
 41
41.68665250084379
 71
     1
 72
     5
  1
{\fSimSun|b0|i0|c134|p2;共  页}
 73
     1
 44
1.0
1001
ACAD
1000
MTEXTBEGIN
1070
    73
1070
     1
1070
    44
1040
1.0
1070
    74
1070
     0
1000
MTEXTEND
  0
MTEXT
  5
3779
330
1F
100
AcDbEntity
  8
文字
100
AcDbMText
 10
1011.887606362983
 20
204.6768470390994
 30
0.0
 40
6.486934553912901
 41
41.68665250084379
 71
     1
 72
     5
  1
{\fSimSun|b0|i0|c134|p2;数量}
 73
     1
 44
1.0
1001
ACAD
1000
MTEXTBEGIN
1070
    73
1070
     1
1070
    44
1040
1.0
1070
    74
1070
     0
1000
MTEXTEND
  0
MTEXT
  5
377A
330
1F
100
AcDbEntity
  8
文字
100
AcDbMText
 10
1039.142666907327
 20
204.2549218696979
 30
0.0
 40
6.486934553912901
 41
41.68665250084379
 71
     1
 72
     5
  1
{\fSimSun|b0|i0|c134|p2;重量}
 73
     1
 44
1.0
1001
ACAD
1000
MTEXTBEGIN
1070
    73
1070
     1
1070
    44
1040
1.0
1070
    74
1070
     0
1000
MTEXTEND
  0
MTEXT
  5
377B
330
1F
100
AcDbEntity
  8
文字
100
AcDbMText
 10
1076.431120967235
 20
204.5924596351217
 30
0.0
 40
6.486934553912901
 41
41.68665250084379
 71
     1
 72
     5
  1
{\fSimSun|b0|i0|c134|p2;比例}
 73
     1
 44
1.0
1001
ACAD
1000
MTEXTBEGIN
1070
    73
1070
     1
1070
    44
1040
1.0
1070
    74
1070
     0
1000
MTEXTEND
  0
MTEXT
  5
377C
330
1F
100
AcDbEntity
  8
文字
100
AcDbMText
 10
1058.91550550196
 20
203.5817766345395
 30
0.0
 40
7.539294978182758
 41
149.6964060696981
 71
     1
 72
     5
  1
{\fArial|b0|i0|c0|p34;kg}
  7
样式 8
 73
     1
 44
1.0
1001
ACAD
1000
MTEXTBEGIN
1070
    73
1070
     1
1070
    44
1040
1.0
1070
    74
1070
     0
1000
MTEXTEND
  0
MTEXT
  5
377D
330
1F
100
AcDbEntity
  8
文字
100
AcDbMText
 10
1045.103747631182
 20
159.3023955117088
 30
0.0
 40
6.486934553912901
 41
41.68665250084379
 71
     1
 72
     5
  1
{\fSimSun|b0|i0|c134|p2;第  页}
 73
     1
 44
1.0
1001
ACAD
1000
MTEXTBEGIN
1070
    73
1070
     1
1070
    44
1040
1.0
1070
    74
1070
     0
1000
MTEXTEND
  0
MTEXT
  5
377E
330
1F
100
AcDbEntity
  8
文字
100
AcDbMText
 10
1107.294692961852
 20
247.0648485132106
 30
0.0
 40
9.424118722728447
 41
187.1205075871227
 71
     1
 72
     5
  1
{\fSimSun|b0|i0|c134|p2;\C1;泰捷不锈钢制品（泰国）有限公司}
  7
样式 8
 73
     1
 44
1.0
1001
ACAD
1000
MTEXTBEGIN
1070
    73
1070
     1
1070
    44
1040
1.0
1070
    74
1070
     0
1000
MTEXTEND
  0
MTEXT
  5
377F
330
1F
100
AcDbEntity
  8
文字
100
AcDbMText
 10
1121.20035010337
 20
213.1627803458612
 30
0.0
 40
12.27098792021933
 41
243.6464942540659
 71
     1
 72
     5
  1
\fSimSun|b0|i0|c134|p2;\H1x;\C1;开孔纸板（FD1616）
  7
样式 8
 73
     1
 44
1.0
1001
ACAD
1000
MTEXTBEGIN
1070
    73
1070
     1
1070
    44
1040
1.0
1070
    74
1070
     0
1000
MTEXTEND
  0
LINE
  5
3780
330
1F
100
AcDbEntity
  8
不可见
100
AcDbLine
 10
1265.97022118802
 20
893.7346036558979
 30
0.0
 11
1265.97022118802
 21
134.4672260923248
 31
0.0
  0
LINE
  5
3781
330
1F
100
AcDbEntity
  8
粗实线
100
AcDbLine
 10
1253.187942104458
 20
880.9523245723504
 30
0.0
 11
1253.187942104458
 21
147.249505175886
 31
0.0
  0
LINE
  5
3782
330
1F
100
AcDbEntity
  8
不可见
100
AcDbLine
 10
1265.97022118802
 20
134.4672260923248
 30
0.0
 11
192.2587781688278
 21
134.4672260923248
 31
0.0
  0
LINE
  5
3783
330
1F
100
AcDbEntity
  8
粗实线
100
AcDbLine
 10
1253.187942104458
 20
147.249505175886
 30
0.0
 11
256.1701735866259
 21
147.249505175886
 31
0.0
  0
LINE
  5
3784
330
1F
100
AcDbEntity
  8
粗实线
100
AcDbLine
 10
1253.187942104458
 20
147.249505175886
 30
0.0
 11
256.1701735866259
 21
147.249505175886
 31
0.0
  0
MTEXT
  5
3785
330
1F
100
AcDbEntity
  8
文字
100
AcDbMText
 10
988.6788073818703
 20
239.5178624684338
 30
0.0
 40
12.27098792021933
 41
243.6464942540659
 71
     1
 72
     5
  1
{\fSimSun|b0|i0|c0|p2;\C1;0.3\fSimSun|b0|i0|c134|p2;mm厚白纸板}
  7
样式 8
 73
     1
 44
1.0
1001
ACAD
1000
MTEXTBEGIN
1070
    73
1070
     1
1070
    44
1040
1.0
1070
    74
1070
     0
1000
MTEXTEND
  0
MTEXT
  5
3786
330
1F
100
AcDbEntity
  8
文字
100
AcDbMText
 10
953.121542505201
 20
258.614741111188
 30
0.0
 40
12.27098792021933
 41
243.6464942540659
 71
     1
 72
     5
  1
{\fSimSun|b0|i0|c134|p2;材料:}
  7
样式 8
 73
     1
 44
1.0
1001
ACAD
1000
MTEXTBEGIN
1070
    73
1070
     1
1070
    44
1040
1.0
1070
    74
1070
     0
1000
MTEXTEND
  0
MTEXT
  5
3787
330
1F
100
AcDbEntity
  8
文字
100
AcDbMText
 10
876.2454679122678
 20
203.6317320332506
 30
0.0
 40
6.486934553912901
 41
41.68665250084379
 71
     1
 72
     5
  1
{\fSimSun|b0|i0|c134|p2;审核}
 73
     1
 44
1.0
1001
ACAD
1000
MTEXTBEGIN
1070
    73
1070
     1
1070
    44
1040
1.0
1070
    74
1070
     0
1000
MTEXTEND
  0
LINE
  5
3788
330
1F
100
AcDbEntity
  8
不可见
100
AcDbLine
 10
192.2587781688278
 20
893.7346036558979
 30
0.0
 11
1265.97022118802
 21
893.7346036558979
 31
0.0
  0
LINE
  5
3789
330
1F
100
AcDbEntity
  8
粗实线
100
AcDbLine
 10
256.1701735866259
 20
880.9523245723337
 30
0.0
 11
1253.187942104458
 21
880.9523245723337
 31
0.0
  0
LINE
  5
378A
330
1F
100
AcDbEntity
  8
不可见
100
AcDbLine
 10
192.2587781688278
 20
134.4672260923248
 30
0.0
 11
192.2587781688278
 21
893.7346036558979
 31
0.0
  0
LINE
  5
378B
330
1F
100
AcDbEntity
  8
粗实线
100
AcDbLine
 10
256.1701735866259
 20
147.249505175886
 30
0.0
 11
256.1701735866259
 21
880.9523245723337
 31
0.0
  0
LINE
  5
378C
330
1F
100
AcDbEntity
  8
粗实线
100
AcDbLine
 10
256.1701735866259
 20
854.4411632207424
 30
0.0
 11
382.2124054839782
 21
854.4411632207424
 31
0.0
  0
LINE
  5
378D
330
1F
100
AcDbEntity
  8
粗实线
100
AcDbLine
 10
382.2124054839782
 20
854.4411632207424
 30
0.0
 11
382.2124054839782
 21
880.9523245723337
 31
0.0
  0
LINE
  5
378E
330
1F
100
AcDbEntity
  8
图框线
100
AcDbLine
 10
256.1701735866259
 20
167.7011517095811
 30
0.0
 11
192.2587781688278
 21
167.7011517095811
 31
0.0
  0
LINE
  5
378F
330
1F
100
AcDbEntity
  8
图框线
100
AcDbLine
 10
256.1701735866259
 20
183.0398866098666
 30
0.0
 11
192.2587781688278
 21
183.0398866098666
 31
0.0
  0
LINE
  5
3790
330
1F
100
AcDbEntity
  8
图框线
100
AcDbLine
 10
256.1701735866259
 20
203.4915331435539
 30
0.0
 11
192.2587781688278
 21
203.4915331435539
 31
0.0
  0
LINE
  5
3791
330
1F
100
AcDbEntity
  8
图框线
100
AcDbLine
 10
256.1701735866259
 20
218.8302680438306
 30
0.0
 11
192.2587781688278
 21
218.8302680438306
 31
0.0
  0
LINE
  5
3792
330
1F
100
AcDbEntity
  8
图框线
100
AcDbLine
 10
256.1701735866259
 20
239.2819145775277
 30
0.0
 11
192.2587781688278
 21
239.2819145775277
 31
0.0
  0
LINE
  5
3793
330
1F
100
AcDbEntity
  8
图框线
100
AcDbLine
 10
256.1701735866259
 20
254.6206494777965
 30
0.0
 11
192.2587781688278
 21
254.6206494777965
 31
0.0
  0
LINE
  5
3794
330
1F
100
AcDbEntity
  8
图框线
100
AcDbLine
 10
256.1701735866259
 20
275.0722960115083
 30
0.0
 11
192.2587781688278
 21
275.0722960115083
 31
0.0
  0
LINE
  5
3795
330
1F
100
AcDbEntity
  8
图框线
100
AcDbLine
 10
256.1701735866259
 20
290.4110309117763
 30
0.0
 11
192.2587781688278
 21
290.4110309117763
 31
0.0
  0
LINE
  5
3796
330
1F
100
AcDbEntity
  8
图框线
100
AcDbLine
 10
256.1701735866259
 20
310.862677445489
 30
0.0
 11
192.2587781688278
 21
310.862677445489
 31
0.0
  0
LINE
  5
3797
330
1F
100
AcDbEntity
  8
图框线
100
AcDbLine
 10
256.1701735866259
 20
326.2014123457697
 30
0.0
 11
192.2587781688278
 21
326.2014123457697
 31
0.0
  0
LINE
  5
3798
330
1F
100
AcDbEntity
  8
图框线
100
AcDbLine
 10
256.1701735866259
 20
346.6530588794441
 30
0.0
 11
192.2587781688278
 21
346.6530588794441
 31
0.0
  0
LINE
  5
3799
330
1F
100
AcDbEntity
  8
图框线
100
AcDbLine
 10
256.1701735866259
 20
361.9917937797219
 30
0.0
 11
192.2587781688278
 21
361.9917937797219
 31
0.0
  0
LINE
  5
379A
330
1F
100
AcDbEntity
  8
图框线
100
AcDbLine
 10
256.1701735866259
 20
377.3305286799907
 30
0.0
 11
192.2587781688278
 21
377.3305286799907
 31
0.0
  0
LINE
  5
379B
330
1F
100
AcDbEntity
  8
图框线
100
AcDbLine
 10
256.1701735866259
 20
147.249505175886
 30
0.0
 11
192.2587781688278
 21
147.249505175886
 31
0.0
  0
MTEXT
  5
379C
102
{ACAD_XDICTIONARY
360
4E01
102
}
330
1F
100
AcDbEntity
  8
文字
100
AcDbMText
 10
199.1088749138951
 20
178.8117027191227
 30
0.0
 40
5.323819238303491
 41
135.2496274701957
 71
     1
 72
     5
  1
\U+65E5   
 73
     1
 44
1.0
1001
ACAD
1000
MTEXTBEGIN
1070
    73
1070
     1
1070
    44
1040
1.0
1070
    74
1070
     0
1000
MTEXTEND
  0
MTEXT
  5
379D
102
{ACAD_XDICTIONARY
360
4E03
102
}
330
1F
100
AcDbEntity
  8
文字
100
AcDbMText
 10
199.1088749138951
 20
214.5824823687024
 30
0.0
 40
5.323819238303491
 41
135.2496274701957
 71
     1
 72
     5
  1
\U+7B7E   
 73
     1
 44
1.0
1001
ACAD
1000
MTEXTBEGIN
1070
    73
1070
     1
1070
    44
1040
1.0
1070
    74
1070
     0
1000
MTEXTEND
  0
MTEXT
  5
379E
102
{ACAD_XDICTIONARY
360
4E05
102
}
330
1F
100
AcDbEntity
  8
文字
100
AcDbMText
 10
199.1088749138951
 20
251.3531856681514
 30
0.0
 40
5.323819238303491
 41
135.2496274701957
 71
     1
 72
     5
  1
\U+5E95
 73
     1
 44
1.0
1001
ACAD
1000
MTEXTBEGIN
1070
    73
1070
     1
1070
    44
1040
1.0
1070
    74
1070
     0
1000
MTEXTEND
  0
MTEXT
  5
379F
102
{ACAD_XDICTIONARY
360
4E07
102
}
330
1F
100
AcDbEntity
  8
文字
100
AcDbMText
 10
199.1088749138951
 20
286.1042975997404
 30
0.0
 40
5.323819238303491
 41
135.2496274701957
 71
     1
 72
     5
  1
\U+65E7
 73
     1
 44
1.0
1001
ACAD
1000
MTEXTBEGIN
1070
    73
1070
     1
1070
    44
1040
1.0
1070
    74
1070
     0
1000
MTEXTEND
  0
MTEXT
  5
37A0
102
{ACAD_XDICTIONARY
360
4E09
102
}
330
1F
100
AcDbEntity
  8
文字
100
AcDbMText
 10
198.1472149548833
 20
359.4646438310454
 30
0.0
 40
5.323819238303491
 41
135.2496274701957
 71
     1
 72
     5
  1
\U+63CF   
 73
     1
 44
1.0
1001
ACAD
1000
MTEXTBEGIN
1070
    73
1070
     1
1070
    44
1040
1.0
1070
    74
1070
     0
1000
MTEXTEND
  0
MTEXT
  5
37A1
102
{ACAD_XDICTIONARY
360
4E0B
102
}
330
1F
100
AcDbEntity
  8
文字
100
AcDbMText
 10
195.5819690509939
 20
375.0644023294822
 30
0.0
 40
5.323819238303491
 41
135.2496274701957
 71
     1
 72
     5
  1
\ftxt.shx,gbcbig.shx;\H1x;\C1;\U+501F\U+FF08\U+901A\U+FF09\U+7528\U+4EF6\U+767B\U+8BB0
 73
     1
 44
1.0
1001
ACAD
1000
MTEXTBEGIN
1070
    73
1070
     1
1070
    44
1040
1.0
1070
    74
1070
     0
1000
MTEXTEND
  0
MTEXT
  5
37A2
102
{ACAD_XDICTIONARY
360
4E0D
102
}
330
1F
100
AcDbEntity
  8
文字
100
AcDbMText
 10
243.5281515270959
 20
359.4646438310454
 30
0.0
 40
5.323819238303491
 41
135.2496274701957
 71
     1
 72
     5
  1
\U+56FE   
 73
     1
 44
1.0
1001
ACAD
1000
MTEXTBEGIN
1070
    73
1070
     1
1070
    44
1040
1.0
1070
    74
1070
     0
1000
MTEXTEND
  0
MTEXT
  5
37A3
102
{ACAD_XDICTIONARY
360
4E0F
102
}
330
1F
100
AcDbEntity
  8
文字
100
AcDbMText
 10
198.1472149548833
 20
323.3704562083776
 30
0.0
 40
5.323819238303491
 41
135.2496274701957
 71
     1
 72
     5
  1
\U+63CF   
 73
     1
 44
1.0
1001
ACAD
1000
MTEXTBEGIN
1070
    73
1070
     1
1070
    44
1040
1.0
1070
    74
1070
     0
1000
MTEXTEND
  0
MTEXT
  5
37A4
102
{ACAD_XDICTIONARY
360
4E11
102
}
330
1F
100
AcDbEntity
  8
文字
100
AcDbMText
 10
243.5281515270959
 20
323.3704562083776
 30
0.0
 40
5.323819238303491
 41
135.2496274701957
 71
     1
 72
     5
  1
\U+6821   
 73
     1
 44
1.0
1001
ACAD
1000
MTEXTBEGIN
1070
    73
1070
     1
1070
    44
1040
1.0
1070
    74
1070
     0
1000
MTEXTEND
  0
MTEXT
  5
37A5
102
{ACAD_XDICTIONARY
360
4E13
102
}
330
1F
100
AcDbEntity
  8
文字
100
AcDbMText
 10
208.9799095402989
 20
286.2141190682324
 30
0.0
 40
5.323819238303491
 41
135.2496274701957
 71
     1
 72
     5
  1
\U+5E95
 73
     1
 44
1.0
1001
ACAD
1000
MTEXTBEGIN
1070
    73
1070
     1
1070
    44
1040
1.0
1070
    74
1070
     0
1000
MTEXTEND
  0
MTEXT
  5
37A6
102
{ACAD_XDICTIONARY
360
4E15
102
}
330
1F
100
AcDbEntity
  8
文字
100
AcDbMText
 10
221.4740088829732
 20
286.1042975997404
 30
0.0
 40
5.323819238303491
 41
135.2496274701957
 71
     1
 72
     5
  1
\U+56FE
 73
     1
 44
1.0
1001
ACAD
1000
MTEXTBEGIN
1070
    73
1070
     1
1070
    44
1040
1.0
1070
    74
1070
     0
1000
MTEXTEND
  0
MTEXT
  5
37A7
102
{ACAD_XDICTIONARY
360
4E17
102
}
330
1F
100
AcDbEntity
  8
文字
100
AcDbMText
 10
233.1020536649669
 20
286.1042975997404
 30
0.0
 40
5.323819238303491
 41
135.2496274701957
 71
     1
 72
     5
  1
\U+603B
 73
     1
 44
1.0
1001
ACAD
1000
MTEXTBEGIN
1070
    73
1070
     1
1070
    44
1040
1.0
1070
    74
1070
     0
1000
MTEXTEND
  0
MTEXT
  5
37A8
102
{ACAD_XDICTIONARY
360
4E19
102
}
330
1F
100
AcDbEntity
  8
文字
100
AcDbMText
 10
244.69728289354
 20
286.1042975997404
 30
0.0
 40
5.323819238303491
 41
135.2496274701957
 71
     1
 72
     5
  1
\U+53F7
 73
     1
 44
1.0
1001
ACAD
1000
MTEXTBEGIN
1070
    73
1070
     1
1070
    44
1040
1.0
1070
    74
1070
     0
1000
MTEXTEND
  0
MTEXT
  5
37A9
102
{ACAD_XDICTIONARY
360
4E1B
102
}
330
1F
100
AcDbEntity
  8
文字
100
AcDbMText
 10
213.6319564684039
 20
251.3531856681514
 30
0.0
 40
5.323819238303491
 41
135.2496274701957
 71
     1
 72
     5
  1
\U+56FE
 73
     1
 44
1.0
1001
ACAD
1000
MTEXTBEGIN
1070
    73
1070
     1
1070
    44
1040
1.0
1070
    74
1070
     0
1000
MTEXTEND
  0
MTEXT
  5
37AA
102
{ACAD_XDICTIONARY
360
4E1D
102
}
330
1F
100
AcDbEntity
  8
文字
100
AcDbMText
 10
227.9003931727825
 20
251.3531856681514
 30
0.0
 40
5.323819238303491
 41
135.2496274701957
 71
     1
 72
     5
  1
\U+603B
 73
     1
 44
1.0
1001
ACAD
1000
MTEXTBEGIN
1070
    73
1070
     1
1070
    44
1040
1.0
1070
    74
1070
     0
1000
MTEXTEND
  0
MTEXT
  5
37AB
102
{ACAD_XDICTIONARY
360
4E1F
102
}
330
1F
100
AcDbEntity
  8
文字
100
AcDbMText
 10
243.2879219242857
 20
251.3531856681514
 30
0.0
 40
5.323819238303491
 41
135.2496274701957
 71
     1
 72
     5
  1
\U+53F7
 73
     1
 44
1.0
1001
ACAD
1000
MTEXTBEGIN
1070
    73
1070
     1
1070
    44
1040
1.0
1070
    74
1070
     0
1000
MTEXTEND
  0
MTEXT
  5
37AC
102
{ACAD_XDICTIONARY
360
4E21
102
}
330
1F
100
AcDbEntity
  8
文字
100
AcDbMText
 10
243.4021321050939
 20
214.5824823687024
 30
0.0
 40
5.323819238303491
 41
135.2496274701957
 71
     1
 72
     5
  1
\U+5B57  
 73
     1
 44
1.0
1001
ACAD
1000
MTEXTBEGIN
1070
    73
1070
     1
1070
    44
1040
1.0
1070
    74
1070
     0
1000
MTEXTEND
  0
MTEXT
  5
37AD
102
{ACAD_XDICTIONARY
360
4E23
102
}
330
1F
100
AcDbEntity
  8
文字
100
AcDbMText
 10
242.4815189024871
 20
178.8117027191227
 30
0.0
 40
5.323819238303491
 41
135.2496274701957
 71
     1
 72
     5
  1
\U+671F  
 73
     1
 44
1.0
1001
ACAD
1000
MTEXTBEGIN
1070
    73
1070
     1
1070
    44
1040
1.0
1070
    74
1070
     0
1000
MTEXTEND
  0
MTEXT
  5
37AE
330
1F
100
AcDbEntity
  8
文字
100
AcDbMText
 10
1160.969929646644
 20
170.2201461888795
 30
0.0
 40
12.27098792021933
 41
243.6464942540659
 71
     1
 72
     5
  1
\fNSimSun|b0|i0|c134|p49;\H1x;\C1;1b30
  7
样式 8
 73
     1
 44
1.0
1001
ACAD
1000
MTEXTBEGIN
1070
    73
1070
     1
1070
    44
1040
1.0
1070
    74
1070
     0
1000
MTEXTEND
  0
LINE
  5
37B5
330
1F
100
AcDbEntity
  8
粗实线
100
AcDbLine
 10
793.0258950962374
 20
264.8464727446578
 30
0.0
 11
793.0258950962374
 21
147.249505175886
 31
0.0
  0
MTEXT
  5
3924
330
1F
100
AcDbEntity
  8
文字
100
AcDbMText
 10
1064.72880738187
 20
300.7178624684339
 30
0.0
 40
12.27098792021933
 41
243.6464942540659
 71
     1
 72
     5
  1
{\fSimSun|b0|i0|c134|p2;\C1;注：图纸上标注尺寸不用印刷}
  7
样式 8
 73
     1
 44
1.0
1001
ACAD
1000
MTEXTBEGIN
1070
    73
1070
     1
1070
    44
1040
1.0
1070
    74
1070
     0
1000
MTEXTEND
  0
LWPOLYLINE
  5
416A
330
1F
100
AcDbEntity
  8
虚线
 48
2.0
100
AcDbPolyline
 90
        8
 70
     1
 43
0.0
 10
836.5
 20
343.0000000000003
 10
651.5
 20
343.0000000000001
 42
-0.4142135623730951
 10
566.5
 20
428.0000000000001
 10
566.5
 20
613.0000000000014
 42
-0.4142135623730951
 10
651.5
 20
698.0000000000013
 10
836.5
 20
698.0000000000013
 42
-0.4142135623730951
 10
921.4999999999999
 20
613.0000000000014
 10
921.4999999999999
 20
428.0000000000001
 42
-0.4142135623730951
  0
LWPOLYLINE
  5
416B
330
1F
100
AcDbEntity
  8
图层1
  6
ByBlock
100
AcDbPolyline
 90
        8
 70
     1
 43
0.0
 10
836.5
 20
336.6500000000003
 10
651.5
 20
336.6500000000001
 42
-0.4142135623730951
 10
560.1499999999996
 20
428.0000000000001
 10
560.1499999999996
 20
613.0000000000014
 42
-0.4142135623730951
 10
651.5
 20
704.3500000000014
 10
836.5
 20
704.3500000000014
 42
-0.4142135623730951
 10
927.8500000000004
 20
613.0000000000014
 10
927.8499999999993
 20
428.0000000000001
 42
-0.4142135623730951
  0
LWPOLYLINE
  5
416C
330
1F
100
AcDbEntity
  8
虚线
 48
2.0
100
AcDbPolyline
 90
        8
 70
     1
 43
0.0
 10
836.5
 20
349.3500000000004
 10
651.5
 20
349.3500000000001
 42
-0.4142135623730951
 10
572.8500000000003
 20
428.0000000000001
 10
572.8500000000003
 20
613.0000000000014
 42
-0.4142135623730951
 10
651.5
 20
691.6500000000014
 10
836.5
 20
691.6500000000014
 42
-0.4142135623730951
 10
915.1499999999996
 20
613.0000000000014
 10
915.1499999999996
 20
428.0000000000001
 42
-0.4142135623730951
  0
DIMENSION
  5
41CA
330
1F
100
AcDbEntity
  8
标注
100
AcDbDimension
  2
*D3
 10
566.5
 20
772.0681049680393
 30
0.0
 11
744.0
 21
772.0681049680393
 31
0.0
 70
   160
  1
{\fArial|b0|i0|c0|p34;<>}
 71
     5
 42
-1.0
  3
英寸
100
AcDbAlignedDimension
 13
921.5417594195459
 23
707.7705901885377
 33
0.0
 14
566.5
 24
710.6871347267403
 34
0.0
100
AcDbRotatedDimension
1001
ACAD
1000
DSTYLE
1002
{
1070
    41
1040
5.0
1070
   140
1040
10.0
1070
   371
1070
     0
1002
}
  0
DIMENSION
  5
41D8
330
1F
100
AcDbEntity
  8
标注
100
AcDbDimension
  2
*D4
 10
560.1499999999996
 20
794.0681049680392
 30
0.0
 11
744.0
 21
794.0681049680392
 31
0.0
 70
   160
  1
{\fArial|b0|i0|c0|p34;<>}
 71
     5
 42
-1.0
  3
英寸
100
AcDbAlignedDimension
 13
927.8500000000004
 23
707.7890175529248
 33
0.0
 14
560.1499999999996
 24
709.8588725707648
 34
0.0
100
AcDbRotatedDimension
1001
ACAD
1000
DSTYLE
1002
{
1070
    41
1040
5.0
1070
   140
1040
10.0
1070
   371
1070
     0
1002
}
  0
DIMENSION
  5
41E6
330
1F
100
AcDbEntity
  8
标注
100
AcDbDimension
  2
*D5
 10
572.8500000000003
 20
749.8368685989232
 30
0.0
 11
744.0
 21
749.8368685989232
 31
0.0
 70
   160
  1
{\fArial|b0|i0|c0|p34;<>}
 71
     5
 42
-1.0
  3
英寸
100
AcDbAlignedDimension
 13
915.1499999999996
 23
707.7705901885377
 33
0.0
 14
572.8500000000003
 24
712.067571653366
 34
0.0
100
AcDbRotatedDimension
1001
ACAD
1000
DSTYLE
1002
{
1070
    41
1040
5.0
1070
   140
1040
10.0
1070
   371
1070
     0
1002
}
  0
DIMENSION
  5
41F4
330
1F
100
AcDbEntity
  8
标注
100
AcDbDimension
  2
*D6
 10
498.7069112894769
 20
343.0000000000001
 30
0.0
 11
498.7069112894769
 21
520.6036740981644
 31
0.0
 70
   160
  1
{\fArial|b0|i0|c0|p34;<>}
 71
     5
 42
-1.0
  3
英寸
100
AcDbAlignedDimension
 13
552.2901343503372
 23
698.0000000000013
 33
0.0
 14
564.1088526660969
 24
343.0000000000001
 34
0.0
 50
90.0
100
AcDbRotatedDimension
1001
ACAD
1000
DSTYLE
1002
{
1070
    41
1040
5.0
1070
   140
1040
10.0
1070
   371
1070
     0
1002
}
  0
DIMENSION
  5
4202
330
1F
100
AcDbEntity
  8
标注
100
AcDbDimension
  2
*D7
 10
474.7069112894769
 20
336.6500000000003
 30
0.0
 11
474.7069112894769
 21
520.5000000000008
 31
0.0
 70
   160
  1
{\fArial|b0|i0|c0|p34;<>}
 71
     5
 42
-1.0
  3
英寸
100
AcDbAlignedDimension
 13
553.4122443279938
 23
704.3500000000014
 33
0.0
 14
564.7211469660923
 24
336.6500000000003
 34
0.0
 50
90.0
100
AcDbRotatedDimension
1001
ACAD
1000
DSTYLE
1002
{
1070
    41
1040
5.0
1070
   140
1040
10.0
1070
   371
1070
     0
1002
}
  0
DIMENSION
  5
4210
330
1F
100
AcDbEntity
  8
标注
100
AcDbDimension
  2
*D8
 10
521.9782003005839
 20
349.3500000000001
 30
0.0
 11
521.9782003005839
 21
520.5000000000008
 31
0.0
 70
   160
  1
{\fArial|b0|i0|c0|p34;<>}
 71
     5
 42
-1.0
  3
英寸
100
AcDbAlignedDimension
 13
552.5234933372694
 23
691.6500000000014
 33
0.0
 14
565.6188349482181
 24
349.3500000000003
 34
0.0
 50
90.0
100
AcDbRotatedDimension
1001
ACAD
1000
DSTYLE
1002
{
1070
    41
1040
5.0
1070
   140
1040
10.0
1070
   371
1070
     0
1002
}
  0
DIMENSION
  5
4221
330
1F
100
AcDbEntity
  8
标注
100
AcDbDimension
  2
*D9
 10
921.4999999999973
 20
511.0924166213237
 30
0.0
 11
868.5766712141857
 21
511.0924166213237
 31
0.0
 70
   160
  1
{\fArial|b0|i0|c0|p34;<>}
 71
     5
 42
-1.0
  3
英寸
100
AcDbAlignedDimension
 13
915.149999999995
 23
520.5000000000007
 33
0.0
 14
921.4999999999973
 24
520.4999999999934
 34
0.0
100
AcDbRotatedDimension
1001
ACAD
1000
DSTYLE
1002
{
1070
   140
1040
10.0
1070
   371
1070
     0
1070
    41
1040
5.0
1002
}
  0
DIMENSION
  5
4232
330
1F
100
AcDbEntity
  8
标注
100
AcDbDimension
  2
*D10
 10
927.8499999999993
 20
489.5924166213237
 30
0.0
 11
874.926671214188
 21
489.5924166213237
 31
0.0
 70
   160
  1
{\fArial|b0|i0|c0|p34;<>}
 71
     5
 42
-1.0
  3
英寸
100
AcDbAlignedDimension
 13
921.4999999999973
 23
520.4999999999934
 33
0.0
 14
927.8499999999993
 24
520.5000000000007
 34
0.0
100
AcDbRotatedDimension
1001
ACAD
1000
DSTYLE
1002
{
1070
    41
1040
5.0
1070
   140
1040
10.0
1070
   371
1070
     0
1002
}
  0
LINE
  5
4233
330
1F
100
AcDbEntity
  8
标注
100
AcDbLine
 10
551.4999999999999
 20
704.3500000000014
 30
0.0
 11
467.4622688605986
 21
704.3500000000014
 31
0.0
  0
ENDSEC
  0
SECTION
  2
OBJECTS
  0
DICTIONARY
  5
C
330
0
100
AcDbDictionary
281
     1
  3
ACAD_2007HEADERVARS_RT
350
4DF1
  3
ACAD_COLOR
350
3513
  3
ACAD_GROUP
350
D
  3
ACAD_LAYOUT
350
1A
  3
ACAD_MATERIAL
350
350F
  3
ACAD_MLINESTYLE
350
17
  3
ACAD_PLOTSETTINGS
350
19
  3
ACAD_PLOTSTYLENAME
350
E
  3
ACAD_TABLESTYLE
350
E9
  3
ACAD_VISUALSTYLE
350
28
  3
AcDbVariableDictionary
350
366A
  3
DWGPROPS
350
4DF0
  0
DICTIONARY
  5
36E2
330
2
100
AcDbDictionary
280
     1
281
     1
  3
ACAD_LAYERSTATES
360
36E3
  0
DICTIONARY
  5
4E01
330
379C
100
AcDbDictionary
280
     1
281
     1
  3
ACAD_MTEXT_RT
360
4E02
  0
DICTIONARY
  5
4E03
330
379D
100
AcDbDictionary
280
     1
281
     1
  3
ACAD_MTEXT_RT
360
4E04
  0
DICTIONARY
  5
4E05
330
379E
100
AcDbDictionary
280
     1
281
     1
  3
ACAD_MTEXT_RT
360
4E06
  0
DICTIONARY
  5
4E07
330
379F
100
AcDbDictionary
280
     1
281
     1
  3
ACAD_MTEXT_RT
360
4E08
  0
DICTIONARY
  5
4E09
330
37A0
100
AcDbDictionary
280
     1
281
     1
  3
ACAD_MTEXT_RT
360
4E0A
  0
DICTIONARY
  5
4E0B
330
37A1
100
AcDbDictionary
280
     1
281
     1
  3
ACAD_MTEXT_RT
360
4E0C
  0
DICTIONARY
  5
4E0D
330
37A2
100
AcDbDictionary
280
     1
281
     1
  3
ACAD_MTEXT_RT
360
4E0E
  0
DICTIONARY
  5
4E0F
330
37A3
100
AcDbDictionary
280
     1
281
     1
  3
ACAD_MTEXT_RT
360
4E10
  0
DICTIONARY
  5
4E11
330
37A4
100
AcDbDictionary
280
     1
281
     1
  3
ACAD_MTEXT_RT
360
4E12
  0
DICTIONARY
  5
4E13
330
37A5
100
AcDbDictionary
280
     1
281
     1
  3
ACAD_MTEXT_RT
360
4E14
  0
DICTIONARY
  5
4E15
330
37A6
100
AcDbDictionary
280
     1
281
     1
  3
ACAD_MTEXT_RT
360
4E16
  0
DICTIONARY
  5
4E17
330
37A7
100
AcDbDictionary
280
     1
281
     1
  3
ACAD_MTEXT_RT
360
4E18
  0
DICTIONARY
  5
4E19
330
37A8
100
AcDbDictionary
280
     1
281
     1
  3
ACAD_MTEXT_RT
360
4E1A
  0
DICTIONARY
  5
4E1B
330
37A9
100
AcDbDictionary
280
     1
281
     1
  3
ACAD_MTEXT_RT
360
4E1C
  0
DICTIONARY
  5
4E1D
330
37AA
100
AcDbDictionary
280
     1
281
     1
  3
ACAD_MTEXT_RT
360
4E1E
  0
DICTIONARY
  5
4E1F
330
37AB
100
AcDbDictionary
280
     1
281
     1
  3
ACAD_MTEXT_RT
360
4E20
  0
DICTIONARY
  5
4E21
330
37AC
100
AcDbDictionary
280
     1
281
     1
  3
ACAD_MTEXT_RT
360
4E22
  0
DICTIONARY
  5
4E23
330
37AD
100
AcDbDictionary
280
     1
281
     1
  3
ACAD_MTEXT_RT
360
4E24
  0
DICTIONARY
  5
4DF1
102
{ACAD_REACTORS
330
C
102
}
330
C
100
AcDbDictionary
281
     1
  3
INTERFERECOLOR
350
4DF2
  0
DICTIONARY
  5
3513
102
{ACAD_REACTORS
330
C
102
}
330
C
100
AcDbDictionary
281
     1
  0
DICTIONARY
  5
D
102
{ACAD_REACTORS
330
C
102
}
330
C
100
AcDbDictionary
281
     1
  0
DICTIONARY
  5
1A
102
{ACAD_REACTORS
330
C
102
}
330
C
100
AcDbDictionary
281
     1
  3
Layout1
350
1E
  3
Layout2
350
24
  3
Model
350
22
  0
DICTIONARY
  5
350F
102
{ACAD_REACTORS
330
C
102
}
330
C
100
AcDbDictionary
281
     1
  3
ByBlock
350
3511
  3
ByLayer
350
3510
  3
Global
350
3512
  0
DICTIONARY
  5
17
102
{ACAD_REACTORS
330
C
102
}
330
C
100
AcDbDictionary
281
     1
  3
Standard
350
18
  0
DICTIONARY
  5
19
102
{ACAD_REACTORS
330
C
102
}
330
C
100
AcDbDictionary
281
     1
  0
ACDBDICTIONARYWDFLT
  5
E
102
{ACAD_REACTORS
330
C
102
}
330
C
100
AcDbDictionary
281
     1
  3
Normal
350
F
100
AcDbDictionaryWithDefault
340
F
  0
DICTIONARY
  5
E9
102
{ACAD_REACTORS
330
C
102
}
330
C
100
AcDbDictionary
281
     1
  3
Standard
350
3514
  0
DICTIONARY
  5
28
102
{ACAD_REACTORS
330
C
102
}
330
C
100
AcDbDictionary
281
     1
  3
2dWireframe
350
2D
  3
3D Hidden
350
2F
  3
3dWireframe
350
2E
  3
Basic
350
30
  3
Brighten
350
34
  3
ColorChange
350
38
  3
Conceptual
350
32
  3
Dim
350
33
  3
Facepattern
350
37
  3
Flat
350
29
  3
FlatWithEdges
350
2A
  3
Gouraud
350
2B
  3
GouraudWithEdges
350
2C
  3
Linepattern
350
36
  3
Realistic
350
31
  3
Thicken
350
35
  0
DICTIONARY
  5
366A
102
{ACAD_REACTORS
330
C
102
}
330
C
100
AcDbDictionary
281
     1
  3
CTABLESTYLE
350
366B
  3
DGNFRAME
350
4DEF
  3
DIMASSOC
350
4DEE
  3
HIDETEXT
350
4DED
  3
INDEXCTL
350
4DEC
  3
SORTENTS
350
4DEB
  0
XRECORD
  5
4DF0
102
{ACAD_REACTORS
330
C
102
}
330
C
100
AcDbXrecord
280
     1
  1
DWGPROPS COOKIE
  2

  3

  4

  6

  7

  8
Administrator
  9

300
=
301
=
302
=
303
=
304
=
305
=
306
=
307
=
308
=
309
=
 40
0.0506734606481482
 41
2455841.60680022
 42
2459756.633054815
  1

 90
        0
  0
DICTIONARY
  5
36E3
102
{ACAD_REACTORS
330
36E2
102
}
330
36E2
100
AcDbDictionary
281
     1
  0
XRECORD
  5
4E02
102
{ACAD_REACTORS
330
4E01
102
}
330
4E01
100
AcDbXrecord
280
     1
 40
2521.0
  1
日   
  0
XRECORD
  5
4E04
102
{ACAD_REACTORS
330
4E03
102
}
330
4E03
100
AcDbXrecord
280
     1
 40
2618.0
  1
签   
  0
XRECORD
  5
4E06
102
{ACAD_REACTORS
330
4E05
102
}
330
4E05
100
AcDbXrecord
280
     1
 40
1661.0
  1
底
  0
XRECORD
  5
4E08
102
{ACAD_REACTORS
330
4E07
102
}
330
4E07
100
AcDbXrecord
280
     1
 40
1671.0
  1
旧
  0
XRECORD
  5
4E0A
102
{ACAD_REACTORS
330
4E09
102
}
330
4E09
100
AcDbXrecord
280
     1
 40
2618.0
  1
描   
  0
XRECORD
  5
4E0C
102
{ACAD_REACTORS
330
4E0B
102
}
330
4E0B
100
AcDbXrecord
280
     1
 40
249260.0
  1
\ftxt.shx,gbcbig.shx;\H1x;\C1;借（通）用件登记
  0
XRECORD
  5
4E0E
102
{ACAD_REACTORS
330
4E0D
102
}
330
4E0D
100
AcDbXrecord
280
     1
 40
2640.0
  1
图   
  0
XRECORD
  5
4E10
102
{ACAD_REACTORS
330
4E0F
102
}
330
4E0F
100
AcDbXrecord
280
     1
 40
2618.0
  1
描   
  0
XRECORD
  5
4E12
102
{ACAD_REACTORS
330
4E11
102
}
330
4E11
100
AcDbXrecord
280
     1
 40
2394.0
  1
校   
  0
XRECORD
  5
4E14
102
{ACAD_REACTORS
330
4E13
102
}
330
4E13
100
AcDbXrecord
280
     1
 40
1661.0
  1
底
  0
XRECORD
  5
4E16
102
{ACAD_REACTORS
330
4E15
102
}
330
4E15
100
AcDbXrecord
280
     1
 40
1776.0
  1
图
  0
XRECORD
  5
4E18
102
{ACAD_REACTORS
330
4E17
102
}
330
4E17
100
AcDbXrecord
280
     1
 40
1615.0
  1
总
  0
XRECORD
  5
4E1A
102
{ACAD_REACTORS
330
4E19
102
}
330
4E19
100
AcDbXrecord
280
     1
 40
1663.0
  1
号
  0
XRECORD
  5
4E1C
102
{ACAD_REACTORS
330
4E1B
102
}
330
4E1B
100
AcDbXrecord
280
     1
 40
1776.0
  1
图
  0
XRECORD
  5
4E1E
102
{ACAD_REACTORS
330
4E1D
102
}
330
4E1D
100
AcDbXrecord
280
     1
 40
1615.0
  1
总
  0
XRECORD
  5
4E20
102
{ACAD_REACTORS
330
4E1F
102
}
330
4E1F
100
AcDbXrecord
280
     1
 40
1663.0
  1
号
  0
XRECORD
  5
4E22
102
{ACAD_REACTORS
330
4E21
102
}
330
4E21
100
AcDbXrecord
280
     1
 40
2180.0
  1
字  
  0
XRECORD
  5
4E24
102
{ACAD_REACTORS
330
4E23
102
}
330
4E23
100
AcDbXrecord
280
     1
 40
2210.0
  1
期  
  0
XRECORD
  5
4DF2
102
{ACAD_REACTORS
330
4DF1
102
}
330
4DF1
100
AcDbXrecord
280
     1
1004
1800000001000000000000C0000000000000000000000000
  0
LAYOUT
  5
1E
102
{ACAD_XDICTIONARY
360
4DF3
102
}
102
{ACAD_REACTORS
330
1A
102
}
330
1A
100
AcDbPlotSettings
  1

  2
none_device
  4

  6

 40
0.0
 41
0.0
 42
0.0
 43
0.0
 44
0.0
 45
0.0
 46
0.0
 47
0.0
 48
0.0
 49
0.0
140
0.0
141
0.0
142
1.0
143
1.0
 70
   688
 72
     0
 73
     0
 74
     5
  7

 75
    16
147
1.0
148
0.0
149
0.0
100
AcDbLayout
  1
Layout1
 70
     1
 71
     1
 10
0.0
 20
0.0
 11
12.0
 21
9.0
 12
0.0
 22
0.0
 32
0.0
 14
1.000000000000000E+20
 24
1.000000000000000E+20
 34
1.000000000000000E+20
 15
-1.000000000000000E+20
 25
-1.000000000000000E+20
 35
-1.000000000000000E+20
146
0.0
 13
0.0
 23
0.0
 33
0.0
 16
1.0
 26
0.0
 36
0.0
 17
0.0
 27
1.0
 37
0.0
 76
     0
330
1B
  0
LAYOUT
  5
24
102
{ACAD_XDICTIONARY
360
4DF7
102
}
102
{ACAD_REACTORS
330
1A
102
}
330
1A
100
AcDbPlotSettings
  1

  2
none_device
  4

  6

 40
0.0
 41
0.0
 42
0.0
 43
0.0
 44
0.0
 45
0.0
 46
0.0
 47
0.0
 48
0.0
 49
0.0
140
0.0
141
0.0
142
1.0
143
1.0
 70
   688
 72
     0
 73
     0
 74
     5
  7

 75
    16
147
1.0
148
0.0
149
0.0
100
AcDbLayout
  1
Layout2
 70
     1
 71
     2
 10
0.0
 20
0.0
 11
0.0
 21
0.0
 12
0.0
 22
0.0
 32
0.0
 14
0.0
 24
0.0
 34
0.0
 15
0.0
 25
0.0
 35
0.0
146
0.0
 13
0.0
 23
0.0
 33
0.0
 16
1.0
 26
0.0
 36
0.0
 17
0.0
 27
1.0
 37
0.0
 76
     0
330
23
  0
LAYOUT
  5
22
102
{ACAD_XDICTIONARY
360
4DF5
102
}
102
{ACAD_REACTORS
330
1A
102
}
330
1A
100
AcDbPlotSettings
  1

  2
Microsoft Print to PDF
  4
A4
  6

 40
3.174999952316284
 41
3.174999952316284
 42
3.175003051757812
 43
3.17498779296875
 44
210.0156707763672
 45
297.0106506347656
 46
0.0000000000000142
 47
1.324303726957538
 48
101.9087781688274
 49
-2038.532773907677
140
1175.62022118802
141
-1279.265396344103
142
1.0
143
3.728008681426201
 70
  3764
 72
     1
 73
     1
 74
     4
  7
Monochrome.ctb
 75
     0
147
0.2682397186954608
148
-101.9087781688274
149
2038.532773907677
100
AcDbLayout
  1
Model
 70
     1
 71
     0
 10
0.0
 20
0.0
 11
12.0
 21
9.0
 12
0.0
 22
0.0
 32
0.0
 14
192.2587781688278
 24
-1009.032773907675
 34
0.0
 15
11776.99517314638
 25
985.0115249388744
 35
0.0
146
0.0
 13
0.0
 23
0.0
 33
0.0
 16
1.0
 26
0.0
 36
0.0
 17
0.0
 27
1.0
 37
0.0
 76
     0
330
1F
331
27
1001
ACAD_PSEXT
1000
Microsoft Print to PDF
1000
Microsoft Print To PDF
1000
PORTPROMPT:
1000

1070
     0
  0
MATERIAL
  5
3511
102
{ACAD_XDICTIONARY
360
4DFB
102
}
102
{ACAD_REACTORS
330
350F
102
}
330
350F
100
AcDbMaterial
  1
ByBlock
  0
MATERIAL
  5
3510
102
{ACAD_XDICTIONARY
360
4DF9
102
}
102
{ACAD_REACTORS
330
350F
102
}
330
350F
100
AcDbMaterial
  1
ByLayer
  0
MATERIAL
  5
3512
102
{ACAD_XDICTIONARY
360
4DFD
102
}
102
{ACAD_REACTORS
330
350F
102
}
330
350F
100
AcDbMaterial
  1
Global
  0
MLINESTYLE
  5
18
102
{ACAD_REACTORS
330
17
102
}
330
17
100
AcDbMlineStyle
  2
STANDARD
 70
     0
  3

 62
   256
 51
90.0
 52
90.0
 71
     2
 49
0.5
 62
   256
  6
BYLAYER
 49
-0.5
 62
   256
  6
BYLAYER
  0
ACDBPLACEHOLDER
  5
F
102
{ACAD_REACTORS
330
E
102
}
330
E
  0
TABLESTYLE
  5
3514
102
{ACAD_XDICTIONARY
360
4DFF
102
}
102
{ACAD_REACTORS
330
E9
102
}
330
E9
100
AcDbTableStyle
  3
Standard
 70
     0
 71
     0
 40
0.06
 41
0.06
280
     0
281
     0
  7
Standard
140
0.18
170
     2
 62
     0
 63
     7
283
     0
274
    -2
284
     1
 64
     0
275
    -2
285
     1
 65
     0
276
    -2
286
     1
 66
     0
277
    -2
287
     1
 67
     0
278
    -2
288
     1
 68
     0
279
    -2
289
     1
 69
     0
  7
Standard
140
0.25
170
     5
 62
     0
 63
     7
283
     0
274
    -2
284
     1
 64
     0
275
    -2
285
     1
 65
     0
276
    -2
286
     1
 66
     0
277
    -2
287
     1
 67
     0
278
    -2
288
     1
 68
     0
279
    -2
289
     1
 69
     0
  7
Standard
140
0.18
170
     5
 62
     0
 63
     7
283
     0
274
    -2
284
     1
 64
     0
275
    -2
285
     1
 65
     0
276
    -2
286
     1
 66
     0
277
    -2
287
     1
 67
     0
278
    -2
288
     1
 68
     0
279
    -2
289
     1
 69
     0
  0
VISUALSTYLE
  5
2D
102
{ACAD_REACTORS
330
28
102
}
330
28
100
AcDbVisualStyle
  2
2dWireframe
 70
     4
 71
     0
 72
     2
 73
     0
 90
        0
 40
-0.6
 41
-30.0
 62
     5
 63
     7
 74
     1
 91
        4
 64
     7
 65
   257
 75
     1
175
     1
 42
1.0
 92
        0
 66
   257
 43
1.0
 76
     1
 77
     6
 78
     2
 67
     7
 79
     5
170
     0
171
     0
290
     0
174
     0
 93
        1
 44
0.0
173
     0
291
     0
 45
0.0
1001
ACAD
1000
AcDbSavedByObjectVersion
1070
     0
  0
VISUALSTYLE
  5
2F
102
{ACAD_REACTORS
330
28
102
}
330
28
100
AcDbVisualStyle
  2
3D Hidden
 70
     6
 71
     1
 72
     2
 73
     2
 90
        0
 40
-0.6
 41
-30.0
 62
     5
 63
     7
 74
     2
 91
        2
 64
     7
 65
   257
 75
     2
175
     1
 42
40.0
 92
        0
 66
   257
 43
1.0
 76
     1
 77
     6
 78
     2
 67
     7
 79
     3
170
     0
171
     0
290
     0
174
     0
 93
        1
 44
0.0
173
     0
291
     0
 45
0.0
1001
ACAD
1000
AcDbSavedByObjectVersion
1070
     0
  0
VISUALSTYLE
  5
2E
102
{ACAD_REACTORS
330
28
102
}
330
28
100
AcDbVisualStyle
  2
3dWireframe
 70
     5
 71
     0
 72
     2
 73
     0
 90
        0
 40
-0.6
 41
-30.0
 62
     5
 63
     7
 74
     1
 91
        4
 64
     7
 65
   257
 75
     1
175
     1
 42
1.0
 92
        0
 66
   257
 43
1.0
 76
     1
 77
     6
 78
     2
 67
     7
 79
     5
170
     0
171
     0
290
     0
174
     0
 93
        1
 44
0.0
173
     0
291
     0
 45
0.0
1001
ACAD
1000
AcDbSavedByObjectVersion
1070
     0
  0
VISUALSTYLE
  5
30
102
{ACAD_REACTORS
330
28
102
}
330
28
100
AcDbVisualStyle
  2
Basic
 70
     7
 71
     1
 72
     0
 73
     1
 90
        0
 40
-0.6
 41
-30.0
 62
     5
 63
     7
 74
     0
 91
        4
 64
     7
 65
   257
 75
     1
175
     1
 42
1.0
 92
        8
 66
     7
 43
1.0
 76
     1
 77
     6
 78
     2
 67
     7
 79
     5
170
     0
171
     0
290
     0
174
     0
 93
        1
 44
0.0
173
     0
291
     1
 45
0.0
1001
ACAD
1000
AcDbSavedByObjectVersion
1070
     0
  0
VISUALSTYLE
  5
34
102
{ACAD_REACTORS
330
28
102
}
330
28
100
AcDbVisualStyle
  2
Brighten
 70
    12
 71
     2
 72
     2
 73
     0
 90
        0
 40
-0.6
 41
-30.0
 62
     5
 63
     7
 74
     1
 91
        4
 64
     7
 65
   257
 75
     1
175
     1
 42
1.0
 92
        8
 66
     7
 43
1.0
 76
     1
 77
     6
 78
     2
 67
     7
 79
     5
170
     0
171
     0
290
     0
174
     0
 93
        1
 44
50.0
173
     0
291
     1
 45
0.0
1001
ACAD
1000
AcDbSavedByObjectVersion
1070
     0
  0
VISUALSTYLE
  5
38
102
{ACAD_REACTORS
330
28
102
}
330
28
100
AcDbVisualStyle
  2
ColorChange
 70
    16
 71
     2
 72
     2
 73
     3
 90
        0
 40
-0.6
 41
-30.0
 62
     5
 63
     8
 74
     1
 91
        4
 64
     7
 65
   257
 75
     1
175
     1
 42
1.0
 92
        8
 66
     8
 43
1.0
 76
     1
 77
     6
 78
     2
 67
     7
 79
     5
170
     0
171
     0
290
     0
174
     0
 93
        1
 44
0.0
173
     0
291
     1
 45
0.0
1001
ACAD
1000
AcDbSavedByObjectVersion
1070
     0
  0
VISUALSTYLE
  5
32
102
{ACAD_REACTORS
330
28
102
}
330
28
100
AcDbVisualStyle
  2
Conceptual
 70
     9
 71
     3
 72
     2
 73
     0
 90
        0
 40
-0.6
 41
-30.0
 62
     5
 63
     7
 74
     2
 91
        2
 64
     7
 65
   257
 75
     1
175
     1
 42
40.0
 92
        8
 66
     7
 43
1.0
 76
     1
 77
     6
 78
     2
 67
     7
 79
     3
170
     0
171
     0
290
     0
174
     0
 93
        1
 44
0.0
173
     0
291
     0
 45
0.0
1001
ACAD
1000
AcDbSavedByObjectVersion
1070
     0
  0
VISUALSTYLE
  5
33
102
{ACAD_REACTORS
330
28
102
}
330
28
100
AcDbVisualStyle
  2
Dim
 70
    11
 71
     2
 72
     2
 73
     0
 90
        0
 40
-0.6
 41
-30.0
 62
     5
 63
     7
 74
     1
 91
        4
 64
     7
 65
   257
 75
     1
175
     1
 42
1.0
 92
        8
 66
     7
 43
1.0
 76
     1
 77
     6
 78
     2
 67
     7
 79
     5
170
     0
171
     0
290
     0
174
     0
 93
        1
 44
-50.0
173
     0
291
     1
 45
0.0
1001
ACAD
1000
AcDbSavedByObjectVersion
1070
     0
  0
VISUALSTYLE
  5
37
102
{ACAD_REACTORS
330
28
102
}
330
28
100
AcDbVisualStyle
  2
Facepattern
 70
    15
 71
     2
 72
     2
 73
     0
 90
        0
 40
-0.6
 41
-30.0
 62
     5
 63
     7
 74
     1
 91
        4
 64
     7
 65
   257
 75
     1
175
     1
 42
1.0
 92
        8
 66
     7
 43
1.0
 76
     1
 77
     6
 78
     2
 67
     7
 79
     5
170
     0
171
     0
290
     0
174
     0
 93
        1
 44
0.0
173
     0
291
     1
 45
0.0
1001
ACAD
1000
AcDbSavedByObjectVersion
1070
     0
  0
VISUALSTYLE
  5
29
102
{ACAD_REACTORS
330
28
102
}
330
28
100
AcDbVisualStyle
  2
Flat
 70
     0
 71
     2
 72
     1
 73
     1
 90
        2
 40
-0.6
 41
30.0
 62
     5
 63
     7
 74
     0
 91
        4
 64
     7
 65
   257
 75
     1
175
     1
 42
1.0
 92
        8
 66
     7
 43
1.0
 76
     1
 77
     6
 78
     2
 67
     7
 79
     5
170
     0
171
     0
290
     0
174
     0
 93
       13
 44
0.0
173
     0
291
     1
 45
0.0
1001
ACAD
1000
AcDbSavedByObjectVersion
1070
     0
  0
VISUALSTYLE
  5
2A
102
{ACAD_REACTORS
330
28
102
}
330
28
100
AcDbVisualStyle
  2
FlatWithEdges
 70
     1
 71
     2
 72
     1
 73
     1
 90
        2
 40
-0.6
 41
30.0
 62
     5
 63
     7
 74
     1
 91
        4
 64
     7
 65
   257
 75
     1
175
     1
 42
1.0
 92
        0
 66
   257
 43
1.0
 76
     1
 77
     6
 78
     2
 67
     7
 79
     5
170
     0
171
     0
290
     0
174
     0
 93
       13
 44
0.0
173
     0
291
     1
 45
0.0
1001
ACAD
1000
AcDbSavedByObjectVersion
1070
     0
  0
VISUALSTYLE
  5
2B
102
{ACAD_REACTORS
330
28
102
}
330
28
100
AcDbVisualStyle
  2
Gouraud
 70
     2
 71
     2
 72
     2
 73
     1
 90
        2
 40
-0.6
 41
30.0
 62
     5
 63
     7
 74
     0
 91
        4
 64
     7
 65
   257
 75
     1
175
     1
 42
1.0
 92
        0
 66
     7
 43
1.0
 76
     1
 77
     6
 78
     2
 67
     7
 79
     5
170
     0
171
     0
290
     0
174
     0
 93
       13
 44
0.0
173
     0
291
     1
 45
0.0
1001
ACAD
1000
AcDbSavedByObjectVersion
1070
     0
  0
VISUALSTYLE
  5
2C
102
{ACAD_REACTORS
330
28
102
}
330
28
100
AcDbVisualStyle
  2
GouraudWithEdges
 70
     3
 71
     2
 72
     2
 73
     1
 90
        2
 40
-0.6
 41
30.0
 62
     5
 63
     7
 74
     1
 91
        4
 64
     7
 65
   257
 75
     1
175
     1
 42
1.0
 92
        0
 66
   257
 43
1.0
 76
     1
 77
     6
 78
     2
 67
     7
 79
     5
170
     0
171
     0
290
     0
174
     0
 93
       13
 44
0.0
173
     0
291
     1
 45
0.0
1001
ACAD
1000
AcDbSavedByObjectVersion
1070
     0
  0
VISUALSTYLE
  5
36
102
{ACAD_REACTORS
330
28
102
}
330
28
100
AcDbVisualStyle
  2
Linepattern
 70
    14
 71
     2
 72
     2
 73
     0
 90
        0
 40
-0.6
 41
-30.0
 62
     5
 63
     7
 74
     1
 91
        4
 64
     7
 65
   257
 75
     7
175
     7
 42
1.0
 92
        8
 66
     7
 43
1.0
 76
     1
 77
     6
 78
     2
 67
     7
 79
     5
170
     0
171
     0
290
     0
174
     0
 93
        1
 44
0.0
173
     0
291
     1
 45
0.0
1001
ACAD
1000
AcDbSavedByObjectVersion
1070
     0
  0
VISUALSTYLE
  5
31
102
{ACAD_REACTORS
330
28
102
}
330
28
100
AcDbVisualStyle
  2
Realistic
 70
     8
 71
     2
 72
     2
 73
     0
 90
        0
 40
-0.6
 41
-30.0
 62
     5
 63
     7
 74
     1
 91
        0
 64
     7
 65
   257
 75
     1
175
     1
 42
1.0
 92
        8
 66
     8
 43
1.0
 76
     1
 77
     6
 78
     2
 67
     7
 79
     5
170
     0
171
     0
290
     0
174
     0
 93
       13
 44
0.0
173
     0
291
     0
 45
0.0
1001
ACAD
1000
AcDbSavedByObjectVersion
1070
     0
  0
VISUALSTYLE
  5
35
102
{ACAD_REACTORS
330
28
102
}
330
28
100
AcDbVisualStyle
  2
Thicken
 70
    13
 71
     2
 72
     2
 73
     0
 90
        0
 40
-0.6
 41
-30.0
 62
     5
 63
     7
 74
     1
 91
        4
 64
     7
 65
   257
 75
     1
175
     1
 42
1.0
 92
       12
 66
     7
 43
1.0
 76
     1
 77
     6
 78
     2
 67
     7
 79
     5
170
     0
171
     0
290
     0
174
     0
 93
        1
 44
0.0
173
     0
291
     1
 45
0.0
1001
ACAD
1000
AcDbSavedByObjectVersion
1070
     0
  0
DICTIONARYVAR
  5
366B
102
{ACAD_REACTORS
330
366A
102
}
330
366A
100
DictionaryVariables
280
     0
  1
STANDARD
  0
DICTIONARYVAR
  5
4DEF
102
{ACAD_REACTORS
330
366A
102
}
330
366A
100
DictionaryVariables
280
     0
  1
2
  0
DICTIONARYVAR
  5
4DEE
102
{ACAD_REACTORS
330
366A
102
}
330
366A
100
DictionaryVariables
280
     0
  1
2
  0
DICTIONARYVAR
  5
4DED
102
{ACAD_REACTORS
330
366A
102
}
330
366A
100
DictionaryVariables
280
     0
  1
1
  0
DICTIONARYVAR
  5
4DEC
102
{ACAD_REACTORS
330
366A
102
}
330
366A
100
DictionaryVariables
280
     0
  1
0
  0
DICTIONARYVAR
  5
4DEB
102
{ACAD_REACTORS
330
366A
102
}
330
366A
100
DictionaryVariables
280
     0
  1
127
  0
DICTIONARY
  5
4DF3
330
1E
100
AcDbDictionary
280
     1
281
     1
  3
ACAD_XREC_ROUNDTRIP
360
4DF4
  0
DICTIONARY
  5
4DF7
330
24
100
AcDbDictionary
280
     1
281
     1
  3
ACAD_XREC_ROUNDTRIP
360
4DF8
  0
DICTIONARY
  5
4DF5
330
22
100
AcDbDictionary
280
     1
281
     1
  3
ACAD_XREC_ROUNDTRIP
360
4DF6
  0
DICTIONARY
  5
4DFB
330
3511
100
AcDbDictionary
280
     1
281
     1
  3
ACAD_XREC_ROUNDTRIP
360
4DFC
  0
DICTIONARY
  5
4DF9
330
3510
100
AcDbDictionary
280
     1
281
     1
  3
ACAD_XREC_ROUNDTRIP
360
4DFA
  0
DICTIONARY
  5
4DFD
330
3512
100
AcDbDictionary
280
     1
281
     1
  3
ACAD_XREC_ROUNDTRIP
360
4DFE
  0
DICTIONARY
  5
4DFF
330
3514
100
AcDbDictionary
280
     1
281
     1
  3
ACAD_XREC_ROUNDTRIP
360
4E00
  0
XRECORD
  5
4DF4
102
{ACAD_REACTORS
330
4DF3
102
}
330
4DF3
100
AcDbXrecord
280
     1
102
SHADEPLOT
 70
     0
102
SHADEPLOTRESLEVEL
 70
     2
102
SHADEPLOTCUSTOMDPI
 70
   300
  0
XRECORD
  5
4DF8
102
{ACAD_REACTORS
330
4DF7
102
}
330
4DF7
100
AcDbXrecord
280
     1
102
SHADEPLOT
 70
     0
102
SHADEPLOTRESLEVEL
 70
     2
102
SHADEPLOTCUSTOMDPI
 70
   300
  0
XRECORD
  5
4DF6
102
{ACAD_REACTORS
330
4DF5
102
}
330
4DF5
100
AcDbXrecord
280
     1
102
SHADEPLOT
 70
     0
102
SHADEPLOTRESLEVEL
 70
     2
102
SHADEPLOTCUSTOMDPI
 70
   300
  0
XRECORD
  5
4DFC
102
{ACAD_REACTORS
330
4DFB
102
}
330
4DFB
100
AcDbXrecord
280
     1
102
MATERIAL
148
0.0
149
0.0
149
0.0
 93
        0
 94
       63
282
     0
 72
     1
 77
     1
171
     1
175
     1
179
     1
273
     0
  0
XRECORD
  5
4DFA
102
{ACAD_REACTORS
330
4DF9
102
}
330
4DF9
100
AcDbXrecord
280
     1
102
MATERIAL
148
0.0
149
0.0
149
0.0
 93
        0
 94
       63
282
     0
 72
     1
 77
     1
171
     1
175
     1
179
     1
273
     0
  0
XRECORD
  5
4DFE
102
{ACAD_REACTORS
330
4DFD
102
}
330
4DFD
100
AcDbXrecord
280
     1
102
MATERIAL
148
0.0
149
0.0
149
0.0
 93
        0
 94
       63
282
     0
 72
     1
 77
     1
171
     1
175
     1
179
     1
273
     0
  0
XRECORD
  5
4E00
102
{ACAD_REACTORS
330
4DFF
102
}
330
4DFF
100
AcDbXrecord
280
     1
102
ACAD_ROUNDTRIP_PRE2007_TABLESTYLE
 90
      512
 91
        0
  1

 92
      512
 93
        0
  2

 94
      512
 95
        0
  3

  0
ENDSEC
  0
EOF
