  0
SECTION
  2
HEADER
  9
$ACADVER
  1
AC1018
  9
$ACADMAINTVER
 70
   104
  9
$DWGCODEPAGE
  3
ANSI_936
  9
$LASTSAVEDBY
  1
ZGW
  9
$INSBASE
 10
0.0
 20
0.0
 30
0.0
  9
$EXTMIN
 10
1061.445212672508
 20
621.6094151062097
 30
-0.0015258207003583
  9
$EXTMAX
 10
13432.74368435627
 20
1863.701682839179
 30
0.0000000349246037
  9
$LIMMIN
 10
0.0
 20
0.0
  9
$LIMMAX
 10
420.0
 20
297.0
  9
$ORTHOMODE
 70
     1
  9
$REGENMODE
 70
     1
  9
$FILLMODE
 70
     1
  9
$QTEXTMODE
 70
     0
  9
$MIRRTEXT
 70
     0
  9
$LTSCALE
 40
1.0
  9
$ATTMODE
 70
     1
  9
$TEXTSIZE
 40
2.5
  9
$TRACEWID
 40
1.0
  9
$TEXTSTYLE
  7
Standard
  9
$CLAYER
  8
0
  9
$CELTYPE
  6
ByLayer
  9
$CECOLOR
 62
   256
  9
$CELTSCALE
 40
1.0
  9
$DISPSILH
 70
     0
  9
$DIMSCALE
 40
1.0
  9
$DIMASZ
 40
2.5
  9
$DIMEXO
 40
0.625
  9
$DIMDLI
 40
3.75
  9
$DIMRND
 40
0.0
  9
$DIMDLE
 40
0.0
  9
$DIMEXE
 40
1.25
  9
$DIMTP
 40
0.0
  9
$DIMTM
 40
0.0
  9
$DIMTXT
 40
2.5
  9
$DIMCEN
 40
2.5
  9
$DIMTSZ
 40
0.0
  9
$DIMTOL
 70
     0
  9
$DIMLIM
 70
     0
  9
$DIMTIH
 70
     0
  9
$DIMTOH
 70
     0
  9
$DIMSE1
 70
     0
  9
$DIMSE2
 70
     0
  9
$DIMTAD
 70
     1
  9
$DIMZIN
 70
     8
  9
$DIMBLK
  1

  9
$DIMASO
 70
     1
  9
$DIMSHO
 70
     1
  9
$DIMPOST
  1

  9
$DIMAPOST
  1

  9
$DIMALT
 70
     0
  9
$DIMALTD
 70
     3
  9
$DIMALTF
 40
0.03937007874016
  9
$DIMLFAC
 40
1.0
  9
$DIMTOFL
 70
     1
  9
$DIMTVP
 40
0.0
  9
$DIMTIX
 70
     0
  9
$DIMSOXD
 70
     0
  9
$DIMSAH
 70
     0
  9
$DIMBLK1
  1

  9
$DIMBLK2
  1

  9
$DIMSTYLE
  2
ISO-25
  9
$DIMCLRD
 70
     0
  9
$DIMCLRE
 70
     0
  9
$DIMCLRT
 70
     0
  9
$DIMTFAC
 40
1.0
  9
$DIMGAP
 40
0.625
  9
$DIMJUST
 70
     0
  9
$DIMSD1
 70
     0
  9
$DIMSD2
 70
     0
  9
$DIMTOLJ
 70
     0
  9
$DIMTZIN
 70
     8
  9
$DIMALTZ
 70
     0
  9
$DIMALTTZ
 70
     0
  9
$DIMUPT
 70
     0
  9
$DIMDEC
 70
     2
  9
$DIMTDEC
 70
     2
  9
$DIMALTU
 70
     2
  9
$DIMALTTD
 70
     3
  9
$DIMTXSTY
  7
Standard
  9
$DIMAUNIT
 70
     0
  9
$DIMADEC
 70
     0
  9
$DIMALTRND
 40
0.0
  9
$DIMAZIN
 70
     0
  9
$DIMDSEP
 70
    44
  9
$DIMATFIT
 70
     3
  9
$DIMFRAC
 70
     0
  9
$DIMLDRBLK
  1

  9
$DIMLUNIT
 70
     2
  9
$DIMLWD
 70
    -2
  9
$DIMLWE
 70
    -2
  9
$DIMTMOVE
 70
     0
  9
$LUNITS
 70
     2
  9
$LUPREC
 70
     4
  9
$SKETCHINC
 40
1.0
  9
$FILLETRAD
 40
0.0
  9
$AUNITS
 70
     0
  9
$AUPREC
 70
     0
  9
$MENU
  1
.
  9
$ELEVATION
 40
0.0
  9
$PELEVATION
 40
0.0
  9
$THICKNESS
 40
0.0
  9
$LIMCHECK
 70
     0
  9
$CHAMFERA
 40
0.0
  9
$CHAMFERB
 40
0.0
  9
$CHAMFERC
 40
0.0
  9
$CHAMFERD
 40
0.0
  9
$SKPOLY
 70
     0
  9
$TDCREATE
 40
2459752.674437095
  9
$TDUCREATE
 40
2459752.341103762
  9
$TDUPDATE
 40
2459752.692524514
  9
$TDUUPDATE
 40
2459752.359191181
  9
$TDINDWG
 40
0.0180888310
  9
$TDUSRTIMER
 40
0.0180887731
  9
$USRTIMER
 70
     1
  9
$ANGBASE
 50
0.0
  9
$ANGDIR
 70
     0
  9
$PDMODE
 70
     0
  9
$PDSIZE
 40
0.0
  9
$PLINEWID
 40
0.0
  9
$SPLFRAME
 70
     0
  9
$SPLINETYPE
 70
     6
  9
$SPLINESEGS
 70
     8
  9
$HANDSEED
  5
CE6
  9
$SURFTAB1
 70
     6
  9
$SURFTAB2
 70
     6
  9
$SURFTYPE
 70
     6
  9
$SURFU
 70
     6
  9
$SURFV
 70
     6
  9
$UCSBASE
  2

  9
$UCSNAME
  2

  9
$UCSORG
 10
0.0
 20
0.0
 30
0.0
  9
$UCSXDIR
 10
1.0
 20
0.0
 30
0.0
  9
$UCSYDIR
 10
0.0
 20
1.0
 30
0.0
  9
$UCSORTHOREF
  2

  9
$UCSORTHOVIEW
 70
     0
  9
$UCSORGTOP
 10
0.0
 20
0.0
 30
0.0
  9
$UCSORGBOTTOM
 10
0.0
 20
0.0
 30
0.0
  9
$UCSORGLEFT
 10
0.0
 20
0.0
 30
0.0
  9
$UCSORGRIGHT
 10
0.0
 20
0.0
 30
0.0
  9
$UCSORGFRONT
 10
0.0
 20
0.0
 30
0.0
  9
$UCSORGBACK
 10
0.0
 20
0.0
 30
0.0
  9
$PUCSBASE
  2

  9
$PUCSNAME
  2

  9
$PUCSORG
 10
0.0
 20
0.0
 30
0.0
  9
$PUCSXDIR
 10
1.0
 20
0.0
 30
0.0
  9
$PUCSYDIR
 10
0.0
 20
1.0
 30
0.0
  9
$PUCSORTHOREF
  2

  9
$PUCSORTHOVIEW
 70
     0
  9
$PUCSORGTOP
 10
0.0
 20
0.0
 30
0.0
  9
$PUCSORGBOTTOM
 10
0.0
 20
0.0
 30
0.0
  9
$PUCSORGLEFT
 10
0.0
 20
0.0
 30
0.0
  9
$PUCSORGRIGHT
 10
0.0
 20
0.0
 30
0.0
  9
$PUCSORGFRONT
 10
0.0
 20
0.0
 30
0.0
  9
$PUCSORGBACK
 10
0.0
 20
0.0
 30
0.0
  9
$USERI1
 70
     0
  9
$USERI2
 70
     0
  9
$USERI3
 70
     0
  9
$USERI4
 70
     0
  9
$USERI5
 70
     0
  9
$USERR1
 40
0.0
  9
$USERR2
 40
0.0
  9
$USERR3
 40
0.0
  9
$USERR4
 40
0.0
  9
$USERR5
 40
0.0
  9
$WORLDVIEW
 70
     1
  9
$SHADEDGE
 70
     3
  9
$SHADEDIF
 70
    70
  9
$TILEMODE
 70
     1
  9
$MAXACTVP
 70
    64
  9
$PINSBASE
 10
0.0
 20
0.0
 30
0.0
  9
$PLIMCHECK
 70
     0
  9
$PEXTMIN
 10
0.0
 20
0.0
 30
0.0
  9
$PEXTMAX
 10
0.0
 20
0.0
 30
0.0
  9
$PLIMMIN
 10
0.0
 20
0.0
  9
$PLIMMAX
 10
12.0
 20
9.0
  9
$UNITMODE
 70
     0
  9
$VISRETAIN
 70
     1
  9
$PLINEGEN
 70
     0
  9
$PSLTSCALE
 70
     1
  9
$TREEDEPTH
 70
  3020
  9
$CMLSTYLE
  2
Standard
  9
$CMLJUST
 70
     0
  9
$CMLSCALE
 40
20.0
  9
$PROXYGRAPHICS
 70
     1
  9
$MEASUREMENT
 70
     1
  9
$CELWEIGHT
370
    -1
  9
$ENDCAPS
280
     0
  9
$JOINSTYLE
280
     0
  9
$LWDISPLAY
290
     0
  9
$INSUNITS
 70
     4
  9
$HYPERLINKBASE
  1

  9
$STYLESHEET
  1
acad.ctb
  9
$XEDIT
290
     1
  9
$CEPSNTYPE
380
     0
  9
$PSTYLEMODE
290
     1
  9
$FINGERPRINTGUID
  2
{F71173A4-6FED-4511-A248-3DBD2F47C02C}
  9
$VERSIONGUID
  2
{C0A2A1E7-17E9-4396-99B9-D16204A73620}
  9
$EXTNAMES
290
     1
  9
$PSVPSCALE
 40
0.0
  9
$OLESTARTUP
290
     0
  9
$SORTENTS
280
   127
  9
$INDEXCTL
280
     0
  9
$HIDETEXT
280
     1
  9
$XCLIPFRAME
290
     0
  9
$HALOGAP
280
     0
  9
$OBSCOLOR
 70
   257
  9
$OBSLTYPE
280
     0
  9
$INTERSECTIONDISPLAY
280
     0
  9
$INTERSECTIONCOLOR
 70
   257
  9
$DIMASSOC
280
     2
  9
$PROJECTNAME
  1

  0
ENDSEC
  0
SECTION
  2
CLASSES
  0
CLASS
  1
ACDBDICTIONARYWDFLT
  2
AcDbDictionaryWithDefault
  3
ObjectDBX Classes
 90
        0
 91
        1
280
     0
281
     0
  0
CLASS
  1
DICTIONARYVAR
  2
AcDbDictionaryVar
  3
ObjectDBX Classes
 90
        0
 91
       25
280
     0
281
     0
  0
CLASS
  1
TABLESTYLE
  2
AcDbTableStyle
  3
ObjectDBX Classes
 90
     4095
 91
        1
280
     0
281
     0
  0
CLASS
  1
MATERIAL
  2
AcDbMaterial
  3
ObjectDBX Classes
 90
     1024
 91
        3
280
     0
281
     0
  0
CLASS
  1
VISUALSTYLE
  2
AcDbVisualStyle
  3
ObjectDBX Classes
 90
     4095
 91
       16
280
     0
281
     0
  0
CLASS
  1
SORTENTSTABLE
  2
AcDbSortentsTable
  3
ObjectDBX Classes
 90
        0
 91
        2
280
     0
281
     0
  0
CLASS
  1
DIMASSOC
  2
AcDbDimAssoc
  3
"AcDbDimAssoc|Product Desc:     AcDim ARX App For Dimension|Company:          Autodesk, Inc.|WEB Address:      www.autodesk.com"
 90
        0
 91
       74
280
     0
281
     0
  0
ENDSEC
  0
SECTION
  2
TABLES
  0
TABLE
  2
VPORT
  5
8
330
0
100
AcDbSymbolTable
 70
     1
  0
VPORT
  5
EB
330
8
100
AcDbSymbolTableRecord
100
AcDbViewportTableRecord
  2
*Active
 70
     0
 10
0.0
 20
0.0
 11
1.0
 21
1.0
 12
11422.47632173649
 22
1699.571456465859
 13
0.0
 23
0.0
 14
10.0
 24
10.0
 15
10.0
 25
10.0
 16
0.0
 26
0.0
 36
1.0
 17
0.0
 27
0.0
 37
0.0
 40
976.0267657174045
 41
2.225806451612903
 42
50.0
 43
0.0
 44
0.0
 50
0.0
 51
0.0
 71
     0
 72
  1000
 73
     1
 74
     3
 75
     0
 76
     0
 77
     0
 78
     0
281
     0
 65
     1
110
0.0
120
0.0
130
0.0
111
1.0
121
0.0
131
0.0
112
0.0
122
1.0
132
0.0
 79
     0
146
0.0
  0
ENDTAB
  0
TABLE
  2
LTYPE
  5
5
330
0
100
AcDbSymbolTable
 70
     2
  0
LTYPE
  5
14
330
5
100
AcDbSymbolTableRecord
100
AcDbLinetypeTableRecord
  2
ByBlock
 70
     0
  3

 72
    65
 73
     0
 40
0.0
  0
LTYPE
  5
15
330
5
100
AcDbSymbolTableRecord
100
AcDbLinetypeTableRecord
  2
ByLayer
 70
     0
  3

 72
    65
 73
     0
 40
0.0
  0
LTYPE
  5
16
330
5
100
AcDbSymbolTableRecord
100
AcDbLinetypeTableRecord
  2
Continuous
 70
     0
  3
Solid line
 72
    65
 73
     0
 40
0.0
  0
ENDTAB
  0
TABLE
  2
LAYER
  5
2
102
{ACAD_XDICTIONARY
360
132
102
}
330
0
100
AcDbSymbolTable
 70
     3
  0
LAYER
  5
10
330
2
100
AcDbSymbolTableRecord
100
AcDbLayerTableRecord
  2
0
 70
     0
 62
     7
  6
Continuous
370
    -3
390
F
  0
LAYER
  5
127
102
{ACAD_XDICTIONARY
360
128
102
}
330
2
100
AcDbSymbolTableRecord
100
AcDbLayerTableRecord
  2
1 辅助线
 70
     0
 62
     7
  6
Continuous
370
    40
390
F
1001
AcadStringInfo
1000
MIFCodePage
1070
     5
  0
LAYER
  5
209
330
2
100
AcDbSymbolTableRecord
100
AcDbLayerTableRecord
  2
Defpoints
 70
     0
 62
     7
  6
Continuous
290
     0
370
    -3
390
F
  0
ENDTAB
  0
TABLE
  2
STYLE
  5
3
330
0
100
AcDbSymbolTable
 70
    36
  0
STYLE
  5
11
330
3
100
AcDbSymbolTableRecord
100
AcDbTextStyleTableRecord
  2
Standard
 70
     0
 40
0.0
 41
1.0
 50
0.0
 71
     0
 42
2.5
  3
txt
  4
gbcbig.shx
  0
STYLE
  5
12A
330
3
100
AcDbSymbolTableRecord
100
AcDbTextStyleTableRecord
  2
Arial
 70
     0
 40
0.0
 41
1.0
 50
0.0
 71
     0
 42
5.0
  3
swissl.ttf
  4

1001
ACAD
1000
Swis721 Lt BT
1071
       34
  0
ENDTAB
  0
TABLE
  2
VIEW
  5
6
330
0
100
AcDbSymbolTable
 70
     0
  0
ENDTAB
  0
TABLE
  2
UCS
  5
7
330
0
100
AcDbSymbolTable
 70
     0
  0
ENDTAB
  0
TABLE
  2
APPID
  5
9
330
0
100
AcDbSymbolTable
 70
     6
  0
APPID
  5
12
330
9
100
AcDbSymbolTableRecord
100
AcDbRegAppTableRecord
  2
ACAD
 70
     0
  0
APPID
  5
9E
330
9
100
AcDbSymbolTableRecord
100
AcDbRegAppTableRecord
  2
ACAD_PSEXT
 70
     0
  0
APPID
  5
130
330
9
100
AcDbSymbolTableRecord
100
AcDbRegAppTableRecord
  2
AcadStringInfo
 70
     0
  0
APPID
  5
131
330
9
100
AcDbSymbolTableRecord
100
AcDbRegAppTableRecord
  2
ACAD_NAV_VCDISPLAY
 70
     0
  0
APPID
  5
557
330
9
100
AcDbSymbolTableRecord
100
AcDbRegAppTableRecord
  2
ACAD_EXEMPT_FROM_CAD_STANDARDS
 70
     0
  0
APPID
  5
CE5
330
9
100
AcDbSymbolTableRecord
100
AcDbRegAppTableRecord
  2
ACAD_DSTYLE_DIM_LINETYPE
 70
     0
  0
ENDTAB
  0
TABLE
  2
DIMSTYLE
  5
A
330
0
100
AcDbSymbolTable
 70
    41
100
AcDbDimStyleTable
 71
     2
340
27
340
12E
  0
DIMSTYLE
105
27
330
A
100
AcDbSymbolTableRecord
100
AcDbDimStyleTableRecord
  2
ISO-25
 70
     0
 41
2.5
 42
0.625
 43
3.75
 44
1.25
 73
     0
 74
     0
 77
     1
 78
     8
140
2.5
141
2.5
143
0.03937007874016
147
0.625
171
     3
172
     1
271
     2
272
     2
274
     3
278
    44
283
     0
284
     8
340
11
  0
DIMSTYLE
105
12B
330
A
100
AcDbSymbolTableRecord
100
AcDbDimStyleTableRecord
  2
4-图放大5倍
 70
     0
  3
"\X
 41
0.6
 42
1.0
 43
3.75
 44
0.4
 78
     8
140
1.0
141
2.5
144
0.2
147
0.625
171
     0
172
     1
178
     6
179
     2
271
     6
272
     6
274
     0
276
     2
277
     5
283
     0
284
     8
340
12A
342
123
1001
AcadStringInfo
1000
MIFCodePage
1070
     5
  0
DIMSTYLE
105
12C
330
A
100
AcDbSymbolTableRecord
100
AcDbDimStyleTableRecord
  2
11-原比例无转
 70
     0
  3
"\X
 41
0.5
 42
1.0
 43
3.75
 44
0.4
 78
     8
140
1.0
141
2.5
147
0.2
171
     0
172
     1
178
     6
179
     2
271
     6
272
     6
274
     0
276
     2
277
     5
279
     1
283
     0
284
     8
340
12A
342
123
1001
AcadStringInfo
1000
MIFCodePage
1070
     5
  0
DIMSTYLE
105
12D
330
A
100
AcDbSymbolTableRecord
100
AcDbDimStyleTableRecord
  2
44-图放大5倍MM
 70
     0
  3
\X
 41
0.6
 42
1.0
 43
3.75
 44
0.4
 78
     8
140
1.0
141
2.5
144
5.08
147
0.625
171
     0
172
     1
178
     6
179
     2
271
     0
272
     0
274
     0
276
     2
283
     0
284
     8
340
12A
342
123
1001
AcadStringInfo
1000
MIFCodePage
1070
     5
  0
DIMSTYLE
105
12E
102
{ACAD_REACTORS
330
879
330
891
102
}
330
A
100
AcDbSymbolTableRecord
100
AcDbDimStyleTableRecord
  2
33-原比例超大字无转
 70
     0
  3
\X
  4
"
 40
0.6
 41
25.0
 42
20.0
 43
3.75
 44
20.0
 47
5.0
 48
5.0
 78
     8
140
35.0
141
20.0
143
0.03937
146
0.6
147
10.0
170
     1
171
     3
172
     1
176
   256
177
   256
178
   256
179
     1
271
     0
272
     0
273
     7
274
     3
276
     2
279
     1
283
     2
340
12A
371
     0
372
    -1
1001
AcadStringInfo
1000
MIFCodePage
1070
     5
1001
ACAD_DSTYLE_DIM_LINETYPE
1070
   380
1005
15
  0
DIMSTYLE
105
12F
330
A
100
AcDbSymbolTableRecord
100
AcDbDimStyleTableRecord
  2
副本 33-原比例超大字无转
 70
     0
  3
\X
  4
"
 40
0.02
 41
25.0
 42
20.0
 43
3.75
 44
20.0
 47
5.0
 48
5.0
 78
     8
140
35.0
141
20.0
143
0.03937
146
0.6
147
10.0
170
     1
171
     3
172
     1
176
   256
177
   256
178
   256
271
     2
272
     2
273
     7
274
     3
276
     2
279
     1
283
     2
340
12A
371
     0
372
    -1
1001
AcadStringInfo
1000
MIFCodePage
1070
     5
1001
ACAD_DSTYLE_DIM_LINETYPE
1070
   380
1005
15
  0
ENDTAB
  0
TABLE
  2
BLOCK_RECORD
  5
1
330
0
100
AcDbSymbolTable
 70
   116
  0
BLOCK_RECORD
  5
1F
330
1
100
AcDbSymbolTableRecord
100
AcDbBlockTableRecord
  2
*Model_Space
340
22
  0
BLOCK_RECORD
  5
D2
330
1
100
AcDbSymbolTableRecord
100
AcDbBlockTableRecord
  2
*Paper_Space
340
D3
  0
BLOCK_RECORD
  5
D6
330
1
100
AcDbSymbolTableRecord
100
AcDbBlockTableRecord
  2
*Paper_Space0
340
D7
  0
BLOCK_RECORD
  5
123
330
1
100
AcDbSymbolTableRecord
100
AcDbBlockTableRecord
  2
_ArchTick
340
0
  0
BLOCK_RECORD
  5
20A
330
1
100
AcDbSymbolTableRecord
100
AcDbBlockTableRecord
  2
*D3
340
0
  0
BLOCK_RECORD
  5
222
330
1
100
AcDbSymbolTableRecord
100
AcDbBlockTableRecord
  2
*D4
340
0
  0
BLOCK_RECORD
  5
239
330
1
100
AcDbSymbolTableRecord
100
AcDbBlockTableRecord
  2
*D5
340
0
  0
BLOCK_RECORD
  5
24D
330
1
100
AcDbSymbolTableRecord
100
AcDbBlockTableRecord
  2
*D7
340
0
  0
BLOCK_RECORD
  5
2BF
330
1
100
AcDbSymbolTableRecord
100
AcDbBlockTableRecord
  2
*D8
340
0
  0
BLOCK_RECORD
  5
2D7
330
1
100
AcDbSymbolTableRecord
100
AcDbBlockTableRecord
  2
*D9
340
0
  0
BLOCK_RECORD
  5
305
330
1
100
AcDbSymbolTableRecord
100
AcDbBlockTableRecord
  2
*D10
340
0
  0
BLOCK_RECORD
  5
31D
330
1
100
AcDbSymbolTableRecord
100
AcDbBlockTableRecord
  2
*D11
340
0
  0
BLOCK_RECORD
  5
356
330
1
100
AcDbSymbolTableRecord
100
AcDbBlockTableRecord
  2
*D12
340
0
  0
BLOCK_RECORD
  5
36E
330
1
100
AcDbSymbolTableRecord
100
AcDbBlockTableRecord
  2
*D13
340
0
  0
BLOCK_RECORD
  5
39C
330
1
100
AcDbSymbolTableRecord
100
AcDbBlockTableRecord
  2
*D14
340
0
  0
BLOCK_RECORD
  5
3B4
330
1
100
AcDbSymbolTableRecord
100
AcDbBlockTableRecord
  2
*D15
340
0
  0
BLOCK_RECORD
  5
403
330
1
100
AcDbSymbolTableRecord
100
AcDbBlockTableRecord
  2
*D16
340
0
  0
BLOCK_RECORD
  5
41B
330
1
100
AcDbSymbolTableRecord
100
AcDbBlockTableRecord
  2
*D17
340
0
  0
BLOCK_RECORD
  5
454
330
1
100
AcDbSymbolTableRecord
100
AcDbBlockTableRecord
  2
*D18
340
0
  0
BLOCK_RECORD
  5
46C
330
1
100
AcDbSymbolTableRecord
100
AcDbBlockTableRecord
  2
*D19
340
0
  0
BLOCK_RECORD
  5
4BB
330
1
100
AcDbSymbolTableRecord
100
AcDbBlockTableRecord
  2
*D20
340
0
  0
BLOCK_RECORD
  5
4D3
330
1
100
AcDbSymbolTableRecord
100
AcDbBlockTableRecord
  2
*D21
340
0
  0
BLOCK_RECORD
  5
563
330
1
100
AcDbSymbolTableRecord
100
AcDbBlockTableRecord
  2
*D24
340
0
  0
BLOCK_RECORD
  5
57B
330
1
100
AcDbSymbolTableRecord
100
AcDbBlockTableRecord
  2
*D25
340
0
  0
BLOCK_RECORD
  5
594
330
1
100
AcDbSymbolTableRecord
100
AcDbBlockTableRecord
  2
*D26
340
0
  0
BLOCK_RECORD
  5
5AC
330
1
100
AcDbSymbolTableRecord
100
AcDbBlockTableRecord
  2
*D27
340
0
  0
BLOCK_RECORD
  5
5DA
330
1
100
AcDbSymbolTableRecord
100
AcDbBlockTableRecord
  2
*D28
340
0
  0
BLOCK_RECORD
  5
5F2
330
1
100
AcDbSymbolTableRecord
100
AcDbBlockTableRecord
  2
*D29
340
0
  0
BLOCK_RECORD
  5
63C
330
1
100
AcDbSymbolTableRecord
100
AcDbBlockTableRecord
  2
*D30
340
0
  0
BLOCK_RECORD
  5
654
330
1
100
AcDbSymbolTableRecord
100
AcDbBlockTableRecord
  2
*D31
340
0
  0
BLOCK_RECORD
  5
698
330
1
100
AcDbSymbolTableRecord
100
AcDbBlockTableRecord
  2
*D32
340
0
  0
BLOCK_RECORD
  5
6B0
330
1
100
AcDbSymbolTableRecord
100
AcDbBlockTableRecord
  2
*D33
340
0
  0
BLOCK_RECORD
  5
6E9
330
1
100
AcDbSymbolTableRecord
100
AcDbBlockTableRecord
  2
*D34
340
0
  0
BLOCK_RECORD
  5
701
330
1
100
AcDbSymbolTableRecord
100
AcDbBlockTableRecord
  2
*D35
340
0
  0
BLOCK_RECORD
  5
735
330
1
100
AcDbSymbolTableRecord
100
AcDbBlockTableRecord
  2
*D36
340
0
  0
BLOCK_RECORD
  5
74D
330
1
100
AcDbSymbolTableRecord
100
AcDbBlockTableRecord
  2
*D37
340
0
  0
BLOCK_RECORD
  5
77B
330
1
100
AcDbSymbolTableRecord
100
AcDbBlockTableRecord
  2
*D38
340
0
  0
BLOCK_RECORD
  5
793
330
1
100
AcDbSymbolTableRecord
100
AcDbBlockTableRecord
  2
*D39
340
0
  0
BLOCK_RECORD
  5
7D8
330
1
100
AcDbSymbolTableRecord
100
AcDbBlockTableRecord
  2
*D40
340
0
  0
BLOCK_RECORD
  5
7F0
330
1
100
AcDbSymbolTableRecord
100
AcDbBlockTableRecord
  2
*D41
340
0
  0
BLOCK_RECORD
  5
829
330
1
100
AcDbSymbolTableRecord
100
AcDbBlockTableRecord
  2
*D42
340
0
  0
BLOCK_RECORD
  5
841
330
1
100
AcDbSymbolTableRecord
100
AcDbBlockTableRecord
  2
*D43
340
0
  0
BLOCK_RECORD
  5
87A
330
1
100
AcDbSymbolTableRecord
100
AcDbBlockTableRecord
  2
*D44
340
0
  0
BLOCK_RECORD
  5
892
330
1
100
AcDbSymbolTableRecord
100
AcDbBlockTableRecord
  2
*D45
340
0
  0
BLOCK_RECORD
  5
8C5
330
1
100
AcDbSymbolTableRecord
100
AcDbBlockTableRecord
  2
*D46
340
0
  0
BLOCK_RECORD
  5
8DD
330
1
100
AcDbSymbolTableRecord
100
AcDbBlockTableRecord
  2
*D47
340
0
  0
BLOCK_RECORD
  5
981
330
1
100
AcDbSymbolTableRecord
100
AcDbBlockTableRecord
  2
*D48
340
0
  0
BLOCK_RECORD
  5
98F
330
1
100
AcDbSymbolTableRecord
100
AcDbBlockTableRecord
  2
*D49
340
0
  0
BLOCK_RECORD
  5
99D
330
1
100
AcDbSymbolTableRecord
100
AcDbBlockTableRecord
  2
*D50
340
0
  0
BLOCK_RECORD
  5
9AB
330
1
100
AcDbSymbolTableRecord
100
AcDbBlockTableRecord
  2
*D51
340
0
  0
BLOCK_RECORD
  5
9B9
330
1
100
AcDbSymbolTableRecord
100
AcDbBlockTableRecord
  2
*D52
340
0
  0
BLOCK_RECORD
  5
9C7
330
1
100
AcDbSymbolTableRecord
100
AcDbBlockTableRecord
  2
*D53
340
0
  0
BLOCK_RECORD
  5
9D5
330
1
100
AcDbSymbolTableRecord
100
AcDbBlockTableRecord
  2
*D54
340
0
  0
BLOCK_RECORD
  5
9E3
330
1
100
AcDbSymbolTableRecord
100
AcDbBlockTableRecord
  2
*D55
340
0
  0
BLOCK_RECORD
  5
9F1
330
1
100
AcDbSymbolTableRecord
100
AcDbBlockTableRecord
  2
*D56
340
0
  0
BLOCK_RECORD
  5
9FF
330
1
100
AcDbSymbolTableRecord
100
AcDbBlockTableRecord
  2
*D57
340
0
  0
BLOCK_RECORD
  5
A0D
330
1
100
AcDbSymbolTableRecord
100
AcDbBlockTableRecord
  2
*D58
340
0
  0
BLOCK_RECORD
  5
A1B
330
1
100
AcDbSymbolTableRecord
100
AcDbBlockTableRecord
  2
*D59
340
0
  0
BLOCK_RECORD
  5
A29
330
1
100
AcDbSymbolTableRecord
100
AcDbBlockTableRecord
  2
*D60
340
0
  0
BLOCK_RECORD
  5
A37
330
1
100
AcDbSymbolTableRecord
100
AcDbBlockTableRecord
  2
*D61
340
0
  0
BLOCK_RECORD
  5
A45
330
1
100
AcDbSymbolTableRecord
100
AcDbBlockTableRecord
  2
*D62
340
0
  0
BLOCK_RECORD
  5
A53
330
1
100
AcDbSymbolTableRecord
100
AcDbBlockTableRecord
  2
*D63
340
0
  0
BLOCK_RECORD
  5
A61
330
1
100
AcDbSymbolTableRecord
100
AcDbBlockTableRecord
  2
*D64
340
0
  0
BLOCK_RECORD
  5
A6F
330
1
100
AcDbSymbolTableRecord
100
AcDbBlockTableRecord
  2
*D65
340
0
  0
BLOCK_RECORD
  5
A7D
330
1
100
AcDbSymbolTableRecord
100
AcDbBlockTableRecord
  2
*D66
340
0
  0
BLOCK_RECORD
  5
A8B
330
1
100
AcDbSymbolTableRecord
100
AcDbBlockTableRecord
  2
*D67
340
0
  0
BLOCK_RECORD
  5
A99
330
1
100
AcDbSymbolTableRecord
100
AcDbBlockTableRecord
  2
*D68
340
0
  0
BLOCK_RECORD
  5
AA7
330
1
100
AcDbSymbolTableRecord
100
AcDbBlockTableRecord
  2
*D69
340
0
  0
BLOCK_RECORD
  5
AB5
330
1
100
AcDbSymbolTableRecord
100
AcDbBlockTableRecord
  2
*D70
340
0
  0
BLOCK_RECORD
  5
AC3
330
1
100
AcDbSymbolTableRecord
100
AcDbBlockTableRecord
  2
*D71
340
0
  0
BLOCK_RECORD
  5
AD1
330
1
100
AcDbSymbolTableRecord
100
AcDbBlockTableRecord
  2
*D72
340
0
  0
BLOCK_RECORD
  5
ADF
330
1
100
AcDbSymbolTableRecord
100
AcDbBlockTableRecord
  2
*D73
340
0
  0
BLOCK_RECORD
  5
AED
330
1
100
AcDbSymbolTableRecord
100
AcDbBlockTableRecord
  2
*D74
340
0
  0
BLOCK_RECORD
  5
AFB
330
1
100
AcDbSymbolTableRecord
100
AcDbBlockTableRecord
  2
*D75
340
0
  0
BLOCK_RECORD
  5
B09
330
1
100
AcDbSymbolTableRecord
100
AcDbBlockTableRecord
  2
*D76
340
0
  0
BLOCK_RECORD
  5
B17
330
1
100
AcDbSymbolTableRecord
100
AcDbBlockTableRecord
  2
*D77
340
0
  0
BLOCK_RECORD
  5
B25
330
1
100
AcDbSymbolTableRecord
100
AcDbBlockTableRecord
  2
*D78
340
0
  0
BLOCK_RECORD
  5
B33
330
1
100
AcDbSymbolTableRecord
100
AcDbBlockTableRecord
  2
*D79
340
0
  0
BLOCK_RECORD
  5
B41
330
1
100
AcDbSymbolTableRecord
100
AcDbBlockTableRecord
  2
*D80
340
0
  0
BLOCK_RECORD
  5
B4F
330
1
100
AcDbSymbolTableRecord
100
AcDbBlockTableRecord
  2
*D81
340
0
  0
ENDTAB
  0
ENDSEC
  0
SECTION
  2
BLOCKS
  0
BLOCK
  5
20
330
1F
100
AcDbEntity
  8
0
100
AcDbBlockBegin
  2
*Model_Space
 70
     0
 10
0.0
 20
0.0
 30
0.0
  3
*Model_Space
  1

  0
ENDBLK
  5
21
330
1F
100
AcDbEntity
  8
0
100
AcDbBlockEnd
  0
BLOCK
  5
D4
330
D2
100
AcDbEntity
 67
     1
  8
0
100
AcDbBlockBegin
  2
*Paper_Space
 70
     0
 10
0.0
 20
0.0
 30
0.0
  3
*Paper_Space
  1

  0
ENDBLK
  5
D5
330
D2
100
AcDbEntity
 67
     1
  8
0
100
AcDbBlockEnd
  0
BLOCK
  5
D8
330
D6
100
AcDbEntity
 67
     1
  8
0
100
AcDbBlockBegin
  2
*Paper_Space0
 70
     0
 10
0.0
 20
0.0
 30
0.0
  3
*Paper_Space0
  1

  0
ENDBLK
  5
D9
330
D6
100
AcDbEntity
 67
     1
  8
0
100
AcDbBlockEnd
  0
BLOCK
  5
124
330
123
100
AcDbEntity
  8
0
100
AcDbBlockBegin
  2
_ArchTick
 70
     0
 10
0.0
 20
0.0
 30
0.0
  3
_ArchTick
  1

  0
LWPOLYLINE
  5
125
330
123
100
AcDbEntity
  8
0
  6
ByBlock
 62
     0
100
AcDbPolyline
 90
        2
 70
     0
 43
0.15
 10
-0.5
 20
-0.5
 10
0.5
 20
0.5
  0
ENDBLK
  5
126
330
123
100
AcDbEntity
  8
0
100
AcDbBlockEnd
  0
BLOCK
  5
214
330
20A
100
AcDbEntity
  8
0
100
AcDbBlockBegin
  2
*D3
 70
     1
 10
0.0
 20
0.0
 30
0.0
  3
*D3
  1

  0
LINE
  5
2B3
330
20A
100
AcDbEntity
  8
1 辅助线
100
AcDbLine
 10
1061.938725476911
 20
1604.539111689918
 30
0.0
 11
1061.938725476911
 21
1692.617069804131
 31
0.0
  0
LINE
  5
2B4
330
20A
100
AcDbEntity
  8
1 辅助线
100
AcDbLine
 10
1484.93872547691
 20
1604.539111689918
 30
0.0
 11
1484.93872547691
 21
1692.617069804131
 31
0.0
  0
LINE
  5
2B5
330
20A
100
AcDbEntity
  8
1 辅助线
370
     0
100
AcDbLine
 10
1071.938725476911
 20
1684.617069804131
 30
0.0
 11
1236.581970554982
 21
1684.617069804131
 31
0.0
  0
LINE
  5
2B6
330
20A
100
AcDbEntity
  8
1 辅助线
370
     0
100
AcDbLine
 10
1474.93872547691
 20
1684.617069804131
 30
0.0
 11
1310.295480398839
 21
1684.617069804131
 31
0.0
  0
SOLID
  5
2B7
330
20A
100
AcDbEntity
  8
1 辅助线
100
AcDbTrace
 10
1071.938725476911
 20
1686.283736470798
 30
0.0
 11
1071.938725476911
 21
1682.950403137464
 31
0.0
 12
1061.938725476911
 22
1684.617069804131
 32
0.0
 13
1061.938725476911
 23
1684.617069804131
 33
0.0
  0
SOLID
  5
2B8
330
20A
100
AcDbEntity
  8
1 辅助线
100
AcDbTrace
 10
1474.93872547691
 20
1686.283736470798
 30
0.0
 11
1474.93872547691
 21
1682.950403137464
 31
0.0
 12
1484.93872547691
 22
1684.617069804131
 32
0.0
 13
1484.93872547691
 23
1684.617069804131
 33
0.0
  0
MTEXT
  5
2B9
330
20A
100
AcDbEntity
  8
1 辅助线
100
AcDbMText
 10
1273.438725476911
 20
1695.811910265774
 30
0.0
 40
14.0
 41
0.0
 71
     5
 72
     1
  1
\A2;423
  7
Arial
 73
     1
 44
1.0
  0
MTEXT
  5
2BA
330
20A
100
AcDbEntity
  8
1 辅助线
100
AcDbMText
 10
1273.438725476911
 20
1671.492833551585
 30
0.0
 40
14.0
 41
0.0
 71
     5
 72
     1
  1
\A2;[16 5/8"]
  7
Arial
 73
     1
 44
1.0
  0
POINT
  5
2BB
330
20A
100
AcDbEntity
  8
Defpoints
 62
     0
100
AcDbPoint
 10
1061.938725476911
 20
1596.539111689918
 30
0.0
  0
POINT
  5
2BC
330
20A
100
AcDbEntity
  8
Defpoints
 62
     0
100
AcDbPoint
 10
1484.93872547691
 20
1596.539111689917
 30
0.0
  0
POINT
  5
2BD
330
20A
100
AcDbEntity
  8
Defpoints
 62
     0
100
AcDbPoint
 10
1484.93872547691
 20
1684.617069804131
 30
0.0
  0
ENDBLK
  5
215
330
20A
100
AcDbEntity
  8
0
100
AcDbBlockEnd
  0
BLOCK
  5
22C
330
222
100
AcDbEntity
  8
0
100
AcDbBlockBegin
  2
*D4
 70
     1
 10
0.0
 20
0.0
 30
0.0
  3
*D4
  1

  0
LINE
  5
2A8
330
222
100
AcDbEntity
  8
1 辅助线
100
AcDbLine
 10
1281.438725476912
 20
1756.539111689918
 30
0.0
 11
1455.476631192902
 21
1756.539111689918
 31
0.0
  0
LINE
  5
2A9
330
222
100
AcDbEntity
  8
1 辅助线
100
AcDbLine
 10
1281.438725476911
 20
1436.539111689918
 30
0.0
 11
1455.476631192901
 21
1436.539111689918
 31
0.0
  0
LINE
  5
2AA
330
222
100
AcDbEntity
  8
1 辅助线
370
     0
100
AcDbLine
 10
1447.476631192902
 20
1746.539111689918
 30
0.0
 11
1447.476631192902
 21
1620.858188404107
 31
0.0
  0
LINE
  5
2AB
330
222
100
AcDbEntity
  8
1 辅助线
370
     0
100
AcDbLine
 10
1447.476631192901
 20
1446.539111689918
 30
0.0
 11
1447.476631192902
 21
1572.220034975729
 31
0.0
  0
SOLID
  5
2AC
330
222
100
AcDbEntity
  8
1 辅助线
100
AcDbTrace
 10
1445.809964526235
 20
1746.539111689918
 30
0.0
 11
1449.143297859568
 21
1746.539111689918
 31
0.0
 12
1447.476631192902
 22
1756.539111689918
 32
0.0
 13
1447.476631192902
 23
1756.539111689918
 33
0.0
  0
SOLID
  5
2AD
330
222
100
AcDbEntity
  8
1 辅助线
100
AcDbTrace
 10
1445.809964526235
 20
1446.539111689918
 30
0.0
 11
1449.143297859568
 21
1446.539111689918
 31
0.0
 12
1447.476631192901
 22
1436.539111689918
 32
0.0
 13
1447.476631192901
 23
1436.539111689918
 33
0.0
  0
MTEXT
  5
2AE
330
222
100
AcDbEntity
  8
1 辅助线
100
AcDbMText
 10
1447.476631192901
 20
1607.733952151561
 30
0.0
 40
14.0
 41
0.0
 71
     5
 72
     1
  1
\A2;320
  7
Arial
 73
     1
 44
1.0
  0
MTEXT
  5
2AF
330
222
100
AcDbEntity
  8
1 辅助线
100
AcDbMText
 10
1447.476631192901
 20
1583.414875437372
 30
0.0
 40
14.0
 41
0.0
 71
     5
 72
     1
  1
\A2;[12 5/8"]
  7
Arial
 73
     1
 44
1.0
  0
POINT
  5
2B0
330
222
100
AcDbEntity
  8
Defpoints
 62
     0
100
AcDbPoint
 10
1273.438725476912
 20
1756.539111689918
 30
0.0
  0
POINT
  5
2B1
330
222
100
AcDbEntity
  8
Defpoints
 62
     0
100
AcDbPoint
 10
1273.438725476911
 20
1436.539111689918
 30
0.0
  0
POINT
  5
2B2
330
222
100
AcDbEntity
  8
Defpoints
 62
     0
100
AcDbPoint
 10
1447.476631192901
 20
1436.539111689918
 30
0.0
  0
ENDBLK
  5
22D
330
222
100
AcDbEntity
  8
0
100
AcDbBlockEnd
  0
BLOCK
  5
23A
330
239
100
AcDbEntity
  8
0
100
AcDbBlockBegin
  2
*D5
 70
     1
 10
0.0
 20
0.0
 30
0.0
  3
*D5
  1

  0
LINE
  5
23B
330
239
100
AcDbEntity
  8
1 辅助线
100
AcDbLine
 10
1158.322407965442
 20
883.7010402680693
 30
0.0
 11
1158.322407965442
 21
1018.262293367655
 31
0.0
  0
LINE
  5
23C
330
239
100
AcDbEntity
  8
1 辅助线
100
AcDbLine
 10
1441.322407965442
 20
883.7010402680693
 30
0.0
 11
1441.322407965442
 21
1018.262293367655
 31
0.0
  0
LINE
  5
23D
330
239
100
AcDbEntity
  8
1 辅助线
370
     0
100
AcDbLine
 10
1173.322407965442
 20
1006.262293367655
 30
0.0
 11
1244.53727558255
 21
1006.262293367655
 31
0.0
  0
LINE
  5
23E
330
239
100
AcDbEntity
  8
1 辅助线
370
     0
100
AcDbLine
 10
1426.322407965442
 20
1006.262293367655
 30
0.0
 11
1355.107540348334
 21
1006.262293367655
 31
0.0
  0
SOLID
  5
23F
330
239
100
AcDbEntity
  8
1 辅助线
100
AcDbTrace
 10
1173.322407965442
 20
1008.762293367655
 30
0.0
 11
1173.322407965442
 21
1003.762293367655
 31
0.0
 12
1158.322407965442
 22
1006.262293367655
 32
0.0
 13
1158.322407965442
 23
1006.262293367655
 33
0.0
  0
SOLID
  5
240
330
239
100
AcDbEntity
  8
1 辅助线
100
AcDbTrace
 10
1426.322407965442
 20
1008.762293367655
 30
0.0
 11
1426.322407965442
 21
1003.762293367655
 31
0.0
 12
1441.322407965442
 22
1006.262293367655
 32
0.0
 13
1441.322407965442
 23
1006.262293367655
 33
0.0
  0
MTEXT
  5
241
330
239
100
AcDbEntity
  8
1 辅助线
100
AcDbMText
 10
1299.822407965442
 20
1023.054554060119
 30
0.0
 40
21.0
 41
0.0
 71
     5
 72
     1
  1
\A2;283
  7
Arial
 73
     1
 44
1.0
  0
MTEXT
  5
242
330
239
100
AcDbEntity
  8
1 辅助线
100
AcDbMText
 10
1299.822407965442
 20
986.5759389888365
 30
0.0
 40
21.0
 41
0.0
 71
     5
 72
     1
  1
\A2;[11 1/8"]
  7
Arial
 73
     1
 44
1.0
  0
POINT
  5
243
330
239
100
AcDbEntity
  8
Defpoints
 62
     0
100
AcDbPoint
 10
1158.322407965442
 20
871.7010402680694
 30
0.0
  0
POINT
  5
244
330
239
100
AcDbEntity
  8
Defpoints
 62
     0
100
AcDbPoint
 10
1441.322407965442
 20
871.7010402680694
 30
0.0
  0
POINT
  5
245
330
239
100
AcDbEntity
  8
Defpoints
 62
     0
100
AcDbPoint
 10
1441.322407965442
 20
1006.262293367655
 30
0.0
  0
ENDBLK
  5
246
330
239
100
AcDbEntity
  8
0
100
AcDbBlockEnd
  0
BLOCK
  5
259
330
24D
100
AcDbEntity
  8
0
100
AcDbBlockBegin
  2
*D7
 70
     1
 10
0.0
 20
0.0
 30
0.0
  3
*D7
  1

  0
LINE
  5
25B
330
24D
100
AcDbEntity
  8
1 辅助线
100
AcDbLine
 10
1368.782346814121
 20
1901.600592080646
 30
0.0
 11
1368.782346814121
 21
2036.161845180233
 31
0.0
  0
LINE
  5
25C
330
24D
100
AcDbEntity
  8
1 辅助线
100
AcDbLine
 10
1651.782346814121
 20
1901.600592080646
 30
0.0
 11
1651.782346814121
 21
2036.161845180233
 31
0.0
  0
LINE
  5
25D
330
24D
100
AcDbEntity
  8
1 辅助线
370
     0
100
AcDbLine
 10
1383.782346814121
 20
2024.161845180232
 30
0.0
 11
1454.997214431229
 21
2024.161845180232
 31
0.0
  0
LINE
  5
25E
330
24D
100
AcDbEntity
  8
1 辅助线
370
     0
100
AcDbLine
 10
1636.782346814121
 20
2024.161845180232
 30
0.0
 11
1565.567479197013
 21
2024.161845180232
 31
0.0
  0
SOLID
  5
25F
330
24D
100
AcDbEntity
  8
1 辅助线
100
AcDbTrace
 10
1383.782346814121
 20
2026.661845180232
 30
0.0
 11
1383.782346814121
 21
2021.661845180233
 31
0.0
 12
1368.782346814121
 22
2024.161845180232
 32
0.0
 13
1368.782346814121
 23
2024.161845180232
 33
0.0
  0
SOLID
  5
260
330
24D
100
AcDbEntity
  8
1 辅助线
100
AcDbTrace
 10
1636.782346814121
 20
2026.661845180232
 30
0.0
 11
1636.782346814121
 21
2021.661845180233
 31
0.0
 12
1651.782346814121
 22
2024.161845180232
 32
0.0
 13
1651.782346814121
 23
2024.161845180232
 33
0.0
  0
MTEXT
  5
261
330
24D
100
AcDbEntity
  8
1 辅助线
100
AcDbMText
 10
1510.282346814121
 20
2040.954105872697
 30
0.0
 40
21.0
 41
0.0
 71
     5
 72
     1
  1
\A2;283
  7
Arial
 73
     1
 44
1.0
  0
MTEXT
  5
262
330
24D
100
AcDbEntity
  8
1 辅助线
100
AcDbMText
 10
1510.282346814121
 20
2004.475490801414
 30
0.0
 40
21.0
 41
0.0
 71
     5
 72
     1
  1
\A2;[11 1/8"]
  7
Arial
 73
     1
 44
1.0
  0
POINT
  5
263
330
24D
100
AcDbEntity
  8
Defpoints
 62
     0
100
AcDbPoint
 10
1368.782346814121
 20
1889.600592080646
 30
0.0
  0
POINT
  5
264
330
24D
100
AcDbEntity
  8
Defpoints
 62
     0
100
AcDbPoint
 10
1651.782346814121
 20
1889.600592080646
 30
0.0
  0
POINT
  5
265
330
24D
100
AcDbEntity
  8
Defpoints
 62
     0
100
AcDbPoint
 10
1651.782346814121
 20
2024.161845180232
 30
0.0
  0
ENDBLK
  5
25A
330
24D
100
AcDbEntity
  8
0
100
AcDbBlockEnd
  0
BLOCK
  5
2C9
330
2BF
100
AcDbEntity
  8
0
100
AcDbBlockBegin
  2
*D8
 70
     1
 10
0.0
 20
0.0
 30
0.0
  3
*D8
  1

  0
LINE
  5
2EE
330
2BF
100
AcDbEntity
  8
1 辅助线
100
AcDbLine
 10
1484.938725476913
 20
1749.539111689917
 30
0.0
 11
1484.938725476913
 21
1811.105028539397
 31
0.0
  0
LINE
  5
2EF
330
2BF
100
AcDbEntity
  8
1 辅助线
100
AcDbLine
 10
1061.93872547691
 20
1749.539111689912
 30
0.0
 11
1061.93872547691
 21
1811.105028539397
 31
0.0
  0
LINE
  5
2F0
330
2BF
100
AcDbEntity
  8
1 辅助线
370
     0
100
AcDbLine
 10
1474.938725476913
 20
1803.105028539398
 30
0.0
 11
1310.29548039884
 21
1803.105028539398
 31
0.0
  0
LINE
  5
2F1
330
2BF
100
AcDbEntity
  8
1 辅助线
370
     0
100
AcDbLine
 10
1071.93872547691
 20
1803.105028539398
 30
0.0
 11
1236.581970554984
 21
1803.105028539398
 31
0.0
  0
SOLID
  5
2F2
330
2BF
100
AcDbEntity
  8
1 辅助线
100
AcDbTrace
 10
1474.938725476913
 20
1804.771695206064
 30
0.0
 11
1474.938725476913
 21
1801.438361872731
 31
0.0
 12
1484.938725476913
 22
1803.105028539398
 32
0.0
 13
1484.938725476913
 23
1803.105028539398
 33
0.0
  0
SOLID
  5
2F3
330
2BF
100
AcDbEntity
  8
1 辅助线
100
AcDbTrace
 10
1071.93872547691
 20
1804.771695206064
 30
0.0
 11
1071.93872547691
 21
1801.438361872731
 31
0.0
 12
1061.93872547691
 22
1803.105028539398
 32
0.0
 13
1061.93872547691
 23
1803.105028539398
 33
0.0
  0
MTEXT
  5
2F4
330
2BF
100
AcDbEntity
  8
1 辅助线
100
AcDbMText
 10
1273.438725476912
 20
1814.29986900104
 30
0.0
 40
14.0
 41
0.0
 71
     5
 72
     1
  1
\A2;423
  7
Arial
 73
     1
 44
1.0
  0
MTEXT
  5
2F5
330
2BF
100
AcDbEntity
  8
1 辅助线
100
AcDbMText
 10
1273.438725476912
 20
1789.980792286852
 30
0.0
 40
14.0
 41
0.0
 71
     5
 72
     1
  1
\A2;[16 5/8"]
  7
Arial
 73
     1
 44
1.0
  0
POINT
  5
2F6
330
2BF
100
AcDbEntity
  8
Defpoints
 62
     0
100
AcDbPoint
 10
1484.938725476913
 20
1741.539111689917
 30
0.0
  0
POINT
  5
2F7
330
2BF
100
AcDbEntity
  8
Defpoints
 62
     0
100
AcDbPoint
 10
1061.93872547691
 20
1741.539111689912
 30
0.0
  0
POINT
  5
2F8
330
2BF
100
AcDbEntity
  8
Defpoints
 62
     0
100
AcDbPoint
 10
1061.93872547691
 20
1803.105028539398
 30
0.0
  0
ENDBLK
  5
2CA
330
2BF
100
AcDbEntity
  8
0
100
AcDbBlockEnd
  0
BLOCK
  5
2E1
330
2D7
100
AcDbEntity
  8
0
100
AcDbBlockBegin
  2
*D9
 70
     1
 10
0.0
 20
0.0
 30
0.0
  3
*D9
  1

  0
LINE
  5
2F9
330
2D7
100
AcDbEntity
  8
1 辅助线
100
AcDbLine
 10
1477.938725476913
 20
1756.539111689917
 30
0.0
 11
1543.430730867705
 21
1756.539111689917
 31
0.0
  0
LINE
  5
2FA
330
2D7
100
AcDbEntity
  8
1 辅助线
100
AcDbLine
 10
1477.938725476913
 20
1436.539111689918
 30
0.0
 11
1543.430730867705
 21
1436.539111689918
 31
0.0
  0
LINE
  5
2FB
330
2D7
100
AcDbEntity
  8
1 辅助线
370
     0
100
AcDbLine
 10
1535.430730867705
 20
1746.539111689917
 30
0.0
 11
1535.430730867705
 21
1620.858188404106
 31
0.0
  0
LINE
  5
2FC
330
2D7
100
AcDbEntity
  8
1 辅助线
370
     0
100
AcDbLine
 10
1535.430730867705
 20
1446.539111689918
 30
0.0
 11
1535.430730867705
 21
1572.220034975729
 31
0.0
  0
SOLID
  5
2FD
330
2D7
100
AcDbEntity
  8
1 辅助线
100
AcDbTrace
 10
1533.764064201039
 20
1746.539111689917
 30
0.0
 11
1537.097397534372
 21
1746.539111689917
 31
0.0
 12
1535.430730867705
 22
1756.539111689917
 32
0.0
 13
1535.430730867705
 23
1756.539111689917
 33
0.0
  0
SOLID
  5
2FE
330
2D7
100
AcDbEntity
  8
1 辅助线
100
AcDbTrace
 10
1533.764064201038
 20
1446.539111689918
 30
0.0
 11
1537.097397534372
 21
1446.539111689918
 31
0.0
 12
1535.430730867705
 22
1436.539111689918
 32
0.0
 13
1535.430730867705
 23
1436.539111689918
 33
0.0
  0
MTEXT
  5
2FF
330
2D7
100
AcDbEntity
  8
1 辅助线
100
AcDbMText
 10
1535.430730867705
 20
1607.73395215156
 30
0.0
 40
14.0
 41
0.0
 71
     5
 72
     1
  1
\A2;320
  7
Arial
 73
     1
 44
1.0
  0
MTEXT
  5
300
330
2D7
100
AcDbEntity
  8
1 辅助线
100
AcDbMText
 10
1535.430730867705
 20
1583.414875437372
 30
0.0
 40
14.0
 41
0.0
 71
     5
 72
     1
  1
\A2;[12 5/8"]
  7
Arial
 73
     1
 44
1.0
  0
POINT
  5
301
330
2D7
100
AcDbEntity
  8
Defpoints
 62
     0
100
AcDbPoint
 10
1469.938725476913
 20
1756.539111689917
 30
0.0
  0
POINT
  5
302
330
2D7
100
AcDbEntity
  8
Defpoints
 62
     0
100
AcDbPoint
 10
1469.938725476913
 20
1436.539111689918
 30
0.0
  0
POINT
  5
303
330
2D7
100
AcDbEntity
  8
Defpoints
 62
     0
100
AcDbPoint
 10
1535.430730867705
 20
1436.539111689918
 30
0.0
  0
ENDBLK
  5
2E2
330
2D7
100
AcDbEntity
  8
0
100
AcDbBlockEnd
  0
BLOCK
  5
30F
330
305
100
AcDbEntity
  8
0
100
AcDbBlockBegin
  2
*D10
 70
     1
 10
0.0
 20
0.0
 30
0.0
  3
*D10
  1

  0
LINE
  5
33F
330
305
100
AcDbEntity
  8
1 辅助线
100
AcDbLine
 10
1727.913161810309
 20
1749.539111689917
 30
0.0
 11
1727.913161810309
 21
1810.285933058458
 31
0.0
  0
LINE
  5
340
330
305
100
AcDbEntity
  8
1 辅助线
100
AcDbLine
 10
2182.913161810306
 20
1749.539111689915
 30
0.0
 11
2182.913161810306
 21
1810.285933058458
 31
0.0
  0
LINE
  5
341
330
305
100
AcDbEntity
  8
1 辅助线
370
     0
100
AcDbLine
 10
1737.913161810309
 20
1802.285933058458
 30
0.0
 11
1918.556406888379
 21
1802.285933058458
 31
0.0
  0
LINE
  5
342
330
305
100
AcDbEntity
  8
1 辅助线
370
     0
100
AcDbLine
 10
2172.913161810306
 20
1802.285933058458
 30
0.0
 11
1992.269916732236
 21
1802.285933058458
 31
0.0
  0
SOLID
  5
343
330
305
100
AcDbEntity
  8
1 辅助线
100
AcDbTrace
 10
1737.913161810309
 20
1803.952599725124
 30
0.0
 11
1737.913161810309
 21
1800.619266391791
 31
0.0
 12
1727.913161810309
 22
1802.285933058458
 32
0.0
 13
1727.913161810309
 23
1802.285933058458
 33
0.0
  0
SOLID
  5
344
330
305
100
AcDbEntity
  8
1 辅助线
100
AcDbTrace
 10
2172.913161810306
 20
1803.952599725124
 30
0.0
 11
2172.913161810306
 21
1800.619266391791
 31
0.0
 12
2182.913161810306
 22
1802.285933058458
 32
0.0
 13
2182.913161810306
 23
1802.285933058458
 33
0.0
  0
MTEXT
  5
345
330
305
100
AcDbEntity
  8
1 辅助线
100
AcDbMText
 10
1955.413161810307
 20
1813.480773520101
 30
0.0
 40
14.0
 41
0.0
 71
     5
 72
     1
  1
\A2;455
  7
Arial
 73
     1
 44
1.0
  0
MTEXT
  5
346
330
305
100
AcDbEntity
  8
1 辅助线
100
AcDbMText
 10
1955.413161810307
 20
1789.161696805912
 30
0.0
 40
14.0
 41
0.0
 71
     5
 72
     1
  1
\A2;[17 7/8"]
  7
Arial
 73
     1
 44
1.0
  0
POINT
  5
347
330
305
100
AcDbEntity
  8
Defpoints
 62
     0
100
AcDbPoint
 10
1727.913161810309
 20
1741.539111689917
 30
0.0
  0
POINT
  5
348
330
305
100
AcDbEntity
  8
Defpoints
 62
     0
100
AcDbPoint
 10
2182.913161810306
 20
1741.539111689915
 30
0.0
  0
POINT
  5
349
330
305
100
AcDbEntity
  8
Defpoints
 62
     0
100
AcDbPoint
 10
2182.913161810306
 20
1802.285933058458
 30
0.0
  0
ENDBLK
  5
310
330
305
100
AcDbEntity
  8
0
100
AcDbBlockEnd
  0
BLOCK
  5
327
330
31D
100
AcDbEntity
  8
0
100
AcDbBlockBegin
  2
*D11
 70
     1
 10
0.0
 20
0.0
 30
0.0
  3
*D11
  1

  0
LINE
  5
34A
330
31D
100
AcDbEntity
  8
1 辅助线
100
AcDbLine
 10
2175.913161810306
 20
1756.539111689915
 30
0.0
 11
2236.024616058498
 21
1756.539111689915
 31
0.0
  0
LINE
  5
34B
330
31D
100
AcDbEntity
  8
1 辅助线
100
AcDbLine
 10
2175.913161810307
 20
1461.539111689917
 30
0.0
 11
2236.024616058498
 21
1461.539111689917
 31
0.0
  0
LINE
  5
34C
330
31D
100
AcDbEntity
  8
1 辅助线
370
     0
100
AcDbLine
 10
2228.024616058497
 20
1746.539111689915
 30
0.0
 11
2228.024616058497
 21
1633.358188404105
 31
0.0
  0
LINE
  5
34D
330
31D
100
AcDbEntity
  8
1 辅助线
370
     0
100
AcDbLine
 10
2228.024616058497
 20
1471.539111689917
 30
0.0
 11
2228.024616058497
 21
1584.720034975727
 31
0.0
  0
SOLID
  5
34E
330
31D
100
AcDbEntity
  8
1 辅助线
100
AcDbTrace
 10
2226.357949391831
 20
1746.539111689915
 30
0.0
 11
2229.691282725164
 21
1746.539111689915
 31
0.0
 12
2228.024616058497
 22
1756.539111689915
 32
0.0
 13
2228.024616058497
 23
1756.539111689915
 33
0.0
  0
SOLID
  5
34F
330
31D
100
AcDbEntity
  8
1 辅助线
100
AcDbTrace
 10
2226.357949391831
 20
1471.539111689917
 30
0.0
 11
2229.691282725164
 21
1471.539111689917
 31
0.0
 12
2228.024616058497
 22
1461.539111689917
 32
0.0
 13
2228.024616058497
 23
1461.539111689917
 33
0.0
  0
MTEXT
  5
350
330
31D
100
AcDbEntity
  8
1 辅助线
100
AcDbMText
 10
2228.024616058497
 20
1620.233952151559
 30
0.0
 40
14.0
 41
0.0
 71
     5
 72
     1
  1
\A2;295
  7
Arial
 73
     1
 44
1.0
  0
MTEXT
  5
351
330
31D
100
AcDbEntity
  8
1 辅助线
100
AcDbMText
 10
2228.024616058497
 20
1595.914875437371
 30
0.0
 40
14.0
 41
0.0
 71
     5
 72
     1
  1
\A2;[11 5/8"]
  7
Arial
 73
     1
 44
1.0
  0
POINT
  5
352
330
31D
100
AcDbEntity
  8
Defpoints
 62
     0
100
AcDbPoint
 10
2167.913161810306
 20
1756.539111689915
 30
0.0
  0
POINT
  5
353
330
31D
100
AcDbEntity
  8
Defpoints
 62
     0
100
AcDbPoint
 10
2167.913161810307
 20
1461.539111689917
 30
0.0
  0
POINT
  5
354
330
31D
100
AcDbEntity
  8
Defpoints
 62
     0
100
AcDbPoint
 10
2228.024616058497
 20
1461.539111689917
 30
0.0
  0
ENDBLK
  5
328
330
31D
100
AcDbEntity
  8
0
100
AcDbBlockEnd
  0
BLOCK
  5
360
330
356
100
AcDbEntity
  8
0
100
AcDbBlockBegin
  2
*D12
 70
     1
 10
0.0
 20
0.0
 30
0.0
  3
*D12
  1

  0
LINE
  5
385
330
356
100
AcDbEntity
  8
1 辅助线
100
AcDbLine
 10
2504.997508656994
 20
1754.492691573477
 30
0.0
 11
2504.997508656994
 21
1816.562352402463
 31
0.0
  0
LINE
  5
386
330
356
100
AcDbEntity
  8
1 辅助线
100
AcDbLine
 10
2952.997508657001
 20
1754.49269157346
 30
0.0
 11
2952.997508657001
 21
1816.562352402463
 31
0.0
  0
LINE
  5
387
330
356
100
AcDbEntity
  8
1 辅助线
370
     0
100
AcDbLine
 10
2514.997508656994
 20
1808.562352402463
 30
0.0
 11
2692.14075373507
 21
1808.562352402463
 31
0.0
  0
LINE
  5
388
330
356
100
AcDbEntity
  8
1 辅助线
370
     0
100
AcDbLine
 10
2942.997508657001
 20
1808.562352402463
 30
0.0
 11
2765.854263578925
 21
1808.562352402463
 31
0.0
  0
SOLID
  5
389
330
356
100
AcDbEntity
  8
1 辅助线
100
AcDbTrace
 10
2514.997508656994
 20
1810.22901906913
 30
0.0
 11
2514.997508656994
 21
1806.895685735796
 31
0.0
 12
2504.997508656994
 22
1808.562352402463
 32
0.0
 13
2504.997508656994
 23
1808.562352402463
 33
0.0
  0
SOLID
  5
38A
330
356
100
AcDbEntity
  8
1 辅助线
100
AcDbTrace
 10
2942.997508657001
 20
1810.22901906913
 30
0.0
 11
2942.997508657001
 21
1806.895685735796
 31
0.0
 12
2952.997508657001
 22
1808.562352402463
 32
0.0
 13
2952.997508657001
 23
1808.562352402463
 33
0.0
  0
MTEXT
  5
38B
330
356
100
AcDbEntity
  8
1 辅助线
100
AcDbMText
 10
2728.997508656997
 20
1819.757192864106
 30
0.0
 40
14.0
 41
0.0
 71
     5
 72
     1
  1
\A2;448
  7
Arial
 73
     1
 44
1.0
  0
MTEXT
  5
38C
330
356
100
AcDbEntity
  8
1 辅助线
100
AcDbMText
 10
2728.997508656997
 20
1795.438116149917
 30
0.0
 40
14.0
 41
0.0
 71
     5
 72
     1
  1
\A2;[17 5/8"]
  7
Arial
 73
     1
 44
1.0
  0
POINT
  5
38D
330
356
100
AcDbEntity
  8
Defpoints
 62
     0
100
AcDbPoint
 10
2504.997508656994
 20
1746.492691573477
 30
0.0
  0
POINT
  5
38E
330
356
100
AcDbEntity
  8
Defpoints
 62
     0
100
AcDbPoint
 10
2952.997508657001
 20
1746.492691573459
 30
0.0
  0
POINT
  5
38F
330
356
100
AcDbEntity
  8
Defpoints
 62
     0
100
AcDbPoint
 10
2952.997508657001
 20
1808.562352402463
 30
0.0
  0
ENDBLK
  5
361
330
356
100
AcDbEntity
  8
0
100
AcDbBlockEnd
  0
BLOCK
  5
378
330
36E
100
AcDbEntity
  8
0
100
AcDbBlockBegin
  2
*D13
 70
     1
 10
0.0
 20
0.0
 30
0.0
  3
*D13
  1

  0
LINE
  5
3E1
330
36E
100
AcDbEntity
  8
1 辅助线
100
AcDbLine
 10
2945.997508657001
 20
1761.492691573475
 30
0.0
 11
3018.18652806402
 21
1761.492691573475
 31
0.0
  0
LINE
  5
3E2
330
36E
100
AcDbEntity
  8
1 辅助线
100
AcDbLine
 10
2945.99750865699
 20
1443.492691573477
 30
0.0
 11
3018.18652806402
 21
1443.492691573477
 31
0.0
  0
LINE
  5
3E3
330
36E
100
AcDbEntity
  8
1 辅助线
370
     0
100
AcDbLine
 10
3010.18652806402
 20
1751.492691573475
 30
0.0
 11
3010.18652806402
 21
1626.811768287664
 31
0.0
  0
LINE
  5
3E4
330
36E
100
AcDbEntity
  8
1 辅助线
370
     0
100
AcDbLine
 10
3010.18652806402
 20
1453.492691573477
 30
0.0
 11
3010.18652806402
 21
1578.173614859287
 31
0.0
  0
SOLID
  5
3E5
330
36E
100
AcDbEntity
  8
1 辅助线
100
AcDbTrace
 10
3008.519861397353
 20
1751.492691573475
 30
0.0
 11
3011.853194730686
 21
1751.492691573475
 31
0.0
 12
3010.18652806402
 22
1761.492691573475
 32
0.0
 13
3010.18652806402
 23
1761.492691573475
 33
0.0
  0
SOLID
  5
3E6
330
36E
100
AcDbEntity
  8
1 辅助线
100
AcDbTrace
 10
3008.519861397353
 20
1453.492691573477
 30
0.0
 11
3011.853194730686
 21
1453.492691573477
 31
0.0
 12
3010.18652806402
 22
1443.492691573477
 32
0.0
 13
3010.18652806402
 23
1443.492691573477
 33
0.0
  0
MTEXT
  5
3E7
330
36E
100
AcDbEntity
  8
1 辅助线
100
AcDbMText
 10
3010.186528064019
 20
1613.687532035119
 30
0.0
 40
14.0
 41
0.0
 71
     5
 72
     1
  1
\A2;318
  7
Arial
 73
     1
 44
1.0
  0
MTEXT
  5
3E8
330
36E
100
AcDbEntity
  8
1 辅助线
100
AcDbMText
 10
3010.186528064019
 20
1589.36845532093
 30
0.0
 40
14.0
 41
0.0
 71
     5
 72
     1
  1
\A2;[12 1/2"]
  7
Arial
 73
     1
 44
1.0
  0
POINT
  5
3E9
330
36E
100
AcDbEntity
  8
Defpoints
 62
     0
100
AcDbPoint
 10
2937.997508657002
 20
1761.492691573475
 30
0.0
  0
POINT
  5
3EA
330
36E
100
AcDbEntity
  8
Defpoints
 62
     0
100
AcDbPoint
 10
2937.997508656991
 20
1443.492691573477
 30
0.0
  0
POINT
  5
3EB
330
36E
100
AcDbEntity
  8
Defpoints
 62
     0
100
AcDbPoint
 10
3010.18652806402
 20
1443.492691573477
 30
0.0
  0
ENDBLK
  5
379
330
36E
100
AcDbEntity
  8
0
100
AcDbBlockEnd
  0
BLOCK
  5
3A6
330
39C
100
AcDbEntity
  8
0
100
AcDbBlockBegin
  2
*D14
 70
     1
 10
0.0
 20
0.0
 30
0.0
  3
*D14
  1

  0
LINE
  5
3EC
330
39C
100
AcDbEntity
  8
1 辅助线
100
AcDbLine
 10
3328.578045657661
 20
1738.729581575165
 30
0.0
 11
3328.578045657661
 21
1798.22040824358
 31
0.0
  0
LINE
  5
3ED
330
39C
100
AcDbEntity
  8
1 辅助线
100
AcDbLine
 10
3763.578045657661
 20
1738.729581575159
 30
0.0
 11
3763.578045657661
 21
1798.22040824358
 31
0.0
  0
LINE
  5
3EE
330
39C
100
AcDbEntity
  8
1 辅助线
370
     0
100
AcDbLine
 10
3338.578045657661
 20
1790.22040824358
 30
0.0
 11
3509.221290735734
 21
1790.22040824358
 31
0.0
  0
LINE
  5
3EF
330
39C
100
AcDbEntity
  8
1 辅助线
370
     0
100
AcDbLine
 10
3753.578045657661
 20
1790.22040824358
 30
0.0
 11
3582.93480057959
 21
1790.22040824358
 31
0.0
  0
SOLID
  5
3F0
330
39C
100
AcDbEntity
  8
1 辅助线
100
AcDbTrace
 10
3338.578045657661
 20
1791.887074910247
 30
0.0
 11
3338.578045657661
 21
1788.553741576913
 31
0.0
 12
3328.578045657661
 22
1790.22040824358
 32
0.0
 13
3328.578045657661
 23
1790.22040824358
 33
0.0
  0
SOLID
  5
3F1
330
39C
100
AcDbEntity
  8
1 辅助线
100
AcDbTrace
 10
3753.578045657661
 20
1791.887074910247
 30
0.0
 11
3753.578045657661
 21
1788.553741576913
 31
0.0
 12
3763.578045657661
 22
1790.22040824358
 32
0.0
 13
3763.578045657661
 23
1790.22040824358
 33
0.0
  0
MTEXT
  5
3F2
330
39C
100
AcDbEntity
  8
1 辅助线
100
AcDbMText
 10
3546.078045657662
 20
1801.415248705223
 30
0.0
 40
14.0
 41
0.0
 71
     5
 72
     1
  1
\A2;435
  7
Arial
 73
     1
 44
1.0
  0
MTEXT
  5
3F3
330
39C
100
AcDbEntity
  8
1 辅助线
100
AcDbMText
 10
3546.078045657662
 20
1777.096171991034
 30
0.0
 40
14.0
 41
0.0
 71
     5
 72
     1
  1
\A2;[17 1/8"]
  7
Arial
 73
     1
 44
1.0
  0
POINT
  5
3F4
330
39C
100
AcDbEntity
  8
Defpoints
 62
     0
100
AcDbPoint
 10
3328.578045657661
 20
1730.729581575165
 30
0.0
  0
POINT
  5
3F5
330
39C
100
AcDbEntity
  8
Defpoints
 62
     0
100
AcDbPoint
 10
3763.578045657661
 20
1730.729581575159
 30
0.0
  0
POINT
  5
3F6
330
39C
100
AcDbEntity
  8
Defpoints
 62
     0
100
AcDbPoint
 10
3763.578045657661
 20
1790.22040824358
 30
0.0
  0
ENDBLK
  5
3A7
330
39C
100
AcDbEntity
  8
0
100
AcDbBlockEnd
  0
BLOCK
  5
3BE
330
3B4
100
AcDbEntity
  8
0
100
AcDbBlockBegin
  2
*D15
 70
     1
 10
0.0
 20
0.0
 30
0.0
  3
*D15
  1

  0
LINE
  5
3F7
330
3B4
100
AcDbEntity
  8
1 辅助线
100
AcDbLine
 10
3756.578045657661
 20
1745.729581575164
 30
0.0
 11
3822.426732470609
 21
1745.729581575164
 31
0.0
  0
LINE
  5
3F8
330
3B4
100
AcDbEntity
  8
1 辅助线
100
AcDbLine
 10
3756.578045657658
 20
1455.729581575164
 30
0.0
 11
3822.426732470609
 21
1455.729581575164
 31
0.0
  0
LINE
  5
3F9
330
3B4
100
AcDbEntity
  8
1 辅助线
370
     0
100
AcDbLine
 10
3814.426732470609
 20
1735.729581575164
 30
0.0
 11
3814.426732470609
 21
1625.048658289352
 31
0.0
  0
LINE
  5
3FA
330
3B4
100
AcDbEntity
  8
1 辅助线
370
     0
100
AcDbLine
 10
3814.426732470609
 20
1465.729581575164
 30
0.0
 11
3814.426732470609
 21
1576.410504860975
 31
0.0
  0
SOLID
  5
3FB
330
3B4
100
AcDbEntity
  8
1 辅助线
100
AcDbTrace
 10
3812.760065803943
 20
1735.729581575164
 30
0.0
 11
3816.093399137275
 21
1735.729581575164
 31
0.0
 12
3814.426732470609
 22
1745.729581575164
 32
0.0
 13
3814.426732470609
 23
1745.729581575164
 33
0.0
  0
SOLID
  5
3FC
330
3B4
100
AcDbEntity
  8
1 辅助线
100
AcDbTrace
 10
3812.760065803943
 20
1465.729581575164
 30
0.0
 11
3816.093399137275
 21
1465.729581575164
 31
0.0
 12
3814.426732470609
 22
1455.729581575164
 32
0.0
 13
3814.426732470609
 23
1455.729581575164
 33
0.0
  0
MTEXT
  5
3FD
330
3B4
100
AcDbEntity
  8
1 辅助线
100
AcDbMText
 10
3814.426732470609
 20
1611.924422036807
 30
0.0
 40
14.0
 41
0.0
 71
     5
 72
     1
  1
\A2;290
  7
Arial
 73
     1
 44
1.0
  0
MTEXT
  5
3FE
330
3B4
100
AcDbEntity
  8
1 辅助线
100
AcDbMText
 10
3814.426732470609
 20
1587.605345322619
 30
0.0
 40
14.0
 41
0.0
 71
     5
 72
     1
  1
\A2;[11 3/8"]
  7
Arial
 73
     1
 44
1.0
  0
POINT
  5
3FF
330
3B4
100
AcDbEntity
  8
Defpoints
 62
     0
100
AcDbPoint
 10
3748.578045657661
 20
1745.729581575164
 30
0.0
  0
POINT
  5
400
330
3B4
100
AcDbEntity
  8
Defpoints
 62
     0
100
AcDbPoint
 10
3748.578045657658
 20
1455.729581575164
 30
0.0
  0
POINT
  5
401
330
3B4
100
AcDbEntity
  8
Defpoints
 62
     0
100
AcDbPoint
 10
3814.426732470609
 20
1455.729581575164
 30
0.0
  0
ENDBLK
  5
3BF
330
3B4
100
AcDbEntity
  8
0
100
AcDbBlockEnd
  0
BLOCK
  5
40D
330
403
100
AcDbEntity
  8
0
100
AcDbBlockBegin
  2
*D16
 70
     1
 10
0.0
 20
0.0
 30
0.0
  3
*D16
  1

  0
LINE
  5
4AF
330
403
100
AcDbEntity
  8
1 辅助线
100
AcDbLine
 10
4149.739581974055
 20
1734.138636454731
 30
0.0
 11
4149.739581974055
 21
1800.604708339466
 31
0.0
  0
LINE
  5
4B0
330
403
100
AcDbEntity
  8
1 辅助线
100
AcDbLine
 10
4532.739581974041
 20
1734.138636454728
 30
0.0
 11
4532.739581974041
 21
1800.604708339466
 31
0.0
  0
LINE
  5
4B1
330
403
100
AcDbEntity
  8
1 辅助线
370
     0
100
AcDbLine
 10
4159.739581974056
 20
1792.604708339466
 30
0.0
 11
4304.382827052121
 21
1792.604708339466
 31
0.0
  0
LINE
  5
4B2
330
403
100
AcDbEntity
  8
1 辅助线
370
     0
100
AcDbLine
 10
4522.739581974041
 20
1792.604708339466
 30
0.0
 11
4378.096336895977
 21
1792.604708339466
 31
0.0
  0
SOLID
  5
4B3
330
403
100
AcDbEntity
  8
1 辅助线
100
AcDbTrace
 10
4159.739581974056
 20
1794.271375006132
 30
0.0
 11
4159.739581974056
 21
1790.938041672799
 31
0.0
 12
4149.739581974055
 22
1792.604708339466
 32
0.0
 13
4149.739581974055
 23
1792.604708339466
 33
0.0
  0
SOLID
  5
4B4
330
403
100
AcDbEntity
  8
1 辅助线
100
AcDbTrace
 10
4522.739581974041
 20
1794.271375006132
 30
0.0
 11
4522.739581974041
 21
1790.938041672799
 31
0.0
 12
4532.739581974041
 22
1792.604708339466
 32
0.0
 13
4532.739581974041
 23
1792.604708339466
 33
0.0
  0
MTEXT
  5
4B5
330
403
100
AcDbEntity
  8
1 辅助线
100
AcDbMText
 10
4341.239581974049
 20
1803.799548801109
 30
0.0
 40
14.0
 41
0.0
 71
     5
 72
     1
  1
\A2;383
  7
Arial
 73
     1
 44
1.0
  0
MTEXT
  5
4B6
330
403
100
AcDbEntity
  8
1 辅助线
100
AcDbMText
 10
4341.239581974049
 20
1779.48047208692
 30
0.0
 40
14.0
 41
0.0
 71
     5
 72
     1
  1
\A2;[15 1/8"]
  7
Arial
 73
     1
 44
1.0
  0
POINT
  5
4B7
330
403
100
AcDbEntity
  8
Defpoints
 62
     0
100
AcDbPoint
 10
4149.739581974055
 20
1726.13863645473
 30
0.0
  0
POINT
  5
4B8
330
403
100
AcDbEntity
  8
Defpoints
 62
     0
100
AcDbPoint
 10
4532.739581974041
 20
1726.138636454729
 30
0.0
  0
POINT
  5
4B9
330
403
100
AcDbEntity
  8
Defpoints
 62
     0
100
AcDbPoint
 10
4532.739581974041
 20
1792.604708339466
 30
0.0
  0
ENDBLK
  5
40E
330
403
100
AcDbEntity
  8
0
100
AcDbBlockEnd
  0
BLOCK
  5
425
330
41B
100
AcDbEntity
  8
0
100
AcDbBlockBegin
  2
*D17
 70
     1
 10
0.0
 20
0.0
 30
0.0
  3
*D17
  1

  0
LINE
  5
448
330
41B
100
AcDbEntity
  8
1 辅助线
100
AcDbLine
 10
4520.739581974041
 20
1746.138636454729
 30
0.0
 11
4592.196161246556
 21
1746.138636454729
 31
0.0
  0
LINE
  5
449
330
41B
100
AcDbEntity
  8
1 辅助线
100
AcDbLine
 10
4520.739581974043
 20
1464.138636454731
 30
0.0
 11
4592.196161246556
 21
1464.138636454731
 31
0.0
  0
LINE
  5
44A
330
41B
100
AcDbEntity
  8
1 辅助线
370
     0
100
AcDbLine
 10
4584.196161246556
 20
1736.138636454729
 30
0.0
 11
4584.196161246556
 21
1629.457713168918
 31
0.0
  0
LINE
  5
44B
330
41B
100
AcDbEntity
  8
1 辅助线
370
     0
100
AcDbLine
 10
4584.196161246556
 20
1474.13863645473
 30
0.0
 11
4584.196161246556
 21
1580.819559740541
 31
0.0
  0
SOLID
  5
44C
330
41B
100
AcDbEntity
  8
1 辅助线
100
AcDbTrace
 10
4582.52949457989
 20
1736.138636454729
 30
0.0
 11
4585.862827913223
 21
1736.138636454729
 31
0.0
 12
4584.196161246556
 22
1746.138636454729
 32
0.0
 13
4584.196161246556
 23
1746.138636454729
 33
0.0
  0
SOLID
  5
44D
330
41B
100
AcDbEntity
  8
1 辅助线
100
AcDbTrace
 10
4582.52949457989
 20
1474.13863645473
 30
0.0
 11
4585.862827913223
 21
1474.13863645473
 31
0.0
 12
4584.196161246556
 22
1464.138636454731
 32
0.0
 13
4584.196161246556
 23
1464.138636454731
 33
0.0
  0
MTEXT
  5
44E
330
41B
100
AcDbEntity
  8
1 辅助线
100
AcDbMText
 10
4584.196161246556
 20
1616.333476916373
 30
0.0
 40
14.0
 41
0.0
 71
     5
 72
     1
  1
\A2;282
  7
Arial
 73
     1
 44
1.0
  0
MTEXT
  5
44F
330
41B
100
AcDbEntity
  8
1 辅助线
100
AcDbMText
 10
4584.196161246556
 20
1592.014400202184
 30
0.0
 40
14.0
 41
0.0
 71
     5
 72
     1
  1
\A2;[11 1/8"]
  7
Arial
 73
     1
 44
1.0
  0
POINT
  5
450
330
41B
100
AcDbEntity
  8
Defpoints
 62
     0
100
AcDbPoint
 10
4512.739581974041
 20
1746.138636454729
 30
0.0
  0
POINT
  5
451
330
41B
100
AcDbEntity
  8
Defpoints
 62
     0
100
AcDbPoint
 10
4512.739581974043
 20
1464.138636454731
 30
0.0
  0
POINT
  5
452
330
41B
100
AcDbEntity
  8
Defpoints
 62
     0
100
AcDbPoint
 10
4584.196161246556
 20
1464.138636454731
 30
0.0
  0
ENDBLK
  5
426
330
41B
100
AcDbEntity
  8
0
100
AcDbBlockEnd
  0
BLOCK
  5
45E
330
454
100
AcDbEntity
  8
0
100
AcDbBlockBegin
  2
*D18
 70
     1
 10
0.0
 20
0.0
 30
0.0
  3
*D18
  1

  0
LINE
  5
4A4
330
454
100
AcDbEntity
  8
1 辅助线
100
AcDbLine
 10
4728.087680815541
 20
1732.871248109054
 30
0.0
 11
4728.087680815541
 21
1792.333926903276
 31
0.0
  0
LINE
  5
4A5
330
454
100
AcDbEntity
  8
1 辅助线
100
AcDbLine
 10
5093.087680815552
 20
1732.871248109043
 30
0.0
 11
5093.087680815552
 21
1792.333926903276
 31
0.0
  0
LINE
  5
4A6
330
454
100
AcDbEntity
  8
1 辅助线
370
     0
100
AcDbLine
 10
4738.08768081554
 20
1784.333926903277
 30
0.0
 11
4873.730925893618
 21
1784.333926903277
 31
0.0
  0
LINE
  5
4A7
330
454
100
AcDbEntity
  8
1 辅助线
370
     0
100
AcDbLine
 10
5083.087680815552
 20
1784.333926903277
 30
0.0
 11
4947.444435737474
 21
1784.333926903277
 31
0.0
  0
SOLID
  5
4A8
330
454
100
AcDbEntity
  8
1 辅助线
100
AcDbTrace
 10
4738.08768081554
 20
1786.000593569943
 30
0.0
 11
4738.08768081554
 21
1782.66726023661
 31
0.0
 12
4728.087680815541
 22
1784.333926903277
 32
0.0
 13
4728.087680815541
 23
1784.333926903277
 33
0.0
  0
SOLID
  5
4A9
330
454
100
AcDbEntity
  8
1 辅助线
100
AcDbTrace
 10
5083.087680815552
 20
1786.000593569943
 30
0.0
 11
5083.087680815552
 21
1782.66726023661
 31
0.0
 12
5093.087680815552
 22
1784.333926903277
 32
0.0
 13
5093.087680815552
 23
1784.333926903277
 33
0.0
  0
MTEXT
  5
4AA
330
454
100
AcDbEntity
  8
1 辅助线
100
AcDbMText
 10
4910.587680815546
 20
1795.528767364919
 30
0.0
 40
14.0
 41
0.0
 71
     5
 72
     1
  1
\A2;365
  7
Arial
 73
     1
 44
1.0
  0
MTEXT
  5
4AB
330
454
100
AcDbEntity
  8
1 辅助线
100
AcDbMText
 10
4910.587680815546
 20
1771.209690650731
 30
0.0
 40
14.0
 41
0.0
 71
     5
 72
     1
  1
\A2;[14 3/8"]
  7
Arial
 73
     1
 44
1.0
  0
POINT
  5
4AC
330
454
100
AcDbEntity
  8
Defpoints
 62
     0
100
AcDbPoint
 10
4728.087680815541
 20
1724.871248109054
 30
0.0
  0
POINT
  5
4AD
330
454
100
AcDbEntity
  8
Defpoints
 62
     0
100
AcDbPoint
 10
5093.087680815552
 20
1724.871248109043
 30
0.0
  0
POINT
  5
4AE
330
454
100
AcDbEntity
  8
Defpoints
 62
     0
100
AcDbPoint
 10
5093.087680815552
 20
1784.333926903277
 30
0.0
  0
ENDBLK
  5
45F
330
454
100
AcDbEntity
  8
0
100
AcDbBlockEnd
  0
BLOCK
  5
476
330
46C
100
AcDbEntity
  8
0
100
AcDbBlockBegin
  2
*D19
 70
     1
 10
0.0
 20
0.0
 30
0.0
  3
*D19
  1

  0
LINE
  5
499
330
46C
100
AcDbEntity
  8
1 辅助线
100
AcDbLine
 10
5086.087680815545
 20
1471.871248109054
 30
0.0
 11
5149.864832767541
 21
1471.871248109054
 31
0.0
  0
LINE
  5
49A
330
46C
100
AcDbEntity
  8
1 辅助线
100
AcDbLine
 10
5086.087680815545
 20
1739.871248109054
 30
0.0
 11
5149.864832767541
 21
1739.871248109054
 31
0.0
  0
LINE
  5
49B
330
46C
100
AcDbEntity
  8
1 辅助线
370
     0
100
AcDbLine
 10
5141.86483276754
 20
1481.871248109054
 30
0.0
 11
5141.86483276754
 21
1581.552171394865
 31
0.0
  0
LINE
  5
49C
330
46C
100
AcDbEntity
  8
1 辅助线
370
     0
100
AcDbLine
 10
5141.86483276754
 20
1729.871248109054
 30
0.0
 11
5141.86483276754
 21
1630.190324823242
 31
0.0
  0
SOLID
  5
49D
330
46C
100
AcDbEntity
  8
1 辅助线
100
AcDbTrace
 10
5140.198166100873
 20
1481.871248109054
 30
0.0
 11
5143.531499434207
 21
1481.871248109054
 31
0.0
 12
5141.86483276754
 22
1471.871248109054
 32
0.0
 13
5141.86483276754
 23
1471.871248109054
 33
0.0
  0
SOLID
  5
49E
330
46C
100
AcDbEntity
  8
1 辅助线
100
AcDbTrace
 10
5140.198166100873
 20
1729.871248109054
 30
0.0
 11
5143.531499434207
 21
1729.871248109054
 31
0.0
 12
5141.86483276754
 22
1739.871248109054
 32
0.0
 13
5141.86483276754
 23
1739.871248109054
 33
0.0
  0
MTEXT
  5
49F
330
46C
100
AcDbEntity
  8
1 辅助线
100
AcDbMText
 10
5141.86483276754
 20
1617.066088570698
 30
0.0
 40
14.0
 41
0.0
 71
     5
 72
     1
  1
\A2;268
  7
Arial
 73
     1
 44
1.0
  0
MTEXT
  5
4A0
330
46C
100
AcDbEntity
  8
1 辅助线
100
AcDbMText
 10
5141.86483276754
 20
1592.747011856509
 30
0.0
 40
14.0
 41
0.0
 71
     5
 72
     1
  1
\A2;[10 1/2"]
  7
Arial
 73
     1
 44
1.0
  0
POINT
  5
4A1
330
46C
100
AcDbEntity
  8
Defpoints
 62
     0
100
AcDbPoint
 10
5078.087680815545
 20
1471.871248109054
 30
0.0
  0
POINT
  5
4A2
330
46C
100
AcDbEntity
  8
Defpoints
 62
     0
100
AcDbPoint
 10
5078.087680815545
 20
1739.871248109054
 30
0.0
  0
POINT
  5
4A3
330
46C
100
AcDbEntity
  8
Defpoints
 62
     0
100
AcDbPoint
 10
5141.86483276754
 20
1739.871248109054
 30
0.0
  0
ENDBLK
  5
477
330
46C
100
AcDbEntity
  8
0
100
AcDbBlockEnd
  0
BLOCK
  5
4C5
330
4BB
100
AcDbEntity
  8
0
100
AcDbBlockBegin
  2
*D20
 70
     1
 10
0.0
 20
0.0
 30
0.0
  3
*D20
  1

  0
LINE
  5
4C8
330
4BB
100
AcDbEntity
  8
0
 62
     0
370
    -2
100
AcDbLine
 10
5330.351247738977
 20
1604.530095249415
 30
0.0
 11
5330.351247738977
 21
1818.750523686243
 31
0.0
  0
LINE
  5
4C9
330
4BB
100
AcDbEntity
  8
0
 62
     0
370
    -2
100
AcDbLine
 10
5673.351038402703
 20
1604.530087710123
 30
0.0
 11
5673.351038402703
 21
1818.750523686243
 31
0.0
  0
LINE
  5
4CA
330
4BB
100
AcDbEntity
  8
0
 62
     0
370
    -2
100
AcDbLine
 10
5332.851247738977
 20
1817.500523686243
 30
0.0
 11
5670.851038402703
 21
1817.500523686243
 31
0.0
  0
SOLID
  5
4CB
330
4BB
100
AcDbEntity
  8
0
 62
     0
100
AcDbTrace
 10
5332.851247738977
 20
1817.91719035291
 30
0.0
 11
5332.851247738977
 21
1817.083857019576
 31
0.0
 12
5330.351247738977
 22
1817.500523686243
 32
0.0
 13
5330.351247738977
 23
1817.500523686243
 33
0.0
  0
SOLID
  5
4CC
330
4BB
100
AcDbEntity
  8
0
 62
     0
100
AcDbTrace
 10
5670.851038402703
 20
1817.91719035291
 30
0.0
 11
5670.851038402703
 21
1817.083857019576
 31
0.0
 12
5673.351038402703
 22
1817.500523686243
 32
0.0
 13
5673.351038402703
 23
1817.500523686243
 33
0.0
  0
MTEXT
  5
4CD
330
4BB
100
AcDbEntity
  8
0
 62
     0
100
AcDbMText
 10
5501.85114307084
 20
1819.375523686243
 30
0.0
 40
2.5
 41
0.0
 71
     5
 72
     1
  1
343
 73
     1
 44
1.0
  0
POINT
  5
4CE
330
4BB
100
AcDbEntity
  8
Defpoints
 62
     0
100
AcDbPoint
 10
5330.351247738977
 20
1603.905095249415
 30
0.0
  0
POINT
  5
4CF
330
4BB
100
AcDbEntity
  8
Defpoints
 62
     0
100
AcDbPoint
 10
5673.351038402703
 20
1603.905087710123
 30
0.0
  0
POINT
  5
4D0
330
4BB
100
AcDbEntity
  8
Defpoints
 62
     0
100
AcDbPoint
 10
5673.351038402703
 20
1817.500523686243
 30
0.0
  0
ENDBLK
  5
4C6
330
4BB
100
AcDbEntity
  8
0
100
AcDbBlockEnd
  0
BLOCK
  5
4DD
330
4D3
100
AcDbEntity
  8
0
100
AcDbBlockBegin
  2
*D21
 70
     1
 10
0.0
 20
0.0
 30
0.0
  3
*D21
  1

  0
LINE
  5
4E0
330
4D3
100
AcDbEntity
  8
0
 62
     0
370
    -2
100
AcDbLine
 10
5503.874493126085
 20
1738.900021193222
 30
0.0
 11
5656.698365323417
 21
1738.900021193222
 31
0.0
  0
LINE
  5
4E1
330
4D3
100
AcDbEntity
  8
0
 62
     0
370
    -2
100
AcDbLine
 10
5496.785139338161
 20
1468.98004692381
 30
0.0
 11
5656.698365323417
 21
1468.98004692381
 31
0.0
  0
LINE
  5
4E2
330
4D3
100
AcDbEntity
  8
0
 62
     0
370
    -2
100
AcDbLine
 10
5655.448365323416
 20
1736.400021193222
 30
0.0
 11
5655.448365323416
 21
1471.48004692381
 31
0.0
  0
SOLID
  5
4E3
330
4D3
100
AcDbEntity
  8
0
 62
     0
100
AcDbTrace
 10
5655.031698656749
 20
1736.400021193222
 30
0.0
 11
5655.865031990083
 21
1736.400021193222
 31
0.0
 12
5655.448365323416
 22
1738.900021193222
 32
0.0
 13
5655.448365323416
 23
1738.900021193222
 33
0.0
  0
SOLID
  5
4E4
330
4D3
100
AcDbEntity
  8
0
 62
     0
100
AcDbTrace
 10
5655.031698656749
 20
1471.48004692381
 30
0.0
 11
5655.865031990083
 21
1471.48004692381
 31
0.0
 12
5655.448365323416
 22
1468.98004692381
 32
0.0
 13
5655.448365323416
 23
1468.98004692381
 33
0.0
  0
MTEXT
  5
4E5
330
4D3
100
AcDbEntity
  8
0
 62
     0
100
AcDbMText
 10
5653.365031990084
 20
1603.940034058517
 30
0.0
 40
2.5
 41
0.0
 71
     5
 72
     1
  1
269,92
 11
0.0000000000000001
 21
1.0
 31
0.0
 73
     1
 44
1.0
  0
POINT
  5
4E6
330
4D3
100
AcDbEntity
  8
Defpoints
 62
     0
100
AcDbPoint
 10
5503.249493126086
 20
1738.900021193222
 30
0.0
  0
POINT
  5
4E7
330
4D3
100
AcDbEntity
  8
Defpoints
 62
     0
100
AcDbPoint
 10
5496.160139338161
 20
1468.98004692381
 30
0.0
  0
POINT
  5
4E8
330
4D3
100
AcDbEntity
  8
Defpoints
 62
     0
100
AcDbPoint
 10
5655.448365323416
 20
1468.98004692381
 30
0.0
  0
ENDBLK
  5
4DE
330
4D3
100
AcDbEntity
  8
0
100
AcDbBlockEnd
  0
BLOCK
  5
56D
330
563
100
AcDbEntity
  8
0
100
AcDbBlockBegin
  2
*D24
 70
     1
 10
0.0
 20
0.0
 30
0.0
  3
*D24
  1

  0
LINE
  5
570
330
563
100
AcDbEntity
  8
0
 62
     0
370
    -2
100
AcDbLine
 10
5501.314303416177
 20
2690.084384692758
 30
0.0
 11
5629.298762019873
 21
2690.084384692758
 31
0.0
  0
LINE
  5
571
330
563
100
AcDbEntity
  8
0
 62
     0
370
    -2
100
AcDbLine
 10
5501.314303416179
 20
2960.083267561864
 30
0.0
 11
5629.298762019873
 21
2960.083267561864
 31
0.0
  0
LINE
  5
572
330
563
100
AcDbEntity
  8
0
 62
     0
370
    -2
100
AcDbLine
 10
5628.048762019872
 20
2692.584384692759
 30
0.0
 11
5628.048762019872
 21
2957.583267561864
 31
0.0
  0
SOLID
  5
573
330
563
100
AcDbEntity
  8
0
 62
     0
100
AcDbTrace
 10
5627.632095353206
 20
2692.584384692759
 30
0.0
 11
5628.465428686539
 21
2692.584384692759
 31
0.0
 12
5628.048762019872
 22
2690.084384692758
 32
0.0
 13
5628.048762019872
 23
2690.084384692758
 33
0.0
  0
SOLID
  5
574
330
563
100
AcDbEntity
  8
0
 62
     0
100
AcDbTrace
 10
5627.632095353206
 20
2957.583267561864
 30
0.0
 11
5628.465428686539
 21
2957.583267561864
 31
0.0
 12
5628.048762019872
 22
2960.083267561864
 32
0.0
 13
5628.048762019872
 23
2960.083267561864
 33
0.0
  0
MTEXT
  5
575
330
563
100
AcDbEntity
  8
0
 62
     0
100
AcDbMText
 10
5626.173762019872
 20
2825.083826127312
 30
0.0
 40
2.5
 41
0.0
 71
     5
 72
     1
  1
270
 11
0.0000000000000001
 21
1.0
 31
0.0
 73
     1
 44
1.0
  0
POINT
  5
576
330
563
100
AcDbEntity
  8
Defpoints
 62
     0
100
AcDbPoint
 10
5500.689303416177
 20
2690.084384692758
 30
0.0
  0
POINT
  5
577
330
563
100
AcDbEntity
  8
Defpoints
 62
     0
100
AcDbPoint
 10
5500.68930341618
 20
2960.083267561864
 30
0.0
  0
POINT
  5
578
330
563
100
AcDbEntity
  8
Defpoints
 62
     0
100
AcDbPoint
 10
5628.048762019872
 20
2960.083267561864
 30
0.0
  0
ENDBLK
  5
56E
330
563
100
AcDbEntity
  8
0
100
AcDbBlockEnd
  0
BLOCK
  5
585
330
57B
100
AcDbEntity
  8
0
100
AcDbBlockBegin
  2
*D25
 70
     1
 10
0.0
 20
0.0
 30
0.0
  3
*D25
  1

  0
LINE
  5
588
330
57B
100
AcDbEntity
  8
0
 62
     0
370
    -2
100
AcDbLine
 10
5329.189303416177
 20
2825.708826127311
 30
0.0
 11
5329.189303416177
 21
2875.118310861371
 31
0.0
  0
LINE
  5
589
330
57B
100
AcDbEntity
  8
0
 62
     0
370
    -2
100
AcDbLine
 10
5672.189303416176
 20
2825.708826127312
 30
0.0
 11
5672.189303416176
 21
2875.118310861371
 31
0.0
  0
LINE
  5
58A
330
57B
100
AcDbEntity
  8
0
 62
     0
370
    -2
100
AcDbLine
 10
5331.689303416176
 20
2873.868310861372
 30
0.0
 11
5669.689303416177
 21
2873.868310861372
 31
0.0
  0
SOLID
  5
58B
330
57B
100
AcDbEntity
  8
0
 62
     0
100
AcDbTrace
 10
5331.689303416176
 20
2874.284977528038
 30
0.0
 11
5331.689303416176
 21
2873.451644194705
 31
0.0
 12
5329.189303416177
 22
2873.868310861372
 32
0.0
 13
5329.189303416177
 23
2873.868310861372
 33
0.0
  0
SOLID
  5
58C
330
57B
100
AcDbEntity
  8
0
 62
     0
100
AcDbTrace
 10
5669.689303416177
 20
2874.284977528038
 30
0.0
 11
5669.689303416177
 21
2873.451644194705
 31
0.0
 12
5672.189303416176
 22
2873.868310861372
 32
0.0
 13
5672.189303416176
 23
2873.868310861372
 33
0.0
  0
MTEXT
  5
58D
330
57B
100
AcDbEntity
  8
0
 62
     0
100
AcDbMText
 10
5500.689303416177
 20
2875.743310861372
 30
0.0
 40
2.5
 41
0.0
 71
     5
 72
     1
  1
343
 73
     1
 44
1.0
  0
POINT
  5
58E
330
57B
100
AcDbEntity
  8
Defpoints
 62
     0
100
AcDbPoint
 10
5329.189303416177
 20
2825.083826127311
 30
0.0
  0
POINT
  5
58F
330
57B
100
AcDbEntity
  8
Defpoints
 62
     0
100
AcDbPoint
 10
5672.189303416176
 20
2825.083826127312
 30
0.0
  0
POINT
  5
590
330
57B
100
AcDbEntity
  8
Defpoints
 62
     0
100
AcDbPoint
 10
5672.189303416176
 20
2873.868310861372
 30
0.0
  0
ENDBLK
  5
586
330
57B
100
AcDbEntity
  8
0
100
AcDbBlockEnd
  0
BLOCK
  5
59E
330
594
100
AcDbEntity
  8
0
100
AcDbBlockBegin
  2
*D26
 70
     1
 10
0.0
 20
0.0
 30
0.0
  3
*D26
  1

  0
LINE
  5
5C3
330
594
100
AcDbEntity
  8
1 辅助线
100
AcDbLine
 10
5672.189303416176
 20
1614.610166550496
 30
0.0
 11
5672.189303416176
 21
1796.364547801873
 31
0.0
  0
LINE
  5
5C4
330
594
100
AcDbEntity
  8
1 辅助线
100
AcDbLine
 10
5329.189303416177
 20
1614.610166550495
 30
0.0
 11
5329.189303416177
 21
1796.364547801873
 31
0.0
  0
LINE
  5
5C5
330
594
100
AcDbEntity
  8
1 辅助线
370
     0
100
AcDbLine
 10
5662.189303416177
 20
1788.364547801873
 30
0.0
 11
5537.546058338104
 21
1788.364547801873
 31
0.0
  0
LINE
  5
5C6
330
594
100
AcDbEntity
  8
1 辅助线
370
     0
100
AcDbLine
 10
5339.189303416176
 20
1788.364547801873
 30
0.0
 11
5463.832548494249
 21
1788.364547801873
 31
0.0
  0
SOLID
  5
5C7
330
594
100
AcDbEntity
  8
1 辅助线
100
AcDbTrace
 10
5662.189303416177
 20
1790.03121446854
 30
0.0
 11
5662.189303416177
 21
1786.697881135206
 31
0.0
 12
5672.189303416176
 22
1788.364547801873
 32
0.0
 13
5672.189303416176
 23
1788.364547801873
 33
0.0
  0
SOLID
  5
5C8
330
594
100
AcDbEntity
  8
1 辅助线
100
AcDbTrace
 10
5339.189303416176
 20
1790.03121446854
 30
0.0
 11
5339.189303416176
 21
1786.697881135206
 31
0.0
 12
5329.189303416177
 22
1788.364547801873
 32
0.0
 13
5329.189303416177
 23
1788.364547801873
 33
0.0
  0
MTEXT
  5
5C9
330
594
100
AcDbEntity
  8
1 辅助线
100
AcDbMText
 10
5500.689303416177
 20
1799.559388263516
 30
0.0
 40
14.0
 41
0.0
 71
     5
 72
     1
  1
\A2;343
  7
Arial
 73
     1
 44
1.0
  0
MTEXT
  5
5CA
330
594
100
AcDbEntity
  8
1 辅助线
100
AcDbMText
 10
5500.689303416177
 20
1775.240311549327
 30
0.0
 40
14.0
 41
0.0
 71
     5
 72
     1
  1
\A2;[13 1/2"]
  7
Arial
 73
     1
 44
1.0
  0
POINT
  5
5CB
330
594
100
AcDbEntity
  8
Defpoints
 62
     0
100
AcDbPoint
 10
5672.189303416176
 20
1606.610166550496
 30
0.0
  0
POINT
  5
5CC
330
594
100
AcDbEntity
  8
Defpoints
 62
     0
100
AcDbPoint
 10
5329.189303416177
 20
1606.610166550495
 30
0.0
  0
POINT
  5
5CD
330
594
100
AcDbEntity
  8
Defpoints
 62
     0
100
AcDbPoint
 10
5329.189303416177
 20
1788.364547801873
 30
0.0
  0
ENDBLK
  5
59F
330
594
100
AcDbEntity
  8
0
100
AcDbBlockEnd
  0
BLOCK
  5
5B6
330
5AC
100
AcDbEntity
  8
0
100
AcDbBlockBegin
  2
*D27
 70
     1
 10
0.0
 20
0.0
 30
0.0
  3
*D27
  1

  0
LINE
  5
5CE
330
5AC
100
AcDbEntity
  8
1 辅助线
100
AcDbLine
 10
5508.689303416177
 20
1741.609607985048
 30
0.0
 11
5744.50500901202
 21
1741.609607985048
 31
0.0
  0
LINE
  5
5CF
330
5AC
100
AcDbEntity
  8
1 辅助线
100
AcDbLine
 10
5508.689303416177
 20
1471.610725115943
 30
0.0
 11
5744.50500901202
 21
1471.610725115942
 31
0.0
  0
LINE
  5
5D0
330
5AC
100
AcDbEntity
  8
1 辅助线
370
     0
100
AcDbLine
 10
5736.50500901202
 20
1731.609607985048
 30
0.0
 11
5736.50500901202
 21
1630.929243264684
 31
0.0
  0
LINE
  5
5D1
330
5AC
100
AcDbEntity
  8
1 辅助线
370
     0
100
AcDbLine
 10
5736.50500901202
 20
1481.610725115942
 30
0.0
 11
5736.50500901202
 21
1582.291089836307
 31
0.0
  0
SOLID
  5
5D2
330
5AC
100
AcDbEntity
  8
1 辅助线
100
AcDbTrace
 10
5734.838342345353
 20
1731.609607985048
 30
0.0
 11
5738.171675678687
 21
1731.609607985048
 31
0.0
 12
5736.50500901202
 22
1741.609607985048
 32
0.0
 13
5736.50500901202
 23
1741.609607985048
 33
0.0
  0
SOLID
  5
5D3
330
5AC
100
AcDbEntity
  8
1 辅助线
100
AcDbTrace
 10
5734.838342345353
 20
1481.610725115942
 30
0.0
 11
5738.171675678687
 21
1481.610725115942
 31
0.0
 12
5736.50500901202
 22
1471.610725115942
 32
0.0
 13
5736.50500901202
 23
1471.610725115942
 33
0.0
  0
MTEXT
  5
5D4
330
5AC
100
AcDbEntity
  8
1 辅助线
100
AcDbMText
 10
5736.50500901202
 20
1617.805007012139
 30
0.0
 40
14.0
 41
0.0
 71
     5
 72
     1
  1
\A2;270
  7
Arial
 73
     1
 44
1.0
  0
MTEXT
  5
5D5
330
5AC
100
AcDbEntity
  8
1 辅助线
100
AcDbMText
 10
5736.50500901202
 20
1593.48593029795
 30
0.0
 40
14.0
 41
0.0
 71
     5
 72
     1
  1
\A2;[10 5/8"]
  7
Arial
 73
     1
 44
1.0
  0
POINT
  5
5D6
330
5AC
100
AcDbEntity
  8
Defpoints
 62
     0
100
AcDbPoint
 10
5500.689303416177
 20
1741.609607985048
 30
0.0
  0
POINT
  5
5D7
330
5AC
100
AcDbEntity
  8
Defpoints
 62
     0
100
AcDbPoint
 10
5500.689303416177
 20
1471.610725115943
 30
0.0
  0
POINT
  5
5D8
330
5AC
100
AcDbEntity
  8
Defpoints
 62
     0
100
AcDbPoint
 10
5736.50500901202
 20
1471.610725115942
 30
0.0
  0
ENDBLK
  5
5B7
330
5AC
100
AcDbEntity
  8
0
100
AcDbBlockEnd
  0
BLOCK
  5
5E4
330
5DA
100
AcDbEntity
  8
0
100
AcDbBlockBegin
  2
*D28
 70
     1
 10
0.0
 20
0.0
 30
0.0
  3
*D28
  1

  0
LINE
  5
61F
330
5DA
100
AcDbEntity
  8
1 辅助线
100
AcDbLine
 10
6025.000289876778
 20
1778.718318584164
 30
0.0
 11
6025.000289876778
 21
1831.684220793844
 31
0.0
  0
LINE
  5
620
330
5DA
100
AcDbEntity
  8
1 辅助线
100
AcDbLine
 10
6465.000289876766
 20
1778.718318584161
 30
0.0
 11
6465.000289876766
 21
1831.684220793844
 31
0.0
  0
LINE
  5
621
330
5DA
100
AcDbEntity
  8
1 辅助线
370
     0
100
AcDbLine
 10
6035.000289876778
 20
1823.684220793844
 30
0.0
 11
6208.143534954845
 21
1823.684220793844
 31
0.0
  0
LINE
  5
622
330
5DA
100
AcDbEntity
  8
1 辅助线
370
     0
100
AcDbLine
 10
6455.000289876767
 20
1823.684220793844
 30
0.0
 11
6281.857044798701
 21
1823.684220793844
 31
0.0
  0
SOLID
  5
623
330
5DA
100
AcDbEntity
  8
1 辅助线
100
AcDbTrace
 10
6035.000289876778
 20
1825.350887460511
 30
0.0
 11
6035.000289876778
 21
1822.017554127177
 31
0.0
 12
6025.000289876778
 22
1823.684220793844
 32
0.0
 13
6025.000289876778
 23
1823.684220793844
 33
0.0
  0
SOLID
  5
624
330
5DA
100
AcDbEntity
  8
1 辅助线
100
AcDbTrace
 10
6455.000289876767
 20
1825.350887460511
 30
0.0
 11
6455.000289876767
 21
1822.017554127177
 31
0.0
 12
6465.000289876766
 22
1823.684220793844
 32
0.0
 13
6465.000289876766
 23
1823.684220793844
 33
0.0
  0
MTEXT
  5
625
330
5DA
100
AcDbEntity
  8
1 辅助线
100
AcDbMText
 10
6245.000289876773
 20
1834.879061255487
 30
0.0
 40
14.0
 41
0.0
 71
     5
 72
     1
  1
\A2;440
  7
Arial
 73
     1
 44
1.0
  0
MTEXT
  5
626
330
5DA
100
AcDbEntity
  8
1 辅助线
100
AcDbMText
 10
6245.000289876773
 20
1810.559984541298
 30
0.0
 40
14.0
 41
0.0
 71
     5
 72
     1
  1
\A2;[17 3/8"]
  7
Arial
 73
     1
 44
1.0
  0
POINT
  5
627
330
5DA
100
AcDbEntity
  8
Defpoints
 62
     0
100
AcDbPoint
 10
6025.000289876778
 20
1770.718318584164
 30
0.0
  0
POINT
  5
628
330
5DA
100
AcDbEntity
  8
Defpoints
 62
     0
100
AcDbPoint
 10
6465.000289876766
 20
1770.718318584161
 30
0.0
  0
POINT
  5
629
330
5DA
100
AcDbEntity
  8
Defpoints
 62
     0
100
AcDbPoint
 10
6465.000289876766
 20
1823.684220793844
 30
0.0
  0
ENDBLK
  5
5E5
330
5DA
100
AcDbEntity
  8
0
100
AcDbBlockEnd
  0
BLOCK
  5
5FC
330
5F2
100
AcDbEntity
  8
0
100
AcDbBlockBegin
  2
*D29
 70
     1
 10
0.0
 20
0.0
 30
0.0
  3
*D29
  1

  0
LINE
  5
62A
330
5F2
100
AcDbEntity
  8
1 辅助线
100
AcDbLine
 10
6458.000289876768
 20
1785.718318584161
 30
0.0
 11
6527.427928378774
 21
1785.718318584161
 31
0.0
  0
LINE
  5
62B
330
5F2
100
AcDbEntity
  8
1 辅助线
100
AcDbLine
 10
6458.000289876768
 20
1475.718318584166
 30
0.0
 11
6527.427928378774
 21
1475.718318584166
 31
0.0
  0
LINE
  5
62C
330
5F2
100
AcDbEntity
  8
1 辅助线
370
     0
100
AcDbLine
 10
6519.427928378772
 20
1775.718318584161
 30
0.0
 11
6519.427928378772
 21
1655.037395298352
 31
0.0
  0
LINE
  5
62D
330
5F2
100
AcDbEntity
  8
1 辅助线
370
     0
100
AcDbLine
 10
6519.427928378772
 20
1485.718318584166
 30
0.0
 11
6519.427928378772
 21
1606.399241869975
 31
0.0
  0
SOLID
  5
62E
330
5F2
100
AcDbEntity
  8
1 辅助线
100
AcDbTrace
 10
6517.761261712106
 20
1775.718318584161
 30
0.0
 11
6521.09459504544
 21
1775.718318584161
 31
0.0
 12
6519.427928378772
 22
1785.718318584161
 32
0.0
 13
6519.427928378772
 23
1785.718318584161
 33
0.0
  0
SOLID
  5
62F
330
5F2
100
AcDbEntity
  8
1 辅助线
100
AcDbTrace
 10
6517.761261712106
 20
1485.718318584166
 30
0.0
 11
6521.09459504544
 21
1485.718318584166
 31
0.0
 12
6519.427928378772
 22
1475.718318584166
 32
0.0
 13
6519.427928378772
 23
1475.718318584166
 33
0.0
  0
MTEXT
  5
630
330
5F2
100
AcDbEntity
  8
1 辅助线
100
AcDbMText
 10
6519.427928378772
 20
1641.913159045807
 30
0.0
 40
14.0
 41
0.0
 71
     5
 72
     1
  1
\A2;310
  7
Arial
 73
     1
 44
1.0
  0
MTEXT
  5
631
330
5F2
100
AcDbEntity
  8
1 辅助线
100
AcDbMText
 10
6519.427928378772
 20
1617.594082331618
 30
0.0
 40
14.0
 41
0.0
 71
     5
 72
     1
  1
\A2;[12 1/4"]
  7
Arial
 73
     1
 44
1.0
  0
POINT
  5
632
330
5F2
100
AcDbEntity
  8
Defpoints
 62
     0
100
AcDbPoint
 10
6450.000289876768
 20
1785.718318584161
 30
0.0
  0
POINT
  5
633
330
5F2
100
AcDbEntity
  8
Defpoints
 62
     0
100
AcDbPoint
 10
6450.000289876768
 20
1475.718318584166
 30
0.0
  0
POINT
  5
634
330
5F2
100
AcDbEntity
  8
Defpoints
 62
     0
100
AcDbPoint
 10
6519.427928378772
 20
1475.718318584166
 30
0.0
  0
ENDBLK
  5
5FD
330
5F2
100
AcDbEntity
  8
0
100
AcDbBlockEnd
  0
BLOCK
  5
646
330
63C
100
AcDbEntity
  8
0
100
AcDbBlockBegin
  2
*D30
 70
     1
 10
0.0
 20
0.0
 30
0.0
  3
*D30
  1

  0
LINE
  5
681
330
63C
100
AcDbEntity
  8
1 辅助线
100
AcDbLine
 10
6756.715382892057
 20
1628.438804794361
 30
0.0
 11
6756.715382892057
 21
1848.449760781181
 31
0.0
  0
LINE
  5
682
330
63C
100
AcDbEntity
  8
1 辅助线
100
AcDbLine
 10
7181.715382892057
 20
1628.438804794361
 30
0.0
 11
7181.715382892057
 21
1848.449760781181
 31
0.0
  0
LINE
  5
683
330
63C
100
AcDbEntity
  8
1 辅助线
370
     0
100
AcDbLine
 10
6766.715382892056
 20
1840.449760781181
 30
0.0
 11
6932.358627970129
 21
1840.449760781181
 31
0.0
  0
LINE
  5
684
330
63C
100
AcDbEntity
  8
1 辅助线
370
     0
100
AcDbLine
 10
7171.715382892056
 20
1840.449760781181
 30
0.0
 11
7006.072137813984
 21
1840.449760781181
 31
0.0
  0
SOLID
  5
685
330
63C
100
AcDbEntity
  8
1 辅助线
100
AcDbTrace
 10
6766.715382892056
 20
1842.116427447848
 30
0.0
 11
6766.715382892056
 21
1838.783094114514
 31
0.0
 12
6756.715382892057
 22
1840.449760781181
 32
0.0
 13
6756.715382892057
 23
1840.449760781181
 33
0.0
  0
SOLID
  5
686
330
63C
100
AcDbEntity
  8
1 辅助线
100
AcDbTrace
 10
7171.715382892056
 20
1842.116427447848
 30
0.0
 11
7171.715382892056
 21
1838.783094114514
 31
0.0
 12
7181.715382892057
 22
1840.449760781181
 32
0.0
 13
7181.715382892057
 23
1840.449760781181
 33
0.0
  0
MTEXT
  5
687
330
63C
100
AcDbEntity
  8
1 辅助线
100
AcDbMText
 10
6969.215382892056
 20
1851.644601242823
 30
0.0
 40
14.0
 41
0.0
 71
     5
 72
     1
  1
\A2;425
  7
Arial
 73
     1
 44
1.0
  0
MTEXT
  5
688
330
63C
100
AcDbEntity
  8
1 辅助线
100
AcDbMText
 10
6969.215382892056
 20
1827.325524528635
 30
0.0
 40
14.0
 41
0.0
 71
     5
 72
     1
  1
\A2;[16 3/4"]
  7
Arial
 73
     1
 44
1.0
  0
POINT
  5
689
330
63C
100
AcDbEntity
  8
Defpoints
 62
     0
100
AcDbPoint
 10
6756.715382892057
 20
1620.438804794361
 30
0.0
  0
POINT
  5
68A
330
63C
100
AcDbEntity
  8
Defpoints
 62
     0
100
AcDbPoint
 10
7181.715382892057
 20
1620.438804794361
 30
0.0
  0
POINT
  5
68B
330
63C
100
AcDbEntity
  8
Defpoints
 62
     0
100
AcDbPoint
 10
7181.715382892057
 20
1840.449760781181
 30
0.0
  0
ENDBLK
  5
647
330
63C
100
AcDbEntity
  8
0
100
AcDbBlockEnd
  0
BLOCK
  5
65E
330
654
100
AcDbEntity
  8
0
100
AcDbBlockBegin
  2
*D31
 70
     1
 10
0.0
 20
0.0
 30
0.0
  3
*D31
  1

  0
LINE
  5
68C
330
654
100
AcDbEntity
  8
1 辅助线
100
AcDbLine
 10
6977.215382892056
 20
1792.938804790708
 30
0.0
 11
7245.545885653005
 21
1792.938804790708
 31
0.0
  0
LINE
  5
68D
330
654
100
AcDbEntity
  8
1 辅助线
100
AcDbLine
 10
6977.215382892056
 20
1447.938804798014
 30
0.0
 11
7245.545885653005
 21
1447.938804798014
 31
0.0
  0
LINE
  5
68E
330
654
100
AcDbEntity
  8
1 辅助线
370
     0
100
AcDbLine
 10
7237.545885653005
 20
1782.938804790707
 30
0.0
 11
7237.545885653005
 21
1644.75788150855
 31
0.0
  0
LINE
  5
68F
330
654
100
AcDbEntity
  8
1 辅助线
370
     0
100
AcDbLine
 10
7237.545885653005
 20
1457.938804798014
 30
0.0
 11
7237.545885653005
 21
1596.119728080172
 31
0.0
  0
SOLID
  5
690
330
654
100
AcDbEntity
  8
1 辅助线
100
AcDbTrace
 10
7235.879218986339
 20
1782.938804790707
 30
0.0
 11
7239.212552319672
 21
1782.938804790707
 31
0.0
 12
7237.545885653005
 22
1792.938804790708
 32
0.0
 13
7237.545885653005
 23
1792.938804790708
 33
0.0
  0
SOLID
  5
691
330
654
100
AcDbEntity
  8
1 辅助线
100
AcDbTrace
 10
7235.879218986339
 20
1457.938804798014
 30
0.0
 11
7239.212552319672
 21
1457.938804798014
 31
0.0
 12
7237.545885653005
 22
1447.938804798014
 32
0.0
 13
7237.545885653005
 23
1447.938804798014
 33
0.0
  0
MTEXT
  5
692
330
654
100
AcDbEntity
  8
1 辅助线
100
AcDbMText
 10
7237.545885653005
 20
1631.633645256005
 30
0.0
 40
14.0
 41
0.0
 71
     5
 72
     1
  1
\A2;345
  7
Arial
 73
     1
 44
1.0
  0
MTEXT
  5
693
330
654
100
AcDbEntity
  8
1 辅助线
100
AcDbMText
 10
7237.545885653005
 20
1607.314568541816
 30
0.0
 40
14.0
 41
0.0
 71
     5
 72
     1
  1
\A2;[13 5/8"]
  7
Arial
 73
     1
 44
1.0
  0
POINT
  5
694
330
654
100
AcDbEntity
  8
Defpoints
 62
     0
100
AcDbPoint
 10
6969.215382892056
 20
1792.938804790708
 30
0.0
  0
POINT
  5
695
330
654
100
AcDbEntity
  8
Defpoints
 62
     0
100
AcDbPoint
 10
6969.215382892056
 20
1447.938804798014
 30
0.0
  0
POINT
  5
696
330
654
100
AcDbEntity
  8
Defpoints
 62
     0
100
AcDbPoint
 10
7237.545885653005
 20
1447.938804798014
 30
0.0
  0
ENDBLK
  5
65F
330
654
100
AcDbEntity
  8
0
100
AcDbBlockEnd
  0
BLOCK
  5
6A2
330
698
100
AcDbEntity
  8
0
100
AcDbBlockBegin
  2
*D32
 70
     1
 10
0.0
 20
0.0
 30
0.0
  3
*D32
  1

  0
LINE
  5
6C7
330
698
100
AcDbEntity
  8
1 辅助线
100
AcDbLine
 10
7609.517095405434
 20
1757.695185317912
 30
0.0
 11
7609.517095405434
 21
1824.003497598562
 31
0.0
  0
LINE
  5
6C8
330
698
100
AcDbEntity
  8
1 辅助线
100
AcDbLine
 10
8059.51709540543
 20
1757.695185317912
 30
0.0
 11
8059.51709540543
 21
1824.003497598562
 31
0.0
  0
LINE
  5
6C9
330
698
100
AcDbEntity
  8
1 辅助线
370
     0
100
AcDbLine
 10
7619.517095405433
 20
1816.003497598561
 30
0.0
 11
7797.660340483504
 21
1816.003497598561
 31
0.0
  0
LINE
  5
6CA
330
698
100
AcDbEntity
  8
1 辅助线
370
     0
100
AcDbLine
 10
8049.51709540543
 20
1816.003497598561
 30
0.0
 11
7871.37385032736
 21
1816.003497598561
 31
0.0
  0
SOLID
  5
6CB
330
698
100
AcDbEntity
  8
1 辅助线
100
AcDbTrace
 10
7619.517095405433
 20
1817.670164265228
 30
0.0
 11
7619.517095405433
 21
1814.336830931895
 31
0.0
 12
7609.517095405434
 22
1816.003497598561
 32
0.0
 13
7609.517095405434
 23
1816.003497598561
 33
0.0
  0
SOLID
  5
6CC
330
698
100
AcDbEntity
  8
1 辅助线
100
AcDbTrace
 10
8049.51709540543
 20
1817.670164265228
 30
0.0
 11
8049.51709540543
 21
1814.336830931895
 31
0.0
 12
8059.51709540543
 22
1816.003497598561
 32
0.0
 13
8059.51709540543
 23
1816.003497598561
 33
0.0
  0
MTEXT
  5
6CD
330
698
100
AcDbEntity
  8
1 辅助线
100
AcDbMText
 10
7834.517095405432
 20
1827.198338060204
 30
0.0
 40
14.0
 41
0.0
 71
     5
 72
     1
  1
\A2;450
  7
Arial
 73
     1
 44
1.0
  0
MTEXT
  5
6CE
330
698
100
AcDbEntity
  8
1 辅助线
100
AcDbMText
 10
7834.517095405432
 20
1802.879261346016
 30
0.0
 40
14.0
 41
0.0
 71
     5
 72
     1
  1
\A2;[17 3/4"]
  7
Arial
 73
     1
 44
1.0
  0
POINT
  5
6CF
330
698
100
AcDbEntity
  8
Defpoints
 62
     0
100
AcDbPoint
 10
7609.517095405434
 20
1749.695185317913
 30
0.0
  0
POINT
  5
6D0
330
698
100
AcDbEntity
  8
Defpoints
 62
     0
100
AcDbPoint
 10
8059.51709540543
 20
1749.695185317913
 30
0.0
  0
POINT
  5
6D1
330
698
100
AcDbEntity
  8
Defpoints
 62
     0
100
AcDbPoint
 10
8059.51709540543
 20
1816.003497598561
 30
0.0
  0
ENDBLK
  5
6A3
330
698
100
AcDbEntity
  8
0
100
AcDbBlockEnd
  0
BLOCK
  5
6BA
330
6B0
100
AcDbEntity
  8
0
100
AcDbBlockBegin
  2
*D33
 70
     1
 10
0.0
 20
0.0
 30
0.0
  3
*D33
  1

  0
LINE
  5
6DD
330
6B0
100
AcDbEntity
  8
1 辅助线
100
AcDbLine
 10
8052.517095405431
 20
1764.695185317912
 30
0.0
 11
8117.22649876653
 21
1764.695185317912
 31
0.0
  0
LINE
  5
6DE
330
6B0
100
AcDbEntity
  8
1 辅助线
100
AcDbLine
 10
8052.517095405425
 20
1499.695185317913
 30
0.0
 11
8117.22649876653
 21
1499.695185317913
 31
0.0
  0
LINE
  5
6DF
330
6B0
100
AcDbEntity
  8
1 辅助线
370
     0
100
AcDbLine
 10
8109.226498766529
 20
1754.695185317913
 30
0.0
 11
8109.226498766529
 21
1656.514262032101
 31
0.0
  0
LINE
  5
6E0
330
6B0
100
AcDbEntity
  8
1 辅助线
370
     0
100
AcDbLine
 10
8109.226498766529
 20
1509.695185317912
 30
0.0
 11
8109.226498766529
 21
1607.876108603724
 31
0.0
  0
SOLID
  5
6E1
330
6B0
100
AcDbEntity
  8
1 辅助线
100
AcDbTrace
 10
8107.559832099862
 20
1754.695185317913
 30
0.0
 11
8110.893165433196
 21
1754.695185317913
 31
0.0
 12
8109.226498766529
 22
1764.695185317912
 32
0.0
 13
8109.226498766529
 23
1764.695185317912
 33
0.0
  0
SOLID
  5
6E2
330
6B0
100
AcDbEntity
  8
1 辅助线
100
AcDbTrace
 10
8107.559832099862
 20
1509.695185317912
 30
0.0
 11
8110.893165433196
 21
1509.695185317912
 31
0.0
 12
8109.226498766529
 22
1499.695185317913
 32
0.0
 13
8109.226498766529
 23
1499.695185317913
 33
0.0
  0
MTEXT
  5
6E3
330
6B0
100
AcDbEntity
  8
1 辅助线
100
AcDbMText
 10
8109.226498766529
 20
1643.390025779557
 30
0.0
 40
14.0
 41
0.0
 71
     5
 72
     1
  1
\A2;265
  7
Arial
 73
     1
 44
1.0
  0
MTEXT
  5
6E4
330
6B0
100
AcDbEntity
  8
1 辅助线
100
AcDbMText
 10
8109.226498766529
 20
1619.070949065368
 30
0.0
 40
14.0
 41
0.0
 71
     5
 72
     1
  1
\A2;[10 3/8"]
  7
Arial
 73
     1
 44
1.0
  0
POINT
  5
6E5
330
6B0
100
AcDbEntity
  8
Defpoints
 62
     0
100
AcDbPoint
 10
8044.51709540543
 20
1764.695185317912
 30
0.0
  0
POINT
  5
6E6
330
6B0
100
AcDbEntity
  8
Defpoints
 62
     0
100
AcDbPoint
 10
8044.517095405426
 20
1499.695185317913
 30
0.0
  0
POINT
  5
6E7
330
6B0
100
AcDbEntity
  8
Defpoints
 62
     0
100
AcDbPoint
 10
8109.226498766529
 20
1499.695185317913
 30
0.0
  0
ENDBLK
  5
6BB
330
6B0
100
AcDbEntity
  8
0
100
AcDbBlockEnd
  0
BLOCK
  5
6F3
330
6E9
100
AcDbEntity
  8
0
100
AcDbBlockBegin
  2
*D34
 70
     1
 10
0.0
 20
0.0
 30
0.0
  3
*D34
  1

  0
LINE
  5
718
330
6E9
100
AcDbEntity
  8
1 辅助线
100
AcDbLine
 10
8507.551476495155
 20
1774.839558148543
 30
0.0
 11
8507.551476495155
 21
1840.614949068173
 31
0.0
  0
LINE
  5
719
330
6E9
100
AcDbEntity
  8
1 辅助线
100
AcDbLine
 10
8957.551476495167
 20
1774.839558148537
 30
0.0
 11
8957.551476495167
 21
1840.614949068173
 31
0.0
  0
LINE
  5
71A
330
6E9
100
AcDbEntity
  8
1 辅助线
370
     0
100
AcDbLine
 10
8517.551476495155
 20
1832.614949068173
 30
0.0
 11
8695.694721573232
 21
1832.614949068173
 31
0.0
  0
LINE
  5
71B
330
6E9
100
AcDbEntity
  8
1 辅助线
370
     0
100
AcDbLine
 10
8947.551476495165
 20
1832.614949068173
 30
0.0
 11
8769.408231417088
 21
1832.614949068173
 31
0.0
  0
SOLID
  5
71C
330
6E9
100
AcDbEntity
  8
1 辅助线
100
AcDbTrace
 10
8517.551476495155
 20
1834.281615734839
 30
0.0
 11
8517.551476495155
 21
1830.948282401506
 31
0.0
 12
8507.551476495155
 22
1832.614949068173
 32
0.0
 13
8507.551476495155
 23
1832.614949068173
 33
0.0
  0
SOLID
  5
71D
330
6E9
100
AcDbEntity
  8
1 辅助线
100
AcDbTrace
 10
8947.551476495165
 20
1834.281615734839
 30
0.0
 11
8947.551476495165
 21
1830.948282401506
 31
0.0
 12
8957.551476495167
 22
1832.614949068173
 32
0.0
 13
8957.551476495167
 23
1832.614949068173
 33
0.0
  0
MTEXT
  5
71E
330
6E9
100
AcDbEntity
  8
1 辅助线
100
AcDbMText
 10
8732.55147649516
 20
1843.809789529816
 30
0.0
 40
14.0
 41
0.0
 71
     5
 72
     1
  1
\A2;450
  7
Arial
 73
     1
 44
1.0
  0
MTEXT
  5
71F
330
6E9
100
AcDbEntity
  8
1 辅助线
100
AcDbMText
 10
8732.55147649516
 20
1819.490712815627
 30
0.0
 40
14.0
 41
0.0
 71
     5
 72
     1
  1
\A2;[17 3/4"]
  7
Arial
 73
     1
 44
1.0
  0
POINT
  5
720
330
6E9
100
AcDbEntity
  8
Defpoints
 62
     0
100
AcDbPoint
 10
8507.551476495155
 20
1766.839558148543
 30
0.0
  0
POINT
  5
721
330
6E9
100
AcDbEntity
  8
Defpoints
 62
     0
100
AcDbPoint
 10
8957.551476495167
 20
1766.839558148537
 30
0.0
  0
POINT
  5
722
330
6E9
100
AcDbEntity
  8
Defpoints
 62
     0
100
AcDbPoint
 10
8957.551476495167
 20
1832.614949068173
 30
0.0
  0
ENDBLK
  5
6F4
330
6E9
100
AcDbEntity
  8
0
100
AcDbBlockEnd
  0
BLOCK
  5
70B
330
701
100
AcDbEntity
  8
0
100
AcDbBlockBegin
  2
*D35
 70
     1
 10
0.0
 20
0.0
 30
0.0
  3
*D35
  1

  0
LINE
  5
723
330
701
100
AcDbEntity
  8
1 辅助线
100
AcDbLine
 10
8950.551476495165
 20
1781.839558148546
 30
0.0
 11
9022.794901960024
 21
1781.839558148546
 31
0.0
  0
LINE
  5
724
330
701
100
AcDbEntity
  8
1 辅助线
100
AcDbLine
 10
8950.551476495162
 20
1486.839558148545
 30
0.0
 11
9022.794901960024
 21
1486.839558148545
 31
0.0
  0
LINE
  5
725
330
701
100
AcDbEntity
  8
1 辅助线
370
     0
100
AcDbLine
 10
9014.794901960023
 20
1771.839558148547
 30
0.0
 11
9014.794901960023
 21
1658.658634862734
 31
0.0
  0
LINE
  5
726
330
701
100
AcDbEntity
  8
1 辅助线
370
     0
100
AcDbLine
 10
9014.794901960023
 20
1496.839558148544
 30
0.0
 11
9014.794901960023
 21
1610.020481434357
 31
0.0
  0
SOLID
  5
727
330
701
100
AcDbEntity
  8
1 辅助线
100
AcDbTrace
 10
9013.128235293358
 20
1771.839558148547
 30
0.0
 11
9016.46156862669
 21
1771.839558148547
 31
0.0
 12
9014.794901960023
 22
1781.839558148546
 32
0.0
 13
9014.794901960023
 23
1781.839558148546
 33
0.0
  0
SOLID
  5
728
330
701
100
AcDbEntity
  8
1 辅助线
100
AcDbTrace
 10
9013.128235293358
 20
1496.839558148544
 30
0.0
 11
9016.46156862669
 21
1496.839558148544
 31
0.0
 12
9014.794901960023
 22
1486.839558148545
 32
0.0
 13
9014.794901960023
 23
1486.839558148545
 33
0.0
  0
MTEXT
  5
729
330
701
100
AcDbEntity
  8
1 辅助线
100
AcDbMText
 10
9014.794901960023
 20
1645.53439861019
 30
0.0
 40
14.0
 41
0.0
 71
     5
 72
     1
  1
\A2;295
  7
Arial
 73
     1
 44
1.0
  0
MTEXT
  5
72A
330
701
100
AcDbEntity
  8
1 辅助线
100
AcDbMText
 10
9014.794901960023
 20
1621.215321896001
 30
0.0
 40
14.0
 41
0.0
 71
     5
 72
     1
  1
\A2;[11 5/8"]
  7
Arial
 73
     1
 44
1.0
  0
POINT
  5
72B
330
701
100
AcDbEntity
  8
Defpoints
 62
     0
100
AcDbPoint
 10
8942.551476495166
 20
1781.839558148546
 30
0.0
  0
POINT
  5
72C
330
701
100
AcDbEntity
  8
Defpoints
 62
     0
100
AcDbPoint
 10
8942.551476495163
 20
1486.839558148545
 30
0.0
  0
POINT
  5
72D
330
701
100
AcDbEntity
  8
Defpoints
 62
     0
100
AcDbPoint
 10
9014.794901960023
 20
1486.839558148545
 30
0.0
  0
ENDBLK
  5
70C
330
701
100
AcDbEntity
  8
0
100
AcDbBlockEnd
  0
BLOCK
  5
73F
330
735
100
AcDbEntity
  8
0
100
AcDbBlockBegin
  2
*D36
 70
     1
 10
0.0
 20
0.0
 30
0.0
  3
*D36
  1

  0
LINE
  5
764
330
735
100
AcDbEntity
  8
1 辅助线
100
AcDbLine
 10
9749.601580217831
 20
1623.338119030932
 30
0.0
 11
9749.601580217831
 21
1824.835797062371
 31
0.0
  0
LINE
  5
765
330
735
100
AcDbEntity
  8
1 辅助线
100
AcDbLine
 10
9354.601580217829
 20
1623.338119030932
 30
0.0
 11
9354.601580217829
 21
1824.835797062371
 31
0.0
  0
LINE
  5
766
330
735
100
AcDbEntity
  8
1 辅助线
370
     0
100
AcDbLine
 10
9739.601580217829
 20
1816.835797062371
 30
0.0
 11
9588.958335139757
 21
1816.835797062371
 31
0.0
  0
LINE
  5
767
330
735
100
AcDbEntity
  8
1 辅助线
370
     0
100
AcDbLine
 10
9364.601580217829
 20
1816.835797062371
 30
0.0
 11
9515.244825295901
 21
1816.835797062371
 31
0.0
  0
SOLID
  5
768
330
735
100
AcDbEntity
  8
1 辅助线
100
AcDbTrace
 10
9739.601580217829
 20
1818.502463729038
 30
0.0
 11
9739.601580217829
 21
1815.169130395704
 31
0.0
 12
9749.601580217831
 22
1816.835797062371
 32
0.0
 13
9749.601580217831
 23
1816.835797062371
 33
0.0
  0
SOLID
  5
769
330
735
100
AcDbEntity
  8
1 辅助线
100
AcDbTrace
 10
9364.601580217829
 20
1818.502463729038
 30
0.0
 11
9364.601580217829
 21
1815.169130395704
 31
0.0
 12
9354.601580217829
 22
1816.835797062371
 32
0.0
 13
9354.601580217829
 23
1816.835797062371
 33
0.0
  0
MTEXT
  5
76A
330
735
100
AcDbEntity
  8
1 辅助线
100
AcDbMText
 10
9552.101580217829
 20
1828.030637524014
 30
0.0
 40
14.0
 41
0.0
 71
     5
 72
     1
  1
\A2;395
  7
Arial
 73
     1
 44
1.0
  0
MTEXT
  5
76B
330
735
100
AcDbEntity
  8
1 辅助线
100
AcDbMText
 10
9552.101580217829
 20
1803.711560809825
 30
0.0
 40
14.0
 41
0.0
 71
     5
 72
     1
  1
\A2;[15 1/2"]
  7
Arial
 73
     1
 44
1.0
  0
POINT
  5
76C
330
735
100
AcDbEntity
  8
Defpoints
 62
     0
100
AcDbPoint
 10
9749.601580217831
 20
1615.338119030932
 30
0.0
  0
POINT
  5
76D
330
735
100
AcDbEntity
  8
Defpoints
 62
     0
100
AcDbPoint
 10
9354.601580217829
 20
1615.338119030932
 30
0.0
  0
POINT
  5
76E
330
735
100
AcDbEntity
  8
Defpoints
 62
     0
100
AcDbPoint
 10
9354.601580217829
 20
1816.835797062371
 30
0.0
  0
ENDBLK
  5
740
330
735
100
AcDbEntity
  8
0
100
AcDbBlockEnd
  0
BLOCK
  5
757
330
74D
100
AcDbEntity
  8
0
100
AcDbBlockBegin
  2
*D37
 70
     1
 10
0.0
 20
0.0
 30
0.0
  3
*D37
  1

  0
LINE
  5
76F
330
74D
100
AcDbEntity
  8
1 辅助线
100
AcDbLine
 10
9560.10158021783
 20
1772.838119030932
 30
0.0
 11
9818.701932245389
 21
1772.838119030932
 31
0.0
  0
LINE
  5
770
330
74D
100
AcDbEntity
  8
1 辅助线
100
AcDbLine
 10
9560.10158021783
 20
1457.838119030932
 30
0.0
 11
9818.701932245389
 21
1457.838119030931
 31
0.0
  0
LINE
  5
771
330
74D
100
AcDbEntity
  8
1 辅助线
370
     0
100
AcDbLine
 10
9810.70193224539
 20
1762.838119030931
 30
0.0
 11
9810.70193224539
 21
1639.65719574512
 31
0.0
  0
LINE
  5
772
330
74D
100
AcDbEntity
  8
1 辅助线
370
     0
100
AcDbLine
 10
9810.70193224539
 20
1467.838119030932
 30
0.0
 11
9810.70193224539
 21
1591.019042316743
 31
0.0
  0
SOLID
  5
773
330
74D
100
AcDbEntity
  8
1 辅助线
100
AcDbTrace
 10
9809.035265578723
 20
1762.838119030931
 30
0.0
 11
9812.368598912055
 21
1762.838119030931
 31
0.0
 12
9810.70193224539
 22
1772.838119030932
 32
0.0
 13
9810.70193224539
 23
1772.838119030932
 33
0.0
  0
SOLID
  5
774
330
74D
100
AcDbEntity
  8
1 辅助线
100
AcDbTrace
 10
9809.035265578723
 20
1467.838119030932
 30
0.0
 11
9812.368598912055
 21
1467.838119030932
 31
0.0
 12
9810.70193224539
 22
1457.838119030931
 32
0.0
 13
9810.70193224539
 23
1457.838119030931
 33
0.0
  0
MTEXT
  5
775
330
74D
100
AcDbEntity
  8
1 辅助线
100
AcDbMText
 10
9810.70193224539
 20
1626.532959492576
 30
0.0
 40
14.0
 41
0.0
 71
     5
 72
     1
  1
\A2;315
  7
Arial
 73
     1
 44
1.0
  0
MTEXT
  5
776
330
74D
100
AcDbEntity
  8
1 辅助线
100
AcDbMText
 10
9810.70193224539
 20
1602.213882778387
 30
0.0
 40
14.0
 41
0.0
 71
     5
 72
     1
  1
\A2;[12 3/8"]
  7
Arial
 73
     1
 44
1.0
  0
POINT
  5
777
330
74D
100
AcDbEntity
  8
Defpoints
 62
     0
100
AcDbPoint
 10
9552.101580217829
 20
1772.838119030932
 30
0.0
  0
POINT
  5
778
330
74D
100
AcDbEntity
  8
Defpoints
 62
     0
100
AcDbPoint
 10
9552.101580217829
 20
1457.838119030932
 30
0.0
  0
POINT
  5
779
330
74D
100
AcDbEntity
  8
Defpoints
 62
     0
100
AcDbPoint
 10
9810.70193224539
 20
1457.838119030931
 30
0.0
  0
ENDBLK
  5
758
330
74D
100
AcDbEntity
  8
0
100
AcDbBlockEnd
  0
BLOCK
  5
785
330
77B
100
AcDbEntity
  8
0
100
AcDbBlockBegin
  2
*D38
 70
     1
 10
0.0
 20
0.0
 30
0.0
  3
*D38
  1

  0
LINE
  5
7C0
330
77B
100
AcDbEntity
  8
1 辅助线
100
AcDbLine
 10
10116.1155749688
 20
1758.677379906434
 30
0.0
 11
10116.1155749688
 21
1820.21024001837
 31
0.0
  0
LINE
  5
7C1
330
77B
100
AcDbEntity
  8
1 辅助线
100
AcDbLine
 10
10511.1155749688
 20
1758.677379906433
 30
0.0
 11
10511.1155749688
 21
1820.21024001837
 31
0.0
  0
LINE
  5
7C2
330
77B
100
AcDbEntity
  8
1 辅助线
370
     0
100
AcDbLine
 10
10126.1155749688
 20
1812.21024001837
 30
0.0
 11
10276.75882004687
 21
1812.21024001837
 31
0.0
  0
LINE
  5
7C3
330
77B
100
AcDbEntity
  8
1 辅助线
370
     0
100
AcDbLine
 10
10501.1155749688
 20
1812.21024001837
 30
0.0
 11
10350.47232989073
 21
1812.21024001837
 31
0.0
  0
SOLID
  5
7C4
330
77B
100
AcDbEntity
  8
1 辅助线
100
AcDbTrace
 10
10126.1155749688
 20
1813.876906685037
 30
0.0
 11
10126.1155749688
 21
1810.543573351704
 31
0.0
 12
10116.1155749688
 22
1812.21024001837
 32
0.0
 13
10116.1155749688
 23
1812.21024001837
 33
0.0
  0
SOLID
  5
7C5
330
77B
100
AcDbEntity
  8
1 辅助线
100
AcDbTrace
 10
10501.1155749688
 20
1813.876906685037
 30
0.0
 11
10501.1155749688
 21
1810.543573351704
 31
0.0
 12
10511.1155749688
 22
1812.21024001837
 32
0.0
 13
10511.1155749688
 23
1812.21024001837
 33
0.0
  0
MTEXT
  5
7C6
330
77B
100
AcDbEntity
  8
1 辅助线
100
AcDbMText
 10
10313.6155749688
 20
1823.405080480013
 30
0.0
 40
14.0
 41
0.0
 71
     5
 72
     1
  1
\A2;395
  7
Arial
 73
     1
 44
1.0
  0
MTEXT
  5
7C7
330
77B
100
AcDbEntity
  8
1 辅助线
100
AcDbMText
 10
10313.6155749688
 20
1799.086003765824
 30
0.0
 40
14.0
 41
0.0
 71
     5
 72
     1
  1
\A2;[15 1/2"]
  7
Arial
 73
     1
 44
1.0
  0
POINT
  5
7C8
330
77B
100
AcDbEntity
  8
Defpoints
 62
     0
100
AcDbPoint
 10
10116.1155749688
 20
1750.677379906434
 30
0.0
  0
POINT
  5
7C9
330
77B
100
AcDbEntity
  8
Defpoints
 62
     0
100
AcDbPoint
 10
10511.1155749688
 20
1750.677379906433
 30
0.0
  0
POINT
  5
7CA
330
77B
100
AcDbEntity
  8
Defpoints
 62
     0
100
AcDbPoint
 10
10511.1155749688
 20
1812.21024001837
 30
0.0
  0
ENDBLK
  5
786
330
77B
100
AcDbEntity
  8
0
100
AcDbBlockEnd
  0
BLOCK
  5
79D
330
793
100
AcDbEntity
  8
0
100
AcDbBlockBegin
  2
*D39
 70
     1
 10
0.0
 20
0.0
 30
0.0
  3
*D39
  1

  0
LINE
  5
7B5
330
793
100
AcDbEntity
  8
1 辅助线
100
AcDbLine
 10
10504.1155749688
 20
1765.677379906433
 30
0.0
 11
10565.63680351545
 21
1765.677379906433
 31
0.0
  0
LINE
  5
7B6
330
793
100
AcDbEntity
  8
1 辅助线
100
AcDbLine
 10
10504.1155749688
 20
1505.677379906434
 30
0.0
 11
10565.63680351545
 21
1505.677379906434
 31
0.0
  0
LINE
  5
7B7
330
793
100
AcDbEntity
  8
1 辅助线
370
     0
100
AcDbLine
 10
10557.63680351545
 20
1755.677379906433
 30
0.0
 11
10557.63680351545
 21
1659.996456620622
 31
0.0
  0
LINE
  5
7B8
330
793
100
AcDbEntity
  8
1 辅助线
370
     0
100
AcDbLine
 10
10557.63680351545
 20
1515.677379906434
 30
0.0
 11
10557.63680351545
 21
1611.358303192245
 31
0.0
  0
SOLID
  5
7B9
330
793
100
AcDbEntity
  8
1 辅助线
100
AcDbTrace
 10
10555.97013684879
 20
1755.677379906433
 30
0.0
 11
10559.30347018212
 21
1755.677379906433
 31
0.0
 12
10557.63680351545
 22
1765.677379906433
 32
0.0
 13
10557.63680351545
 23
1765.677379906433
 33
0.0
  0
SOLID
  5
7BA
330
793
100
AcDbEntity
  8
1 辅助线
100
AcDbTrace
 10
10555.97013684879
 20
1515.677379906434
 30
0.0
 11
10559.30347018212
 21
1515.677379906434
 31
0.0
 12
10557.63680351545
 22
1505.677379906434
 32
0.0
 13
10557.63680351545
 23
1505.677379906434
 33
0.0
  0
MTEXT
  5
7BB
330
793
100
AcDbEntity
  8
1 辅助线
100
AcDbMText
 10
10557.63680351545
 20
1646.872220368078
 30
0.0
 40
14.0
 41
0.0
 71
     5
 72
     1
  1
\A2;260
  7
Arial
 73
     1
 44
1.0
  0
MTEXT
  5
7BC
330
793
100
AcDbEntity
  8
1 辅助线
100
AcDbMText
 10
10557.63680351545
 20
1622.553143653889
 30
0.0
 40
14.0
 41
0.0
 71
     5
 72
     1
  1
\A2;[10 1/4"]
  7
Arial
 73
     1
 44
1.0
  0
POINT
  5
7BD
330
793
100
AcDbEntity
  8
Defpoints
 62
     0
100
AcDbPoint
 10
10496.1155749688
 20
1765.677379906433
 30
0.0
  0
POINT
  5
7BE
330
793
100
AcDbEntity
  8
Defpoints
 62
     0
100
AcDbPoint
 10
10496.1155749688
 20
1505.677379906434
 30
0.0
  0
POINT
  5
7BF
330
793
100
AcDbEntity
  8
Defpoints
 62
     0
100
AcDbPoint
 10
10557.63680351545
 20
1505.677379906434
 30
0.0
  0
ENDBLK
  5
79E
330
793
100
AcDbEntity
  8
0
100
AcDbBlockEnd
  0
BLOCK
  5
7E2
330
7D8
100
AcDbEntity
  8
0
100
AcDbBlockBegin
  2
*D40
 70
     1
 10
0.0
 20
0.0
 30
0.0
  3
*D40
  1

  0
LINE
  5
81D
330
7D8
100
AcDbEntity
  8
1 辅助线
100
AcDbLine
 10
12223.57180583552
 20
1750.255501458675
 30
0.0
 11
12223.57180583552
 21
1807.475629302899
 31
0.0
  0
LINE
  5
81E
330
7D8
100
AcDbEntity
  8
1 辅助线
100
AcDbLine
 10
12608.57180583552
 20
1750.255501458663
 30
0.0
 11
12608.57180583552
 21
1807.475629302899
 31
0.0
  0
LINE
  5
81F
330
7D8
100
AcDbEntity
  8
1 辅助线
370
     0
100
AcDbLine
 10
12233.57180583553
 20
1799.475629302898
 30
0.0
 11
12379.2150509136
 21
1799.475629302898
 31
0.0
  0
LINE
  5
820
330
7D8
100
AcDbEntity
  8
1 辅助线
370
     0
100
AcDbLine
 10
12598.57180583553
 20
1799.475629302898
 30
0.0
 11
12452.92856075745
 21
1799.475629302898
 31
0.0
  0
SOLID
  5
821
330
7D8
100
AcDbEntity
  8
1 辅助线
100
AcDbTrace
 10
12233.57180583553
 20
1801.142295969565
 30
0.0
 11
12233.57180583553
 21
1797.808962636232
 31
0.0
 12
12223.57180583552
 22
1799.475629302898
 32
0.0
 13
12223.57180583552
 23
1799.475629302898
 33
0.0
  0
SOLID
  5
822
330
7D8
100
AcDbEntity
  8
1 辅助线
100
AcDbTrace
 10
12598.57180583553
 20
1801.142295969565
 30
0.0
 11
12598.57180583553
 21
1797.808962636232
 31
0.0
 12
12608.57180583552
 22
1799.475629302898
 32
0.0
 13
12608.57180583552
 23
1799.475629302898
 33
0.0
  0
MTEXT
  5
823
330
7D8
100
AcDbEntity
  8
1 辅助线
100
AcDbMText
 10
12416.07180583552
 20
1810.670469764541
 30
0.0
 40
14.0
 41
0.0
 71
     5
 72
     1
  1
\A2;385
  7
Arial
 73
     1
 44
1.0
  0
MTEXT
  5
824
330
7D8
100
AcDbEntity
  8
1 辅助线
100
AcDbMText
 10
12416.07180583552
 20
1786.351393050352
 30
0.0
 40
14.0
 41
0.0
 71
     5
 72
     1
  1
\A2;[15 1/8"]
  7
Arial
 73
     1
 44
1.0
  0
POINT
  5
825
330
7D8
100
AcDbEntity
  8
Defpoints
 62
     0
100
AcDbPoint
 10
12223.57180583552
 20
1742.255501458675
 30
0.0
  0
POINT
  5
826
330
7D8
100
AcDbEntity
  8
Defpoints
 62
     0
100
AcDbPoint
 10
12608.57180583552
 20
1742.255501458663
 30
0.0
  0
POINT
  5
827
330
7D8
100
AcDbEntity
  8
Defpoints
 62
     0
100
AcDbPoint
 10
12608.57180583552
 20
1799.475629302898
 30
0.0
  0
ENDBLK
  5
7E3
330
7D8
100
AcDbEntity
  8
0
100
AcDbBlockEnd
  0
BLOCK
  5
7FA
330
7F0
100
AcDbEntity
  8
0
100
AcDbBlockBegin
  2
*D41
 70
     1
 10
0.0
 20
0.0
 30
0.0
  3
*D41
  1

  0
LINE
  5
812
330
7F0
100
AcDbEntity
  8
1 辅助线
100
AcDbLine
 10
12601.57180583552
 20
1757.255501458676
 30
0.0
 11
12661.89191902173
 21
1757.255501458676
 31
0.0
  0
LINE
  5
813
330
7F0
100
AcDbEntity
  8
1 辅助线
100
AcDbLine
 10
12601.57180583552
 20
1497.255501458676
 30
0.0
 11
12661.89191902173
 21
1497.255501458676
 31
0.0
  0
LINE
  5
814
330
7F0
100
AcDbEntity
  8
1 辅助线
370
     0
100
AcDbLine
 10
12653.89191902173
 20
1747.255501458676
 30
0.0
 11
12653.89191902173
 21
1651.574578172865
 31
0.0
  0
LINE
  5
815
330
7F0
100
AcDbEntity
  8
1 辅助线
370
     0
100
AcDbLine
 10
12653.89191902173
 20
1507.255501458676
 30
0.0
 11
12653.89191902173
 21
1602.936424744487
 31
0.0
  0
SOLID
  5
816
330
7F0
100
AcDbEntity
  8
1 辅助线
100
AcDbTrace
 10
12652.22525235506
 20
1747.255501458676
 30
0.0
 11
12655.5585856884
 21
1747.255501458676
 31
0.0
 12
12653.89191902173
 22
1757.255501458676
 32
0.0
 13
12653.89191902173
 23
1757.255501458676
 33
0.0
  0
SOLID
  5
817
330
7F0
100
AcDbEntity
  8
1 辅助线
100
AcDbTrace
 10
12652.22525235506
 20
1507.255501458676
 30
0.0
 11
12655.5585856884
 21
1507.255501458676
 31
0.0
 12
12653.89191902173
 22
1497.255501458676
 32
0.0
 13
12653.89191902173
 23
1497.255501458676
 33
0.0
  0
MTEXT
  5
818
330
7F0
100
AcDbEntity
  8
1 辅助线
100
AcDbMText
 10
12653.89191902173
 20
1638.450341920321
 30
0.0
 40
14.0
 41
0.0
 71
     5
 72
     1
  1
\A2;260
  7
Arial
 73
     1
 44
1.0
  0
MTEXT
  5
819
330
7F0
100
AcDbEntity
  8
1 辅助线
100
AcDbMText
 10
12653.89191902173
 20
1614.131265206132
 30
0.0
 40
14.0
 41
0.0
 71
     5
 72
     1
  1
\A2;[10 1/4"]
  7
Arial
 73
     1
 44
1.0
  0
POINT
  5
81A
330
7F0
100
AcDbEntity
  8
Defpoints
 62
     0
100
AcDbPoint
 10
12593.57180583553
 20
1757.255501458676
 30
0.0
  0
POINT
  5
81B
330
7F0
100
AcDbEntity
  8
Defpoints
 62
     0
100
AcDbPoint
 10
12593.57180583552
 20
1497.255501458676
 30
0.0
  0
POINT
  5
81C
330
7F0
100
AcDbEntity
  8
Defpoints
 62
     0
100
AcDbPoint
 10
12653.89191902173
 20
1497.255501458676
 30
0.0
  0
ENDBLK
  5
7FB
330
7F0
100
AcDbEntity
  8
0
100
AcDbBlockEnd
  0
BLOCK
  5
833
330
829
100
AcDbEntity
  8
0
100
AcDbBlockBegin
  2
*D42
 70
     1
 10
0.0
 20
0.0
 30
0.0
  3
*D42
  1

  0
LINE
  5
86E
330
829
100
AcDbEntity
  8
1 辅助线
100
AcDbLine
 10
11220.84559096337
 20
1627.415140205856
 30
0.0
 11
11220.84559096337
 21
1824.235520452555
 31
0.0
  0
LINE
  5
86F
330
829
100
AcDbEntity
  8
1 辅助线
100
AcDbLine
 10
10855.84559096337
 20
1627.415140205856
 30
0.0
 11
10855.84559096337
 21
1824.235520452555
 31
0.0
  0
LINE
  5
870
330
829
100
AcDbEntity
  8
1 辅助线
370
     0
100
AcDbLine
 10
11210.84559096338
 20
1816.235520452556
 30
0.0
 11
11075.2023458853
 21
1816.235520452556
 31
0.0
  0
LINE
  5
871
330
829
100
AcDbEntity
  8
1 辅助线
370
     0
100
AcDbLine
 10
10865.84559096338
 20
1816.235520452556
 30
0.0
 11
11001.48883604145
 21
1816.235520452556
 31
0.0
  0
SOLID
  5
872
330
829
100
AcDbEntity
  8
1 辅助线
100
AcDbTrace
 10
11210.84559096338
 20
1817.902187119222
 30
0.0
 11
11210.84559096338
 21
1814.568853785889
 31
0.0
 12
11220.84559096337
 22
1816.235520452556
 32
0.0
 13
11220.84559096337
 23
1816.235520452556
 33
0.0
  0
SOLID
  5
873
330
829
100
AcDbEntity
  8
1 辅助线
100
AcDbTrace
 10
10865.84559096338
 20
1817.902187119222
 30
0.0
 11
10865.84559096338
 21
1814.568853785889
 31
0.0
 12
10855.84559096337
 22
1816.235520452556
 32
0.0
 13
10855.84559096337
 23
1816.235520452556
 33
0.0
  0
MTEXT
  5
874
330
829
100
AcDbEntity
  8
1 辅助线
100
AcDbMText
 10
11038.34559096338
 20
1827.430360914198
 30
0.0
 40
14.0
 41
0.0
 71
     5
 72
     1
  1
\A2;365
  7
Arial
 73
     1
 44
1.0
  0
MTEXT
  5
875
330
829
100
AcDbEntity
  8
1 辅助线
100
AcDbMText
 10
11038.34559096338
 20
1803.11128420001
 30
0.0
 40
14.0
 41
0.0
 71
     5
 72
     1
  1
\A2;[14 3/8"]
  7
Arial
 73
     1
 44
1.0
  0
POINT
  5
876
330
829
100
AcDbEntity
  8
Defpoints
 62
     0
100
AcDbPoint
 10
11220.84559096337
 20
1619.415140205856
 30
0.0
  0
POINT
  5
877
330
829
100
AcDbEntity
  8
Defpoints
 62
     0
100
AcDbPoint
 10
10855.84559096337
 20
1619.415140205856
 30
0.0
  0
POINT
  5
878
330
829
100
AcDbEntity
  8
Defpoints
 62
     0
100
AcDbPoint
 10
10855.84559096337
 20
1816.235520452556
 30
0.0
  0
ENDBLK
  5
834
330
829
100
AcDbEntity
  8
0
100
AcDbBlockEnd
  0
BLOCK
  5
84B
330
841
100
AcDbEntity
  8
0
100
AcDbBlockBegin
  2
*D43
 70
     1
 10
0.0
 20
0.0
 30
0.0
  3
*D43
  1

  0
LINE
  5
863
330
841
100
AcDbEntity
  8
1 辅助线
100
AcDbLine
 10
11046.34559096338
 20
1764.415140205856
 30
0.0
 11
11284.32813703127
 21
1764.415140205856
 31
0.0
  0
LINE
  5
864
330
841
100
AcDbEntity
  8
1 辅助线
100
AcDbLine
 10
11046.34559096338
 20
1474.415140205856
 30
0.0
 11
11284.32813703127
 21
1474.415140205856
 31
0.0
  0
LINE
  5
865
330
841
100
AcDbEntity
  8
1 辅助线
370
     0
100
AcDbLine
 10
11276.32813703127
 20
1754.415140205856
 30
0.0
 11
11276.32813703127
 21
1643.734216920045
 31
0.0
  0
LINE
  5
866
330
841
100
AcDbEntity
  8
1 辅助线
370
     0
100
AcDbLine
 10
11276.32813703127
 20
1484.415140205856
 30
0.0
 11
11276.32813703127
 21
1595.096063491667
 31
0.0
  0
SOLID
  5
867
330
841
100
AcDbEntity
  8
1 辅助线
100
AcDbTrace
 10
11274.6614703646
 20
1754.415140205856
 30
0.0
 11
11277.99480369794
 21
1754.415140205856
 31
0.0
 12
11276.32813703127
 22
1764.415140205856
 32
0.0
 13
11276.32813703127
 23
1764.415140205856
 33
0.0
  0
SOLID
  5
868
330
841
100
AcDbEntity
  8
1 辅助线
100
AcDbTrace
 10
11274.6614703646
 20
1484.415140205856
 30
0.0
 11
11277.99480369794
 21
1484.415140205856
 31
0.0
 12
11276.32813703127
 22
1474.415140205856
 32
0.0
 13
11276.32813703127
 23
1474.415140205856
 33
0.0
  0
MTEXT
  5
869
330
841
100
AcDbEntity
  8
1 辅助线
100
AcDbMText
 10
11276.32813703127
 20
1630.6099806675
 30
0.0
 40
14.0
 41
0.0
 71
     5
 72
     1
  1
\A2;290
  7
Arial
 73
     1
 44
1.0
  0
MTEXT
  5
86A
330
841
100
AcDbEntity
  8
1 辅助线
100
AcDbMText
 10
11276.32813703127
 20
1606.290903953312
 30
0.0
 40
14.0
 41
0.0
 71
     5
 72
     1
  1
\A2;[11 3/8"]
  7
Arial
 73
     1
 44
1.0
  0
POINT
  5
86B
330
841
100
AcDbEntity
  8
Defpoints
 62
     0
100
AcDbPoint
 10
11038.34559096338
 20
1764.415140205856
 30
0.0
  0
POINT
  5
86C
330
841
100
AcDbEntity
  8
Defpoints
 62
     0
100
AcDbPoint
 10
11038.34559096338
 20
1474.415140205856
 30
0.0
  0
POINT
  5
86D
330
841
100
AcDbEntity
  8
Defpoints
 62
     0
100
AcDbPoint
 10
11276.32813703127
 20
1474.415140205856
 30
0.0
  0
ENDBLK
  5
84C
330
841
100
AcDbEntity
  8
0
100
AcDbBlockEnd
  0
BLOCK
  5
884
330
87A
100
AcDbEntity
  8
0
100
AcDbBlockBegin
  2
*D44
 70
     1
 10
0.0
 20
0.0
 30
0.0
  3
*D44
  1

  0
LINE
  5
8A9
330
87A
100
AcDbEntity
  8
1 辅助线
100
AcDbLine
 10
11532.85084269324
 20
1609.896745864775
 30
0.0
 11
11532.85084269324
 21
1775.282763180314
 31
0.0
  0
LINE
  5
8AA
330
87A
100
AcDbEntity
  8
1 辅助线
100
AcDbLine
 10
11842.85084269324
 20
1609.896745864775
 30
0.0
 11
11842.85084269324
 21
1775.282763180314
 31
0.0
  0
LINE
  5
8AB
330
87A
100
AcDbEntity
  8
1 辅助线
370
     0
100
AcDbLine
 10
11542.85084269324
 20
1767.282763180314
 30
0.0
 11
11650.99408777131
 21
1767.282763180314
 31
0.0
  0
LINE
  5
8AC
330
87A
100
AcDbEntity
  8
1 辅助线
370
     0
100
AcDbLine
 10
11832.85084269324
 20
1767.282763180314
 30
0.0
 11
11724.70759761516
 21
1767.282763180314
 31
0.0
  0
SOLID
  5
8AD
330
87A
100
AcDbEntity
  8
1 辅助线
100
AcDbTrace
 10
11542.85084269324
 20
1768.949429846981
 30
0.0
 11
11542.85084269324
 21
1765.616096513647
 31
0.0
 12
11532.85084269324
 22
1767.282763180314
 32
0.0
 13
11532.85084269324
 23
1767.282763180314
 33
0.0
  0
SOLID
  5
8AE
330
87A
100
AcDbEntity
  8
1 辅助线
100
AcDbTrace
 10
11832.85084269324
 20
1768.949429846981
 30
0.0
 11
11832.85084269324
 21
1765.616096513647
 31
0.0
 12
11842.85084269324
 22
1767.282763180314
 32
0.0
 13
11842.85084269324
 23
1767.282763180314
 33
0.0
  0
MTEXT
  5
8AF
330
87A
100
AcDbEntity
  8
1 辅助线
100
AcDbMText
 10
11687.85084269324
 20
1778.477603641957
 30
0.0
 40
14.0
 41
0.0
 71
     5
 72
     1
  1
\A2;310
  7
Arial
 73
     1
 44
1.0
  0
MTEXT
  5
8B0
330
87A
100
AcDbEntity
  8
1 辅助线
100
AcDbMText
 10
11687.85084269324
 20
1754.158526927768
 30
0.0
 40
14.0
 41
0.0
 71
     5
 72
     1
  1
\A2;[12 1/4"]
  7
Arial
 73
     1
 44
1.0
  0
POINT
  5
8B1
330
87A
100
AcDbEntity
  8
Defpoints
 62
     0
100
AcDbPoint
 10
11532.85084269324
 20
1601.896745864775
 30
0.0
  0
POINT
  5
8B2
330
87A
100
AcDbEntity
  8
Defpoints
 62
     0
100
AcDbPoint
 10
11842.85084269324
 20
1601.896745864775
 30
0.0
  0
POINT
  5
8B3
330
87A
100
AcDbEntity
  8
Defpoints
 62
     0
100
AcDbPoint
 10
11842.85084269324
 20
1767.282763180314
 30
0.0
  0
ENDBLK
  5
885
330
87A
100
AcDbEntity
  8
0
100
AcDbBlockEnd
  0
BLOCK
  5
89C
330
892
100
AcDbEntity
  8
0
100
AcDbBlockBegin
  2
*D45
 70
     1
 10
0.0
 20
0.0
 30
0.0
  3
*D45
  1

  0
LINE
  5
8B4
330
892
100
AcDbEntity
  8
1 辅助线
100
AcDbLine
 10
11695.85084269324
 20
1721.896745864775
 30
0.0
 11
11902.03283901957
 21
1721.896745864774
 31
0.0
  0
LINE
  5
8B5
330
892
100
AcDbEntity
  8
1 辅助线
100
AcDbLine
 10
11695.85084269324
 20
1481.896745864775
 30
0.0
 11
11902.03283901957
 21
1481.896745864774
 31
0.0
  0
LINE
  5
8B6
330
892
100
AcDbEntity
  8
1 辅助线
370
     0
100
AcDbLine
 10
11894.03283901957
 20
1711.896745864774
 30
0.0
 11
11894.03283901957
 21
1626.215822578963
 31
0.0
  0
LINE
  5
8B7
330
892
100
AcDbEntity
  8
1 辅助线
370
     0
100
AcDbLine
 10
11894.03283901957
 20
1491.896745864774
 30
0.0
 11
11894.03283901957
 21
1577.577669150586
 31
0.0
  0
SOLID
  5
8B8
330
892
100
AcDbEntity
  8
1 辅助线
100
AcDbTrace
 10
11892.3661723529
 20
1711.896745864774
 30
0.0
 11
11895.69950568623
 21
1711.896745864774
 31
0.0
 12
11894.03283901957
 22
1721.896745864774
 32
0.0
 13
11894.03283901957
 23
1721.896745864774
 33
0.0
  0
SOLID
  5
8B9
330
892
100
AcDbEntity
  8
1 辅助线
100
AcDbTrace
 10
11892.3661723529
 20
1491.896745864774
 30
0.0
 11
11895.69950568623
 21
1491.896745864774
 31
0.0
 12
11894.03283901957
 22
1481.896745864774
 32
0.0
 13
11894.03283901957
 23
1481.896745864774
 33
0.0
  0
MTEXT
  5
8BA
330
892
100
AcDbEntity
  8
1 辅助线
100
AcDbMText
 10
11894.03283901957
 20
1613.091586326419
 30
0.0
 40
14.0
 41
0.0
 71
     5
 72
     1
  1
\A2;240
  7
Arial
 73
     1
 44
1.0
  0
MTEXT
  5
8BB
330
892
100
AcDbEntity
  8
1 辅助线
100
AcDbMText
 10
11894.03283901957
 20
1588.772509612231
 30
0.0
 40
14.0
 41
0.0
 71
     5
 72
     1
  1
\A2;[9 1/2"]
  7
Arial
 73
     1
 44
1.0
  0
POINT
  5
8BC
330
892
100
AcDbEntity
  8
Defpoints
 62
     0
100
AcDbPoint
 10
11687.85084269324
 20
1721.896745864775
 30
0.0
  0
POINT
  5
8BD
330
892
100
AcDbEntity
  8
Defpoints
 62
     0
100
AcDbPoint
 10
11687.85084269324
 20
1481.896745864775
 30
0.0
  0
POINT
  5
8BE
330
892
100
AcDbEntity
  8
Defpoints
 62
     0
100
AcDbPoint
 10
11894.03283901957
 20
1481.896745864774
 30
0.0
  0
ENDBLK
  5
89D
330
892
100
AcDbEntity
  8
0
100
AcDbBlockEnd
  0
BLOCK
  5
8CF
330
8C5
100
AcDbEntity
  8
0
100
AcDbBlockBegin
  2
*D46
 70
     1
 10
0.0
 20
0.0
 30
0.0
  3
*D46
  1

  0
LINE
  5
8F4
330
8C5
100
AcDbEntity
  8
1 辅助线
100
AcDbLine
 10
12920.76440530119
 20
1613.177939568697
 30
0.0
 11
12920.76440530119
 21
1834.173199598943
 31
0.0
  0
LINE
  5
8F5
330
8C5
100
AcDbEntity
  8
1 辅助线
100
AcDbLine
 10
13345.76440530119
 20
1613.177939568697
 30
0.0
 11
13345.76440530119
 21
1834.173199598943
 31
0.0
  0
LINE
  5
8F6
330
8C5
100
AcDbEntity
  8
1 辅助线
370
     0
100
AcDbLine
 10
12930.76440530119
 20
1826.173199598943
 30
0.0
 11
13096.40765037926
 21
1826.173199598943
 31
0.0
  0
LINE
  5
8F7
330
8C5
100
AcDbEntity
  8
1 辅助线
370
     0
100
AcDbLine
 10
13335.76440530119
 20
1826.173199598943
 30
0.0
 11
13170.12116022312
 21
1826.173199598943
 31
0.0
  0
SOLID
  5
8F8
330
8C5
100
AcDbEntity
  8
1 辅助线
100
AcDbTrace
 10
12930.76440530119
 20
1827.83986626561
 30
0.0
 11
12930.76440530119
 21
1824.506532932276
 31
0.0
 12
12920.76440530119
 22
1826.173199598943
 32
0.0
 13
12920.76440530119
 23
1826.173199598943
 33
0.0
  0
SOLID
  5
8F9
330
8C5
100
AcDbEntity
  8
1 辅助线
100
AcDbTrace
 10
13335.76440530119
 20
1827.83986626561
 30
0.0
 11
13335.76440530119
 21
1824.506532932276
 31
0.0
 12
13345.76440530119
 22
1826.173199598943
 32
0.0
 13
13345.76440530119
 23
1826.173199598943
 33
0.0
  0
MTEXT
  5
8FA
330
8C5
100
AcDbEntity
  8
1 辅助线
100
AcDbMText
 10
13133.26440530119
 20
1837.368040060586
 30
0.0
 40
14.0
 41
0.0
 71
     5
 72
     1
  1
\A2;425
  7
Arial
 73
     1
 44
1.0
  0
MTEXT
  5
8FB
330
8C5
100
AcDbEntity
  8
1 辅助线
100
AcDbMText
 10
13133.26440530119
 20
1813.048963346397
 30
0.0
 40
14.0
 41
0.0
 71
     5
 72
     1
  1
\A2;[16 3/4"]
  7
Arial
 73
     1
 44
1.0
  0
POINT
  5
8FC
330
8C5
100
AcDbEntity
  8
Defpoints
 62
     0
100
AcDbPoint
 10
12920.76440530119
 20
1605.177939568697
 30
0.0
  0
POINT
  5
8FD
330
8C5
100
AcDbEntity
  8
Defpoints
 62
     0
100
AcDbPoint
 10
13345.76440530119
 20
1605.177939568697
 30
0.0
  0
POINT
  5
8FE
330
8C5
100
AcDbEntity
  8
Defpoints
 62
     0
100
AcDbPoint
 10
13345.76440530119
 20
1826.173199598943
 30
0.0
  0
ENDBLK
  5
8D0
330
8C5
100
AcDbEntity
  8
0
100
AcDbBlockEnd
  0
BLOCK
  5
8E7
330
8DD
100
AcDbEntity
  8
0
100
AcDbBlockBegin
  2
*D47
 70
     1
 10
0.0
 20
0.0
 30
0.0
  3
*D47
  1

  0
LINE
  5
8FF
330
8DD
100
AcDbEntity
  8
1 辅助线
100
AcDbLine
 10
13141.26440530119
 20
1780.177939568697
 30
0.0
 11
13405.47810207008
 21
1780.177939568697
 31
0.0
  0
LINE
  5
900
330
8DD
100
AcDbEntity
  8
1 辅助线
100
AcDbLine
 10
13141.26440530119
 20
1430.177939568697
 30
0.0
 11
13405.47810207008
 21
1430.177939568697
 31
0.0
  0
LINE
  5
901
330
8DD
100
AcDbEntity
  8
1 辅助线
370
     0
100
AcDbLine
 10
13397.47810207008
 20
1770.177939568697
 30
0.0
 11
13397.47810207008
 21
1629.497016282886
 31
0.0
  0
LINE
  5
902
330
8DD
100
AcDbEntity
  8
1 辅助线
370
     0
100
AcDbLine
 10
13397.47810207008
 20
1440.177939568697
 30
0.0
 11
13397.47810207008
 21
1580.858862854508
 31
0.0
  0
SOLID
  5
903
330
8DD
100
AcDbEntity
  8
1 辅助线
100
AcDbTrace
 10
13395.81143540342
 20
1770.177939568697
 30
0.0
 11
13399.14476873675
 21
1770.177939568697
 31
0.0
 12
13397.47810207008
 22
1780.177939568697
 32
0.0
 13
13397.47810207008
 23
1780.177939568697
 33
0.0
  0
SOLID
  5
904
330
8DD
100
AcDbEntity
  8
1 辅助线
100
AcDbTrace
 10
13395.81143540342
 20
1440.177939568697
 30
0.0
 11
13399.14476873675
 21
1440.177939568697
 31
0.0
 12
13397.47810207008
 22
1430.177939568697
 32
0.0
 13
13397.47810207008
 23
1430.177939568697
 33
0.0
  0
MTEXT
  5
905
330
8DD
100
AcDbEntity
  8
1 辅助线
100
AcDbMText
 10
13397.47810207008
 20
1616.372780030342
 30
0.0
 40
14.0
 41
0.0
 71
     5
 72
     1
  1
\A2;350
  7
Arial
 73
     1
 44
1.0
  0
MTEXT
  5
906
330
8DD
100
AcDbEntity
  8
1 辅助线
100
AcDbMText
 10
13397.47810207008
 20
1592.053703316153
 30
0.0
 40
14.0
 41
0.0
 71
     5
 72
     1
  1
\A2;[13 3/4"]
  7
Arial
 73
     1
 44
1.0
  0
POINT
  5
907
330
8DD
100
AcDbEntity
  8
Defpoints
 62
     0
100
AcDbPoint
 10
13133.26440530119
 20
1780.177939568697
 30
0.0
  0
POINT
  5
908
330
8DD
100
AcDbEntity
  8
Defpoints
 62
     0
100
AcDbPoint
 10
13133.26440530119
 20
1430.177939568697
 30
0.0
  0
POINT
  5
909
330
8DD
100
AcDbEntity
  8
Defpoints
 62
     0
100
AcDbPoint
 10
13397.47810207008
 20
1430.177939568697
 30
0.0
  0
ENDBLK
  5
8E8
330
8DD
100
AcDbEntity
  8
0
100
AcDbBlockEnd
  0
BLOCK
  5
98D
330
981
100
AcDbEntity
  8
0
100
AcDbBlockBegin
  2
*D48
 70
     1
 10
0.0
 20
0.0
 30
0.0
  3
*D48
  1

  0
LINE
  5
982
330
981
100
AcDbEntity
  8
1 辅助线
100
AcDbLine
 10
8052.517095405431
 20
956.2448338650975
 30
0.0
 11
8117.22649876653
 21
956.2448338650975
 31
0.0
  0
LINE
  5
983
330
981
100
AcDbEntity
  8
1 辅助线
100
AcDbLine
 10
8052.517095405425
 20
691.2448338650975
 30
0.0
 11
8117.22649876653
 21
691.2448338650975
 31
0.0
  0
LINE
  5
984
330
981
100
AcDbEntity
  8
1 辅助线
370
     0
100
AcDbLine
 10
8109.226498766529
 20
946.2448338650974
 30
0.0
 11
8109.226498766529
 21
848.0639105792862
 31
0.0
  0
LINE
  5
985
330
981
100
AcDbEntity
  8
1 辅助线
370
     0
100
AcDbLine
 10
8109.226498766529
 20
701.2448338650974
 30
0.0
 11
8109.226498766529
 21
799.4257571509087
 31
0.0
  0
SOLID
  5
986
330
981
100
AcDbEntity
  8
1 辅助线
100
AcDbTrace
 10
8107.559832099862
 20
946.2448338650974
 30
0.0
 11
8110.893165433196
 21
946.2448338650974
 31
0.0
 12
8109.226498766529
 22
956.2448338650975
 32
0.0
 13
8109.226498766529
 23
956.2448338650975
 33
0.0
  0
SOLID
  5
987
330
981
100
AcDbEntity
  8
1 辅助线
100
AcDbTrace
 10
8107.559832099862
 20
701.2448338650974
 30
0.0
 11
8110.893165433196
 21
701.2448338650974
 31
0.0
 12
8109.226498766529
 22
691.2448338650975
 32
0.0
 13
8109.226498766529
 23
691.2448338650975
 33
0.0
  0
MTEXT
  5
988
330
981
100
AcDbEntity
  8
1 辅助线
100
AcDbMText
 10
8109.226498766529
 20
834.9396743267417
 30
0.0
 40
14.0
 41
0.0
 71
     5
 72
     1
  1
\A2;265
  7
Arial
 73
     1
 44
1.0
  0
MTEXT
  5
989
330
981
100
AcDbEntity
  8
1 辅助线
100
AcDbMText
 10
8109.226498766529
 20
810.6205976125529
 30
0.0
 40
14.0
 41
0.0
 71
     5
 72
     1
  1
\A2;[10 3/8"]
  7
Arial
 73
     1
 44
1.0
  0
POINT
  5
98A
330
981
100
AcDbEntity
  8
Defpoints
 62
     0
100
AcDbPoint
 10
8044.51709540543
 20
956.2448338650975
 30
0.0
  0
POINT
  5
98B
330
981
100
AcDbEntity
  8
Defpoints
 62
     0
100
AcDbPoint
 10
8044.517095405426
 20
691.2448338650975
 30
0.0
  0
POINT
  5
98C
330
981
100
AcDbEntity
  8
Defpoints
 62
     0
100
AcDbPoint
 10
8109.226498766529
 20
691.2448338650975
 30
0.0
  0
ENDBLK
  5
98E
330
981
100
AcDbEntity
  8
0
100
AcDbBlockEnd
  0
BLOCK
  5
99B
330
98F
100
AcDbEntity
  8
0
100
AcDbBlockBegin
  2
*D49
 70
     1
 10
0.0
 20
0.0
 30
0.0
  3
*D49
  1

  0
LINE
  5
990
330
98F
100
AcDbEntity
  8
1 辅助线
100
AcDbLine
 10
8507.551476495155
 20
966.3892066957277
 30
0.0
 11
8507.551476495155
 21
1032.164597615357
 31
0.0
  0
LINE
  5
991
330
98F
100
AcDbEntity
  8
1 辅助线
100
AcDbLine
 10
8957.551476495167
 20
966.3892066957217
 30
0.0
 11
8957.551476495167
 21
1032.164597615357
 31
0.0
  0
LINE
  5
992
330
98F
100
AcDbEntity
  8
1 辅助线
370
     0
100
AcDbLine
 10
8517.551476495155
 20
1024.164597615357
 30
0.0
 11
8695.694721573232
 21
1024.164597615357
 31
0.0
  0
LINE
  5
993
330
98F
100
AcDbEntity
  8
1 辅助线
370
     0
100
AcDbLine
 10
8947.551476495165
 20
1024.164597615357
 30
0.0
 11
8769.408231417088
 21
1024.164597615357
 31
0.0
  0
SOLID
  5
994
330
98F
100
AcDbEntity
  8
1 辅助线
100
AcDbTrace
 10
8517.551476495155
 20
1025.831264282024
 30
0.0
 11
8517.551476495155
 21
1022.497930948691
 31
0.0
 12
8507.551476495155
 22
1024.164597615357
 32
0.0
 13
8507.551476495155
 23
1024.164597615357
 33
0.0
  0
SOLID
  5
995
330
98F
100
AcDbEntity
  8
1 辅助线
100
AcDbTrace
 10
8947.551476495165
 20
1025.831264282024
 30
0.0
 11
8947.551476495165
 21
1022.497930948691
 31
0.0
 12
8957.551476495167
 22
1024.164597615357
 32
0.0
 13
8957.551476495167
 23
1024.164597615357
 33
0.0
  0
MTEXT
  5
996
330
98F
100
AcDbEntity
  8
1 辅助线
100
AcDbMText
 10
8732.55147649516
 20
1035.359438077
 30
0.0
 40
14.0
 41
0.0
 71
     5
 72
     1
  1
\A2;450
  7
Arial
 73
     1
 44
1.0
  0
MTEXT
  5
997
330
98F
100
AcDbEntity
  8
1 辅助线
100
AcDbMText
 10
8732.55147649516
 20
1011.040361362812
 30
0.0
 40
14.0
 41
0.0
 71
     5
 72
     1
  1
\A2;[17 3/4"]
  7
Arial
 73
     1
 44
1.0
  0
POINT
  5
998
330
98F
100
AcDbEntity
  8
Defpoints
 62
     0
100
AcDbPoint
 10
8507.551476495155
 20
958.3892066957277
 30
0.0
  0
POINT
  5
999
330
98F
100
AcDbEntity
  8
Defpoints
 62
     0
100
AcDbPoint
 10
8957.551476495167
 20
958.3892066957217
 30
0.0
  0
POINT
  5
99A
330
98F
100
AcDbEntity
  8
Defpoints
 62
     0
100
AcDbPoint
 10
8957.551476495167
 20
1024.164597615357
 30
0.0
  0
ENDBLK
  5
99C
330
98F
100
AcDbEntity
  8
0
100
AcDbBlockEnd
  0
BLOCK
  5
9A9
330
99D
100
AcDbEntity
  8
0
100
AcDbBlockBegin
  2
*D50
 70
     1
 10
0.0
 20
0.0
 30
0.0
  3
*D50
  1

  0
LINE
  5
99E
330
99D
100
AcDbEntity
  8
1 辅助线
100
AcDbLine
 10
8950.551476495165
 20
973.3892066957315
 30
0.0
 11
9022.794901960024
 21
973.3892066957313
 31
0.0
  0
LINE
  5
99F
330
99D
100
AcDbEntity
  8
1 辅助线
100
AcDbLine
 10
8950.551476495162
 20
678.3892066957296
 30
0.0
 11
9022.794901960024
 21
678.3892066957295
 31
0.0
  0
LINE
  5
9A0
330
99D
100
AcDbEntity
  8
1 辅助线
370
     0
100
AcDbLine
 10
9014.794901960023
 20
963.3892066957313
 30
0.0
 11
9014.794901960023
 21
850.2082834099192
 31
0.0
  0
LINE
  5
9A1
330
99D
100
AcDbEntity
  8
1 辅助线
370
     0
100
AcDbLine
 10
9014.794901960023
 20
688.3892066957295
 30
0.0
 11
9014.794901960023
 21
801.5701299815416
 31
0.0
  0
SOLID
  5
9A2
330
99D
100
AcDbEntity
  8
1 辅助线
100
AcDbTrace
 10
9013.128235293358
 20
963.3892066957313
 30
0.0
 11
9016.46156862669
 21
963.3892066957313
 31
0.0
 12
9014.794901960023
 22
973.3892066957313
 32
0.0
 13
9014.794901960023
 23
973.3892066957313
 33
0.0
  0
SOLID
  5
9A3
330
99D
100
AcDbEntity
  8
1 辅助线
100
AcDbTrace
 10
9013.128235293358
 20
688.3892066957295
 30
0.0
 11
9016.46156862669
 21
688.3892066957295
 31
0.0
 12
9014.794901960023
 22
678.3892066957295
 32
0.0
 13
9014.794901960023
 23
678.3892066957295
 33
0.0
  0
MTEXT
  5
9A4
330
99D
100
AcDbEntity
  8
1 辅助线
100
AcDbMText
 10
9014.794901960023
 20
837.0840471573748
 30
0.0
 40
14.0
 41
0.0
 71
     5
 72
     1
  1
\A2;295
  7
Arial
 73
     1
 44
1.0
  0
MTEXT
  5
9A5
330
99D
100
AcDbEntity
  8
1 辅助线
100
AcDbMText
 10
9014.794901960023
 20
812.764970443186
 30
0.0
 40
14.0
 41
0.0
 71
     5
 72
     1
  1
\A2;[11 5/8"]
  7
Arial
 73
     1
 44
1.0
  0
POINT
  5
9A6
330
99D
100
AcDbEntity
  8
Defpoints
 62
     0
100
AcDbPoint
 10
8942.551476495166
 20
973.3892066957315
 30
0.0
  0
POINT
  5
9A7
330
99D
100
AcDbEntity
  8
Defpoints
 62
     0
100
AcDbPoint
 10
8942.551476495163
 20
678.3892066957296
 30
0.0
  0
POINT
  5
9A8
330
99D
100
AcDbEntity
  8
Defpoints
 62
     0
100
AcDbPoint
 10
9014.794901960023
 20
678.3892066957295
 30
0.0
  0
ENDBLK
  5
9AA
330
99D
100
AcDbEntity
  8
0
100
AcDbBlockEnd
  0
BLOCK
  5
9B7
330
9AB
100
AcDbEntity
  8
0
100
AcDbBlockBegin
  2
*D51
 70
     1
 10
0.0
 20
0.0
 30
0.0
  3
*D51
  1

  0
LINE
  5
9AC
330
9AB
100
AcDbEntity
  8
1 辅助线
100
AcDbLine
 10
9749.601580217831
 20
814.8877675781168
 30
0.0
 11
9749.601580217831
 21
1016.385445609556
 31
0.0
  0
LINE
  5
9AD
330
9AB
100
AcDbEntity
  8
1 辅助线
100
AcDbLine
 10
9354.601580217829
 20
814.8877675781168
 30
0.0
 11
9354.601580217829
 21
1016.385445609556
 31
0.0
  0
LINE
  5
9AE
330
9AB
100
AcDbEntity
  8
1 辅助线
370
     0
100
AcDbLine
 10
9739.601580217829
 20
1008.385445609556
 30
0.0
 11
9588.958335139757
 21
1008.385445609556
 31
0.0
  0
LINE
  5
9AF
330
9AB
100
AcDbEntity
  8
1 辅助线
370
     0
100
AcDbLine
 10
9364.601580217829
 20
1008.385445609556
 30
0.0
 11
9515.244825295901
 21
1008.385445609556
 31
0.0
  0
SOLID
  5
9B0
330
9AB
100
AcDbEntity
  8
1 辅助线
100
AcDbTrace
 10
9739.601580217829
 20
1010.052112276222
 30
0.0
 11
9739.601580217829
 21
1006.718778942889
 31
0.0
 12
9749.601580217831
 22
1008.385445609556
 32
0.0
 13
9749.601580217831
 23
1008.385445609556
 33
0.0
  0
SOLID
  5
9B1
330
9AB
100
AcDbEntity
  8
1 辅助线
100
AcDbTrace
 10
9364.601580217829
 20
1010.052112276222
 30
0.0
 11
9364.601580217829
 21
1006.718778942889
 31
0.0
 12
9354.601580217829
 22
1008.385445609556
 32
0.0
 13
9354.601580217829
 23
1008.385445609556
 33
0.0
  0
MTEXT
  5
9B2
330
9AB
100
AcDbEntity
  8
1 辅助线
100
AcDbMText
 10
9552.101580217829
 20
1019.580286071199
 30
0.0
 40
14.0
 41
0.0
 71
     5
 72
     1
  1
\A2;395
  7
Arial
 73
     1
 44
1.0
  0
MTEXT
  5
9B3
330
9AB
100
AcDbEntity
  8
1 辅助线
100
AcDbMText
 10
9552.101580217829
 20
995.2612093570101
 30
0.0
 40
14.0
 41
0.0
 71
     5
 72
     1
  1
\A2;[15 1/2"]
  7
Arial
 73
     1
 44
1.0
  0
POINT
  5
9B4
330
9AB
100
AcDbEntity
  8
Defpoints
 62
     0
100
AcDbPoint
 10
9749.601580217831
 20
806.8877675781168
 30
0.0
  0
POINT
  5
9B5
330
9AB
100
AcDbEntity
  8
Defpoints
 62
     0
100
AcDbPoint
 10
9354.601580217829
 20
806.8877675781168
 30
0.0
  0
POINT
  5
9B6
330
9AB
100
AcDbEntity
  8
Defpoints
 62
     0
100
AcDbPoint
 10
9354.601580217829
 20
1008.385445609556
 30
0.0
  0
ENDBLK
  5
9B8
330
9AB
100
AcDbEntity
  8
0
100
AcDbBlockEnd
  0
BLOCK
  5
9C5
330
9B9
100
AcDbEntity
  8
0
100
AcDbBlockBegin
  2
*D52
 70
     1
 10
0.0
 20
0.0
 30
0.0
  3
*D52
  1

  0
LINE
  5
9BA
330
9B9
100
AcDbEntity
  8
1 辅助线
100
AcDbLine
 10
9560.10158021783
 20
964.3877675781167
 30
0.0
 11
9818.701932245389
 21
964.3877675781167
 31
0.0
  0
LINE
  5
9BB
330
9B9
100
AcDbEntity
  8
1 辅助线
100
AcDbLine
 10
9560.10158021783
 20
649.3877675781168
 30
0.0
 11
9818.701932245389
 21
649.3877675781168
 31
0.0
  0
LINE
  5
9BC
330
9B9
100
AcDbEntity
  8
1 辅助线
370
     0
100
AcDbLine
 10
9810.70193224539
 20
954.3877675781168
 30
0.0
 11
9810.70193224539
 21
831.2068442923056
 31
0.0
  0
LINE
  5
9BD
330
9B9
100
AcDbEntity
  8
1 辅助线
370
     0
100
AcDbLine
 10
9810.70193224539
 20
659.3877675781168
 30
0.0
 11
9810.70193224539
 21
782.568690863928
 31
0.0
  0
SOLID
  5
9BE
330
9B9
100
AcDbEntity
  8
1 辅助线
100
AcDbTrace
 10
9809.035265578723
 20
954.3877675781168
 30
0.0
 11
9812.368598912055
 21
954.3877675781168
 31
0.0
 12
9810.70193224539
 22
964.3877675781167
 32
0.0
 13
9810.70193224539
 23
964.3877675781167
 33
0.0
  0
SOLID
  5
9BF
330
9B9
100
AcDbEntity
  8
1 辅助线
100
AcDbTrace
 10
9809.035265578723
 20
659.3877675781168
 30
0.0
 11
9812.368598912055
 21
659.3877675781168
 31
0.0
 12
9810.70193224539
 22
649.3877675781168
 32
0.0
 13
9810.70193224539
 23
649.3877675781168
 33
0.0
  0
MTEXT
  5
9C0
330
9B9
100
AcDbEntity
  8
1 辅助线
100
AcDbMText
 10
9810.70193224539
 20
818.0826080397613
 30
0.0
 40
14.0
 41
0.0
 71
     5
 72
     1
  1
\A2;315
  7
Arial
 73
     1
 44
1.0
  0
MTEXT
  5
9C1
330
9B9
100
AcDbEntity
  8
1 辅助线
100
AcDbMText
 10
9810.70193224539
 20
793.7635313255725
 30
0.0
 40
14.0
 41
0.0
 71
     5
 72
     1
  1
\A2;[12 3/8"]
  7
Arial
 73
     1
 44
1.0
  0
POINT
  5
9C2
330
9B9
100
AcDbEntity
  8
Defpoints
 62
     0
100
AcDbPoint
 10
9552.101580217829
 20
964.3877675781167
 30
0.0
  0
POINT
  5
9C3
330
9B9
100
AcDbEntity
  8
Defpoints
 62
     0
100
AcDbPoint
 10
9552.101580217829
 20
649.3877675781168
 30
0.0
  0
POINT
  5
9C4
330
9B9
100
AcDbEntity
  8
Defpoints
 62
     0
100
AcDbPoint
 10
9810.70193224539
 20
649.3877675781168
 30
0.0
  0
ENDBLK
  5
9C6
330
9B9
100
AcDbEntity
  8
0
100
AcDbBlockEnd
  0
BLOCK
  5
9D3
330
9C7
100
AcDbEntity
  8
0
100
AcDbBlockBegin
  2
*D53
 70
     1
 10
0.0
 20
0.0
 30
0.0
  3
*D53
  1

  0
LINE
  5
9C8
330
9C7
100
AcDbEntity
  8
1 辅助线
100
AcDbLine
 10
10116.1155749688
 20
950.2270284536189
 30
0.0
 11
10116.1155749688
 21
1011.759888565555
 31
0.0
  0
LINE
  5
9C9
330
9C7
100
AcDbEntity
  8
1 辅助线
100
AcDbLine
 10
10511.1155749688
 20
950.227028453618
 30
0.0
 11
10511.1155749688
 21
1011.759888565555
 31
0.0
  0
LINE
  5
9CA
330
9C7
100
AcDbEntity
  8
1 辅助线
370
     0
100
AcDbLine
 10
10126.1155749688
 20
1003.759888565555
 30
0.0
 11
10276.75882004687
 21
1003.759888565555
 31
0.0
  0
LINE
  5
9CB
330
9C7
100
AcDbEntity
  8
1 辅助线
370
     0
100
AcDbLine
 10
10501.1155749688
 20
1003.759888565555
 30
0.0
 11
10350.47232989073
 21
1003.759888565555
 31
0.0
  0
SOLID
  5
9CC
330
9C7
100
AcDbEntity
  8
1 辅助线
100
AcDbTrace
 10
10126.1155749688
 20
1005.426555232222
 30
0.0
 11
10126.1155749688
 21
1002.093221898888
 31
0.0
 12
10116.1155749688
 22
1003.759888565555
 32
0.0
 13
10116.1155749688
 23
1003.759888565555
 33
0.0
  0
SOLID
  5
9CD
330
9C7
100
AcDbEntity
  8
1 辅助线
100
AcDbTrace
 10
10501.1155749688
 20
1005.426555232222
 30
0.0
 11
10501.1155749688
 21
1002.093221898888
 31
0.0
 12
10511.1155749688
 22
1003.759888565555
 32
0.0
 13
10511.1155749688
 23
1003.759888565555
 33
0.0
  0
MTEXT
  5
9CE
330
9C7
100
AcDbEntity
  8
1 辅助线
100
AcDbMText
 10
10313.6155749688
 20
1014.954729027198
 30
0.0
 40
14.0
 41
0.0
 71
     5
 72
     1
  1
\A2;395
  7
Arial
 73
     1
 44
1.0
  0
MTEXT
  5
9CF
330
9C7
100
AcDbEntity
  8
1 辅助线
100
AcDbMText
 10
10313.6155749688
 20
990.6356523130094
 30
0.0
 40
14.0
 41
0.0
 71
     5
 72
     1
  1
\A2;[15 1/2"]
  7
Arial
 73
     1
 44
1.0
  0
POINT
  5
9D0
330
9C7
100
AcDbEntity
  8
Defpoints
 62
     0
100
AcDbPoint
 10
10116.1155749688
 20
942.2270284536189
 30
0.0
  0
POINT
  5
9D1
330
9C7
100
AcDbEntity
  8
Defpoints
 62
     0
100
AcDbPoint
 10
10511.1155749688
 20
942.227028453618
 30
0.0
  0
POINT
  5
9D2
330
9C7
100
AcDbEntity
  8
Defpoints
 62
     0
100
AcDbPoint
 10
10511.1155749688
 20
1003.759888565555
 30
0.0
  0
ENDBLK
  5
9D4
330
9C7
100
AcDbEntity
  8
0
100
AcDbBlockEnd
  0
BLOCK
  5
9E1
330
9D5
100
AcDbEntity
  8
0
100
AcDbBlockBegin
  2
*D54
 70
     1
 10
0.0
 20
0.0
 30
0.0
  3
*D54
  1

  0
LINE
  5
9D6
330
9D5
100
AcDbEntity
  8
1 辅助线
100
AcDbLine
 10
10504.1155749688
 20
957.227028453618
 30
0.0
 11
10565.63680351545
 21
957.227028453618
 31
0.0
  0
LINE
  5
9D7
330
9D5
100
AcDbEntity
  8
1 辅助线
100
AcDbLine
 10
10504.1155749688
 20
697.2270284536189
 30
0.0
 11
10565.63680351545
 21
697.2270284536189
 31
0.0
  0
LINE
  5
9D8
330
9D5
100
AcDbEntity
  8
1 辅助线
370
     0
100
AcDbLine
 10
10557.63680351545
 20
947.2270284536179
 30
0.0
 11
10557.63680351545
 21
851.5461051678071
 31
0.0
  0
LINE
  5
9D9
330
9D5
100
AcDbEntity
  8
1 辅助线
370
     0
100
AcDbLine
 10
10557.63680351545
 20
707.2270284536188
 30
0.0
 11
10557.63680351545
 21
802.9079517394297
 31
0.0
  0
SOLID
  5
9DA
330
9D5
100
AcDbEntity
  8
1 辅助线
100
AcDbTrace
 10
10555.97013684879
 20
947.2270284536179
 30
0.0
 11
10559.30347018212
 21
947.2270284536179
 31
0.0
 12
10557.63680351545
 22
957.227028453618
 32
0.0
 13
10557.63680351545
 23
957.227028453618
 33
0.0
  0
SOLID
  5
9DB
330
9D5
100
AcDbEntity
  8
1 辅助线
100
AcDbTrace
 10
10555.97013684879
 20
707.2270284536188
 30
0.0
 11
10559.30347018212
 21
707.2270284536188
 31
0.0
 12
10557.63680351545
 22
697.2270284536189
 32
0.0
 13
10557.63680351545
 23
697.2270284536189
 33
0.0
  0
MTEXT
  5
9DC
330
9D5
100
AcDbEntity
  8
1 辅助线
100
AcDbMText
 10
10557.63680351545
 20
838.421868915263
 30
0.0
 40
14.0
 41
0.0
 71
     5
 72
     1
  1
\A2;260
  7
Arial
 73
     1
 44
1.0
  0
MTEXT
  5
9DD
330
9D5
100
AcDbEntity
  8
1 辅助线
100
AcDbMText
 10
10557.63680351545
 20
814.1027922010742
 30
0.0
 40
14.0
 41
0.0
 71
     5
 72
     1
  1
\A2;[10 1/4"]
  7
Arial
 73
     1
 44
1.0
  0
POINT
  5
9DE
330
9D5
100
AcDbEntity
  8
Defpoints
 62
     0
100
AcDbPoint
 10
10496.1155749688
 20
957.227028453618
 30
0.0
  0
POINT
  5
9DF
330
9D5
100
AcDbEntity
  8
Defpoints
 62
     0
100
AcDbPoint
 10
10496.1155749688
 20
697.2270284536189
 30
0.0
  0
POINT
  5
9E0
330
9D5
100
AcDbEntity
  8
Defpoints
 62
     0
100
AcDbPoint
 10
10557.63680351545
 20
697.2270284536189
 30
0.0
  0
ENDBLK
  5
9E2
330
9D5
100
AcDbEntity
  8
0
100
AcDbBlockEnd
  0
BLOCK
  5
9EF
330
9E3
100
AcDbEntity
  8
0
100
AcDbBlockBegin
  2
*D55
 70
     1
 10
0.0
 20
0.0
 30
0.0
  3
*D55
  1

  0
LINE
  5
9E4
330
9E3
100
AcDbEntity
  8
1 辅助线
100
AcDbLine
 10
12223.57180583552
 20
941.80515000586
 30
0.0
 11
12223.57180583552
 21
999.0252778500835
 31
0.0
  0
LINE
  5
9E5
330
9E3
100
AcDbEntity
  8
1 辅助线
100
AcDbLine
 10
12608.57180583552
 20
941.8051500058478
 30
0.0
 11
12608.57180583552
 21
999.0252778500835
 31
0.0
  0
LINE
  5
9E6
330
9E3
100
AcDbEntity
  8
1 辅助线
370
     0
100
AcDbLine
 10
12233.57180583553
 20
991.0252778500835
 30
0.0
 11
12379.2150509136
 21
991.0252778500835
 31
0.0
  0
LINE
  5
9E7
330
9E3
100
AcDbEntity
  8
1 辅助线
370
     0
100
AcDbLine
 10
12598.57180583553
 20
991.0252778500835
 30
0.0
 11
12452.92856075745
 21
991.0252778500835
 31
0.0
  0
SOLID
  5
9E8
330
9E3
100
AcDbEntity
  8
1 辅助线
100
AcDbTrace
 10
12233.57180583553
 20
992.69194451675
 30
0.0
 11
12233.57180583553
 21
989.3586111834169
 31
0.0
 12
12223.57180583552
 22
991.0252778500835
 32
0.0
 13
12223.57180583552
 23
991.0252778500835
 33
0.0
  0
SOLID
  5
9E9
330
9E3
100
AcDbEntity
  8
1 辅助线
100
AcDbTrace
 10
12598.57180583553
 20
992.69194451675
 30
0.0
 11
12598.57180583553
 21
989.3586111834169
 31
0.0
 12
12608.57180583552
 22
991.0252778500835
 32
0.0
 13
12608.57180583552
 23
991.0252778500835
 33
0.0
  0
MTEXT
  5
9EA
330
9E3
100
AcDbEntity
  8
1 辅助线
100
AcDbMText
 10
12416.07180583552
 20
1002.220118311726
 30
0.0
 40
14.0
 41
0.0
 71
     5
 72
     1
  1
\A2;385
  7
Arial
 73
     1
 44
1.0
  0
MTEXT
  5
9EB
330
9E3
100
AcDbEntity
  8
1 辅助线
100
AcDbMText
 10
12416.07180583552
 20
977.9010415975376
 30
0.0
 40
14.0
 41
0.0
 71
     5
 72
     1
  1
\A2;[15 1/8"]
  7
Arial
 73
     1
 44
1.0
  0
POINT
  5
9EC
330
9E3
100
AcDbEntity
  8
Defpoints
 62
     0
100
AcDbPoint
 10
12223.57180583552
 20
933.80515000586
 30
0.0
  0
POINT
  5
9ED
330
9E3
100
AcDbEntity
  8
Defpoints
 62
     0
100
AcDbPoint
 10
12608.57180583552
 20
933.8051500058478
 30
0.0
  0
POINT
  5
9EE
330
9E3
100
AcDbEntity
  8
Defpoints
 62
     0
100
AcDbPoint
 10
12608.57180583552
 20
991.0252778500835
 30
0.0
  0
ENDBLK
  5
9F0
330
9E3
100
AcDbEntity
  8
0
100
AcDbBlockEnd
  0
BLOCK
  5
9FD
330
9F1
100
AcDbEntity
  8
0
100
AcDbBlockBegin
  2
*D56
 70
     1
 10
0.0
 20
0.0
 30
0.0
  3
*D56
  1

  0
LINE
  5
9F2
330
9F1
100
AcDbEntity
  8
1 辅助线
100
AcDbLine
 10
12601.57180583552
 20
948.805150005861
 30
0.0
 11
12661.89191902173
 21
948.805150005861
 31
0.0
  0
LINE
  5
9F3
330
9F1
100
AcDbEntity
  8
1 辅助线
100
AcDbLine
 10
12601.57180583552
 20
688.8051500058609
 30
0.0
 11
12661.89191902173
 21
688.8051500058609
 31
0.0
  0
LINE
  5
9F4
330
9F1
100
AcDbEntity
  8
1 辅助线
370
     0
100
AcDbLine
 10
12653.89191902173
 20
938.8051500058608
 30
0.0
 11
12653.89191902173
 21
843.1242267200497
 31
0.0
  0
LINE
  5
9F5
330
9F1
100
AcDbEntity
  8
1 辅助线
370
     0
100
AcDbLine
 10
12653.89191902173
 20
698.8051500058609
 30
0.0
 11
12653.89191902173
 21
794.4860732916721
 31
0.0
  0
SOLID
  5
9F6
330
9F1
100
AcDbEntity
  8
1 辅助线
100
AcDbTrace
 10
12652.22525235506
 20
938.8051500058608
 30
0.0
 11
12655.5585856884
 21
938.8051500058608
 31
0.0
 12
12653.89191902173
 22
948.805150005861
 32
0.0
 13
12653.89191902173
 23
948.805150005861
 33
0.0
  0
SOLID
  5
9F7
330
9F1
100
AcDbEntity
  8
1 辅助线
100
AcDbTrace
 10
12652.22525235506
 20
698.8051500058609
 30
0.0
 11
12655.5585856884
 21
698.8051500058609
 31
0.0
 12
12653.89191902173
 22
688.8051500058609
 32
0.0
 13
12653.89191902173
 23
688.8051500058609
 33
0.0
  0
MTEXT
  5
9F8
330
9F1
100
AcDbEntity
  8
1 辅助线
100
AcDbMText
 10
12653.89191902173
 20
829.9999904675058
 30
0.0
 40
14.0
 41
0.0
 71
     5
 72
     1
  1
\A2;260
  7
Arial
 73
     1
 44
1.0
  0
MTEXT
  5
9F9
330
9F1
100
AcDbEntity
  8
1 辅助线
100
AcDbMText
 10
12653.89191902173
 20
805.6809137533171
 30
0.0
 40
14.0
 41
0.0
 71
     5
 72
     1
  1
\A2;[10 1/4"]
  7
Arial
 73
     1
 44
1.0
  0
POINT
  5
9FA
330
9F1
100
AcDbEntity
  8
Defpoints
 62
     0
100
AcDbPoint
 10
12593.57180583553
 20
948.805150005861
 30
0.0
  0
POINT
  5
9FB
330
9F1
100
AcDbEntity
  8
Defpoints
 62
     0
100
AcDbPoint
 10
12593.57180583552
 20
688.8051500058609
 30
0.0
  0
POINT
  5
9FC
330
9F1
100
AcDbEntity
  8
Defpoints
 62
     0
100
AcDbPoint
 10
12653.89191902173
 20
688.8051500058609
 30
0.0
  0
ENDBLK
  5
9FE
330
9F1
100
AcDbEntity
  8
0
100
AcDbBlockEnd
  0
BLOCK
  5
A0B
330
9FF
100
AcDbEntity
  8
0
100
AcDbBlockBegin
  2
*D57
 70
     1
 10
0.0
 20
0.0
 30
0.0
  3
*D57
  1

  0
LINE
  5
A00
330
9FF
100
AcDbEntity
  8
1 辅助线
100
AcDbLine
 10
11220.84559096337
 20
818.9647887530409
 30
0.0
 11
11220.84559096337
 21
1015.78516899974
 31
0.0
  0
LINE
  5
A01
330
9FF
100
AcDbEntity
  8
1 辅助线
100
AcDbLine
 10
10855.84559096337
 20
818.9647887530409
 30
0.0
 11
10855.84559096337
 21
1015.78516899974
 31
0.0
  0
LINE
  5
A02
330
9FF
100
AcDbEntity
  8
1 辅助线
370
     0
100
AcDbLine
 10
11210.84559096338
 20
1007.78516899974
 30
0.0
 11
11075.2023458853
 21
1007.78516899974
 31
0.0
  0
LINE
  5
A03
330
9FF
100
AcDbEntity
  8
1 辅助线
370
     0
100
AcDbLine
 10
10865.84559096338
 20
1007.78516899974
 30
0.0
 11
11001.48883604145
 21
1007.78516899974
 31
0.0
  0
SOLID
  5
A04
330
9FF
100
AcDbEntity
  8
1 辅助线
100
AcDbTrace
 10
11210.84559096338
 20
1009.451835666407
 30
0.0
 11
11210.84559096338
 21
1006.118502333074
 31
0.0
 12
11220.84559096337
 22
1007.78516899974
 32
0.0
 13
11220.84559096337
 23
1007.78516899974
 33
0.0
  0
SOLID
  5
A05
330
9FF
100
AcDbEntity
  8
1 辅助线
100
AcDbTrace
 10
10865.84559096338
 20
1009.451835666407
 30
0.0
 11
10865.84559096338
 21
1006.118502333074
 31
0.0
 12
10855.84559096337
 22
1007.78516899974
 32
0.0
 13
10855.84559096337
 23
1007.78516899974
 33
0.0
  0
MTEXT
  5
A06
330
9FF
100
AcDbEntity
  8
1 辅助线
100
AcDbMText
 10
11038.34559096338
 20
1018.980009461383
 30
0.0
 40
14.0
 41
0.0
 71
     5
 72
     1
  1
\A2;365
  7
Arial
 73
     1
 44
1.0
  0
MTEXT
  5
A07
330
9FF
100
AcDbEntity
  8
1 辅助线
100
AcDbMText
 10
11038.34559096338
 20
994.6609327471946
 30
0.0
 40
14.0
 41
0.0
 71
     5
 72
     1
  1
\A2;[14 3/8"]
  7
Arial
 73
     1
 44
1.0
  0
POINT
  5
A08
330
9FF
100
AcDbEntity
  8
Defpoints
 62
     0
100
AcDbPoint
 10
11220.84559096337
 20
810.9647887530408
 30
0.0
  0
POINT
  5
A09
330
9FF
100
AcDbEntity
  8
Defpoints
 62
     0
100
AcDbPoint
 10
10855.84559096337
 20
810.9647887530408
 30
0.0
  0
POINT
  5
A0A
330
9FF
100
AcDbEntity
  8
Defpoints
 62
     0
100
AcDbPoint
 10
10855.84559096337
 20
1007.78516899974
 30
0.0
  0
ENDBLK
  5
A0C
330
9FF
100
AcDbEntity
  8
0
100
AcDbBlockEnd
  0
BLOCK
  5
A19
330
A0D
100
AcDbEntity
  8
0
100
AcDbBlockBegin
  2
*D58
 70
     1
 10
0.0
 20
0.0
 30
0.0
  3
*D58
  1

  0
LINE
  5
A0E
330
A0D
100
AcDbEntity
  8
1 辅助线
100
AcDbLine
 10
11046.34559096338
 20
955.964788753041
 30
0.0
 11
11284.32813703127
 21
955.964788753041
 31
0.0
  0
LINE
  5
A0F
330
A0D
100
AcDbEntity
  8
1 辅助线
100
AcDbLine
 10
11046.34559096338
 20
665.9647887530409
 30
0.0
 11
11284.32813703127
 21
665.9647887530409
 31
0.0
  0
LINE
  5
A10
330
A0D
100
AcDbEntity
  8
1 辅助线
370
     0
100
AcDbLine
 10
11276.32813703127
 20
945.9647887530408
 30
0.0
 11
11276.32813703127
 21
835.2838654672297
 31
0.0
  0
LINE
  5
A11
330
A0D
100
AcDbEntity
  8
1 辅助线
370
     0
100
AcDbLine
 10
11276.32813703127
 20
675.9647887530409
 30
0.0
 11
11276.32813703127
 21
786.6457120388521
 31
0.0
  0
SOLID
  5
A12
330
A0D
100
AcDbEntity
  8
1 辅助线
100
AcDbTrace
 10
11274.6614703646
 20
945.9647887530408
 30
0.0
 11
11277.99480369794
 21
945.9647887530408
 31
0.0
 12
11276.32813703127
 22
955.964788753041
 32
0.0
 13
11276.32813703127
 23
955.964788753041
 33
0.0
  0
SOLID
  5
A13
330
A0D
100
AcDbEntity
  8
1 辅助线
100
AcDbTrace
 10
11274.6614703646
 20
675.9647887530409
 30
0.0
 11
11277.99480369794
 21
675.9647887530409
 31
0.0
 12
11276.32813703127
 22
665.9647887530409
 32
0.0
 13
11276.32813703127
 23
665.9647887530409
 33
0.0
  0
MTEXT
  5
A14
330
A0D
100
AcDbEntity
  8
1 辅助线
100
AcDbMText
 10
11276.32813703127
 20
822.1596292146855
 30
0.0
 40
14.0
 41
0.0
 71
     5
 72
     1
  1
\A2;290
  7
Arial
 73
     1
 44
1.0
  0
MTEXT
  5
A15
330
A0D
100
AcDbEntity
  8
1 辅助线
100
AcDbMText
 10
11276.32813703127
 20
797.8405525004968
 30
0.0
 40
14.0
 41
0.0
 71
     5
 72
     1
  1
\A2;[11 3/8"]
  7
Arial
 73
     1
 44
1.0
  0
POINT
  5
A16
330
A0D
100
AcDbEntity
  8
Defpoints
 62
     0
100
AcDbPoint
 10
11038.34559096338
 20
955.964788753041
 30
0.0
  0
POINT
  5
A17
330
A0D
100
AcDbEntity
  8
Defpoints
 62
     0
100
AcDbPoint
 10
11038.34559096338
 20
665.9647887530409
 30
0.0
  0
POINT
  5
A18
330
A0D
100
AcDbEntity
  8
Defpoints
 62
     0
100
AcDbPoint
 10
11276.32813703127
 20
665.9647887530409
 30
0.0
  0
ENDBLK
  5
A1A
330
A0D
100
AcDbEntity
  8
0
100
AcDbBlockEnd
  0
BLOCK
  5
A27
330
A1B
100
AcDbEntity
  8
0
100
AcDbBlockBegin
  2
*D59
 70
     1
 10
0.0
 20
0.0
 30
0.0
  3
*D59
  1

  0
LINE
  5
A1C
330
A1B
100
AcDbEntity
  8
1 辅助线
100
AcDbLine
 10
11532.85084269324
 20
801.4463944119597
 30
0.0
 11
11532.85084269324
 21
966.8324117274988
 31
0.0
  0
LINE
  5
A1D
330
A1B
100
AcDbEntity
  8
1 辅助线
100
AcDbLine
 10
11842.85084269324
 20
801.4463944119597
 30
0.0
 11
11842.85084269324
 21
966.8324117274988
 31
0.0
  0
LINE
  5
A1E
330
A1B
100
AcDbEntity
  8
1 辅助线
370
     0
100
AcDbLine
 10
11542.85084269324
 20
958.8324117274988
 30
0.0
 11
11650.99408777131
 21
958.8324117274988
 31
0.0
  0
LINE
  5
A1F
330
A1B
100
AcDbEntity
  8
1 辅助线
370
     0
100
AcDbLine
 10
11832.85084269324
 20
958.8324117274988
 30
0.0
 11
11724.70759761516
 21
958.8324117274988
 31
0.0
  0
SOLID
  5
A20
330
A1B
100
AcDbEntity
  8
1 辅助线
100
AcDbTrace
 10
11542.85084269324
 20
960.4990783941653
 30
0.0
 11
11542.85084269324
 21
957.1657450608322
 31
0.0
 12
11532.85084269324
 22
958.8324117274988
 32
0.0
 13
11532.85084269324
 23
958.8324117274988
 33
0.0
  0
SOLID
  5
A21
330
A1B
100
AcDbEntity
  8
1 辅助线
100
AcDbTrace
 10
11832.85084269324
 20
960.4990783941653
 30
0.0
 11
11832.85084269324
 21
957.1657450608322
 31
0.0
 12
11842.85084269324
 22
958.8324117274988
 32
0.0
 13
11842.85084269324
 23
958.8324117274988
 33
0.0
  0
MTEXT
  5
A22
330
A1B
100
AcDbEntity
  8
1 辅助线
100
AcDbMText
 10
11687.85084269324
 20
970.0272521891417
 30
0.0
 40
14.0
 41
0.0
 71
     5
 72
     1
  1
\A2;310
  7
Arial
 73
     1
 44
1.0
  0
MTEXT
  5
A23
330
A1B
100
AcDbEntity
  8
1 辅助线
100
AcDbMText
 10
11687.85084269324
 20
945.7081754749529
 30
0.0
 40
14.0
 41
0.0
 71
     5
 72
     1
  1
\A2;[12 1/4"]
  7
Arial
 73
     1
 44
1.0
  0
POINT
  5
A24
330
A1B
100
AcDbEntity
  8
Defpoints
 62
     0
100
AcDbPoint
 10
11532.85084269324
 20
793.4463944119597
 30
0.0
  0
POINT
  5
A25
330
A1B
100
AcDbEntity
  8
Defpoints
 62
     0
100
AcDbPoint
 10
11842.85084269324
 20
793.4463944119597
 30
0.0
  0
POINT
  5
A26
330
A1B
100
AcDbEntity
  8
Defpoints
 62
     0
100
AcDbPoint
 10
11842.85084269324
 20
958.8324117274988
 30
0.0
  0
ENDBLK
  5
A28
330
A1B
100
AcDbEntity
  8
0
100
AcDbBlockEnd
  0
BLOCK
  5
A35
330
A29
100
AcDbEntity
  8
0
100
AcDbBlockBegin
  2
*D60
 70
     1
 10
0.0
 20
0.0
 30
0.0
  3
*D60
  1

  0
LINE
  5
A2A
330
A29
100
AcDbEntity
  8
1 辅助线
100
AcDbLine
 10
11695.85084269324
 20
913.4463944119598
 30
0.0
 11
11902.03283901957
 21
913.4463944119598
 31
0.0
  0
LINE
  5
A2B
330
A29
100
AcDbEntity
  8
1 辅助线
100
AcDbLine
 10
11695.85084269324
 20
673.4463944119597
 30
0.0
 11
11902.03283901957
 21
673.4463944119597
 31
0.0
  0
LINE
  5
A2C
330
A29
100
AcDbEntity
  8
1 辅助线
370
     0
100
AcDbLine
 10
11894.03283901957
 20
903.4463944119597
 30
0.0
 11
11894.03283901957
 21
817.7654711261485
 31
0.0
  0
LINE
  5
A2D
330
A29
100
AcDbEntity
  8
1 辅助线
370
     0
100
AcDbLine
 10
11894.03283901957
 20
683.4463944119598
 30
0.0
 11
11894.03283901957
 21
769.127317697771
 31
0.0
  0
SOLID
  5
A2E
330
A29
100
AcDbEntity
  8
1 辅助线
100
AcDbTrace
 10
11892.3661723529
 20
903.4463944119597
 30
0.0
 11
11895.69950568623
 21
903.4463944119597
 31
0.0
 12
11894.03283901957
 22
913.4463944119598
 32
0.0
 13
11894.03283901957
 23
913.4463944119598
 33
0.0
  0
SOLID
  5
A2F
330
A29
100
AcDbEntity
  8
1 辅助线
100
AcDbTrace
 10
11892.3661723529
 20
683.4463944119598
 30
0.0
 11
11895.69950568623
 21
683.4463944119598
 31
0.0
 12
11894.03283901957
 22
673.4463944119597
 32
0.0
 13
11894.03283901957
 23
673.4463944119597
 33
0.0
  0
MTEXT
  5
A30
330
A29
100
AcDbEntity
  8
1 辅助线
100
AcDbMText
 10
11894.03283901957
 20
804.6412348736046
 30
0.0
 40
14.0
 41
0.0
 71
     5
 72
     1
  1
\A2;240
  7
Arial
 73
     1
 44
1.0
  0
MTEXT
  5
A31
330
A29
100
AcDbEntity
  8
1 辅助线
100
AcDbMText
 10
11894.03283901957
 20
780.3221581594158
 30
0.0
 40
14.0
 41
0.0
 71
     5
 72
     1
  1
\A2;[9 1/2"]
  7
Arial
 73
     1
 44
1.0
  0
POINT
  5
A32
330
A29
100
AcDbEntity
  8
Defpoints
 62
     0
100
AcDbPoint
 10
11687.85084269324
 20
913.4463944119598
 30
0.0
  0
POINT
  5
A33
330
A29
100
AcDbEntity
  8
Defpoints
 62
     0
100
AcDbPoint
 10
11687.85084269324
 20
673.4463944119597
 30
0.0
  0
POINT
  5
A34
330
A29
100
AcDbEntity
  8
Defpoints
 62
     0
100
AcDbPoint
 10
11894.03283901957
 20
673.4463944119597
 30
0.0
  0
ENDBLK
  5
A36
330
A29
100
AcDbEntity
  8
0
100
AcDbBlockEnd
  0
BLOCK
  5
A43
330
A37
100
AcDbEntity
  8
0
100
AcDbBlockBegin
  2
*D61
 70
     1
 10
0.0
 20
0.0
 30
0.0
  3
*D61
  1

  0
LINE
  5
A38
330
A37
100
AcDbEntity
  8
1 辅助线
100
AcDbLine
 10
12920.76440530119
 20
804.7275881158821
 30
0.0
 11
12920.76440530119
 21
1025.722848146128
 31
0.0
  0
LINE
  5
A39
330
A37
100
AcDbEntity
  8
1 辅助线
100
AcDbLine
 10
13345.76440530119
 20
804.7275881158821
 30
0.0
 11
13345.76440530119
 21
1025.722848146128
 31
0.0
  0
LINE
  5
A3A
330
A37
100
AcDbEntity
  8
1 辅助线
370
     0
100
AcDbLine
 10
12930.76440530119
 20
1017.722848146128
 30
0.0
 11
13096.40765037926
 21
1017.722848146128
 31
0.0
  0
LINE
  5
A3B
330
A37
100
AcDbEntity
  8
1 辅助线
370
     0
100
AcDbLine
 10
13335.76440530119
 20
1017.722848146128
 30
0.0
 11
13170.12116022312
 21
1017.722848146128
 31
0.0
  0
SOLID
  5
A3C
330
A37
100
AcDbEntity
  8
1 辅助线
100
AcDbTrace
 10
12930.76440530119
 20
1019.389514812794
 30
0.0
 11
12930.76440530119
 21
1016.056181479461
 31
0.0
 12
12920.76440530119
 22
1017.722848146128
 32
0.0
 13
12920.76440530119
 23
1017.722848146128
 33
0.0
  0
SOLID
  5
A3D
330
A37
100
AcDbEntity
  8
1 辅助线
100
AcDbTrace
 10
13335.76440530119
 20
1019.389514812794
 30
0.0
 11
13335.76440530119
 21
1016.056181479461
 31
0.0
 12
13345.76440530119
 22
1017.722848146128
 32
0.0
 13
13345.76440530119
 23
1017.722848146128
 33
0.0
  0
MTEXT
  5
A3E
330
A37
100
AcDbEntity
  8
1 辅助线
100
AcDbMText
 10
13133.26440530119
 20
1028.917688607771
 30
0.0
 40
14.0
 41
0.0
 71
     5
 72
     1
  1
\A2;425
  7
Arial
 73
     1
 44
1.0
  0
MTEXT
  5
A3F
330
A37
100
AcDbEntity
  8
1 辅助线
100
AcDbMText
 10
13133.26440530119
 20
1004.598611893582
 30
0.0
 40
14.0
 41
0.0
 71
     5
 72
     1
  1
\A2;[16 3/4"]
  7
Arial
 73
     1
 44
1.0
  0
POINT
  5
A40
330
A37
100
AcDbEntity
  8
Defpoints
 62
     0
100
AcDbPoint
 10
12920.76440530119
 20
796.7275881158821
 30
0.0
  0
POINT
  5
A41
330
A37
100
AcDbEntity
  8
Defpoints
 62
     0
100
AcDbPoint
 10
13345.76440530119
 20
796.7275881158821
 30
0.0
  0
POINT
  5
A42
330
A37
100
AcDbEntity
  8
Defpoints
 62
     0
100
AcDbPoint
 10
13345.76440530119
 20
1017.722848146128
 30
0.0
  0
ENDBLK
  5
A44
330
A37
100
AcDbEntity
  8
0
100
AcDbBlockEnd
  0
BLOCK
  5
A51
330
A45
100
AcDbEntity
  8
0
100
AcDbBlockBegin
  2
*D62
 70
     1
 10
0.0
 20
0.0
 30
0.0
  3
*D62
  1

  0
LINE
  5
A46
330
A45
100
AcDbEntity
  8
1 辅助线
100
AcDbLine
 10
13141.26440530119
 20
971.7275881158821
 30
0.0
 11
13405.47810207008
 21
971.7275881158821
 31
0.0
  0
LINE
  5
A47
330
A45
100
AcDbEntity
  8
1 辅助线
100
AcDbLine
 10
13141.26440530119
 20
621.7275881158821
 30
0.0
 11
13405.47810207008
 21
621.7275881158821
 31
0.0
  0
LINE
  5
A48
330
A45
100
AcDbEntity
  8
1 辅助线
370
     0
100
AcDbLine
 10
13397.47810207008
 20
961.7275881158821
 30
0.0
 11
13397.47810207008
 21
821.0466648300709
 31
0.0
  0
LINE
  5
A49
330
A45
100
AcDbEntity
  8
1 辅助线
370
     0
100
AcDbLine
 10
13397.47810207008
 20
631.727588115882
 30
0.0
 11
13397.47810207008
 21
772.4085114016933
 31
0.0
  0
SOLID
  5
A4A
330
A45
100
AcDbEntity
  8
1 辅助线
100
AcDbTrace
 10
13395.81143540342
 20
961.7275881158821
 30
0.0
 11
13399.14476873675
 21
961.7275881158821
 31
0.0
 12
13397.47810207008
 22
971.7275881158821
 32
0.0
 13
13397.47810207008
 23
971.7275881158821
 33
0.0
  0
SOLID
  5
A4B
330
A45
100
AcDbEntity
  8
1 辅助线
100
AcDbTrace
 10
13395.81143540342
 20
631.727588115882
 30
0.0
 11
13399.14476873675
 21
631.727588115882
 31
0.0
 12
13397.47810207008
 22
621.7275881158821
 32
0.0
 13
13397.47810207008
 23
621.7275881158821
 33
0.0
  0
MTEXT
  5
A4C
330
A45
100
AcDbEntity
  8
1 辅助线
100
AcDbMText
 10
13397.47810207008
 20
807.9224285775271
 30
0.0
 40
14.0
 41
0.0
 71
     5
 72
     1
  1
\A2;350
  7
Arial
 73
     1
 44
1.0
  0
MTEXT
  5
A4D
330
A45
100
AcDbEntity
  8
1 辅助线
100
AcDbMText
 10
13397.47810207008
 20
783.6033518633383
 30
0.0
 40
14.0
 41
0.0
 71
     5
 72
     1
  1
\A2;[13 3/4"]
  7
Arial
 73
     1
 44
1.0
  0
POINT
  5
A4E
330
A45
100
AcDbEntity
  8
Defpoints
 62
     0
100
AcDbPoint
 10
13133.26440530119
 20
971.7275881158821
 30
0.0
  0
POINT
  5
A4F
330
A45
100
AcDbEntity
  8
Defpoints
 62
     0
100
AcDbPoint
 10
13133.26440530119
 20
621.7275881158821
 30
0.0
  0
POINT
  5
A50
330
A45
100
AcDbEntity
  8
Defpoints
 62
     0
100
AcDbPoint
 10
13397.47810207008
 20
621.7275881158821
 30
0.0
  0
ENDBLK
  5
A52
330
A45
100
AcDbEntity
  8
0
100
AcDbBlockEnd
  0
BLOCK
  5
A5F
330
A53
100
AcDbEntity
  8
0
100
AcDbBlockBegin
  2
*D63
 70
     1
 10
0.0
 20
0.0
 30
0.0
  3
*D63
  1

  0
LINE
  5
A54
330
A53
100
AcDbEntity
  8
1 辅助线
100
AcDbLine
 10
1484.938725476913
 20
941.0887602371021
 30
0.0
 11
1484.938725476913
 21
1002.654677086582
 31
0.0
  0
LINE
  5
A55
330
A53
100
AcDbEntity
  8
1 辅助线
100
AcDbLine
 10
1061.93872547691
 20
941.0887602370969
 30
0.0
 11
1061.93872547691
 21
1002.654677086582
 31
0.0
  0
LINE
  5
A56
330
A53
100
AcDbEntity
  8
1 辅助线
370
     0
100
AcDbLine
 10
1474.938725476913
 20
994.6546770865825
 30
0.0
 11
1310.29548039884
 21
994.6546770865825
 31
0.0
  0
LINE
  5
A57
330
A53
100
AcDbEntity
  8
1 辅助线
370
     0
100
AcDbLine
 10
1071.93872547691
 20
994.6546770865825
 30
0.0
 11
1236.581970554984
 21
994.6546770865825
 31
0.0
  0
SOLID
  5
A58
330
A53
100
AcDbEntity
  8
1 辅助线
100
AcDbTrace
 10
1474.938725476913
 20
996.3213437532491
 30
0.0
 11
1474.938725476913
 21
992.9880104199158
 31
0.0
 12
1484.938725476913
 22
994.6546770865825
 32
0.0
 13
1484.938725476913
 23
994.6546770865825
 33
0.0
  0
SOLID
  5
A59
330
A53
100
AcDbEntity
  8
1 辅助线
100
AcDbTrace
 10
1071.93872547691
 20
996.3213437532491
 30
0.0
 11
1071.93872547691
 21
992.9880104199158
 31
0.0
 12
1061.93872547691
 22
994.6546770865825
 32
0.0
 13
1061.93872547691
 23
994.6546770865825
 33
0.0
  0
MTEXT
  5
A5A
330
A53
100
AcDbEntity
  8
1 辅助线
100
AcDbMText
 10
1273.438725476912
 20
1005.849517548225
 30
0.0
 40
14.0
 41
0.0
 71
     5
 72
     1
  1
\A2;423
  7
Arial
 73
     1
 44
1.0
  0
MTEXT
  5
A5B
330
A53
100
AcDbEntity
  8
1 辅助线
100
AcDbMText
 10
1273.438725476912
 20
981.5304408340367
 30
0.0
 40
14.0
 41
0.0
 71
     5
 72
     1
  1
\A2;[16 5/8"]
  7
Arial
 73
     1
 44
1.0
  0
POINT
  5
A5C
330
A53
100
AcDbEntity
  8
Defpoints
 62
     0
100
AcDbPoint
 10
1484.938725476913
 20
933.0887602371021
 30
0.0
  0
POINT
  5
A5D
330
A53
100
AcDbEntity
  8
Defpoints
 62
     0
100
AcDbPoint
 10
1061.93872547691
 20
933.0887602370969
 30
0.0
  0
POINT
  5
A5E
330
A53
100
AcDbEntity
  8
Defpoints
 62
     0
100
AcDbPoint
 10
1061.93872547691
 20
994.6546770865825
 30
0.0
  0
ENDBLK
  5
A60
330
A53
100
AcDbEntity
  8
0
100
AcDbBlockEnd
  0
BLOCK
  5
A6D
330
A61
100
AcDbEntity
  8
0
100
AcDbBlockBegin
  2
*D64
 70
     1
 10
0.0
 20
0.0
 30
0.0
  3
*D64
  1

  0
LINE
  5
A62
330
A61
100
AcDbEntity
  8
1 辅助线
100
AcDbLine
 10
1477.938725476913
 20
948.0887602371021
 30
0.0
 11
1543.430730867705
 21
948.0887602371021
 31
0.0
  0
LINE
  5
A63
330
A61
100
AcDbEntity
  8
1 辅助线
100
AcDbLine
 10
1477.938725476913
 20
628.0887602371031
 30
0.0
 11
1543.430730867705
 21
628.0887602371031
 31
0.0
  0
LINE
  5
A64
330
A61
100
AcDbEntity
  8
1 辅助线
370
     0
100
AcDbLine
 10
1535.430730867705
 20
938.0887602371021
 30
0.0
 11
1535.430730867705
 21
812.4078369512913
 31
0.0
  0
LINE
  5
A65
330
A61
100
AcDbEntity
  8
1 辅助线
370
     0
100
AcDbLine
 10
1535.430730867705
 20
638.088760237103
 30
0.0
 11
1535.430730867705
 21
763.7696835229138
 31
0.0
  0
SOLID
  5
A66
330
A61
100
AcDbEntity
  8
1 辅助线
100
AcDbTrace
 10
1533.764064201038
 20
938.0887602371021
 30
0.0
 11
1537.097397534372
 21
938.0887602371021
 31
0.0
 12
1535.430730867705
 22
948.0887602371021
 32
0.0
 13
1535.430730867705
 23
948.0887602371021
 33
0.0
  0
SOLID
  5
A67
330
A61
100
AcDbEntity
  8
1 辅助线
100
AcDbTrace
 10
1533.764064201038
 20
638.088760237103
 30
0.0
 11
1537.097397534372
 21
638.088760237103
 31
0.0
 12
1535.430730867705
 22
628.0887602371031
 32
0.0
 13
1535.430730867705
 23
628.0887602371031
 33
0.0
  0
MTEXT
  5
A68
330
A61
100
AcDbEntity
  8
1 辅助线
100
AcDbMText
 10
1535.430730867705
 20
799.2836006987458
 30
0.0
 40
14.0
 41
0.0
 71
     5
 72
     1
  1
\A2;320
  7
Arial
 73
     1
 44
1.0
  0
MTEXT
  5
A69
330
A61
100
AcDbEntity
  8
1 辅助线
100
AcDbMText
 10
1535.430730867705
 20
774.964523984557
 30
0.0
 40
14.0
 41
0.0
 71
     5
 72
     1
  1
\A2;[12 5/8"]
  7
Arial
 73
     1
 44
1.0
  0
POINT
  5
A6A
330
A61
100
AcDbEntity
  8
Defpoints
 62
     0
100
AcDbPoint
 10
1469.938725476913
 20
948.0887602371021
 30
0.0
  0
POINT
  5
A6B
330
A61
100
AcDbEntity
  8
Defpoints
 62
     0
100
AcDbPoint
 10
1469.938725476913
 20
628.0887602371031
 30
0.0
  0
POINT
  5
A6C
330
A61
100
AcDbEntity
  8
Defpoints
 62
     0
100
AcDbPoint
 10
1535.430730867705
 20
628.0887602371031
 30
0.0
  0
ENDBLK
  5
A6E
330
A61
100
AcDbEntity
  8
0
100
AcDbBlockEnd
  0
BLOCK
  5
A7B
330
A6F
100
AcDbEntity
  8
0
100
AcDbBlockBegin
  2
*D65
 70
     1
 10
0.0
 20
0.0
 30
0.0
  3
*D65
  1

  0
LINE
  5
A70
330
A6F
100
AcDbEntity
  8
1 辅助线
100
AcDbLine
 10
5672.189303416176
 20
806.1598150976811
 30
0.0
 11
5672.189303416176
 21
987.9141963490583
 31
0.0
  0
LINE
  5
A71
330
A6F
100
AcDbEntity
  8
1 辅助线
100
AcDbLine
 10
5329.189303416177
 20
806.1598150976802
 30
0.0
 11
5329.189303416177
 21
987.9141963490583
 31
0.0
  0
LINE
  5
A72
330
A6F
100
AcDbEntity
  8
1 辅助线
370
     0
100
AcDbLine
 10
5662.189303416177
 20
979.9141963490583
 30
0.0
 11
5537.546058338104
 21
979.9141963490583
 31
0.0
  0
LINE
  5
A73
330
A6F
100
AcDbEntity
  8
1 辅助线
370
     0
100
AcDbLine
 10
5339.189303416176
 20
979.9141963490583
 30
0.0
 11
5463.832548494249
 21
979.9141963490583
 31
0.0
  0
SOLID
  5
A74
330
A6F
100
AcDbEntity
  8
1 辅助线
100
AcDbTrace
 10
5662.189303416177
 20
981.5808630157249
 30
0.0
 11
5662.189303416177
 21
978.2475296823916
 31
0.0
 12
5672.189303416176
 22
979.9141963490583
 32
0.0
 13
5672.189303416176
 23
979.9141963490583
 33
0.0
  0
SOLID
  5
A75
330
A6F
100
AcDbEntity
  8
1 辅助线
100
AcDbTrace
 10
5339.189303416176
 20
981.5808630157249
 30
0.0
 11
5339.189303416176
 21
978.2475296823916
 31
0.0
 12
5329.189303416177
 22
979.9141963490583
 32
0.0
 13
5329.189303416177
 23
979.9141963490583
 33
0.0
  0
MTEXT
  5
A76
330
A6F
100
AcDbEntity
  8
1 辅助线
100
AcDbMText
 10
5500.689303416177
 20
991.1090368107013
 30
0.0
 40
14.0
 41
0.0
 71
     5
 72
     1
  1
\A2;343
  7
Arial
 73
     1
 44
1.0
  0
MTEXT
  5
A77
330
A6F
100
AcDbEntity
  8
1 辅助线
100
AcDbMText
 10
5500.689303416177
 20
966.7899600965125
 30
0.0
 40
14.0
 41
0.0
 71
     5
 72
     1
  1
\A2;[13 1/2"]
  7
Arial
 73
     1
 44
1.0
  0
POINT
  5
A78
330
A6F
100
AcDbEntity
  8
Defpoints
 62
     0
100
AcDbPoint
 10
5672.189303416176
 20
798.159815097681
 30
0.0
  0
POINT
  5
A79
330
A6F
100
AcDbEntity
  8
Defpoints
 62
     0
100
AcDbPoint
 10
5329.189303416177
 20
798.1598150976801
 30
0.0
  0
POINT
  5
A7A
330
A6F
100
AcDbEntity
  8
Defpoints
 62
     0
100
AcDbPoint
 10
5329.189303416177
 20
979.9141963490583
 30
0.0
  0
ENDBLK
  5
A7C
330
A6F
100
AcDbEntity
  8
0
100
AcDbBlockEnd
  0
BLOCK
  5
A89
330
A7D
100
AcDbEntity
  8
0
100
AcDbBlockBegin
  2
*D66
 70
     1
 10
0.0
 20
0.0
 30
0.0
  3
*D66
  1

  0
LINE
  5
A7E
330
A7D
100
AcDbEntity
  8
1 辅助线
100
AcDbLine
 10
5508.689303416177
 20
933.1592565322335
 30
0.0
 11
5744.50500901202
 21
933.1592565322335
 31
0.0
  0
LINE
  5
A7F
330
A7D
100
AcDbEntity
  8
1 辅助线
100
AcDbLine
 10
5508.689303416177
 20
663.1603736631277
 30
0.0
 11
5744.50500901202
 21
663.1603736631277
 31
0.0
  0
LINE
  5
A80
330
A7D
100
AcDbEntity
  8
1 辅助线
370
     0
100
AcDbLine
 10
5736.50500901202
 20
923.1592565322335
 30
0.0
 11
5736.50500901202
 21
822.4788918118694
 31
0.0
  0
LINE
  5
A81
330
A7D
100
AcDbEntity
  8
1 辅助线
370
     0
100
AcDbLine
 10
5736.50500901202
 20
673.1603736631277
 30
0.0
 11
5736.50500901202
 21
773.8407383834918
 31
0.0
  0
SOLID
  5
A82
330
A7D
100
AcDbEntity
  8
1 辅助线
100
AcDbTrace
 10
5734.838342345353
 20
923.1592565322335
 30
0.0
 11
5738.171675678687
 21
923.1592565322335
 31
0.0
 12
5736.50500901202
 22
933.1592565322335
 32
0.0
 13
5736.50500901202
 23
933.1592565322335
 33
0.0
  0
SOLID
  5
A83
330
A7D
100
AcDbEntity
  8
1 辅助线
100
AcDbTrace
 10
5734.838342345353
 20
673.1603736631277
 30
0.0
 11
5738.171675678687
 21
673.1603736631277
 31
0.0
 12
5736.50500901202
 22
663.1603736631277
 32
0.0
 13
5736.50500901202
 23
663.1603736631277
 33
0.0
  0
MTEXT
  5
A84
330
A7D
100
AcDbEntity
  8
1 辅助线
100
AcDbMText
 10
5736.50500901202
 20
809.3546555593244
 30
0.0
 40
14.0
 41
0.0
 71
     5
 72
     1
  1
\A2;270
  7
Arial
 73
     1
 44
1.0
  0
MTEXT
  5
A85
330
A7D
100
AcDbEntity
  8
1 辅助线
100
AcDbMText
 10
5736.50500901202
 20
785.0355788451357
 30
0.0
 40
14.0
 41
0.0
 71
     5
 72
     1
  1
\A2;[10 5/8"]
  7
Arial
 73
     1
 44
1.0
  0
POINT
  5
A86
330
A7D
100
AcDbEntity
  8
Defpoints
 62
     0
100
AcDbPoint
 10
5500.689303416177
 20
933.1592565322335
 30
0.0
  0
POINT
  5
A87
330
A7D
100
AcDbEntity
  8
Defpoints
 62
     0
100
AcDbPoint
 10
5500.689303416177
 20
663.1603736631277
 30
0.0
  0
POINT
  5
A88
330
A7D
100
AcDbEntity
  8
Defpoints
 62
     0
100
AcDbPoint
 10
5736.50500901202
 20
663.1603736631277
 30
0.0
  0
ENDBLK
  5
A8A
330
A7D
100
AcDbEntity
  8
0
100
AcDbBlockEnd
  0
BLOCK
  5
A97
330
A8B
100
AcDbEntity
  8
0
100
AcDbBlockBegin
  2
*D67
 70
     1
 10
0.0
 20
0.0
 30
0.0
  3
*D67
  1

  0
LINE
  5
A8C
330
A8B
100
AcDbEntity
  8
1 辅助线
100
AcDbLine
 10
6025.000289876778
 20
970.2679671313489
 30
0.0
 11
6025.000289876778
 21
1023.233869341029
 31
0.0
  0
LINE
  5
A8D
330
A8B
100
AcDbEntity
  8
1 辅助线
100
AcDbLine
 10
6465.000289876766
 20
970.2679671313463
 30
0.0
 11
6465.000289876766
 21
1023.233869341029
 31
0.0
  0
LINE
  5
A8E
330
A8B
100
AcDbEntity
  8
1 辅助线
370
     0
100
AcDbLine
 10
6035.000289876778
 20
1015.233869341029
 30
0.0
 11
6208.143534954845
 21
1015.233869341029
 31
0.0
  0
LINE
  5
A8F
330
A8B
100
AcDbEntity
  8
1 辅助线
370
     0
100
AcDbLine
 10
6455.000289876767
 20
1015.233869341029
 30
0.0
 11
6281.857044798701
 21
1015.233869341029
 31
0.0
  0
SOLID
  5
A90
330
A8B
100
AcDbEntity
  8
1 辅助线
100
AcDbTrace
 10
6035.000289876778
 20
1016.900536007696
 30
0.0
 11
6035.000289876778
 21
1013.567202674362
 31
0.0
 12
6025.000289876778
 22
1015.233869341029
 32
0.0
 13
6025.000289876778
 23
1015.233869341029
 33
0.0
  0
SOLID
  5
A91
330
A8B
100
AcDbEntity
  8
1 辅助线
100
AcDbTrace
 10
6455.000289876767
 20
1016.900536007696
 30
0.0
 11
6455.000289876767
 21
1013.567202674362
 31
0.0
 12
6465.000289876766
 22
1015.233869341029
 32
0.0
 13
6465.000289876766
 23
1015.233869341029
 33
0.0
  0
MTEXT
  5
A92
330
A8B
100
AcDbEntity
  8
1 辅助线
100
AcDbMText
 10
6245.000289876773
 20
1026.428709802672
 30
0.0
 40
14.0
 41
0.0
 71
     5
 72
     1
  1
\A2;440
  7
Arial
 73
     1
 44
1.0
  0
MTEXT
  5
A93
330
A8B
100
AcDbEntity
  8
1 辅助线
100
AcDbMText
 10
6245.000289876773
 20
1002.109633088483
 30
0.0
 40
14.0
 41
0.0
 71
     5
 72
     1
  1
\A2;[17 3/8"]
  7
Arial
 73
     1
 44
1.0
  0
POINT
  5
A94
330
A8B
100
AcDbEntity
  8
Defpoints
 62
     0
100
AcDbPoint
 10
6025.000289876778
 20
962.2679671313489
 30
0.0
  0
POINT
  5
A95
330
A8B
100
AcDbEntity
  8
Defpoints
 62
     0
100
AcDbPoint
 10
6465.000289876766
 20
962.2679671313463
 30
0.0
  0
POINT
  5
A96
330
A8B
100
AcDbEntity
  8
Defpoints
 62
     0
100
AcDbPoint
 10
6465.000289876766
 20
1015.233869341029
 30
0.0
  0
ENDBLK
  5
A98
330
A8B
100
AcDbEntity
  8
0
100
AcDbBlockEnd
  0
BLOCK
  5
AA5
330
A99
100
AcDbEntity
  8
0
100
AcDbBlockBegin
  2
*D68
 70
     1
 10
0.0
 20
0.0
 30
0.0
  3
*D68
  1

  0
LINE
  5
A9A
330
A99
100
AcDbEntity
  8
1 辅助线
100
AcDbLine
 10
6458.000289876768
 20
977.2679671313463
 30
0.0
 11
6527.427928378774
 21
977.2679671313463
 31
0.0
  0
LINE
  5
A9B
330
A99
100
AcDbEntity
  8
1 辅助线
100
AcDbLine
 10
6458.000289876768
 20
667.2679671313508
 30
0.0
 11
6527.427928378774
 21
667.2679671313508
 31
0.0
  0
LINE
  5
A9C
330
A99
100
AcDbEntity
  8
1 辅助线
370
     0
100
AcDbLine
 10
6519.427928378772
 20
967.2679671313462
 30
0.0
 11
6519.427928378772
 21
846.5870438455374
 31
0.0
  0
LINE
  5
A9D
330
A99
100
AcDbEntity
  8
1 辅助线
370
     0
100
AcDbLine
 10
6519.427928378772
 20
677.2679671313508
 30
0.0
 11
6519.427928378772
 21
797.9488904171597
 31
0.0
  0
SOLID
  5
A9E
330
A99
100
AcDbEntity
  8
1 辅助线
100
AcDbTrace
 10
6517.761261712106
 20
967.2679671313462
 30
0.0
 11
6521.09459504544
 21
967.2679671313462
 31
0.0
 12
6519.427928378772
 22
977.2679671313463
 32
0.0
 13
6519.427928378772
 23
977.2679671313463
 33
0.0
  0
SOLID
  5
A9F
330
A99
100
AcDbEntity
  8
1 辅助线
100
AcDbTrace
 10
6517.761261712106
 20
677.2679671313508
 30
0.0
 11
6521.09459504544
 21
677.2679671313508
 31
0.0
 12
6519.427928378772
 22
667.2679671313508
 32
0.0
 13
6519.427928378772
 23
667.2679671313508
 33
0.0
  0
MTEXT
  5
AA0
330
A99
100
AcDbEntity
  8
1 辅助线
100
AcDbMText
 10
6519.427928378772
 20
833.4628075929924
 30
0.0
 40
14.0
 41
0.0
 71
     5
 72
     1
  1
\A2;310
  7
Arial
 73
     1
 44
1.0
  0
MTEXT
  5
AA1
330
A99
100
AcDbEntity
  8
1 辅助线
100
AcDbMText
 10
6519.427928378772
 20
809.1437308788037
 30
0.0
 40
14.0
 41
0.0
 71
     5
 72
     1
  1
\A2;[12 1/4"]
  7
Arial
 73
     1
 44
1.0
  0
POINT
  5
AA2
330
A99
100
AcDbEntity
  8
Defpoints
 62
     0
100
AcDbPoint
 10
6450.000289876768
 20
977.2679671313463
 30
0.0
  0
POINT
  5
AA3
330
A99
100
AcDbEntity
  8
Defpoints
 62
     0
100
AcDbPoint
 10
6450.000289876768
 20
667.2679671313508
 30
0.0
  0
POINT
  5
AA4
330
A99
100
AcDbEntity
  8
Defpoints
 62
     0
100
AcDbPoint
 10
6519.427928378772
 20
667.2679671313508
 30
0.0
  0
ENDBLK
  5
AA6
330
A99
100
AcDbEntity
  8
0
100
AcDbBlockEnd
  0
BLOCK
  5
AB3
330
AA7
100
AcDbEntity
  8
0
100
AcDbBlockBegin
  2
*D69
 70
     1
 10
0.0
 20
0.0
 30
0.0
  3
*D69
  1

  0
LINE
  5
AA8
330
AA7
100
AcDbEntity
  8
1 辅助线
100
AcDbLine
 10
6756.715382892057
 20
819.9884533415461
 30
0.0
 11
6756.715382892057
 21
1039.999409328365
 31
0.0
  0
LINE
  5
AA9
330
AA7
100
AcDbEntity
  8
1 辅助线
100
AcDbLine
 10
7181.715382892057
 20
819.9884533415461
 30
0.0
 11
7181.715382892057
 21
1039.999409328365
 31
0.0
  0
LINE
  5
AAA
330
AA7
100
AcDbEntity
  8
1 辅助线
370
     0
100
AcDbLine
 10
6766.715382892056
 20
1031.999409328365
 30
0.0
 11
6932.358627970129
 21
1031.999409328365
 31
0.0
  0
LINE
  5
AAB
330
AA7
100
AcDbEntity
  8
1 辅助线
370
     0
100
AcDbLine
 10
7171.715382892056
 20
1031.999409328365
 30
0.0
 11
7006.072137813984
 21
1031.999409328365
 31
0.0
  0
SOLID
  5
AAC
330
AA7
100
AcDbEntity
  8
1 辅助线
100
AcDbTrace
 10
6766.715382892056
 20
1033.666075995032
 30
0.0
 11
6766.715382892056
 21
1030.332742661699
 31
0.0
 12
6756.715382892057
 22
1031.999409328365
 32
0.0
 13
6756.715382892057
 23
1031.999409328365
 33
0.0
  0
SOLID
  5
AAD
330
AA7
100
AcDbEntity
  8
1 辅助线
100
AcDbTrace
 10
7171.715382892056
 20
1033.666075995032
 30
0.0
 11
7171.715382892056
 21
1030.332742661699
 31
0.0
 12
7181.715382892057
 22
1031.999409328365
 32
0.0
 13
7181.715382892057
 23
1031.999409328365
 33
0.0
  0
MTEXT
  5
AAE
330
AA7
100
AcDbEntity
  8
1 辅助线
100
AcDbMText
 10
6969.215382892056
 20
1043.194249790008
 30
0.0
 40
14.0
 41
0.0
 71
     5
 72
     1
  1
\A2;425
  7
Arial
 73
     1
 44
1.0
  0
MTEXT
  5
AAF
330
AA7
100
AcDbEntity
  8
1 辅助线
100
AcDbMText
 10
6969.215382892056
 20
1018.87517307582
 30
0.0
 40
14.0
 41
0.0
 71
     5
 72
     1
  1
\A2;[16 3/4"]
  7
Arial
 73
     1
 44
1.0
  0
POINT
  5
AB0
330
AA7
100
AcDbEntity
  8
Defpoints
 62
     0
100
AcDbPoint
 10
6756.715382892057
 20
811.9884533415461
 30
0.0
  0
POINT
  5
AB1
330
AA7
100
AcDbEntity
  8
Defpoints
 62
     0
100
AcDbPoint
 10
7181.715382892057
 20
811.9884533415461
 30
0.0
  0
POINT
  5
AB2
330
AA7
100
AcDbEntity
  8
Defpoints
 62
     0
100
AcDbPoint
 10
7181.715382892057
 20
1031.999409328365
 30
0.0
  0
ENDBLK
  5
AB4
330
AA7
100
AcDbEntity
  8
0
100
AcDbBlockEnd
  0
BLOCK
  5
AC1
330
AB5
100
AcDbEntity
  8
0
100
AcDbBlockBegin
  2
*D70
 70
     1
 10
0.0
 20
0.0
 30
0.0
  3
*D70
  1

  0
LINE
  5
AB6
330
AB5
100
AcDbEntity
  8
1 辅助线
100
AcDbLine
 10
6977.215382892056
 20
984.4884533378927
 30
0.0
 11
7245.545885653005
 21
984.4884533378927
 31
0.0
  0
LINE
  5
AB7
330
AB5
100
AcDbEntity
  8
1 辅助线
100
AcDbLine
 10
6977.215382892056
 20
639.4884533451995
 30
0.0
 11
7245.545885653005
 21
639.4884533451995
 31
0.0
  0
LINE
  5
AB8
330
AB5
100
AcDbEntity
  8
1 辅助线
370
     0
100
AcDbLine
 10
7237.545885653005
 20
974.4884533378927
 30
0.0
 11
7237.545885653005
 21
836.3075300557349
 31
0.0
  0
LINE
  5
AB9
330
AB5
100
AcDbEntity
  8
1 辅助线
370
     0
100
AcDbLine
 10
7237.545885653005
 20
649.4884533451995
 30
0.0
 11
7237.545885653005
 21
787.6693766273573
 31
0.0
  0
SOLID
  5
ABA
330
AB5
100
AcDbEntity
  8
1 辅助线
100
AcDbTrace
 10
7235.879218986339
 20
974.4884533378927
 30
0.0
 11
7239.212552319672
 21
974.4884533378927
 31
0.0
 12
7237.545885653005
 22
984.4884533378927
 32
0.0
 13
7237.545885653005
 23
984.4884533378927
 33
0.0
  0
SOLID
  5
ABB
330
AB5
100
AcDbEntity
  8
1 辅助线
100
AcDbTrace
 10
7235.879218986339
 20
649.4884533451995
 30
0.0
 11
7239.212552319672
 21
649.4884533451995
 31
0.0
 12
7237.545885653005
 22
639.4884533451995
 32
0.0
 13
7237.545885653005
 23
639.4884533451995
 33
0.0
  0
MTEXT
  5
ABC
330
AB5
100
AcDbEntity
  8
1 辅助线
100
AcDbMText
 10
7237.545885653005
 20
823.1832938031901
 30
0.0
 40
14.0
 41
0.0
 71
     5
 72
     1
  1
\A2;345
  7
Arial
 73
     1
 44
1.0
  0
MTEXT
  5
ABD
330
AB5
100
AcDbEntity
  8
1 辅助线
100
AcDbMText
 10
7237.545885653005
 20
798.8642170890013
 30
0.0
 40
14.0
 41
0.0
 71
     5
 72
     1
  1
\A2;[13 5/8"]
  7
Arial
 73
     1
 44
1.0
  0
POINT
  5
ABE
330
AB5
100
AcDbEntity
  8
Defpoints
 62
     0
100
AcDbPoint
 10
6969.215382892056
 20
984.4884533378927
 30
0.0
  0
POINT
  5
ABF
330
AB5
100
AcDbEntity
  8
Defpoints
 62
     0
100
AcDbPoint
 10
6969.215382892056
 20
639.4884533451995
 30
0.0
  0
POINT
  5
AC0
330
AB5
100
AcDbEntity
  8
Defpoints
 62
     0
100
AcDbPoint
 10
7237.545885653005
 20
639.4884533451995
 30
0.0
  0
ENDBLK
  5
AC2
330
AB5
100
AcDbEntity
  8
0
100
AcDbBlockEnd
  0
BLOCK
  5
ACF
330
AC3
100
AcDbEntity
  8
0
100
AcDbBlockBegin
  2
*D71
 70
     1
 10
0.0
 20
0.0
 30
0.0
  3
*D71
  1

  0
LINE
  5
AC4
330
AC3
100
AcDbEntity
  8
1 辅助线
100
AcDbLine
 10
7609.517095405434
 20
949.2448338650975
 30
0.0
 11
7609.517095405434
 21
1015.553146145746
 31
0.0
  0
LINE
  5
AC5
330
AC3
100
AcDbEntity
  8
1 辅助线
100
AcDbLine
 10
8059.51709540543
 20
949.2448338650975
 30
0.0
 11
8059.51709540543
 21
1015.553146145746
 31
0.0
  0
LINE
  5
AC6
330
AC3
100
AcDbEntity
  8
1 辅助线
370
     0
100
AcDbLine
 10
7619.517095405433
 20
1007.553146145746
 30
0.0
 11
7797.660340483504
 21
1007.553146145746
 31
0.0
  0
LINE
  5
AC7
330
AC3
100
AcDbEntity
  8
1 辅助线
370
     0
100
AcDbLine
 10
8049.51709540543
 20
1007.553146145746
 30
0.0
 11
7871.37385032736
 21
1007.553146145746
 31
0.0
  0
SOLID
  5
AC8
330
AC3
100
AcDbEntity
  8
1 辅助线
100
AcDbTrace
 10
7619.517095405433
 20
1009.219812812413
 30
0.0
 11
7619.517095405433
 21
1005.88647947908
 31
0.0
 12
7609.517095405434
 22
1007.553146145746
 32
0.0
 13
7609.517095405434
 23
1007.553146145746
 33
0.0
  0
SOLID
  5
AC9
330
AC3
100
AcDbEntity
  8
1 辅助线
100
AcDbTrace
 10
8049.51709540543
 20
1009.219812812413
 30
0.0
 11
8049.51709540543
 21
1005.88647947908
 31
0.0
 12
8059.51709540543
 22
1007.553146145746
 32
0.0
 13
8059.51709540543
 23
1007.553146145746
 33
0.0
  0
MTEXT
  5
ACA
330
AC3
100
AcDbEntity
  8
1 辅助线
100
AcDbMText
 10
7834.517095405432
 20
1018.747986607389
 30
0.0
 40
14.0
 41
0.0
 71
     5
 72
     1
  1
\A2;450
  7
Arial
 73
     1
 44
1.0
  0
MTEXT
  5
ACB
330
AC3
100
AcDbEntity
  8
1 辅助线
100
AcDbMText
 10
7834.517095405432
 20
994.4289098932008
 30
0.0
 40
14.0
 41
0.0
 71
     5
 72
     1
  1
\A2;[17 3/4"]
  7
Arial
 73
     1
 44
1.0
  0
POINT
  5
ACC
330
AC3
100
AcDbEntity
  8
Defpoints
 62
     0
100
AcDbPoint
 10
7609.517095405434
 20
941.2448338650975
 30
0.0
  0
POINT
  5
ACD
330
AC3
100
AcDbEntity
  8
Defpoints
 62
     0
100
AcDbPoint
 10
8059.51709540543
 20
941.2448338650975
 30
0.0
  0
POINT
  5
ACE
330
AC3
100
AcDbEntity
  8
Defpoints
 62
     0
100
AcDbPoint
 10
8059.51709540543
 20
1007.553146145746
 30
0.0
  0
ENDBLK
  5
AD0
330
AC3
100
AcDbEntity
  8
0
100
AcDbBlockEnd
  0
BLOCK
  5
ADD
330
AD1
100
AcDbEntity
  8
0
100
AcDbBlockBegin
  2
*D72
 70
     1
 10
0.0
 20
0.0
 30
0.0
  3
*D72
  1

  0
LINE
  5
AD2
330
AD1
100
AcDbEntity
  8
1 辅助线
100
AcDbLine
 10
1727.913161810309
 20
941.0887602371021
 30
0.0
 11
1727.913161810309
 21
1001.835581605643
 31
0.0
  0
LINE
  5
AD3
330
AD1
100
AcDbEntity
  8
1 辅助线
100
AcDbLine
 10
2182.913161810306
 20
941.0887602371003
 30
0.0
 11
2182.913161810306
 21
1001.835581605643
 31
0.0
  0
LINE
  5
AD4
330
AD1
100
AcDbEntity
  8
1 辅助线
370
     0
100
AcDbLine
 10
1737.913161810309
 20
993.8355816056427
 30
0.0
 11
1918.556406888379
 21
993.8355816056427
 31
0.0
  0
LINE
  5
AD5
330
AD1
100
AcDbEntity
  8
1 辅助线
370
     0
100
AcDbLine
 10
2172.913161810306
 20
993.8355816056427
 30
0.0
 11
1992.269916732236
 21
993.8355816056427
 31
0.0
  0
SOLID
  5
AD6
330
AD1
100
AcDbEntity
  8
1 辅助线
100
AcDbTrace
 10
1737.913161810309
 20
995.5022482723094
 30
0.0
 11
1737.913161810309
 21
992.1689149389761
 31
0.0
 12
1727.913161810309
 22
993.8355816056427
 32
0.0
 13
1727.913161810309
 23
993.8355816056427
 33
0.0
  0
SOLID
  5
AD7
330
AD1
100
AcDbEntity
  8
1 辅助线
100
AcDbTrace
 10
2172.913161810306
 20
995.5022482723094
 30
0.0
 11
2172.913161810306
 21
992.1689149389761
 31
0.0
 12
2182.913161810306
 22
993.8355816056427
 32
0.0
 13
2182.913161810306
 23
993.8355816056427
 33
0.0
  0
MTEXT
  5
AD8
330
AD1
100
AcDbEntity
  8
1 辅助线
100
AcDbMText
 10
1955.413161810307
 20
1005.030422067285
 30
0.0
 40
14.0
 41
0.0
 71
     5
 72
     1
  1
\A2;455
  7
Arial
 73
     1
 44
1.0
  0
MTEXT
  5
AD9
330
AD1
100
AcDbEntity
  8
1 辅助线
100
AcDbMText
 10
1955.413161810307
 20
980.711345353097
 30
0.0
 40
14.0
 41
0.0
 71
     5
 72
     1
  1
\A2;[17 7/8"]
  7
Arial
 73
     1
 44
1.0
  0
POINT
  5
ADA
330
AD1
100
AcDbEntity
  8
Defpoints
 62
     0
100
AcDbPoint
 10
1727.913161810309
 20
933.0887602371021
 30
0.0
  0
POINT
  5
ADB
330
AD1
100
AcDbEntity
  8
Defpoints
 62
     0
100
AcDbPoint
 10
2182.913161810306
 20
933.0887602371003
 30
0.0
  0
POINT
  5
ADC
330
AD1
100
AcDbEntity
  8
Defpoints
 62
     0
100
AcDbPoint
 10
2182.913161810306
 20
993.8355816056427
 30
0.0
  0
ENDBLK
  5
ADE
330
AD1
100
AcDbEntity
  8
0
100
AcDbBlockEnd
  0
BLOCK
  5
AEB
330
ADF
100
AcDbEntity
  8
0
100
AcDbBlockBegin
  2
*D73
 70
     1
 10
0.0
 20
0.0
 30
0.0
  3
*D73
  1

  0
LINE
  5
AE0
330
ADF
100
AcDbEntity
  8
1 辅助线
100
AcDbLine
 10
2175.913161810306
 20
948.0887602371003
 30
0.0
 11
2236.024616058498
 21
948.0887602371003
 31
0.0
  0
LINE
  5
AE1
330
ADF
100
AcDbEntity
  8
1 辅助线
100
AcDbLine
 10
2175.913161810307
 20
653.0887602371022
 30
0.0
 11
2236.024616058498
 21
653.0887602371022
 31
0.0
  0
LINE
  5
AE2
330
ADF
100
AcDbEntity
  8
1 辅助线
370
     0
100
AcDbLine
 10
2228.024616058497
 20
938.0887602371004
 30
0.0
 11
2228.024616058497
 21
824.9078369512901
 31
0.0
  0
LINE
  5
AE3
330
ADF
100
AcDbEntity
  8
1 辅助线
370
     0
100
AcDbLine
 10
2228.024616058497
 20
663.0887602371021
 30
0.0
 11
2228.024616058497
 21
776.2696835229125
 31
0.0
  0
SOLID
  5
AE4
330
ADF
100
AcDbEntity
  8
1 辅助线
100
AcDbTrace
 10
2226.357949391831
 20
938.0887602371004
 30
0.0
 11
2229.691282725164
 21
938.0887602371004
 31
0.0
 12
2228.024616058497
 22
948.0887602371003
 32
0.0
 13
2228.024616058497
 23
948.0887602371003
 33
0.0
  0
SOLID
  5
AE5
330
ADF
100
AcDbEntity
  8
1 辅助线
100
AcDbTrace
 10
2226.357949391831
 20
663.0887602371021
 30
0.0
 11
2229.691282725164
 21
663.0887602371021
 31
0.0
 12
2228.024616058497
 22
653.0887602371022
 32
0.0
 13
2228.024616058497
 23
653.0887602371022
 33
0.0
  0
MTEXT
  5
AE6
330
ADF
100
AcDbEntity
  8
1 辅助线
100
AcDbMText
 10
2228.024616058497
 20
811.7836006987445
 30
0.0
 40
14.0
 41
0.0
 71
     5
 72
     1
  1
\A2;295
  7
Arial
 73
     1
 44
1.0
  0
MTEXT
  5
AE7
330
ADF
100
AcDbEntity
  8
1 辅助线
100
AcDbMText
 10
2228.024616058497
 20
787.4645239845557
 30
0.0
 40
14.0
 41
0.0
 71
     5
 72
     1
  1
\A2;[11 5/8"]
  7
Arial
 73
     1
 44
1.0
  0
POINT
  5
AE8
330
ADF
100
AcDbEntity
  8
Defpoints
 62
     0
100
AcDbPoint
 10
2167.913161810306
 20
948.0887602371003
 30
0.0
  0
POINT
  5
AE9
330
ADF
100
AcDbEntity
  8
Defpoints
 62
     0
100
AcDbPoint
 10
2167.913161810307
 20
653.0887602371022
 30
0.0
  0
POINT
  5
AEA
330
ADF
100
AcDbEntity
  8
Defpoints
 62
     0
100
AcDbPoint
 10
2228.024616058497
 20
653.0887602371022
 30
0.0
  0
ENDBLK
  5
AEC
330
ADF
100
AcDbEntity
  8
0
100
AcDbBlockEnd
  0
BLOCK
  5
AF9
330
AED
100
AcDbEntity
  8
0
100
AcDbBlockBegin
  2
*D74
 70
     1
 10
0.0
 20
0.0
 30
0.0
  3
*D74
  1

  0
LINE
  5
AEE
330
AED
100
AcDbEntity
  8
1 辅助线
100
AcDbLine
 10
2504.997508656994
 20
946.0423401206616
 30
0.0
 11
2504.997508656994
 21
1008.112000949648
 31
0.0
  0
LINE
  5
AEF
330
AED
100
AcDbEntity
  8
1 辅助线
100
AcDbLine
 10
2952.997508657001
 20
946.0423401206446
 30
0.0
 11
2952.997508657001
 21
1008.112000949648
 31
0.0
  0
LINE
  5
AF0
330
AED
100
AcDbEntity
  8
1 辅助线
370
     0
100
AcDbLine
 10
2514.997508656994
 20
1000.112000949648
 30
0.0
 11
2692.14075373507
 21
1000.112000949648
 31
0.0
  0
LINE
  5
AF1
330
AED
100
AcDbEntity
  8
1 辅助线
370
     0
100
AcDbLine
 10
2942.997508657001
 20
1000.112000949648
 30
0.0
 11
2765.854263578925
 21
1000.112000949648
 31
0.0
  0
SOLID
  5
AF2
330
AED
100
AcDbEntity
  8
1 辅助线
100
AcDbTrace
 10
2514.997508656994
 20
1001.778667616314
 30
0.0
 11
2514.997508656994
 21
998.4453342829814
 31
0.0
 12
2504.997508656994
 22
1000.112000949648
 32
0.0
 13
2504.997508656994
 23
1000.112000949648
 33
0.0
  0
SOLID
  5
AF3
330
AED
100
AcDbEntity
  8
1 辅助线
100
AcDbTrace
 10
2942.997508657001
 20
1001.778667616314
 30
0.0
 11
2942.997508657001
 21
998.4453342829814
 31
0.0
 12
2952.997508657001
 22
1000.112000949648
 32
0.0
 13
2952.997508657001
 23
1000.112000949648
 33
0.0
  0
MTEXT
  5
AF4
330
AED
100
AcDbEntity
  8
1 辅助线
100
AcDbMText
 10
2728.997508656997
 20
1011.306841411291
 30
0.0
 40
14.0
 41
0.0
 71
     5
 72
     1
  1
\A2;448
  7
Arial
 73
     1
 44
1.0
  0
MTEXT
  5
AF5
330
AED
100
AcDbEntity
  8
1 辅助线
100
AcDbMText
 10
2728.997508656997
 20
986.9877646971021
 30
0.0
 40
14.0
 41
0.0
 71
     5
 72
     1
  1
\A2;[17 5/8"]
  7
Arial
 73
     1
 44
1.0
  0
POINT
  5
AF6
330
AED
100
AcDbEntity
  8
Defpoints
 62
     0
100
AcDbPoint
 10
2504.997508656994
 20
938.0423401206616
 30
0.0
  0
POINT
  5
AF7
330
AED
100
AcDbEntity
  8
Defpoints
 62
     0
100
AcDbPoint
 10
2952.997508657001
 20
938.0423401206446
 30
0.0
  0
POINT
  5
AF8
330
AED
100
AcDbEntity
  8
Defpoints
 62
     0
100
AcDbPoint
 10
2952.997508657001
 20
1000.112000949648
 30
0.0
  0
ENDBLK
  5
AFA
330
AED
100
AcDbEntity
  8
0
100
AcDbBlockEnd
  0
BLOCK
  5
B07
330
AFB
100
AcDbEntity
  8
0
100
AcDbBlockBegin
  2
*D75
 70
     1
 10
0.0
 20
0.0
 30
0.0
  3
*D75
  1

  0
LINE
  5
AFC
330
AFB
100
AcDbEntity
  8
1 辅助线
100
AcDbLine
 10
2945.997508657001
 20
953.0423401206599
 30
0.0
 11
3018.18652806402
 21
953.0423401206599
 31
0.0
  0
LINE
  5
AFD
330
AFB
100
AcDbEntity
  8
1 辅助线
100
AcDbLine
 10
2945.99750865699
 20
635.0423401206617
 30
0.0
 11
3018.18652806402
 21
635.0423401206617
 31
0.0
  0
LINE
  5
AFE
330
AFB
100
AcDbEntity
  8
1 辅助线
370
     0
100
AcDbLine
 10
3010.18652806402
 20
943.0423401206599
 30
0.0
 11
3010.18652806402
 21
818.3614168348496
 31
0.0
  0
LINE
  5
AFF
330
AFB
100
AcDbEntity
  8
1 辅助线
370
     0
100
AcDbLine
 10
3010.18652806402
 20
645.0423401206617
 30
0.0
 11
3010.18652806402
 21
769.723263406472
 31
0.0
  0
SOLID
  5
B00
330
AFB
100
AcDbEntity
  8
1 辅助线
100
AcDbTrace
 10
3008.519861397353
 20
943.0423401206599
 30
0.0
 11
3011.853194730686
 21
943.0423401206599
 31
0.0
 12
3010.18652806402
 22
953.0423401206599
 32
0.0
 13
3010.18652806402
 23
953.0423401206599
 33
0.0
  0
SOLID
  5
B01
330
AFB
100
AcDbEntity
  8
1 辅助线
100
AcDbTrace
 10
3008.519861397353
 20
645.0423401206617
 30
0.0
 11
3011.853194730686
 21
645.0423401206617
 31
0.0
 12
3010.18652806402
 22
635.0423401206617
 32
0.0
 13
3010.18652806402
 23
635.0423401206617
 33
0.0
  0
MTEXT
  5
B02
330
AFB
100
AcDbEntity
  8
1 辅助线
100
AcDbMText
 10
3010.18652806402
 20
805.2371805823041
 30
0.0
 40
14.0
 41
0.0
 71
     5
 72
     1
  1
\A2;318
  7
Arial
 73
     1
 44
1.0
  0
MTEXT
  5
B03
330
AFB
100
AcDbEntity
  8
1 辅助线
100
AcDbMText
 10
3010.18652806402
 20
780.9181038681153
 30
0.0
 40
14.0
 41
0.0
 71
     5
 72
     1
  1
\A2;[12 1/2"]
  7
Arial
 73
     1
 44
1.0
  0
POINT
  5
B04
330
AFB
100
AcDbEntity
  8
Defpoints
 62
     0
100
AcDbPoint
 10
2937.997508657002
 20
953.0423401206599
 30
0.0
  0
POINT
  5
B05
330
AFB
100
AcDbEntity
  8
Defpoints
 62
     0
100
AcDbPoint
 10
2937.997508656991
 20
635.0423401206617
 30
0.0
  0
POINT
  5
B06
330
AFB
100
AcDbEntity
  8
Defpoints
 62
     0
100
AcDbPoint
 10
3010.18652806402
 20
635.0423401206617
 30
0.0
  0
ENDBLK
  5
B08
330
AFB
100
AcDbEntity
  8
0
100
AcDbBlockEnd
  0
BLOCK
  5
B15
330
B09
100
AcDbEntity
  8
0
100
AcDbBlockBegin
  2
*D76
 70
     1
 10
0.0
 20
0.0
 30
0.0
  3
*D76
  1

  0
LINE
  5
B0A
330
B09
100
AcDbEntity
  8
1 辅助线
100
AcDbLine
 10
3328.578045657661
 20
930.2792301223499
 30
0.0
 11
3328.578045657661
 21
989.770056790765
 31
0.0
  0
LINE
  5
B0B
330
B09
100
AcDbEntity
  8
1 辅助线
100
AcDbLine
 10
3763.578045657661
 20
930.2792301223437
 30
0.0
 11
3763.578045657661
 21
989.770056790765
 31
0.0
  0
LINE
  5
B0C
330
B09
100
AcDbEntity
  8
1 辅助线
370
     0
100
AcDbLine
 10
3338.578045657661
 20
981.770056790765
 30
0.0
 11
3509.221290735734
 21
981.770056790765
 31
0.0
  0
LINE
  5
B0D
330
B09
100
AcDbEntity
  8
1 辅助线
370
     0
100
AcDbLine
 10
3753.578045657661
 20
981.770056790765
 30
0.0
 11
3582.93480057959
 21
981.770056790765
 31
0.0
  0
SOLID
  5
B0E
330
B09
100
AcDbEntity
  8
1 辅助线
100
AcDbTrace
 10
3338.578045657661
 20
983.4367234574315
 30
0.0
 11
3338.578045657661
 21
980.1033901240984
 31
0.0
 12
3328.578045657661
 22
981.770056790765
 32
0.0
 13
3328.578045657661
 23
981.770056790765
 33
0.0
  0
SOLID
  5
B0F
330
B09
100
AcDbEntity
  8
1 辅助线
100
AcDbTrace
 10
3753.578045657661
 20
983.4367234574315
 30
0.0
 11
3753.578045657661
 21
980.1033901240984
 31
0.0
 12
3763.578045657661
 22
981.770056790765
 32
0.0
 13
3763.578045657661
 23
981.770056790765
 33
0.0
  0
MTEXT
  5
B10
330
B09
100
AcDbEntity
  8
1 辅助线
100
AcDbMText
 10
3546.078045657662
 20
992.9648972524079
 30
0.0
 40
14.0
 41
0.0
 71
     5
 72
     1
  1
\A2;435
  7
Arial
 73
     1
 44
1.0
  0
MTEXT
  5
B11
330
B09
100
AcDbEntity
  8
1 辅助线
100
AcDbMText
 10
3546.078045657662
 20
968.6458205382191
 30
0.0
 40
14.0
 41
0.0
 71
     5
 72
     1
  1
\A2;[17 1/8"]
  7
Arial
 73
     1
 44
1.0
  0
POINT
  5
B12
330
B09
100
AcDbEntity
  8
Defpoints
 62
     0
100
AcDbPoint
 10
3328.578045657661
 20
922.2792301223499
 30
0.0
  0
POINT
  5
B13
330
B09
100
AcDbEntity
  8
Defpoints
 62
     0
100
AcDbPoint
 10
3763.578045657661
 20
922.2792301223437
 30
0.0
  0
POINT
  5
B14
330
B09
100
AcDbEntity
  8
Defpoints
 62
     0
100
AcDbPoint
 10
3763.578045657661
 20
981.770056790765
 30
0.0
  0
ENDBLK
  5
B16
330
B09
100
AcDbEntity
  8
0
100
AcDbBlockEnd
  0
BLOCK
  5
B23
330
B17
100
AcDbEntity
  8
0
100
AcDbBlockBegin
  2
*D77
 70
     1
 10
0.0
 20
0.0
 30
0.0
  3
*D77
  1

  0
LINE
  5
B18
330
B17
100
AcDbEntity
  8
1 辅助线
100
AcDbLine
 10
3756.578045657661
 20
937.2792301223489
 30
0.0
 11
3822.426732470609
 21
937.2792301223489
 31
0.0
  0
LINE
  5
B19
330
B17
100
AcDbEntity
  8
1 辅助线
100
AcDbLine
 10
3756.578045657658
 20
647.2792301223489
 30
0.0
 11
3822.426732470609
 21
647.2792301223489
 31
0.0
  0
LINE
  5
B1A
330
B17
100
AcDbEntity
  8
1 辅助线
370
     0
100
AcDbLine
 10
3814.426732470609
 20
927.2792301223489
 30
0.0
 11
3814.426732470609
 21
816.5983068365378
 31
0.0
  0
LINE
  5
B1B
330
B17
100
AcDbEntity
  8
1 辅助线
370
     0
100
AcDbLine
 10
3814.426732470609
 20
657.2792301223489
 30
0.0
 11
3814.426732470609
 21
767.9601534081601
 31
0.0
  0
SOLID
  5
B1C
330
B17
100
AcDbEntity
  8
1 辅助线
100
AcDbTrace
 10
3812.760065803943
 20
927.2792301223489
 30
0.0
 11
3816.093399137275
 21
927.2792301223489
 31
0.0
 12
3814.426732470609
 22
937.2792301223489
 32
0.0
 13
3814.426732470609
 23
937.2792301223489
 33
0.0
  0
SOLID
  5
B1D
330
B17
100
AcDbEntity
  8
1 辅助线
100
AcDbTrace
 10
3812.760065803943
 20
657.2792301223489
 30
0.0
 11
3816.093399137275
 21
657.2792301223489
 31
0.0
 12
3814.426732470609
 22
647.2792301223489
 32
0.0
 13
3814.426732470609
 23
647.2792301223489
 33
0.0
  0
MTEXT
  5
B1E
330
B17
100
AcDbEntity
  8
1 辅助线
100
AcDbMText
 10
3814.426732470609
 20
803.4740705839924
 30
0.0
 40
14.0
 41
0.0
 71
     5
 72
     1
  1
\A2;290
  7
Arial
 73
     1
 44
1.0
  0
MTEXT
  5
B1F
330
B17
100
AcDbEntity
  8
1 辅助线
100
AcDbMText
 10
3814.426732470609
 20
779.1549938698036
 30
0.0
 40
14.0
 41
0.0
 71
     5
 72
     1
  1
\A2;[11 3/8"]
  7
Arial
 73
     1
 44
1.0
  0
POINT
  5
B20
330
B17
100
AcDbEntity
  8
Defpoints
 62
     0
100
AcDbPoint
 10
3748.578045657661
 20
937.2792301223489
 30
0.0
  0
POINT
  5
B21
330
B17
100
AcDbEntity
  8
Defpoints
 62
     0
100
AcDbPoint
 10
3748.578045657658
 20
647.2792301223489
 30
0.0
  0
POINT
  5
B22
330
B17
100
AcDbEntity
  8
Defpoints
 62
     0
100
AcDbPoint
 10
3814.426732470609
 20
647.2792301223489
 30
0.0
  0
ENDBLK
  5
B24
330
B17
100
AcDbEntity
  8
0
100
AcDbBlockEnd
  0
BLOCK
  5
B31
330
B25
100
AcDbEntity
  8
0
100
AcDbBlockBegin
  2
*D78
 70
     1
 10
0.0
 20
0.0
 30
0.0
  3
*D78
  1

  0
LINE
  5
B26
330
B25
100
AcDbEntity
  8
1 辅助线
100
AcDbLine
 10
4149.739581974055
 20
925.6882850019156
 30
0.0
 11
4149.739581974055
 21
992.1543568866509
 31
0.0
  0
LINE
  5
B27
330
B25
100
AcDbEntity
  8
1 辅助线
100
AcDbLine
 10
4532.739581974041
 20
925.6882850019135
 30
0.0
 11
4532.739581974041
 21
992.1543568866509
 31
0.0
  0
LINE
  5
B28
330
B25
100
AcDbEntity
  8
1 辅助线
370
     0
100
AcDbLine
 10
4159.739581974056
 20
984.1543568866509
 30
0.0
 11
4304.382827052121
 21
984.1543568866509
 31
0.0
  0
LINE
  5
B29
330
B25
100
AcDbEntity
  8
1 辅助线
370
     0
100
AcDbLine
 10
4522.739581974041
 20
984.1543568866509
 30
0.0
 11
4378.096336895977
 21
984.1543568866509
 31
0.0
  0
SOLID
  5
B2A
330
B25
100
AcDbEntity
  8
1 辅助线
100
AcDbTrace
 10
4159.739581974056
 20
985.8210235533176
 30
0.0
 11
4159.739581974056
 21
982.4876902199843
 31
0.0
 12
4149.739581974055
 22
984.1543568866509
 32
0.0
 13
4149.739581974055
 23
984.1543568866509
 33
0.0
  0
SOLID
  5
B2B
330
B25
100
AcDbEntity
  8
1 辅助线
100
AcDbTrace
 10
4522.739581974041
 20
985.8210235533176
 30
0.0
 11
4522.739581974041
 21
982.4876902199843
 31
0.0
 12
4532.739581974041
 22
984.1543568866509
 32
0.0
 13
4532.739581974041
 23
984.1543568866509
 33
0.0
  0
MTEXT
  5
B2C
330
B25
100
AcDbEntity
  8
1 辅助线
100
AcDbMText
 10
4341.239581974049
 20
995.3491973482938
 30
0.0
 40
14.0
 41
0.0
 71
     5
 72
     1
  1
\A2;383
  7
Arial
 73
     1
 44
1.0
  0
MTEXT
  5
B2D
330
B25
100
AcDbEntity
  8
1 辅助线
100
AcDbMText
 10
4341.239581974049
 20
971.030120634105
 30
0.0
 40
14.0
 41
0.0
 71
     5
 72
     1
  1
\A2;[15 1/8"]
  7
Arial
 73
     1
 44
1.0
  0
POINT
  5
B2E
330
B25
100
AcDbEntity
  8
Defpoints
 62
     0
100
AcDbPoint
 10
4149.739581974055
 20
917.6882850019156
 30
0.0
  0
POINT
  5
B2F
330
B25
100
AcDbEntity
  8
Defpoints
 62
     0
100
AcDbPoint
 10
4532.739581974041
 20
917.6882850019135
 30
0.0
  0
POINT
  5
B30
330
B25
100
AcDbEntity
  8
Defpoints
 62
     0
100
AcDbPoint
 10
4532.739581974041
 20
984.1543568866509
 30
0.0
  0
ENDBLK
  5
B32
330
B25
100
AcDbEntity
  8
0
100
AcDbBlockEnd
  0
BLOCK
  5
B3F
330
B33
100
AcDbEntity
  8
0
100
AcDbBlockBegin
  2
*D79
 70
     1
 10
0.0
 20
0.0
 30
0.0
  3
*D79
  1

  0
LINE
  5
B34
330
B33
100
AcDbEntity
  8
1 辅助线
100
AcDbLine
 10
4520.739581974041
 20
937.6882850019137
 30
0.0
 11
4592.196161246556
 21
937.6882850019137
 31
0.0
  0
LINE
  5
B35
330
B33
100
AcDbEntity
  8
1 辅助线
100
AcDbLine
 10
4520.739581974043
 20
655.6882850019156
 30
0.0
 11
4592.196161246556
 21
655.6882850019156
 31
0.0
  0
LINE
  5
B36
330
B33
100
AcDbEntity
  8
1 辅助线
370
     0
100
AcDbLine
 10
4584.196161246556
 20
927.6882850019138
 30
0.0
 11
4584.196161246556
 21
821.0073617161034
 31
0.0
  0
LINE
  5
B37
330
B33
100
AcDbEntity
  8
1 辅助线
370
     0
100
AcDbLine
 10
4584.196161246556
 20
665.6882850019155
 30
0.0
 11
4584.196161246556
 21
772.3692082877258
 31
0.0
  0
SOLID
  5
B38
330
B33
100
AcDbEntity
  8
1 辅助线
100
AcDbTrace
 10
4582.52949457989
 20
927.6882850019138
 30
0.0
 11
4585.862827913223
 21
927.6882850019138
 31
0.0
 12
4584.196161246556
 22
937.6882850019137
 32
0.0
 13
4584.196161246556
 23
937.6882850019137
 33
0.0
  0
SOLID
  5
B39
330
B33
100
AcDbEntity
  8
1 辅助线
100
AcDbTrace
 10
4582.52949457989
 20
665.6882850019155
 30
0.0
 11
4585.862827913223
 21
665.6882850019155
 31
0.0
 12
4584.196161246556
 22
655.6882850019156
 32
0.0
 13
4584.196161246556
 23
655.6882850019156
 33
0.0
  0
MTEXT
  5
B3A
330
B33
100
AcDbEntity
  8
1 辅助线
100
AcDbMText
 10
4584.196161246556
 20
807.8831254635584
 30
0.0
 40
14.0
 41
0.0
 71
     5
 72
     1
  1
\A2;282
  7
Arial
 73
     1
 44
1.0
  0
MTEXT
  5
B3B
330
B33
100
AcDbEntity
  8
1 辅助线
100
AcDbMText
 10
4584.196161246556
 20
783.5640487493695
 30
0.0
 40
14.0
 41
0.0
 71
     5
 72
     1
  1
\A2;[11 1/8"]
  7
Arial
 73
     1
 44
1.0
  0
POINT
  5
B3C
330
B33
100
AcDbEntity
  8
Defpoints
 62
     0
100
AcDbPoint
 10
4512.739581974041
 20
937.6882850019137
 30
0.0
  0
POINT
  5
B3D
330
B33
100
AcDbEntity
  8
Defpoints
 62
     0
100
AcDbPoint
 10
4512.739581974043
 20
655.6882850019156
 30
0.0
  0
POINT
  5
B3E
330
B33
100
AcDbEntity
  8
Defpoints
 62
     0
100
AcDbPoint
 10
4584.196161246556
 20
655.6882850019156
 30
0.0
  0
ENDBLK
  5
B40
330
B33
100
AcDbEntity
  8
0
100
AcDbBlockEnd
  0
BLOCK
  5
B4D
330
B41
100
AcDbEntity
  8
0
100
AcDbBlockBegin
  2
*D80
 70
     1
 10
0.0
 20
0.0
 30
0.0
  3
*D80
  1

  0
LINE
  5
B42
330
B41
100
AcDbEntity
  8
1 辅助线
100
AcDbLine
 10
4728.087680815541
 20
924.4208966562391
 30
0.0
 11
4728.087680815541
 21
983.8835754504616
 31
0.0
  0
LINE
  5
B43
330
B41
100
AcDbEntity
  8
1 辅助线
100
AcDbLine
 10
5093.087680815552
 20
924.4208966562281
 30
0.0
 11
5093.087680815552
 21
983.8835754504616
 31
0.0
  0
LINE
  5
B44
330
B41
100
AcDbEntity
  8
1 辅助线
370
     0
100
AcDbLine
 10
4738.08768081554
 20
975.8835754504616
 30
0.0
 11
4873.730925893618
 21
975.8835754504616
 31
0.0
  0
LINE
  5
B45
330
B41
100
AcDbEntity
  8
1 辅助线
370
     0
100
AcDbLine
 10
5083.087680815552
 20
975.8835754504616
 30
0.0
 11
4947.444435737474
 21
975.8835754504616
 31
0.0
  0
SOLID
  5
B46
330
B41
100
AcDbEntity
  8
1 辅助线
100
AcDbTrace
 10
4738.08768081554
 20
977.5502421171282
 30
0.0
 11
4738.08768081554
 21
974.216908783795
 31
0.0
 12
4728.087680815541
 22
975.8835754504616
 32
0.0
 13
4728.087680815541
 23
975.8835754504616
 33
0.0
  0
SOLID
  5
B47
330
B41
100
AcDbEntity
  8
1 辅助线
100
AcDbTrace
 10
5083.087680815552
 20
977.5502421171282
 30
0.0
 11
5083.087680815552
 21
974.216908783795
 31
0.0
 12
5093.087680815552
 22
975.8835754504616
 32
0.0
 13
5093.087680815552
 23
975.8835754504616
 33
0.0
  0
MTEXT
  5
B48
330
B41
100
AcDbEntity
  8
1 辅助线
100
AcDbMText
 10
4910.587680815546
 20
987.0784159121045
 30
0.0
 40
14.0
 41
0.0
 71
     5
 72
     1
  1
\A2;365
  7
Arial
 73
     1
 44
1.0
  0
MTEXT
  5
B49
330
B41
100
AcDbEntity
  8
1 辅助线
100
AcDbMText
 10
4910.587680815546
 20
962.7593391979157
 30
0.0
 40
14.0
 41
0.0
 71
     5
 72
     1
  1
\A2;[14 3/8"]
  7
Arial
 73
     1
 44
1.0
  0
POINT
  5
B4A
330
B41
100
AcDbEntity
  8
Defpoints
 62
     0
100
AcDbPoint
 10
4728.087680815541
 20
916.4208966562391
 30
0.0
  0
POINT
  5
B4B
330
B41
100
AcDbEntity
  8
Defpoints
 62
     0
100
AcDbPoint
 10
5093.087680815552
 20
916.4208966562281
 30
0.0
  0
POINT
  5
B4C
330
B41
100
AcDbEntity
  8
Defpoints
 62
     0
100
AcDbPoint
 10
5093.087680815552
 20
975.8835754504616
 30
0.0
  0
ENDBLK
  5
B4E
330
B41
100
AcDbEntity
  8
0
100
AcDbBlockEnd
  0
BLOCK
  5
B5B
330
B4F
100
AcDbEntity
  8
0
100
AcDbBlockBegin
  2
*D81
 70
     1
 10
0.0
 20
0.0
 30
0.0
  3
*D81
  1

  0
LINE
  5
B50
330
B4F
100
AcDbEntity
  8
1 辅助线
100
AcDbLine
 10
5086.087680815545
 20
663.4208966562392
 30
0.0
 11
5149.864832767541
 21
663.4208966562392
 31
0.0
  0
LINE
  5
B51
330
B4F
100
AcDbEntity
  8
1 辅助线
100
AcDbLine
 10
5086.087680815545
 20
931.4208966562391
 30
0.0
 11
5149.864832767541
 21
931.4208966562391
 31
0.0
  0
LINE
  5
B52
330
B4F
100
AcDbEntity
  8
1 辅助线
370
     0
100
AcDbLine
 10
5141.86483276754
 20
673.4208966562391
 30
0.0
 11
5141.86483276754
 21
773.1018199420503
 31
0.0
  0
LINE
  5
B53
330
B4F
100
AcDbEntity
  8
1 辅助线
370
     0
100
AcDbLine
 10
5141.86483276754
 20
921.4208966562392
 30
0.0
 11
5141.86483276754
 21
821.7399733704279
 31
0.0
  0
SOLID
  5
B54
330
B4F
100
AcDbEntity
  8
1 辅助线
100
AcDbTrace
 10
5140.198166100873
 20
673.4208966562391
 30
0.0
 11
5143.531499434207
 21
673.4208966562391
 31
0.0
 12
5141.86483276754
 22
663.4208966562392
 32
0.0
 13
5141.86483276754
 23
663.4208966562392
 33
0.0
  0
SOLID
  5
B55
330
B4F
100
AcDbEntity
  8
1 辅助线
100
AcDbTrace
 10
5140.198166100873
 20
921.4208966562392
 30
0.0
 11
5143.531499434207
 21
921.4208966562392
 31
0.0
 12
5141.86483276754
 22
931.4208966562391
 32
0.0
 13
5141.86483276754
 23
931.4208966562391
 33
0.0
  0
MTEXT
  5
B56
330
B4F
100
AcDbEntity
  8
1 辅助线
100
AcDbMText
 10
5141.86483276754
 20
808.6157371178828
 30
0.0
 40
14.0
 41
0.0
 71
     5
 72
     1
  1
\A2;268
  7
Arial
 73
     1
 44
1.0
  0
MTEXT
  5
B57
330
B4F
100
AcDbEntity
  8
1 辅助线
100
AcDbMText
 10
5141.86483276754
 20
784.2966604036941
 30
0.0
 40
14.0
 41
0.0
 71
     5
 72
     1
  1
\A2;[10 1/2"]
  7
Arial
 73
     1
 44
1.0
  0
POINT
  5
B58
330
B4F
100
AcDbEntity
  8
Defpoints
 62
     0
100
AcDbPoint
 10
5078.087680815545
 20
663.4208966562392
 30
0.0
  0
POINT
  5
B59
330
B4F
100
AcDbEntity
  8
Defpoints
 62
     0
100
AcDbPoint
 10
5078.087680815545
 20
931.4208966562391
 30
0.0
  0
POINT
  5
B5A
330
B4F
100
AcDbEntity
  8
Defpoints
 62
     0
100
AcDbPoint
 10
5141.86483276754
 20
931.4208966562391
 30
0.0
  0
ENDBLK
  5
B5C
330
B4F
100
AcDbEntity
  8
0
100
AcDbBlockEnd
  0
ENDSEC
  0
SECTION
  2
ENTITIES
  0
MTEXT
  5
1D2
330
1F
100
AcDbEntity
  8
1 辅助线
100
AcDbMText
 10
11595.26381367707
 20
1618.48212547431
 30
0.0
 40
16.5
 41
501.6622092830949
 71
     1
 72
     5
  1
WL1310 TEMPLATE
  7
Arial
 73
     1
 44
1.0
  0
ELLIPSE
  5
7D6
102
{ACAD_REACTORS
330
890
330
8A8
102
}
330
1F
100
AcDbEntity
  8
0
100
AcDbEllipse
 10
11687.85084269324
 20
1601.896745864775
 30
0.0
 11
155.0
 21
0.0
 31
0.0
210
0.0
220
0.0
230
1.0
 40
0.7741935483870968
 41
0.0
 42
6.283185307179586
  0
DIMENSION
  5
879
102
{ACAD_XDICTIONARY
360
886
102
}
102
{ACAD_REACTORS
330
890
102
}
330
1F
100
AcDbEntity
  8
1 辅助线
100
AcDbDimension
  2
*D44
 10
11842.85084269324
 20
1767.282763180314
 30
0.0
 11
11687.85084269324
 21
1767.282763180314
 31
0.0
 70
    32
 71
     5
 42
310.0
  3
33-原比例超大字无转
100
AcDbAlignedDimension
 13
11532.85084269324
 23
1601.896745864775
 33
0.0
 14
11842.85084269324
 24
1601.896745864775
 34
0.0
100
AcDbRotatedDimension
1001
ACAD
1000
DSTYLE
1002
{
1070
    40
1040
0.4
1002
}
  0
DIMENSION
  5
891
102
{ACAD_XDICTIONARY
360
89E
102
}
102
{ACAD_REACTORS
330
8A8
102
}
330
1F
100
AcDbEntity
  8
1 辅助线
100
AcDbDimension
  2
*D45
 10
11894.03283901957
 20
1481.896745864774
 30
0.0
 11
11894.03283901957
 21
1601.896745864777
 31
0.0
 70
    32
 71
     5
 42
240.0
  3
33-原比例超大字无转
100
AcDbAlignedDimension
 13
11687.85084269324
 23
1721.896745864775
 33
0.0
 14
11687.85084269324
 24
1481.896745864775
 34
0.0
 50
90.0
100
AcDbRotatedDimension
1001
ACAD
1000
DSTYLE
1002
{
1070
    40
1040
0.4
1002
}
  0
ENDSEC
  0
SECTION
  2
OBJECTS
  0
DICTIONARY
  5
C
330
0
100
AcDbDictionary
281
     1
  3
ACAD_COLOR
350
6B
  3
ACAD_GROUP
350
D
  3
ACAD_LAYOUT
350
1A
  3
ACAD_MATERIAL
350
6A
  3
ACAD_MLINESTYLE
350
17
  3
ACAD_PLOTSETTINGS
350
19
  3
ACAD_PLOTSTYLENAME
350
E
  3
ACAD_TABLESTYLE
350
7E
  3
ACAD_VISUALSTYLE
350
F0
  3
AcDbVariableDictionary
350
5E
  0
DICTIONARY
  5
132
330
2
100
AcDbDictionary
280
     1
281
     1
  3
ACAD_LAYERSTATES
360
133
  0
DICTIONARY
  5
128
330
127
100
AcDbDictionary
280
     1
281
     1
  3
ADSK_XREC_LAYER_RECONCILED
360
129
  0
DICTIONARY
  5
886
330
879
100
AcDbDictionary
280
     1
281
     1
  3
ACAD_DIMASSOC
360
890
  0
DICTIONARY
  5
89E
330
891
100
AcDbDictionary
280
     1
281
     1
  3
ACAD_DIMASSOC
360
8A8
  0
DICTIONARY
  5
6B
102
{ACAD_REACTORS
330
C
102
}
330
C
100
AcDbDictionary
281
     1
  0
DICTIONARY
  5
D
102
{ACAD_REACTORS
330
C
102
}
330
C
100
AcDbDictionary
281
     1
  0
DICTIONARY
  5
1A
102
{ACAD_REACTORS
330
C
102
}
330
C
100
AcDbDictionary
281
     1
  3
Model
350
22
  3
布局1
350
D3
  3
布局2
350
D7
  0
DICTIONARY
  5
6A
102
{ACAD_REACTORS
330
C
102
}
330
C
100
AcDbDictionary
281
     1
  3
ByBlock
350
EE
  3
ByLayer
350
ED
  3
Global
350
EF
  0
DICTIONARY
  5
17
102
{ACAD_REACTORS
330
C
102
}
330
C
100
AcDbDictionary
281
     1
  3
Standard
350
18
  0
DICTIONARY
  5
19
102
{ACAD_REACTORS
330
C
102
}
330
C
100
AcDbDictionary
281
     1
  0
ACDBDICTIONARYWDFLT
  5
E
102
{ACAD_REACTORS
330
C
102
}
330
C
100
AcDbDictionary
281
     1
  3
Normal
350
F
100
AcDbDictionaryWithDefault
340
F
  0
DICTIONARY
  5
7E
102
{ACAD_REACTORS
330
C
102
}
330
C
100
AcDbDictionary
281
     1
  3
Standard
350
7F
  0
DICTIONARY
  5
F0
102
{ACAD_REACTORS
330
C
102
}
330
C
100
AcDbDictionary
281
     1
  3
2dWireframe
350
F6
  3
3D Hidden
350
F8
  3
3dWireframe
350
F7
  3
Basic
350
F5
  3
Brighten
350
FC
  3
ColorChange
350
100
  3
Conceptual
350
F9
  3
Dim
350
FB
  3
Facepattern
350
FF
  3
Flat
350
F1
  3
FlatWithEdges
350
F2
  3
Gouraud
350
F3
  3
GouraudWithEdges
350
F4
  3
Linepattern
350
FE
  3
Realistic
350
FA
  3
Thicken
350
FD
  0
DICTIONARY
  5
5E
102
{ACAD_REACTORS
330
C
102
}
330
C
100
AcDbDictionary
281
     1
  3
CTABLESTYLE
350
84
  3
DIMASSOC
350
5F
  3
HIDETEXT
350
63
  3
PSOLHEIGHT
350
CDC
  3
PSOLWIDTH
350
CDB
  0
DICTIONARY
  5
133
102
{ACAD_REACTORS
330
132
102
}
330
132
100
AcDbDictionary
281
     1
  0
XRECORD
  5
129
102
{ACAD_REACTORS
330
128
102
}
330
128
100
AcDbXrecord
280
     1
290
     1
  0
DIMASSOC
  5
890
102
{ACAD_REACTORS
330
886
102
}
330
886
100
AcDbDimAssoc
330
879
 90
        3
 70
     0
 71
     0
  1
AcDbOsnapPointRef
 72
     5
331
7D6
 73
     2
 91
        0
 40
3.141592653589793
 10
0.0
 20
6.283185307179586
 30
2.000000000000000E+50
 75
     0
  1
AcDbOsnapPointRef
 72
     5
331
7D6
 73
     2
 91
        0
 40
0.0
 10
0.0
 20
6.283185307179586
 30
2.000000000000000E+50
 75
     0
  0
DIMASSOC
  5
8A8
102
{ACAD_REACTORS
330
89E
102
}
330
89E
100
AcDbDimAssoc
330
891
 90
        3
 70
     0
 71
     0
  1
AcDbOsnapPointRef
 72
     5
331
7D6
 73
     2
 91
        0
 40
1.570796326794896
 10
0.0
 20
6.283185307179586
 30
2.000000000000000E+50
 75
     0
  1
AcDbOsnapPointRef
 72
     5
331
7D6
 73
     2
 91
        0
 40
4.712388980384689
 10
0.0
 20
6.283185307179586
 30
2.000000000000000E+50
 75
     0
  0
LAYOUT
  5
22
102
{ACAD_REACTORS
330
1A
102
}
330
1A
100
AcDbPlotSettings
  1

  2
none_device
  4
ISO_A4_(210.00_x_297.00_MM)
  6

 40
7.5
 41
20.0
 42
7.5
 43
20.0
 44
210.0
 45
297.0
 46
11.54999923706054
 47
-13.65000009536743
 48
0.0
 49
0.0
140
0.0
141
0.0
142
1.0
143
8.704084754739808
 70
 11952
 72
     1
 73
     0
 74
     0
  7

 75
     0
147
0.1148885871608098
 76
     0
 77
     2
 78
   300
148
0.0
149
0.0
100
AcDbLayout
  1
Model
 70
     1
 71
     0
 10
0.0
 20
0.0
 11
12.0
 21
9.0
 12
0.0
 22
0.0
 32
0.0
 14
0.0
 24
0.0
 34
0.0
 15
0.0
 25
0.0
 35
0.0
146
0.0
 13
0.0
 23
0.0
 33
0.0
 16
1.0
 26
0.0
 36
0.0
 17
0.0
 27
1.0
 37
0.0
 76
     0
330
1F
331
EB
1001
ACAD_PSEXT
1000
None
1000
None
1000
Not applicable
1000
The layout will not be plotted unless a new plotter configuration name is selected.
1070
     0
  0
LAYOUT
  5
D3
102
{ACAD_REACTORS
330
1A
102
}
330
1A
100
AcDbPlotSettings
  1

  2
C:\Documents and Settings\basas\Application Data\Autodesk\AutoCAD 2005\R16.1\enu\plotters\Default Windows System Printer.pc3
  4

  6

 40
0.0
 41
0.0
 42
0.0
 43
0.0
 44
0.0
 45
0.0
 46
0.0
 47
0.0
 48
0.0
 49
0.0
140
0.0
141
0.0
142
1.0
143
1.0
 70
   688
 72
     0
 73
     0
 74
     5
  7

 75
    16
147
1.0
 76
     0
 77
     2
 78
   300
148
0.0
149
0.0
100
AcDbLayout
  1
布局1
 70
     1
 71
     1
 10
0.0
 20
0.0
 11
12.0
 21
9.0
 12
0.0
 22
0.0
 32
0.0
 14
0.0
 24
0.0
 34
0.0
 15
0.0
 25
0.0
 35
0.0
146
0.0
 13
0.0
 23
0.0
 33
0.0
 16
1.0
 26
0.0
 36
0.0
 17
0.0
 27
1.0
 37
0.0
 76
     0
330
D2
  0
LAYOUT
  5
D7
102
{ACAD_REACTORS
330
1A
102
}
330
1A
100
AcDbPlotSettings
  1

  2
C:\Documents and Settings\basas\Application Data\Autodesk\AutoCAD 2005\R16.1\enu\plotters\Default Windows System Printer.pc3
  4

  6

 40
0.0
 41
0.0
 42
0.0
 43
0.0
 44
0.0
 45
0.0
 46
0.0
 47
0.0
 48
0.0
 49
0.0
140
0.0
141
0.0
142
1.0
143
1.0
 70
   688
 72
     0
 73
     0
 74
     5
  7

 75
    16
147
1.0
 76
     0
 77
     2
 78
   300
148
0.0
149
0.0
100
AcDbLayout
  1
布局2
 70
     1
 71
     2
 10
0.0
 20
0.0
 11
12.0
 21
9.0
 12
0.0
 22
0.0
 32
0.0
 14
0.0
 24
0.0
 34
0.0
 15
0.0
 25
0.0
 35
0.0
146
0.0
 13
0.0
 23
0.0
 33
0.0
 16
1.0
 26
0.0
 36
0.0
 17
0.0
 27
1.0
 37
0.0
 76
     0
330
D6
  0
MATERIAL
  5
EE
102
{ACAD_XDICTIONARY
360
CE1
102
}
102
{ACAD_REACTORS
330
6A
102
}
330
6A
100
AcDbMaterial
  1
ByBlock
  0
MATERIAL
  5
ED
102
{ACAD_XDICTIONARY
360
CDF
102
}
102
{ACAD_REACTORS
330
6A
102
}
330
6A
100
AcDbMaterial
  1
ByLayer
  0
MATERIAL
  5
EF
102
{ACAD_XDICTIONARY
360
CE3
102
}
102
{ACAD_REACTORS
330
6A
102
}
330
6A
100
AcDbMaterial
  1
Global
  0
MLINESTYLE
  5
18
102
{ACAD_REACTORS
330
17
102
}
330
17
100
AcDbMlineStyle
  2
STANDARD
 70
     0
  3

 62
   256
 51
90.0
 52
90.0
 71
     2
 49
0.5
 62
   256
  6
BYLAYER
 49
-0.5
 62
   256
  6
BYLAYER
  0
ACDBPLACEHOLDER
  5
F
102
{ACAD_REACTORS
330
E
102
}
330
E
  0
TABLESTYLE
  5
7F
102
{ACAD_XDICTIONARY
360
CDD
102
}
102
{ACAD_REACTORS
330
7E
102
}
330
7E
100
AcDbTableStyle
  3
Standard
 70
     0
 71
     0
 40
1.5
 41
1.5
280
     0
281
     0
  7
Standard
140
4.5
170
     2
 62
     0
 63
     7
283
     0
274
    -2
284
     1
 64
     0
275
    -2
285
     1
 65
     0
276
    -2
286
     1
 66
     0
277
    -2
287
     1
 67
     0
278
    -2
288
     1
 68
     0
279
    -2
289
     1
 69
     0
  7
Standard
140
6.0
170
     5
 62
     0
 63
     7
283
     0
274
    -2
284
     1
 64
     0
275
    -2
285
     1
 65
     0
276
    -2
286
     1
 66
     0
277
    -2
287
     1
 67
     0
278
    -2
288
     1
 68
     0
279
    -2
289
     1
 69
     0
  7
Standard
140
4.5
170
     5
 62
     0
 63
     7
283
     0
274
    -2
284
     1
 64
     0
275
    -2
285
     1
 65
     0
276
    -2
286
     1
 66
     0
277
    -2
287
     1
 67
     0
278
    -2
288
     1
 68
     0
279
    -2
289
     1
 69
     0
  0
VISUALSTYLE
  5
F6
102
{ACAD_REACTORS
330
F0
102
}
330
F0
100
AcDbVisualStyle
  2
2dWireframe
 70
     4
 71
     0
 72
     2
 73
     1
 90
        0
 40
-0.6
 41
-30.0
 62
     5
 63
     7
421
 16777215
 74
     1
 91
        4
 64
     7
 65
   257
 75
     1
175
     1
 42
1.0
 92
        0
 66
   257
 43
1.0
 76
     1
 77
     6
 78
     2
 67
     7
 79
     5
170
     0
171
     0
290
     0
174
     0
 93
        1
 44
0.0
173
     0
291
     0
 45
0.0
1001
ACAD
1000
AcDbSavedByObjectVersion
1070
     0
  0
VISUALSTYLE
  5
F8
102
{ACAD_REACTORS
330
F0
102
}
330
F0
100
AcDbVisualStyle
  2
3D Hidden
 70
     6
 71
     1
 72
     2
 73
     2
 90
        0
 40
-0.6
 41
-30.0
 62
     5
 63
     7
421
 16777215
 74
     2
 91
        2
 64
     7
 65
   257
 75
     2
175
     1
 42
40.0
 92
        0
 66
   257
 43
1.0
 76
     1
 77
     6
 78
     2
 67
     7
 79
     3
170
     0
171
     0
290
     0
174
     0
 93
        1
 44
0.0
173
     0
291
     0
 45
0.0
1001
ACAD
1000
AcDbSavedByObjectVersion
1070
     0
  0
VISUALSTYLE
  5
F7
102
{ACAD_REACTORS
330
F0
102
}
330
F0
100
AcDbVisualStyle
  2
3dWireframe
 70
     5
 71
     0
 72
     2
 73
     1
 90
        0
 40
-0.6
 41
-30.0
 62
     5
 63
     7
421
 16777215
 74
     1
 91
        4
 64
     7
 65
   257
 75
     1
175
     1
 42
1.0
 92
        0
 66
   257
 43
1.0
 76
     1
 77
     6
 78
     2
 67
     7
 79
     5
170
     0
171
     0
290
     0
174
     0
 93
        1
 44
0.0
173
     0
291
     0
 45
0.0
1001
ACAD
1000
AcDbSavedByObjectVersion
1070
     0
  0
VISUALSTYLE
  5
F5
102
{ACAD_REACTORS
330
F0
102
}
330
F0
100
AcDbVisualStyle
  2
Basic
 70
     7
 71
     1
 72
     0
 73
     1
 90
        0
 40
-0.6
 41
-30.0
 62
     5
 63
     7
421
 16777215
 74
     0
 91
        4
 64
     7
 65
   257
 75
     1
175
     1
 42
1.0
 92
        8
 66
     7
 43
1.0
 76
     1
 77
     6
 78
     2
 67
     7
 79
     5
170
     0
171
     0
290
     0
174
     0
 93
        1
 44
0.0
173
     0
291
     1
 45
0.0
1001
ACAD
1000
AcDbSavedByObjectVersion
1070
     0
  0
VISUALSTYLE
  5
FC
102
{ACAD_REACTORS
330
F0
102
}
330
F0
100
AcDbVisualStyle
  2
Brighten
 70
    12
 71
     2
 72
     2
 73
     1
 90
        0
 40
-0.6
 41
-30.0
 62
     5
 63
     7
421
 16777215
 74
     1
 91
        4
 64
     7
 65
   257
 75
     1
175
     1
 42
1.0
 92
        8
 66
     7
 43
1.0
 76
     1
 77
     6
 78
     2
 67
     7
 79
     5
170
     0
171
     0
290
     0
174
     0
 93
        1
 44
50.0
173
     0
291
     1
 45
0.0
1001
ACAD
1000
AcDbSavedByObjectVersion
1070
     0
  0
VISUALSTYLE
  5
100
102
{ACAD_REACTORS
330
F0
102
}
330
F0
100
AcDbVisualStyle
  2
ColorChange
 70
    16
 71
     2
 72
     2
 73
     3
 90
        0
 40
-0.6
 41
-30.0
 62
     5
 63
     8
421
  8421504
 74
     1
 91
        4
 64
     7
 65
   257
 75
     1
175
     1
 42
1.0
 92
        8
 66
     8
424
  8421504
 43
1.0
 76
     1
 77
     6
 78
     2
 67
     7
 79
     5
170
     0
171
     0
290
     0
174
     0
 93
        1
 44
0.0
173
     0
291
     1
 45
0.0
1001
ACAD
1000
AcDbSavedByObjectVersion
1070
     0
  0
VISUALSTYLE
  5
F9
102
{ACAD_REACTORS
330
F0
102
}
330
F0
100
AcDbVisualStyle
  2
Conceptual
 70
     9
 71
     3
 72
     2
 73
     1
 90
        0
 40
-0.6
 41
-30.0
 62
     5
 63
     7
421
 16777215
 74
     2
 91
        2
 64
     7
 65
   257
 75
     1
175
     1
 42
40.0
 92
        8
 66
     7
 43
1.0
 76
     1
 77
     6
 78
     2
 67
     7
 79
     3
170
     0
171
     0
290
     0
174
     0
 93
        1
 44
0.0
173
     0
291
     0
 45
0.0
1001
ACAD
1000
AcDbSavedByObjectVersion
1070
     0
  0
VISUALSTYLE
  5
FB
102
{ACAD_REACTORS
330
F0
102
}
330
F0
100
AcDbVisualStyle
  2
Dim
 70
    11
 71
     2
 72
     2
 73
     1
 90
        0
 40
-0.6
 41
-30.0
 62
     5
 63
     7
421
 16777215
 74
     1
 91
        4
 64
     7
 65
   257
 75
     1
175
     1
 42
1.0
 92
        8
 66
     7
 43
1.0
 76
     1
 77
     6
 78
     2
 67
     7
 79
     5
170
     0
171
     0
290
     0
174
     0
 93
        1
 44
-50.0
173
     0
291
     1
 45
0.0
1001
ACAD
1000
AcDbSavedByObjectVersion
1070
     0
  0
VISUALSTYLE
  5
FF
102
{ACAD_REACTORS
330
F0
102
}
330
F0
100
AcDbVisualStyle
  2
Facepattern
 70
    15
 71
     2
 72
     2
 73
     1
 90
        0
 40
-0.6
 41
-30.0
 62
     5
 63
     7
421
 16777215
 74
     1
 91
        4
 64
     7
 65
   257
 75
     1
175
     1
 42
1.0
 92
        8
 66
     7
 43
1.0
 76
     1
 77
     6
 78
     2
 67
     7
 79
     5
170
     0
171
     0
290
     0
174
     0
 93
        1
 44
0.0
173
     0
291
     1
 45
0.0
1001
ACAD
1000
AcDbSavedByObjectVersion
1070
     0
  0
VISUALSTYLE
  5
F1
102
{ACAD_REACTORS
330
F0
102
}
330
F0
100
AcDbVisualStyle
  2
Flat
 70
     0
 71
     2
 72
     1
 73
     1
 90
        2
 40
-0.6
 41
30.0
 62
     5
 63
     7
421
 16777215
 74
     0
 91
        4
 64
     7
 65
   257
 75
     1
175
     1
 42
1.0
 92
        8
 66
     7
 43
1.0
 76
     1
 77
     6
 78
     2
 67
     7
 79
     5
170
     0
171
     0
290
     0
174
     0
 93
        1
 44
0.0
173
     0
291
     1
 45
0.0
1001
ACAD
1000
AcDbSavedByObjectVersion
1070
     0
  0
VISUALSTYLE
  5
F2
102
{ACAD_REACTORS
330
F0
102
}
330
F0
100
AcDbVisualStyle
  2
FlatWithEdges
 70
     1
 71
     2
 72
     1
 73
     1
 90
        2
 40
-0.6
 41
30.0
 62
     5
 63
     7
421
 16777215
 74
     1
 91
        4
 64
     7
 65
   257
 75
     1
175
     1
 42
1.0
 92
        0
 66
   257
 43
1.0
 76
     1
 77
     6
 78
     2
 67
     7
 79
     5
170
     0
171
     0
290
     0
174
     0
 93
        1
 44
0.0
173
     0
291
     1
 45
0.0
1001
ACAD
1000
AcDbSavedByObjectVersion
1070
     0
  0
VISUALSTYLE
  5
F3
102
{ACAD_REACTORS
330
F0
102
}
330
F0
100
AcDbVisualStyle
  2
Gouraud
 70
     2
 71
     2
 72
     2
 73
     1
 90
        2
 40
-0.6
 41
30.0
 62
     5
 63
     7
421
 16777215
 74
     0
 91
        4
 64
     7
 65
   257
 75
     1
175
     1
 42
1.0
 92
        0
 66
     7
 43
1.0
 76
     1
 77
     6
 78
     2
 67
     7
 79
     5
170
     0
171
     0
290
     0
174
     0
 93
        1
 44
0.0
173
     0
291
     1
 45
0.0
1001
ACAD
1000
AcDbSavedByObjectVersion
1070
     0
  0
VISUALSTYLE
  5
F4
102
{ACAD_REACTORS
330
F0
102
}
330
F0
100
AcDbVisualStyle
  2
GouraudWithEdges
 70
     3
 71
     2
 72
     2
 73
     1
 90
        2
 40
-0.6
 41
30.0
 62
     5
 63
     7
421
 16777215
 74
     1
 91
        4
 64
     7
 65
   257
 75
     1
175
     1
 42
1.0
 92
        0
 66
   257
 43
1.0
 76
     1
 77
     6
 78
     2
 67
     7
 79
     5
170
     0
171
     0
290
     0
174
     0
 93
        1
 44
0.0
173
     0
291
     1
 45
0.0
1001
ACAD
1000
AcDbSavedByObjectVersion
1070
     0
  0
VISUALSTYLE
  5
FE
102
{ACAD_REACTORS
330
F0
102
}
330
F0
100
AcDbVisualStyle
  2
Linepattern
 70
    14
 71
     2
 72
     2
 73
     1
 90
        0
 40
-0.6
 41
-30.0
 62
     5
 63
     7
421
 16777215
 74
     1
 91
        4
 64
     7
 65
   257
 75
     7
175
     7
 42
1.0
 92
        8
 66
     7
 43
1.0
 76
     1
 77
     6
 78
     2
 67
     7
 79
     5
170
     0
171
     0
290
     0
174
     0
 93
        1
 44
0.0
173
     0
291
     1
 45
0.0
1001
ACAD
1000
AcDbSavedByObjectVersion
1070
     0
  0
VISUALSTYLE
  5
FA
102
{ACAD_REACTORS
330
F0
102
}
330
F0
100
AcDbVisualStyle
  2
Realistic
 70
     8
 71
     2
 72
     2
 73
     1
 90
        0
 40
-0.6
 41
-30.0
 62
     5
 63
     7
421
 16777215
 74
     1
 91
        0
 64
     7
 65
   257
 75
     1
175
     1
 42
1.0
 92
        8
 66
     8
424
  7895160
 43
1.0
 76
     1
 77
     6
 78
     2
 67
     7
 79
     5
170
     0
171
     0
290
     0
174
     0
 93
       13
 44
0.0
173
     0
291
     0
 45
0.0
1001
ACAD
1000
AcDbSavedByObjectVersion
1070
     0
  0
VISUALSTYLE
  5
FD
102
{ACAD_REACTORS
330
F0
102
}
330
F0
100
AcDbVisualStyle
  2
Thicken
 70
    13
 71
     2
 72
     2
 73
     1
 90
        0
 40
-0.6
 41
-30.0
 62
     5
 63
     7
421
 16777215
 74
     1
 91
        4
 64
     7
 65
   257
 75
     1
175
     1
 42
1.0
 92
       12
 66
     7
 43
1.0
 76
     1
 77
     6
 78
     2
 67
     7
 79
     5
170
     0
171
     0
290
     0
174
     0
 93
        1
 44
0.0
173
     0
291
     1
 45
0.0
1001
ACAD
1000
AcDbSavedByObjectVersion
1070
     0
  0
DICTIONARYVAR
  5
84
102
{ACAD_REACTORS
330
5E
102
}
330
5E
100
DictionaryVariables
280
     0
  1
STANDARD
  0
DICTIONARYVAR
  5
5F
102
{ACAD_REACTORS
330
5E
102
}
330
5E
100
DictionaryVariables
280
     0
  1
2
  0
DICTIONARYVAR
  5
63
102
{ACAD_REACTORS
330
5E
102
}
330
5E
100
DictionaryVariables
280
     0
  1
1
  0
DICTIONARYVAR
  5
CDC
102
{ACAD_REACTORS
330
5E
102
}
330
5E
100
DictionaryVariables
280
     0
  1
80.000000
  0
DICTIONARYVAR
  5
CDB
102
{ACAD_REACTORS
330
5E
102
}
330
5E
100
DictionaryVariables
280
     0
  1
5.000000
  0
DICTIONARY
  5
CE1
330
EE
100
AcDbDictionary
280
     1
281
     1
  3
ACAD_XREC_ROUNDTRIP
360
CE2
  0
DICTIONARY
  5
CDF
330
ED
100
AcDbDictionary
280
     1
281
     1
  3
ACAD_XREC_ROUNDTRIP
360
CE0
  0
DICTIONARY
  5
CE3
330
EF
100
AcDbDictionary
280
     1
281
     1
  3
ACAD_XREC_ROUNDTRIP
360
CE4
  0
DICTIONARY
  5
CDD
330
7F
100
AcDbDictionary
280
     1
281
     1
  3
ACAD_XREC_ROUNDTRIP
360
CDE
  0
XRECORD
  5
CE2
102
{ACAD_REACTORS
330
CE1
102
}
330
CE1
100
AcDbXrecord
280
     1
102
MATERIAL
148
0.0
149
0.0
149
0.0
 93
        0
 94
       63
282
     0
 72
     1
 77
     1
171
     1
175
     1
179
     1
273
     0
  0
XRECORD
  5
CE0
102
{ACAD_REACTORS
330
CDF
102
}
330
CDF
100
AcDbXrecord
280
     1
102
MATERIAL
148
0.0
149
0.0
149
0.0
 93
        0
 94
       63
282
     0
 72
     1
 77
     1
171
     1
175
     1
179
     1
273
     0
  0
XRECORD
  5
CE4
102
{ACAD_REACTORS
330
CE3
102
}
330
CE3
100
AcDbXrecord
280
     1
102
MATERIAL
148
0.0
149
0.0
149
0.0
 93
        0
 94
       63
282
     0
 72
     1
 77
     1
171
     1
175
     1
179
     1
273
     0
  0
XRECORD
  5
CDE
102
{ACAD_REACTORS
330
CDD
102
}
330
CDD
100
AcDbXrecord
280
     1
102
ACAD_ROUNDTRIP_PRE2007_TABLESTYLE
 90
      512
 91
        0
  1

 92
      512
 93
        0
  2

 94
      512
 95
        0
  3

  0
ENDSEC
  0
EOF
