  0
SECTION
  2
HEADER
  9
$ACADVER
  1
AC1015
  9
$ACADMAINTVER
 70
    20
  9
$DWGCODEPAGE
  3
ANSI_936
  9
$INSBASE
 10
0.0
 20
0.0
 30
0.0
  9
$EXTMIN
 10
129.0999999999999
 20
-2388.95
 30
0.0
  9
$EXTMAX
 10
4817.413985912346
 20
1035.043461466589
 30
0.0
  9
$LIMMIN
 10
0.0
 20
0.0
  9
$LIMMAX
 10
12.0
 20
9.0
  9
$ORTHOMODE
 70
     1
  9
$REGENMODE
 70
     1
  9
$FILLMODE
 70
     1
  9
$QTEXTMODE
 70
     0
  9
$MIRRTEXT
 70
     1
  9
$LTSCALE
 40
1.0
  9
$ATTMODE
 70
     1
  9
$TEXTSIZE
 40
0.2
  9
$TRACEWID
 40
0.05
  9
$TEXTSTYLE
  7
Standard
  9
$CLAYER
  8
0
  9
$CELTYPE
  6
ByLayer
  9
$CECOLOR
 62
   256
  9
$CELTSCALE
 40
1.0
  9
$DISPSILH
 70
     0
  9
$DIMSCALE
 40
1.0
  9
$DIMASZ
 40
0.18
  9
$DIMEXO
 40
0.0625
  9
$DIMDLI
 40
0.38
  9
$DIMRND
 40
0.0
  9
$DIMDLE
 40
0.0
  9
$DIMEXE
 40
0.18
  9
$DIMTP
 40
0.0
  9
$DIMTM
 40
0.0
  9
$DIMTXT
 40
0.18
  9
$DIMCEN
 40
0.09
  9
$DIMTSZ
 40
0.0
  9
$DIMTOL
 70
     0
  9
$DIMLIM
 70
     0
  9
$DIMTIH
 70
     1
  9
$DIMTOH
 70
     1
  9
$DIMSE1
 70
     0
  9
$DIMSE2
 70
     0
  9
$DIMTAD
 70
     0
  9
$DIMZIN
 70
     0
  9
$DIMBLK
  1

  9
$DIMASO
 70
     1
  9
$DIMSHO
 70
     1
  9
$DIMPOST
  1

  9
$DIMAPOST
  1

  9
$DIMALT
 70
     0
  9
$DIMALTD
 70
     2
  9
$DIMALTF
 40
25.4
  9
$DIMLFAC
 40
1.0
  9
$DIMTOFL
 70
     0
  9
$DIMTVP
 40
0.0
  9
$DIMTIX
 70
     0
  9
$DIMSOXD
 70
     0
  9
$DIMSAH
 70
     0
  9
$DIMBLK1
  1

  9
$DIMBLK2
  1

  9
$DIMSTYLE
  2
Standard
  9
$DIMCLRD
 70
     0
  9
$DIMCLRE
 70
     0
  9
$DIMCLRT
 70
     0
  9
$DIMTFAC
 40
1.0
  9
$DIMGAP
 40
0.09
  9
$DIMJUST
 70
     0
  9
$DIMSD1
 70
     0
  9
$DIMSD2
 70
     0
  9
$DIMTOLJ
 70
     1
  9
$DIMTZIN
 70
     0
  9
$DIMALTZ
 70
     0
  9
$DIMALTTZ
 70
     0
  9
$DIMUPT
 70
     0
  9
$DIMDEC
 70
     4
  9
$DIMTDEC
 70
     4
  9
$DIMALTU
 70
     2
  9
$DIMALTTD
 70
     2
  9
$DIMTXSTY
  7
Standard
  9
$DIMAUNIT
 70
     0
  9
$DIMADEC
 70
     0
  9
$DIMALTRND
 40
0.0
  9
$DIMAZIN
 70
     0
  9
$DIMDSEP
 70
    46
  9
$DIMATFIT
 70
     3
  9
$DIMFRAC
 70
     0
  9
$DIMLDRBLK
  1

  9
$DIMLUNIT
 70
     2
  9
$DIMLWD
 70
    -2
  9
$DIMLWE
 70
    -2
  9
$DIMTMOVE
 70
     0
  9
$LUNITS
 70
     2
  9
$LUPREC
 70
     4
  9
$SKETCHINC
 40
0.1
  9
$FILLETRAD
 40
0.0
  9
$AUNITS
 70
     0
  9
$AUPREC
 70
     0
  9
$MENU
  1
.
  9
$ELEVATION
 40
0.0
  9
$PELEVATION
 40
0.0
  9
$THICKNESS
 40
0.0
  9
$LIMCHECK
 70
     0
  9
$CHAMFERA
 40
0.5
  9
$CHAMFERB
 40
0.5
  9
$CHAMFERC
 40
1.0
  9
$CHAMFERD
 40
0.0
  9
$SKPOLY
 70
     0
  9
$TDCREATE
 40
2455841.606800220
  9
$TDUCREATE
 40
2455841.273466887
  9
$TDUPDATE
 40
2459756.672961551
  9
$TDUUPDATE
 40
2459756.339628218
  9
$TDINDWG
 40
0.0592605440
  9
$TDUSRTIMER
 40
0.0592605440
  9
$USRTIMER
 70
     1
  9
$ANGBASE
 50
0.0
  9
$ANGDIR
 70
     0
  9
$PDMODE
 70
     0
  9
$PDSIZE
 40
0.0
  9
$PLINEWID
 40
0.0
  9
$SPLFRAME
 70
     0
  9
$SPLINETYPE
 70
     6
  9
$SPLINESEGS
 70
     8
  9
$HANDSEED
  5
5ABB
  9
$SURFTAB1
 70
     6
  9
$SURFTAB2
 70
     6
  9
$SURFTYPE
 70
     6
  9
$SURFU
 70
     6
  9
$SURFV
 70
     6
  9
$UCSBASE
  2

  9
$UCSNAME
  2

  9
$UCSORG
 10
0.0
 20
0.0
 30
0.0
  9
$UCSXDIR
 10
1.0
 20
0.0
 30
0.0
  9
$UCSYDIR
 10
0.0
 20
1.0
 30
0.0
  9
$UCSORTHOREF
  2

  9
$UCSORTHOVIEW
 70
     0
  9
$UCSORGTOP
 10
0.0
 20
0.0
 30
0.0
  9
$UCSORGBOTTOM
 10
0.0
 20
0.0
 30
0.0
  9
$UCSORGLEFT
 10
0.0
 20
0.0
 30
0.0
  9
$UCSORGRIGHT
 10
0.0
 20
0.0
 30
0.0
  9
$UCSORGFRONT
 10
0.0
 20
0.0
 30
0.0
  9
$UCSORGBACK
 10
0.0
 20
0.0
 30
0.0
  9
$PUCSBASE
  2

  9
$PUCSNAME
  2

  9
$PUCSORG
 10
0.0
 20
0.0
 30
0.0
  9
$PUCSXDIR
 10
1.0
 20
0.0
 30
0.0
  9
$PUCSYDIR
 10
0.0
 20
1.0
 30
0.0
  9
$PUCSORTHOREF
  2

  9
$PUCSORTHOVIEW
 70
     0
  9
$PUCSORGTOP
 10
0.0
 20
0.0
 30
0.0
  9
$PUCSORGBOTTOM
 10
0.0
 20
0.0
 30
0.0
  9
$PUCSORGLEFT
 10
0.0
 20
0.0
 30
0.0
  9
$PUCSORGRIGHT
 10
0.0
 20
0.0
 30
0.0
  9
$PUCSORGFRONT
 10
0.0
 20
0.0
 30
0.0
  9
$PUCSORGBACK
 10
0.0
 20
0.0
 30
0.0
  9
$USERI1
 70
     0
  9
$USERI2
 70
     0
  9
$USERI3
 70
     0
  9
$USERI4
 70
     0
  9
$USERI5
 70
     0
  9
$USERR1
 40
0.0
  9
$USERR2
 40
0.0
  9
$USERR3
 40
0.0
  9
$USERR4
 40
0.0
  9
$USERR5
 40
0.0
  9
$WORLDVIEW
 70
     1
  9
$SHADEDGE
 70
     3
  9
$SHADEDIF
 70
    70
  9
$TILEMODE
 70
     1
  9
$MAXACTVP
 70
    64
  9
$PINSBASE
 10
0.0
 20
0.0
 30
0.0
  9
$PLIMCHECK
 70
     0
  9
$PEXTMIN
 10
1.000000000000000E+20
 20
1.000000000000000E+20
 30
1.000000000000000E+20
  9
$PEXTMAX
 10
-1.000000000000000E+20
 20
-1.000000000000000E+20
 30
-1.000000000000000E+20
  9
$PLIMMIN
 10
0.0
 20
0.0
  9
$PLIMMAX
 10
12.0
 20
9.0
  9
$UNITMODE
 70
     0
  9
$VISRETAIN
 70
     1
  9
$PLINEGEN
 70
     0
  9
$PSLTSCALE
 70
     1
  9
$TREEDEPTH
 70
  3020
  9
$CMLSTYLE
  2
Standard
  9
$CMLJUST
 70
     0
  9
$CMLSCALE
 40
1.0
  9
$PROXYGRAPHICS
 70
     1
  9
$MEASUREMENT
 70
     0
  9
$CELWEIGHT
370
    -1
  9
$ENDCAPS
280
     0
  9
$JOINSTYLE
280
     0
  9
$LWDISPLAY
290
     0
  9
$INSUNITS
 70
     1
  9
$HYPERLINKBASE
  1

  9
$STYLESHEET
  1
Monochrome.ctb
  9
$XEDIT
290
     1
  9
$CEPSNTYPE
380
     0
  9
$PSTYLEMODE
290
     1
  9
$FINGERPRINTGUID
  2
{168A8766-4015-4ABD-915A-AD1ECBE2E3C2}
  9
$VERSIONGUID
  2
{6C65649A-EBC1-4913-9983-0C721E2E8FAE}
  9
$EXTNAMES
290
     1
  9
$PSVPSCALE
 40
0.0
  9
$OLESTARTUP
290
     0
  0
ENDSEC
  0
SECTION
  2
CLASSES
  0
CLASS
  1
ACDBDICTIONARYWDFLT
  2
AcDbDictionaryWithDefault
  3
ObjectDBX Classes
 90
        0
280
     0
281
     0
  0
CLASS
  1
VISUALSTYLE
  2
AcDbVisualStyle
  3
ObjectDBX Classes
 90
     4095
280
     0
281
     0
  0
CLASS
  1
DIMASSOC
  2
AcDbDimAssoc
  3
"AcDbDimAssoc|Product Desc:     AcDim ARX App For Dimension|Company:          Autodesk, Inc.|WEB Address:      www.autodesk.com"
 90
    32768
280
     0
281
     0
  0
CLASS
  1
MATERIAL
  2
AcDbMaterial
  3
ObjectDBX Classes
 90
     1024
280
     0
281
     0
  0
CLASS
  1
TABLESTYLE
  2
AcDbTableStyle
  3
ObjectDBX Classes
 90
     4095
280
     0
281
     0
  0
CLASS
  1
DICTIONARYVAR
  2
AcDbDictionaryVar
  3
ObjectDBX Classes
 90
        0
280
     0
281
     0
  0
CLASS
  1
SORTENTSTABLE
  2
AcDbSortentsTable
  3
ObjectDBX Classes
 90
    32768
280
     0
281
     0
  0
CLASS
  1
ACDBPLACEHOLDER
  2
AcDbPlaceHolder
  3
ObjectDBX Classes
 90
        0
280
     0
281
     0
  0
CLASS
  1
LAYOUT
  2
AcDbLayout
  3
ObjectDBX Classes
 90
        0
280
     0
281
     0
  0
ENDSEC
  0
SECTION
  2
TABLES
  0
TABLE
  2
VPORT
  5
8
330
0
100
AcDbSymbolTable
 70
     1
  0
VPORT
  5
27
330
8
100
AcDbSymbolTableRecord
100
AcDbViewportTableRecord
  2
*Active
 70
     0
 10
0.0
 20
0.0
 11
1.0
 21
1.0
 12
771.1544767611472
 22
501.511233760677
 13
0.0
 23
0.0
 14
0.5
 24
0.5
 15
0.5
 25
0.5
 16
0.0
 26
0.0
 36
1.0
 17
0.0
 27
0.0
 37
0.0
 40
1622.774265865195
 41
2.294999999999999
 42
50.0
 43
0.0
 44
0.0
 50
0.0
 51
0.0
 71
     0
 72
   100
 73
     1
 74
     3
 75
     1
 76
     0
 77
     0
 78
     0
281
     0
 65
     1
110
0.0
120
0.0
130
0.0
111
1.0
121
0.0
131
0.0
112
0.0
122
1.0
132
0.0
 79
     0
146
0.0
  0
ENDTAB
  0
TABLE
  2
LTYPE
  5
5
330
0
100
AcDbSymbolTable
 70
     7
  0
LTYPE
  5
14
330
5
100
AcDbSymbolTableRecord
100
AcDbLinetypeTableRecord
  2
ByBlock
 70
     0
  3

 72
    65
 73
     0
 40
0.0
  0
LTYPE
  5
15
330
5
100
AcDbSymbolTableRecord
100
AcDbLinetypeTableRecord
  2
ByLayer
 70
     0
  3

 72
    65
 73
     0
 40
0.0
  0
LTYPE
  5
16
330
5
100
AcDbSymbolTableRecord
100
AcDbLinetypeTableRecord
  2
Continuous
 70
     0
  3
Solid line
 72
    65
 73
     0
 40
0.0
  0
LTYPE
  5
5B
330
5
100
AcDbSymbolTableRecord
100
AcDbLinetypeTableRecord
  2
CENTERX2
 70
     0
  3
Center (2x) ________  __  ________  __  _____
 72
    65
 73
     4
 40
101.6
 49
63.5
 74
     4
 75
     0
340
0
 46
1.0
 50
0.0
 44
0.0
 45
0.0
 49
-12.7
 74
     4
 75
     0
340
0
 46
1.0
 50
0.0
 44
0.0
 45
0.0
 49
12.7
 74
     4
 75
     0
340
0
 46
1.0
 50
0.0
 44
0.0
 45
0.0
 49
-12.7
 74
     4
 75
     0
340
0
 46
1.0
 50
0.0
 44
0.0
 45
0.0
  0
LTYPE
  5
192
330
5
100
AcDbSymbolTableRecord
100
AcDbLinetypeTableRecord
  2
CENTER
 70
     0
  3
Center ____ _ ____ _ ____ _ ____ _ ____ _ ____
 72
    65
 73
     4
 40
50.8
 49
31.75
 74
     4
 75
     0
340
0
 46
1.0
 50
0.0
 44
0.0
 45
0.0
 49
-6.349999999999999
 74
     4
 75
     0
340
0
 46
1.0
 50
0.0
 44
0.0
 45
0.0
 49
6.349999999999999
 74
     4
 75
     0
340
0
 46
1.0
 50
0.0
 44
0.0
 45
0.0
 49
-6.349999999999999
 74
     4
 75
     0
340
0
 46
1.0
 50
0.0
 44
0.0
 45
0.0
  0
LTYPE
  5
112E
330
5
100
AcDbSymbolTableRecord
100
AcDbLinetypeTableRecord
  2
DASHED
 70
     0
  3
Dashed __ __ __ __ __ __ __ __ __ __ __ __ __ _
 72
    65
 73
     2
 40
19.05
 49
12.7
 74
     4
 75
     0
340
0
 46
1.0
 50
0.0
 44
0.0
 45
0.0
 49
-6.349999999999999
 74
     4
 75
     0
340
0
 46
1.0
 50
0.0
 44
0.0
 45
0.0
  0
LTYPE
  5
121B
330
5
100
AcDbSymbolTableRecord
100
AcDbLinetypeTableRecord
  2
ACAD_ISO02W100
 70
     0
  3
ISO dash __ __ __ __ __ __ __ __ __ __ __ __ __
 72
    65
 73
     2
 40
15.0
 49
12.0
 74
     4
 75
     0
340
0
 46
1.0
 50
0.0
 44
0.0
 45
0.0
 49
-3.0
 74
     4
 75
     0
340
0
 46
1.0
 50
0.0
 44
0.0
 45
0.0
  0
LTYPE
  5
121C
330
5
100
AcDbSymbolTableRecord
100
AcDbLinetypeTableRecord
  2
DIVIDE
 70
     0
  3
Divide ____ . . ____ . . ____ . . ____ . . ____
 72
    65
 73
     6
 40
31.75
 49
12.7
 74
     4
 75
     0
340
0
 46
1.0
 50
0.0
 44
0.0
 45
0.0
 49
-6.349999999999999
 74
     4
 75
     0
340
0
 46
1.0
 50
0.0
 44
0.0
 45
0.0
 49
0.0
 74
     4
 75
     0
340
0
 46
1.0
 50
0.0
 44
0.0
 45
0.0
 49
-6.349999999999999
 74
     4
 75
     0
340
0
 46
1.0
 50
0.0
 44
0.0
 45
0.0
 49
0.0
 74
     4
 75
     0
340
0
 46
1.0
 50
0.0
 44
0.0
 45
0.0
 49
-6.349999999999999
 74
     4
 75
     0
340
0
 46
1.0
 50
0.0
 44
0.0
 45
0.0
  0
LTYPE
  5
561A
330
5
100
AcDbSymbolTableRecord
100
AcDbLinetypeTableRecord
  2
HIDDEN2
 70
     0
  3
Hidden (.5x) _ _ _ _ _ _ _ _ _ _ _ _ _ _ _ _ _
 72
    65
 73
     2
 40
4.762499999999999
 49
3.174999999999999
 74
     4
 75
     0
340
0
 46
1.0
 50
0.0
 44
0.0
 45
0.0
 49
-1.587499999999999
 74
     4
 75
     0
340
0
 46
1.0
 50
0.0
 44
0.0
 45
0.0
  0
ENDTAB
  0
TABLE
  2
LAYER
  5
2
102
{ACAD_XDICTIONARY
360
36E2
102
}
330
0
100
AcDbSymbolTable
 70
    17
  0
LAYER
  5
10
330
2
100
AcDbSymbolTableRecord
100
AcDbLayerTableRecord
  2
0
 70
     0
 62
     7
  6
Continuous
370
    -3
390
F
  0
LAYER
  5
5C
330
2
100
AcDbSymbolTableRecord
100
AcDbLayerTableRecord
  2
粗实线
 70
     0
 62
     7
  6
Continuous
370
    30
390
F
1001
AcAecLayerStandard
1000

1000

  0
LAYER
  5
5D
330
2
100
AcDbSymbolTableRecord
100
AcDbLayerTableRecord
  2
中心线
 70
     0
 62
     1
  6
CENTERX2
370
    15
390
F
1001
AcAecLayerStandard
1000

1000

  0
LAYER
  5
5E
330
2
100
AcDbSymbolTableRecord
100
AcDbLayerTableRecord
  2
标注
 70
     0
 62
     4
  6
Continuous
370
    15
390
F
1001
AcAecLayerStandard
1000

1000

  0
LAYER
  5
5F
330
2
100
AcDbSymbolTableRecord
100
AcDbLayerTableRecord
  2
Defpoints
 70
     0
 62
     7
  6
Continuous
290
     0
370
    -3
390
F
  0
LAYER
  5
118
330
2
100
AcDbSymbolTableRecord
100
AcDbLayerTableRecord
  2
图层1粗线
 70
     0
 62
     7
  6
Continuous
370
    -3
390
F
1001
AcAecLayerStandard
1000

1000

  0
LAYER
  5
193
330
2
100
AcDbSymbolTableRecord
100
AcDbLayerTableRecord
  2
细实线
 70
     0
 62
     3
  6
Continuous
370
    15
390
F
1001
AcAecLayerStandard
1000

1000

  0
LAYER
  5
357
330
2
100
AcDbSymbolTableRecord
100
AcDbLayerTableRecord
  2
图层2
 70
     0
 62
     7
  6
Continuous
370
    30
390
F
1001
AcAecLayerStandard
1000

1000

  0
LAYER
  5
358
330
2
100
AcDbSymbolTableRecord
100
AcDbLayerTableRecord
  2
图层3
 70
     0
 62
     7
  6
Continuous
370
    18
390
F
1001
AcAecLayerStandard
1000

1000

  0
LAYER
  5
4E7
330
2
100
AcDbSymbolTableRecord
100
AcDbLayerTableRecord
  2
文字
 70
     0
 62
     1
  6
Continuous
370
    15
390
F
1001
AcAecLayerStandard
1000

1000

  0
LAYER
  5
4E8
330
2
100
AcDbSymbolTableRecord
100
AcDbLayerTableRecord
  2
不可见
 70
     0
 62
     2
  6
Continuous
290
     0
370
    15
390
F
1001
AcAecLayerStandard
1000

1000

  0
LAYER
  5
4E9
330
2
100
AcDbSymbolTableRecord
100
AcDbLayerTableRecord
  2
图层2细线
 70
     0
 62
     3
  6
Continuous
370
    -3
390
F
1001
AcAecLayerStandard
1000

1000

  0
LAYER
  5
4EA
330
2
100
AcDbSymbolTableRecord
100
AcDbLayerTableRecord
  2
图框线
 70
     0
 62
     7
  6
Continuous
370
    13
390
F
1001
AcAecLayerStandard
1000

1000

  0
LAYER
  5
4EB
330
2
100
AcDbSymbolTableRecord
100
AcDbLayerTableRecord
  2
图层 1
 70
     0
 62
     7
  6
Continuous
370
    -3
390
F
  0
LAYER
  5
112F
330
2
100
AcDbSymbolTableRecord
100
AcDbLayerTableRecord
  2
图层1
 70
     0
 62
     7
  6
DASHED
370
    25
390
F
1001
AcAecLayerStandard
1000

1000

  0
LAYER
  5
121D
330
2
100
AcDbSymbolTableRecord
100
AcDbLayerTableRecord
  2
虚线
 70
     0
 62
     2
  6
ACAD_ISO02W100
370
    15
390
F
1001
AcAecLayerStandard
1000

1000

  0
LAYER
  5
121E
330
2
100
AcDbSymbolTableRecord
100
AcDbLayerTableRecord
  2
剖切线
 70
     0
 62
   241
  6
Continuous
370
    15
390
F
1001
AcAecLayerStandard
1000

1000

  0
ENDTAB
  0
TABLE
  2
STYLE
  5
3
330
0
100
AcDbSymbolTable
 70
     6
  0
STYLE
  5
11
330
3
100
AcDbSymbolTableRecord
100
AcDbTextStyleTableRecord
  2
Standard
 70
     0
 40
0.0
 41
1.0
 50
0.0
 71
     0
 42
0.2
  3
txt
  4

  0
STYLE
  5
5A
330
3
100
AcDbSymbolTableRecord
100
AcDbTextStyleTableRecord
  2
样式 8
 70
     0
 40
10.0
 41
0.7
 50
0.0
 71
     0
 42
10.0
  3
txt.shx
  4
gbcbig.shx
  0
STYLE
  5
117
330
3
100
AcDbSymbolTableRecord
100
AcDbTextStyleTableRecord
  2
样式 1
 70
     0
 40
5.0
 41
1.0
 50
0.0
 71
     0
 42
5.0
  3
txt.shx
  4
gbcbig.shx
  0
STYLE
  5
356
330
3
100
AcDbSymbolTableRecord
100
AcDbTextStyleTableRecord
  2
样式 2
 70
     0
 40
0.0
 41
0.35
 50
0.0
 71
     0
 42
2.5
  3
txt.shx
  4
gbcbig.shx
  0
STYLE
  5
4E6
330
3
100
AcDbSymbolTableRecord
100
AcDbTextStyleTableRecord
  2
样式 3
 70
     0
 40
3.5
 41
0.7
 50
0.0
 71
     0
 42
5.0
  3
txt.shx
  4
gbcbig.shx
  0
STYLE
  5
3EAA
330
3
100
AcDbSymbolTableRecord
100
AcDbTextStyleTableRecord
  2
样式 4
 70
     0
 40
5.0
 41
0.7
 50
0.0
 71
     0
 42
5.0
  3
txt.shx
  4
gbcbig.shx
  0
ENDTAB
  0
TABLE
  2
VIEW
  5
6
330
0
100
AcDbSymbolTable
 70
     0
  0
ENDTAB
  0
TABLE
  2
UCS
  5
7
330
0
100
AcDbSymbolTable
 70
     0
  0
ENDTAB
  0
TABLE
  2
APPID
  5
9
330
0
100
AcDbSymbolTable
 70
    48
  0
APPID
  5
12
330
9
100
AcDbSymbolTableRecord
100
AcDbRegAppTableRecord
  2
ACAD
 70
     0
  0
APPID
  5
3B
330
9
100
AcDbSymbolTableRecord
100
AcDbRegAppTableRecord
  2
ACAD_PSEXT
 70
     0
  0
APPID
  5
3C
330
9
100
AcDbSymbolTableRecord
100
AcDbRegAppTableRecord
  2
AcAecLayerStandard
 70
     0
  0
APPID
  5
3D
330
9
100
AcDbSymbolTableRecord
100
AcDbRegAppTableRecord
  2
ACAD_DSTYLE_DIMTEXT_FILL
 70
     0
  0
APPID
  5
3E
330
9
100
AcDbSymbolTableRecord
100
AcDbRegAppTableRecord
  2
DCO15
 70
     0
  0
APPID
  5
3F
330
9
100
AcDbSymbolTableRecord
100
AcDbRegAppTableRecord
  2
ACAD_DSTYLE_DIMEXT_LENGTH
 70
     0
  0
APPID
  5
40
330
9
100
AcDbSymbolTableRecord
100
AcDbRegAppTableRecord
  2
ACAD_DSTYLE_DIMEXT_ENABLED
 70
     0
  0
APPID
  5
41
330
9
100
AcDbSymbolTableRecord
100
AcDbRegAppTableRecord
  2
ACAD_DSTYLE_DIM_LINETYPE
 70
     0
  0
APPID
  5
42
330
9
100
AcDbSymbolTableRecord
100
AcDbRegAppTableRecord
  2
ACAD_DSTYLE_DIM_EXT1_LINETYPE
 70
     0
  0
APPID
  5
43
330
9
100
AcDbSymbolTableRecord
100
AcDbRegAppTableRecord
  2
ACAD_DSTYLE_DIM_EXT2_LINETYPE
 70
     0
  0
APPID
  5
44
330
9
100
AcDbSymbolTableRecord
100
AcDbRegAppTableRecord
  2
ACAD_EXEMPT_FROM_CAD_STANDARDS
 70
     0
  0
APPID
  5
45
330
9
100
AcDbSymbolTableRecord
100
AcDbRegAppTableRecord
  2
AcadAnnoPO
 70
     0
  0
APPID
  5
46
330
9
100
AcDbSymbolTableRecord
100
AcDbRegAppTableRecord
  2
AcadAnnotative
 70
     0
  0
APPID
  5
47
330
9
100
AcDbSymbolTableRecord
100
AcDbRegAppTableRecord
  2
ACAD_DSTYLE_DIMJAG
 70
     0
  0
APPID
  5
48
330
9
100
AcDbSymbolTableRecord
100
AcDbRegAppTableRecord
  2
ACAD_DSTYLE_DIMTALN
 70
     0
  0
APPID
  5
49
330
9
100
AcDbSymbolTableRecord
100
AcDbRegAppTableRecord
  2
ACAD_MLEADERVER
 70
     0
  0
APPID
  5
4A
330
9
100
AcDbSymbolTableRecord
100
AcDbRegAppTableRecord
  2
ACAD_DSTYLE_DIMRADIAL_EXTENSION
 70
     0
  0
APPID
  5
4B
330
9
100
AcDbSymbolTableRecord
100
AcDbRegAppTableRecord
  2
ACAD_DSTYLE_DIMBREAK
 70
     0
  0
APPID
  5
4C
330
9
100
AcDbSymbolTableRecord
100
AcDbRegAppTableRecord
  2
ACAD_DSTYLE_DIMARC_LENGTH_SYMBOL
 70
     0
  0
APPID
  5
4D
330
9
100
AcDbSymbolTableRecord
100
AcDbRegAppTableRecord
  2
ACAD_DSTYLE_DIMJOGGED_JOGANGLE_SYMBOL
 70
     0
  0
APPID
  5
4E
330
9
100
AcDbSymbolTableRecord
100
AcDbRegAppTableRecord
  2
MCAD_NO_VIS
 70
     0
  0
APPID
  5
4F
330
9
100
AcDbSymbolTableRecord
100
AcDbRegAppTableRecord
  2
ACAD_TEMP_GRAPHIC
 70
     0
  0
APPID
  5
50
330
9
100
AcDbSymbolTableRecord
100
AcDbRegAppTableRecord
  2
AD_DRAW
 70
     0
  0
APPID
  5
51
330
9
100
AcDbSymbolTableRecord
100
AcDbRegAppTableRecord
  2
ACATTRIBSERVICES
 70
     0
  0
APPID
  5
52
330
9
100
AcDbSymbolTableRecord
100
AcDbRegAppTableRecord
  2
DESIGNERASSEMBLIES
 70
     0
  0
APPID
  5
53
330
9
100
AcDbSymbolTableRecord
100
AcDbRegAppTableRecord
  2
ACADM_DIM_EDIT
 70
     0
  0
APPID
  5
54
330
9
100
AcDbSymbolTableRecord
100
AcDbRegAppTableRecord
  2
AMDT_DM_ADJ
 70
     0
  0
APPID
  5
55
330
9
100
AcDbSymbolTableRecord
100
AcDbRegAppTableRecord
  2
GENIUS_GENODEF_13
 70
     0
  0
APPID
  5
56
330
9
100
AcDbSymbolTableRecord
100
AcDbRegAppTableRecord
  2
GENIUS_GENOBJ-N-FIL_13
 70
     0
  0
APPID
  5
57
330
9
100
AcDbSymbolTableRecord
100
AcDbRegAppTableRecord
  2
ACAD_DIMASSOC_CALC_DIMLFAC
 70
     0
  0
APPID
  5
58
330
9
100
AcDbSymbolTableRecord
100
AcDbRegAppTableRecord
  2
ACAD_DIMASSOC_DIMLFAC
 70
     0
  0
APPID
  5
59
330
9
100
AcDbSymbolTableRecord
100
AcDbRegAppTableRecord
  2
ACAD_DIMASSOC_OVERRIDDEN_DIMLFAC
 70
     0
  0
APPID
  5
4E5
330
9
100
AcDbSymbolTableRecord
100
AcDbRegAppTableRecord
  2
CAXA
 70
     0
  0
APPID
  5
1BF7
330
9
100
AcDbSymbolTableRecord
100
AcDbRegAppTableRecord
  2
AVE_RENDER
 70
     0
  0
APPID
  5
1BF8
330
9
100
AcDbSymbolTableRecord
100
AcDbRegAppTableRecord
  2
AVE_ENTITY_MATERIAL
 70
     0
  0
APPID
  5
1BF9
330
9
100
AcDbSymbolTableRecord
100
AcDbRegAppTableRecord
  2
AVE_FINISH
 70
     0
  0
APPID
  5
1BFA
330
9
100
AcDbSymbolTableRecord
100
AcDbRegAppTableRecord
  2
AVE_MATERIAL
 70
     0
  0
APPID
  5
1BFB
330
9
100
AcDbSymbolTableRecord
100
AcDbRegAppTableRecord
  2
AVE_GLOBAL
 70
     0
  0
APPID
  5
1BFC
330
9
100
AcDbSymbolTableRecord
100
AcDbRegAppTableRecord
  2
GENIUS_GENBLLY_14
 70
     0
  0
APPID
  5
1BFD
330
9
100
AcDbSymbolTableRecord
100
AcDbRegAppTableRecord
  2
ODA
 70
     0
  0
APPID
  5
1BFE
330
9
100
AcDbSymbolTableRecord
100
AcDbRegAppTableRecord
  2
RAK
 70
     0
  0
APPID
  5
1BFF
330
9
100
AcDbSymbolTableRecord
100
AcDbRegAppTableRecord
  2
AcDbDynamicBlockGUID
 70
     0
  0
APPID
  5
1C00
330
9
100
AcDbSymbolTableRecord
100
AcDbRegAppTableRecord
  2
AcDbBlockRepETag
 70
     0
  0
APPID
  5
1C01
330
9
100
AcDbSymbolTableRecord
100
AcDbRegAppTableRecord
  2
ACAUTHENVIRON
 70
     0
  0
APPID
  5
1C02
330
9
100
AcDbSymbolTableRecord
100
AcDbRegAppTableRecord
  2
AcDbDynamicBlockTrueName
 70
     0
  0
APPID
  5
3EA8
330
9
100
AcDbSymbolTableRecord
100
AcDbRegAppTableRecord
  2
AcDbAttr
 70
     0
  0
APPID
  5
3EA9
330
9
100
AcDbSymbolTableRecord
100
AcDbRegAppTableRecord
  2
ACAD_NAV_VCDISPLAY
 70
     0
  0
APPID
  5
5619
330
9
100
AcDbSymbolTableRecord
100
AcDbRegAppTableRecord
  2
AcDbBlockRepBTag
 70
     0
  0
ENDTAB
  0
TABLE
  2
DIMSTYLE
  5
A
330
0
100
AcDbSymbolTable
 70
     5
100
AcDbDimStyleTable
 71
     0
  0
DIMSTYLE
105
25
330
A
100
AcDbSymbolTableRecord
100
AcDbDimStyleTableRecord
  2
Standard
 70
     0
340
11
  0
DIMSTYLE
105
60
330
A
100
AcDbSymbolTableRecord
100
AcDbDimStyleTableRecord
  2
副本 (3) ISO-25 4
 70
     0
 41
14.0
 42
0.0
 43
10.0
 44
6.0
 73
     0
 74
     0
 77
     1
 78
     8
140
20.0
141
7.5
143
0.03937007874016
147
1.5
171
     3
172
     1
271
     1
272
     1
274
     3
283
     0
284
     8
340
11
  0
DIMSTYLE
105
119
330
A
100
AcDbSymbolTableRecord
100
AcDbDimStyleTableRecord
  2
副本 ISO-25
 70
     0
 41
12.0
 42
0.0
 43
10.0
 44
5.0
 73
     0
 74
     0
 77
     1
 78
     8
140
18.0
141
1.5
143
0.03937007874016
147
1.5
171
     3
172
     1
271
     1
272
     1
274
     3
278
    44
283
     0
284
     8
340
11
  0
DIMSTYLE
105
359
330
A
100
AcDbSymbolTableRecord
100
AcDbDimStyleTableRecord
  2
ISO-25
 70
     0
 41
17.0
 42
3.0
 43
3.75
 44
1.25
 73
     0
 77
     1
 78
     8
140
19.0
141
80.0
143
0.03937007874016
147
7.0
170
     1
171
     3
172
     1
271
     2
272
     2
273
     7
274
     3
283
     0
284
     8
340
11
  0
DIMSTYLE
105
4EC
330
A
100
AcDbSymbolTableRecord
100
AcDbDimStyleTableRecord
  2
英寸
 70
     0
 41
12.0
 42
0.0
 43
10.0
 44
3.75
 73
     0
 74
     0
 77
     1
 78
     8
140
16.0
141
7.5
143
0.03937007874016
147
2.0
170
     1
171
     3
172
     1
179
     1
271
     1
272
     1
273
     7
274
     3
283
     0
284
     8
340
11
  0
ENDTAB
  0
TABLE
  2
BLOCK_RECORD
  5
1
330
0
100
AcDbSymbolTable
 70
    13
  0
BLOCK_RECORD
  5
1F
330
1
100
AcDbSymbolTableRecord
100
AcDbBlockTableRecord
  2
*Model_Space
340
22
  0
BLOCK_RECORD
  5
1B
330
1
100
AcDbSymbolTableRecord
100
AcDbBlockTableRecord
  2
*Paper_Space
340
1E
  0
BLOCK_RECORD
  5
23
330
1
100
AcDbSymbolTableRecord
100
AcDbBlockTableRecord
  2
*Paper_Space0
340
24
  0
BLOCK_RECORD
  5
4C96
330
1
100
AcDbSymbolTableRecord
100
AcDbBlockTableRecord
  2
*D1
340
0
  0
BLOCK_RECORD
  5
4CA3
330
1
100
AcDbSymbolTableRecord
100
AcDbBlockTableRecord
  2
*D2
340
0
  0
BLOCK_RECORD
  5
4E1C
330
1
100
AcDbSymbolTableRecord
100
AcDbBlockTableRecord
  2
*D3
340
0
  0
BLOCK_RECORD
  5
4E28
330
1
100
AcDbSymbolTableRecord
100
AcDbBlockTableRecord
  2
*D4
340
0
  0
BLOCK_RECORD
  5
5470
330
1
100
AcDbSymbolTableRecord
100
AcDbBlockTableRecord
  2
*D5
340
0
  0
BLOCK_RECORD
  5
548A
330
1
100
AcDbSymbolTableRecord
100
AcDbBlockTableRecord
  2
*D6
340
0
  0
BLOCK_RECORD
  5
5560
330
1
100
AcDbSymbolTableRecord
100
AcDbBlockTableRecord
  2
*D7
340
0
  0
BLOCK_RECORD
  5
556C
330
1
100
AcDbSymbolTableRecord
100
AcDbBlockTableRecord
  2
*D8
340
0
  0
BLOCK_RECORD
  5
57EB
330
1
100
AcDbSymbolTableRecord
100
AcDbBlockTableRecord
  2
*D9
340
0
  0
BLOCK_RECORD
  5
57F7
330
1
100
AcDbSymbolTableRecord
100
AcDbBlockTableRecord
  2
*D10
340
0
  0
BLOCK_RECORD
  5
5952
330
1
100
AcDbSymbolTableRecord
100
AcDbBlockTableRecord
  2
*D11
340
0
  0
BLOCK_RECORD
  5
595E
330
1
100
AcDbSymbolTableRecord
100
AcDbBlockTableRecord
  2
*D12
340
0
  0
ENDTAB
  0
ENDSEC
  0
SECTION
  2
BLOCKS
  0
BLOCK
  5
20
330
1F
100
AcDbEntity
  8
0
100
AcDbBlockBegin
  2
*Model_Space
 70
     0
 10
0.0
 20
0.0
 30
0.0
  3
*Model_Space
  1

  0
ENDBLK
  5
21
330
1F
100
AcDbEntity
  8
0
100
AcDbBlockEnd
  0
BLOCK
  5
1C
330
1B
100
AcDbEntity
 67
     1
  8
0
100
AcDbBlockBegin
  2
*Paper_Space
 70
     0
 10
0.0
 20
0.0
 30
0.0
  3
*Paper_Space
  1

  0
ENDBLK
  5
1D
330
1B
100
AcDbEntity
 67
     1
  8
0
100
AcDbBlockEnd
  0
BLOCK
  5
39
330
23
100
AcDbEntity
 67
     1
  8
0
100
AcDbBlockBegin
  2
*Paper_Space0
 70
     0
 10
0.0
 20
0.0
 30
0.0
  3
*Paper_Space0
  1

  0
ENDBLK
  5
3A
330
23
100
AcDbEntity
 67
     1
  8
0
100
AcDbBlockEnd
  0
BLOCK
  5
4C97
330
4C96
100
AcDbEntity
  8
0
100
AcDbBlockBegin
  2
*D1
 70
     1
 10
0.0
 20
0.0
 30
0.0
  3
*D1
  1

  0
POINT
  5
4C8D
330
4C96
100
AcDbEntity
  8
Defpoints
  6
ByBlock
100
AcDbPoint
 10
1232.037567994557
 20
902.6006708494096
 30
0.0
  0
POINT
  5
4C8E
330
4C96
100
AcDbEntity
  8
Defpoints
  6
ByBlock
100
AcDbPoint
 10
410.03756799455
 20
902.6006708494168
 30
0.0
  0
LINE
  5
4C8F
330
4C96
100
AcDbEntity
  8
标注
  6
ByBlock
 62
     0
370
    -2
100
AcDbLine
 10
1232.037567994557
 20
902.6006708494096
 30
0.0
 11
1232.037567994557
 21
940.2499999999999
 31
0.0
  0
LINE
  5
4C90
330
4C96
100
AcDbEntity
  8
标注
  6
ByBlock
 62
     0
370
    -2
100
AcDbLine
 10
410.03756799455
 20
902.6006708494168
 30
0.0
 11
410.03756799455
 21
940.2499999999999
 31
0.0
  0
LINE
  5
4C91
330
4C96
100
AcDbEntity
  8
标注
  6
ByBlock
 62
     0
370
    -2
100
AcDbLine
 10
1220.037567994557
 20
936.5
 30
0.0
 11
422.03756799455
 21
936.5
 31
0.0
  0
SOLID
  5
4C92
330
4C96
100
AcDbEntity
  8
标注
  6
ByBlock
 62
     0
100
AcDbTrace
 10
1232.037567994557
 20
936.5
 30
0.0
 11
1220.037567994557
 21
938.5000000000005
 31
0.0
 12
1220.037567994557
 22
934.4999999999995
 32
0.0
 13
1220.037567994557
 23
934.4999999999995
 33
0.0
  0
SOLID
  5
4C93
330
4C96
100
AcDbEntity
  8
标注
  6
ByBlock
 62
     0
100
AcDbTrace
 10
410.03756799455
 20
936.5
 30
0.0
 11
422.03756799455
 21
938.5000000000005
 31
0.0
 12
422.03756799455
 22
934.4999999999995
 32
0.0
 13
422.03756799455
 23
934.4999999999995
 33
0.0
  0
MTEXT
  5
4C94
330
4C96
100
AcDbEntity
  8
标注
  6
ByBlock
 62
     0
100
AcDbMText
 10
820.0
 20
948.4607776261936
 30
0.0
 40
15.0
 41
0.0
 71
     5
 72
     1
  1
\fArial|b0|i0|c0|p0;82,2 cm(32 3/8")
 73
     1
 44
1.0
1001
ACAD
1000
MTEXTBEGIN
1070
    73
1070
     1
1070
    44
1040
1.0
1070
    74
1070
     0
1000
MTEXTEND
  0
ENDBLK
  5
4C98
330
4C96
100
AcDbEntity
  8
0
100
AcDbBlockEnd
  0
BLOCK
  5
4CA4
330
4CA3
100
AcDbEntity
  8
0
100
AcDbBlockBegin
  2
*D2
 70
     1
 10
0.0
 20
0.0
 30
0.0
  3
*D2
  1

  0
POINT
  5
4C9A
330
4CA3
100
AcDbEntity
  8
Defpoints
  6
ByBlock
100
AcDbPoint
 10
400.53756799455
 20
886.6006708494168
 30
0.0
  0
POINT
  5
4C9B
330
4CA3
100
AcDbEntity
  8
Defpoints
  6
ByBlock
100
AcDbPoint
 10
400.5375679945573
 20
343.6006708493951
 30
0.0
  0
LINE
  5
4C9C
330
4CA3
100
AcDbEntity
  8
标注
  6
ByBlock
 62
     0
370
    -2
100
AcDbLine
 10
400.53756799455
 20
886.6006708494168
 30
0.0
 11
357.75
 21
886.6006708494168
 31
0.0
  0
LINE
  5
4C9D
330
4CA3
100
AcDbEntity
  8
标注
  6
ByBlock
 62
     0
370
    -2
100
AcDbLine
 10
400.5375679945573
 20
343.6006708493951
 30
0.0
 11
357.75
 21
343.6006708493951
 31
0.0
  0
LINE
  5
4C9E
330
4CA3
100
AcDbEntity
  8
标注
  6
ByBlock
 62
     0
370
    -2
100
AcDbLine
 10
361.5
 20
874.6006708494169
 30
0.0
 11
361.5
 21
355.6006708493951
 31
0.0
  0
SOLID
  5
4C9F
330
4CA3
100
AcDbEntity
  8
标注
  6
ByBlock
 62
     0
100
AcDbTrace
 10
361.5
 20
886.6006708494168
 30
0.0
 11
359.4999999999995
 21
874.6006708494169
 31
0.0
 12
363.5000000000005
 22
874.6006708494169
 32
0.0
 13
363.5000000000005
 23
874.6006708494169
 33
0.0
  0
SOLID
  5
4CA0
330
4CA3
100
AcDbEntity
  8
标注
  6
ByBlock
 62
     0
100
AcDbTrace
 10
361.5
 20
343.6006708493951
 30
0.0
 11
359.4999999999995
 21
355.6006708493951
 31
0.0
 12
363.5000000000005
 22
355.6006708493951
 32
0.0
 13
363.5000000000005
 23
355.6006708493951
 33
0.0
  0
MTEXT
  5
4CA1
330
4CA3
100
AcDbEntity
  8
标注
  6
ByBlock
 62
     0
100
AcDbMText
 10
349.5392223738063
 20
612.5
 30
0.0
 40
15.0
 41
0.0
 71
     5
 72
     1
  1
\fArial|b0|i0|c0|p0;54,3 cm(21 3/8")
 11
0.0000000000000001
 21
1.0
 31
0.0
 73
     1
 44
1.0
1001
ACAD
1000
MTEXTBEGIN
1070
    73
1070
     1
1070
    44
1040
1.0
1070
    74
1070
     0
1000
MTEXTEND
  0
ENDBLK
  5
4CA5
330
4CA3
100
AcDbEntity
  8
0
100
AcDbBlockEnd
  0
BLOCK
  5
4E1D
330
4E1C
100
AcDbEntity
  8
0
100
AcDbBlockBegin
  2
*D3
 70
     1
 10
0.0
 20
0.0
 30
0.0
  3
*D3
  1

  0
POINT
  5
4E1E
330
4E1C
100
AcDbEntity
  8
Defpoints
  6
ByBlock
100
AcDbPoint
 10
2106.03756799455
 20
886.6006708494168
 30
0.0
  0
POINT
  5
4E1F
330
4E1C
100
AcDbEntity
  8
Defpoints
  6
ByBlock
100
AcDbPoint
 10
2106.037567994557
 20
343.6006708493951
 30
0.0
  0
LINE
  5
4E20
330
4E1C
100
AcDbEntity
  8
标注
  6
ByBlock
 62
     0
370
    -2
100
AcDbLine
 10
2106.03756799455
 20
886.6006708494168
 30
0.0
 11
2063.25
 21
886.6006708494168
 31
0.0
  0
LINE
  5
4E21
330
4E1C
100
AcDbEntity
  8
标注
  6
ByBlock
 62
     0
370
    -2
100
AcDbLine
 10
2106.037567994557
 20
343.6006708493951
 30
0.0
 11
2063.25
 21
343.6006708493951
 31
0.0
  0
LINE
  5
4E22
330
4E1C
100
AcDbEntity
  8
标注
  6
ByBlock
 62
     0
370
    -2
100
AcDbLine
 10
2067.0
 20
874.6006708494169
 30
0.0
 11
2067.0
 21
355.6006708493951
 31
0.0
  0
SOLID
  5
4E23
330
4E1C
100
AcDbEntity
  8
标注
  6
ByBlock
 62
     0
100
AcDbTrace
 10
2067.0
 20
886.6006708494168
 30
0.0
 11
2064.999999999999
 21
874.6006708494169
 31
0.0
 12
2069.0
 22
874.6006708494169
 32
0.0
 13
2069.0
 23
874.6006708494169
 33
0.0
  0
SOLID
  5
4E24
330
4E1C
100
AcDbEntity
  8
标注
  6
ByBlock
 62
     0
100
AcDbTrace
 10
2067.0
 20
343.6006708493951
 30
0.0
 11
2064.999999999999
 21
355.6006708493951
 31
0.0
 12
2069.0
 22
355.6006708493951
 32
0.0
 13
2069.0
 23
355.6006708493951
 33
0.0
  0
MTEXT
  5
4E25
330
4E1C
100
AcDbEntity
  8
标注
  6
ByBlock
 62
     0
100
AcDbMText
 10
2055.039222373807
 20
612.5
 30
0.0
 40
15.0
 41
0.0
 71
     5
 72
     1
  1
\fArial|b0|i0|c0|p0;54,3 cm(21 3/8")
 11
0.0000000000000001
 21
1.0
 31
0.0
 73
     1
 44
1.0
1001
ACAD
1000
MTEXTBEGIN
1070
    73
1070
     1
1070
    44
1040
1.0
1070
    74
1070
     0
1000
MTEXTEND
  0
ENDBLK
  5
4E26
330
4E1C
100
AcDbEntity
  8
0
100
AcDbBlockEnd
  0
BLOCK
  5
4E29
330
4E28
100
AcDbEntity
  8
0
100
AcDbBlockBegin
  2
*D4
 70
     1
 10
0.0
 20
0.0
 30
0.0
  3
*D4
  1

  0
POINT
  5
4E2A
330
4E28
100
AcDbEntity
  8
Defpoints
  6
ByBlock
100
AcDbPoint
 10
2937.537567994557
 20
902.6006708494096
 30
0.0
  0
POINT
  5
4E2B
330
4E28
100
AcDbEntity
  8
Defpoints
  6
ByBlock
100
AcDbPoint
 10
2115.53756799455
 20
902.6006708494168
 30
0.0
  0
LINE
  5
4E2C
330
4E28
100
AcDbEntity
  8
标注
  6
ByBlock
 62
     0
370
    -2
100
AcDbLine
 10
2937.537567994557
 20
902.6006708494096
 30
0.0
 11
2937.537567994557
 21
940.2499999999999
 31
0.0
  0
LINE
  5
4E2D
330
4E28
100
AcDbEntity
  8
标注
  6
ByBlock
 62
     0
370
    -2
100
AcDbLine
 10
2115.53756799455
 20
902.6006708494168
 30
0.0
 11
2115.53756799455
 21
940.2499999999999
 31
0.0
  0
LINE
  5
4E2E
330
4E28
100
AcDbEntity
  8
标注
  6
ByBlock
 62
     0
370
    -2
100
AcDbLine
 10
2925.537567994557
 20
936.5
 30
0.0
 11
2127.53756799455
 21
936.5
 31
0.0
  0
SOLID
  5
4E2F
330
4E28
100
AcDbEntity
  8
标注
  6
ByBlock
 62
     0
100
AcDbTrace
 10
2937.537567994557
 20
936.5
 30
0.0
 11
2925.537567994557
 21
938.5000000000005
 31
0.0
 12
2925.537567994557
 22
934.4999999999995
 32
0.0
 13
2925.537567994557
 23
934.4999999999995
 33
0.0
  0
SOLID
  5
4E30
330
4E28
100
AcDbEntity
  8
标注
  6
ByBlock
 62
     0
100
AcDbTrace
 10
2115.53756799455
 20
936.5
 30
0.0
 11
2127.53756799455
 21
938.5000000000005
 31
0.0
 12
2127.53756799455
 22
934.4999999999995
 32
0.0
 13
2127.53756799455
 23
934.4999999999995
 33
0.0
  0
MTEXT
  5
4E31
330
4E28
100
AcDbEntity
  8
标注
  6
ByBlock
 62
     0
100
AcDbMText
 10
2525.5
 20
948.4607776261936
 30
0.0
 40
15.0
 41
0.0
 71
     5
 72
     1
  1
\fArial|b0|i0|c0|p0;82,2 cm(32 3/8")
 73
     1
 44
1.0
1001
ACAD
1000
MTEXTBEGIN
1070
    73
1070
     1
1070
    44
1040
1.0
1070
    74
1070
     0
1000
MTEXTEND
  0
ENDBLK
  5
4E32
330
4E28
100
AcDbEntity
  8
0
100
AcDbBlockEnd
  0
BLOCK
  5
5471
330
5470
100
AcDbEntity
  8
0
100
AcDbBlockBegin
  2
*D5
 70
     1
 10
0.0
 20
0.0
 30
0.0
  3
*D5
  1

  0
POINT
  5
5467
330
5470
100
AcDbEntity
  8
Defpoints
  6
ByBlock
100
AcDbPoint
 10
1251.037567994557
 20
-424.3993291505903
 30
0.0
  0
POINT
  5
5468
330
5470
100
AcDbEntity
  8
Defpoints
  6
ByBlock
100
AcDbPoint
 10
429.03756799455
 20
-424.399329150583
 30
0.0
  0
LINE
  5
5469
330
5470
100
AcDbEntity
  8
标注
  6
ByBlock
 62
     0
370
    -2
100
AcDbLine
 10
1251.037567994557
 20
-424.3993291505903
 30
0.0
 11
1251.037567994557
 21
-348.25
 31
0.0
  0
LINE
  5
546A
330
5470
100
AcDbEntity
  8
标注
  6
ByBlock
 62
     0
370
    -2
100
AcDbLine
 10
429.03756799455
 20
-424.399329150583
 30
0.0
 11
429.03756799455
 21
-348.25
 31
0.0
  0
LINE
  5
546B
330
5470
100
AcDbEntity
  8
标注
  6
ByBlock
 62
     0
370
    -2
100
AcDbLine
 10
1239.037567994557
 20
-352.0
 30
0.0
 11
441.03756799455
 21
-352.0
 31
0.0
  0
SOLID
  5
546C
330
5470
100
AcDbEntity
  8
标注
  6
ByBlock
 62
     0
100
AcDbTrace
 10
1251.037567994557
 20
-352.0
 30
0.0
 11
1239.037567994557
 21
-349.9999999999996
 31
0.0
 12
1239.037567994557
 22
-354.0000000000004
 32
0.0
 13
1239.037567994557
 23
-354.0000000000004
 33
0.0
  0
SOLID
  5
546D
330
5470
100
AcDbEntity
  8
标注
  6
ByBlock
 62
     0
100
AcDbTrace
 10
429.03756799455
 20
-352.0
 30
0.0
 11
441.03756799455
 21
-349.9999999999996
 31
0.0
 12
441.03756799455
 22
-354.0000000000004
 32
0.0
 13
441.03756799455
 23
-354.0000000000004
 33
0.0
  0
MTEXT
  5
546E
330
5470
100
AcDbEntity
  8
标注
  6
ByBlock
 62
     0
100
AcDbMText
 10
833.5
 20
-340.0392223738063
 30
0.0
 40
15.0
 41
0.0
 71
     5
 72
     1
  1
\fArial|b0|i0|c0|p0;82,2 cm(32 3/8")
 73
     1
 44
1.0
1001
ACAD
1000
MTEXTBEGIN
1070
    73
1070
     1
1070
    44
1040
1.0
1070
    74
1070
     0
1000
MTEXTEND
  0
ENDBLK
  5
5472
330
5470
100
AcDbEntity
  8
0
100
AcDbBlockEnd
  0
BLOCK
  5
548B
330
548A
100
AcDbEntity
  8
0
100
AcDbBlockBegin
  2
*D6
 70
     1
 10
0.0
 20
0.0
 30
0.0
  3
*D6
  1

  0
POINT
  5
5481
330
548A
100
AcDbEntity
  8
Defpoints
  6
ByBlock
100
AcDbPoint
 10
459.03756799455
 20
-394.3993291505831
 30
0.0
  0
POINT
  5
5482
330
548A
100
AcDbEntity
  8
Defpoints
  6
ByBlock
100
AcDbPoint
 10
459.0375679945573
 20
-937.3993291506049
 30
0.0
  0
LINE
  5
5483
330
548A
100
AcDbEntity
  8
标注
  6
ByBlock
 62
     0
370
    -2
100
AcDbLine
 10
459.03756799455
 20
-394.3993291505831
 30
0.0
 11
384.75
 21
-394.3993291505831
 31
0.0
  0
LINE
  5
5484
330
548A
100
AcDbEntity
  8
标注
  6
ByBlock
 62
     0
370
    -2
100
AcDbLine
 10
459.0375679945573
 20
-937.3993291506049
 30
0.0
 11
384.75
 21
-937.3993291506049
 31
0.0
  0
LINE
  5
5485
330
548A
100
AcDbEntity
  8
标注
  6
ByBlock
 62
     0
370
    -2
100
AcDbLine
 10
388.5
 20
-406.399329150583
 30
0.0
 11
388.5
 21
-925.3993291506048
 31
0.0
  0
SOLID
  5
5486
330
548A
100
AcDbEntity
  8
标注
  6
ByBlock
 62
     0
100
AcDbTrace
 10
388.5
 20
-394.3993291505831
 30
0.0
 11
386.4999999999996
 21
-406.399329150583
 31
0.0
 12
390.5000000000004
 22
-406.399329150583
 32
0.0
 13
390.5000000000004
 23
-406.399329150583
 33
0.0
  0
SOLID
  5
5487
330
548A
100
AcDbEntity
  8
标注
  6
ByBlock
 62
     0
100
AcDbTrace
 10
388.5
 20
-937.3993291506049
 30
0.0
 11
386.4999999999996
 21
-925.3993291506048
 31
0.0
 12
390.5000000000004
 22
-925.3993291506048
 32
0.0
 13
390.5000000000004
 23
-925.3993291506048
 33
0.0
  0
MTEXT
  5
5488
330
548A
100
AcDbEntity
  8
标注
  6
ByBlock
 62
     0
100
AcDbMText
 10
376.5392223738063
 20
-672.5
 30
0.0
 40
15.0
 41
0.0
 71
     5
 72
     1
  1
\fArial|b0|i0|c0|p0;54,3 cm(21 3/8")
 11
0.0000000000000001
 21
1.0
 31
0.0
 73
     1
 44
1.0
1001
ACAD
1000
MTEXTBEGIN
1070
    73
1070
     1
1070
    44
1040
1.0
1070
    74
1070
     0
1000
MTEXTEND
  0
ENDBLK
  5
548C
330
548A
100
AcDbEntity
  8
0
100
AcDbBlockEnd
  0
BLOCK
  5
5561
330
5560
100
AcDbEntity
  8
0
100
AcDbBlockBegin
  2
*D7
 70
     1
 10
0.0
 20
0.0
 30
0.0
  3
*D7
  1

  0
POINT
  5
5562
330
5560
100
AcDbEntity
  8
Defpoints
  6
ByBlock
100
AcDbPoint
 10
2231.53756799455
 20
-394.3993291505831
 30
0.0
  0
POINT
  5
5563
330
5560
100
AcDbEntity
  8
Defpoints
  6
ByBlock
100
AcDbPoint
 10
2231.537567994557
 20
-937.3993291506049
 30
0.0
  0
LINE
  5
5564
330
5560
100
AcDbEntity
  8
标注
  6
ByBlock
 62
     0
370
    -2
100
AcDbLine
 10
2231.53756799455
 20
-394.3993291505831
 30
0.0
 11
2157.25
 21
-394.3993291505831
 31
0.0
  0
LINE
  5
5565
330
5560
100
AcDbEntity
  8
标注
  6
ByBlock
 62
     0
370
    -2
100
AcDbLine
 10
2231.537567994557
 20
-937.3993291506049
 30
0.0
 11
2157.25
 21
-937.3993291506049
 31
0.0
  0
LINE
  5
5566
330
5560
100
AcDbEntity
  8
标注
  6
ByBlock
 62
     0
370
    -2
100
AcDbLine
 10
2161.0
 20
-406.399329150583
 30
0.0
 11
2161.0
 21
-925.3993291506048
 31
0.0
  0
SOLID
  5
5567
330
5560
100
AcDbEntity
  8
标注
  6
ByBlock
 62
     0
100
AcDbTrace
 10
2161.0
 20
-394.3993291505831
 30
0.0
 11
2159.0
 21
-406.399329150583
 31
0.0
 12
2163.000000000001
 22
-406.399329150583
 32
0.0
 13
2163.000000000001
 23
-406.399329150583
 33
0.0
  0
SOLID
  5
5568
330
5560
100
AcDbEntity
  8
标注
  6
ByBlock
 62
     0
100
AcDbTrace
 10
2161.0
 20
-937.3993291506049
 30
0.0
 11
2159.0
 21
-925.3993291506048
 31
0.0
 12
2163.000000000001
 22
-925.3993291506048
 32
0.0
 13
2163.000000000001
 23
-925.3993291506048
 33
0.0
  0
MTEXT
  5
5569
330
5560
100
AcDbEntity
  8
标注
  6
ByBlock
 62
     0
100
AcDbMText
 10
2149.039222373806
 20
-672.5
 30
0.0
 40
15.0
 41
0.0
 71
     5
 72
     1
  1
\fArial|b0|i0|c0|p0;54,3 cm(21 3/8")
 11
0.0000000000000001
 21
1.0
 31
0.0
 73
     1
 44
1.0
1001
ACAD
1000
MTEXTBEGIN
1070
    73
1070
     1
1070
    44
1040
1.0
1070
    74
1070
     0
1000
MTEXTEND
  0
ENDBLK
  5
556A
330
5560
100
AcDbEntity
  8
0
100
AcDbBlockEnd
  0
BLOCK
  5
556D
330
556C
100
AcDbEntity
  8
0
100
AcDbBlockBegin
  2
*D8
 70
     1
 10
0.0
 20
0.0
 30
0.0
  3
*D8
  1

  0
POINT
  5
556E
330
556C
100
AcDbEntity
  8
Defpoints
  6
ByBlock
100
AcDbPoint
 10
3023.537567994557
 20
-424.3993291505903
 30
0.0
  0
POINT
  5
556F
330
556C
100
AcDbEntity
  8
Defpoints
  6
ByBlock
100
AcDbPoint
 10
2201.53756799455
 20
-424.399329150583
 30
0.0
  0
LINE
  5
5570
330
556C
100
AcDbEntity
  8
标注
  6
ByBlock
 62
     0
370
    -2
100
AcDbLine
 10
3023.537567994557
 20
-424.3993291505903
 30
0.0
 11
3023.537567994557
 21
-348.25
 31
0.0
  0
LINE
  5
5571
330
556C
100
AcDbEntity
  8
标注
  6
ByBlock
 62
     0
370
    -2
100
AcDbLine
 10
2201.53756799455
 20
-424.399329150583
 30
0.0
 11
2201.53756799455
 21
-348.25
 31
0.0
  0
LINE
  5
5572
330
556C
100
AcDbEntity
  8
标注
  6
ByBlock
 62
     0
370
    -2
100
AcDbLine
 10
3011.537567994557
 20
-352.0
 30
0.0
 11
2213.53756799455
 21
-352.0
 31
0.0
  0
SOLID
  5
5573
330
556C
100
AcDbEntity
  8
标注
  6
ByBlock
 62
     0
100
AcDbTrace
 10
3023.537567994557
 20
-352.0
 30
0.0
 11
3011.537567994557
 21
-349.9999999999996
 31
0.0
 12
3011.537567994557
 22
-354.0000000000004
 32
0.0
 13
3011.537567994557
 23
-354.0000000000004
 33
0.0
  0
SOLID
  5
5574
330
556C
100
AcDbEntity
  8
标注
  6
ByBlock
 62
     0
100
AcDbTrace
 10
2201.53756799455
 20
-352.0
 30
0.0
 11
2213.53756799455
 21
-349.9999999999996
 31
0.0
 12
2213.53756799455
 22
-354.0000000000004
 32
0.0
 13
2213.53756799455
 23
-354.0000000000004
 33
0.0
  0
MTEXT
  5
5575
330
556C
100
AcDbEntity
  8
标注
  6
ByBlock
 62
     0
100
AcDbMText
 10
2606.0
 20
-340.0392223738063
 30
0.0
 40
15.0
 41
0.0
 71
     5
 72
     1
  1
\fArial|b0|i0|c0|p0;82,2 cm(32 3/8")
 73
     1
 44
1.0
1001
ACAD
1000
MTEXTBEGIN
1070
    73
1070
     1
1070
    44
1040
1.0
1070
    74
1070
     0
1000
MTEXTEND
  0
ENDBLK
  5
5576
330
556C
100
AcDbEntity
  8
0
100
AcDbBlockEnd
  0
BLOCK
  5
57EC
330
57EB
100
AcDbEntity
  8
0
100
AcDbBlockBegin
  2
*D9
 70
     1
 10
0.0
 20
0.0
 30
0.0
  3
*D9
  1

  0
POINT
  5
57ED
330
57EB
100
AcDbEntity
  8
Defpoints
  6
ByBlock
100
AcDbPoint
 10
3823.03756799455
 20
-394.3993291505831
 30
0.0
  0
POINT
  5
57EE
330
57EB
100
AcDbEntity
  8
Defpoints
  6
ByBlock
100
AcDbPoint
 10
3823.037567994557
 20
-937.3993291506049
 30
0.0
  0
LINE
  5
57EF
330
57EB
100
AcDbEntity
  8
标注
  6
ByBlock
 62
     0
370
    -2
100
AcDbLine
 10
3823.03756799455
 20
-394.3993291505831
 30
0.0
 11
3748.750000000001
 21
-394.3993291505831
 31
0.0
  0
LINE
  5
57F0
330
57EB
100
AcDbEntity
  8
标注
  6
ByBlock
 62
     0
370
    -2
100
AcDbLine
 10
3823.037567994557
 20
-937.3993291506049
 30
0.0
 11
3748.750000000001
 21
-937.3993291506049
 31
0.0
  0
LINE
  5
57F1
330
57EB
100
AcDbEntity
  8
标注
  6
ByBlock
 62
     0
370
    -2
100
AcDbLine
 10
3752.5
 20
-406.399329150583
 30
0.0
 11
3752.5
 21
-925.3993291506048
 31
0.0
  0
SOLID
  5
57F2
330
57EB
100
AcDbEntity
  8
标注
  6
ByBlock
 62
     0
100
AcDbTrace
 10
3752.5
 20
-394.3993291505831
 30
0.0
 11
3750.5
 21
-406.399329150583
 31
0.0
 12
3754.500000000001
 22
-406.399329150583
 32
0.0
 13
3754.500000000001
 23
-406.399329150583
 33
0.0
  0
SOLID
  5
57F3
330
57EB
100
AcDbEntity
  8
标注
  6
ByBlock
 62
     0
100
AcDbTrace
 10
3752.5
 20
-937.3993291506049
 30
0.0
 11
3750.5
 21
-925.3993291506048
 31
0.0
 12
3754.500000000001
 22
-925.3993291506048
 32
0.0
 13
3754.500000000001
 23
-925.3993291506048
 33
0.0
  0
MTEXT
  5
57F4
330
57EB
100
AcDbEntity
  8
标注
  6
ByBlock
 62
     0
100
AcDbMText
 10
3740.539222373806
 20
-672.5
 30
0.0
 40
15.0
 41
0.0
 71
     5
 72
     1
  1
\fArial|b0|i0|c0|p0;54,3 cm(21 3/8")
 11
0.0000000000000001
 21
1.0
 31
0.0
 73
     1
 44
1.0
1001
ACAD
1000
MTEXTBEGIN
1070
    73
1070
     1
1070
    44
1040
1.0
1070
    74
1070
     0
1000
MTEXTEND
  0
ENDBLK
  5
57F5
330
57EB
100
AcDbEntity
  8
0
100
AcDbBlockEnd
  0
BLOCK
  5
57F8
330
57F7
100
AcDbEntity
  8
0
100
AcDbBlockBegin
  2
*D10
 70
     1
 10
0.0
 20
0.0
 30
0.0
  3
*D10
  1

  0
POINT
  5
57F9
330
57F7
100
AcDbEntity
  8
Defpoints
  6
ByBlock
100
AcDbPoint
 10
4615.037567994558
 20
-424.3993291505903
 30
0.0
  0
POINT
  5
57FA
330
57F7
100
AcDbEntity
  8
Defpoints
  6
ByBlock
100
AcDbPoint
 10
3793.03756799455
 20
-424.399329150583
 30
0.0
  0
LINE
  5
57FB
330
57F7
100
AcDbEntity
  8
标注
  6
ByBlock
 62
     0
370
    -2
100
AcDbLine
 10
4615.037567994558
 20
-424.3993291505903
 30
0.0
 11
4615.037567994558
 21
-348.25
 31
0.0
  0
LINE
  5
57FC
330
57F7
100
AcDbEntity
  8
标注
  6
ByBlock
 62
     0
370
    -2
100
AcDbLine
 10
3793.03756799455
 20
-424.399329150583
 30
0.0
 11
3793.03756799455
 21
-348.25
 31
0.0
  0
LINE
  5
57FD
330
57F7
100
AcDbEntity
  8
标注
  6
ByBlock
 62
     0
370
    -2
100
AcDbLine
 10
4603.037567994557
 20
-352.0
 30
0.0
 11
3805.037567994551
 21
-352.0
 31
0.0
  0
SOLID
  5
57FE
330
57F7
100
AcDbEntity
  8
标注
  6
ByBlock
 62
     0
100
AcDbTrace
 10
4615.037567994558
 20
-352.0
 30
0.0
 11
4603.037567994557
 21
-349.9999999999996
 31
0.0
 12
4603.037567994557
 22
-354.0000000000004
 32
0.0
 13
4603.037567994557
 23
-354.0000000000004
 33
0.0
  0
SOLID
  5
57FF
330
57F7
100
AcDbEntity
  8
标注
  6
ByBlock
 62
     0
100
AcDbTrace
 10
3793.03756799455
 20
-352.0
 30
0.0
 11
3805.037567994551
 21
-349.9999999999996
 31
0.0
 12
3805.037567994551
 22
-354.0000000000004
 32
0.0
 13
3805.037567994551
 23
-354.0000000000004
 33
0.0
  0
MTEXT
  5
5800
330
57F7
100
AcDbEntity
  8
标注
  6
ByBlock
 62
     0
100
AcDbMText
 10
4197.5
 20
-340.0392223738063
 30
0.0
 40
15.0
 41
0.0
 71
     5
 72
     1
  1
\fArial|b0|i0|c0|p0;82,2 cm(32 3/8")
 73
     1
 44
1.0
1001
ACAD
1000
MTEXTBEGIN
1070
    73
1070
     1
1070
    44
1040
1.0
1070
    74
1070
     0
1000
MTEXTEND
  0
ENDBLK
  5
5801
330
57F7
100
AcDbEntity
  8
0
100
AcDbBlockEnd
  0
BLOCK
  5
5953
330
5952
100
AcDbEntity
  8
0
100
AcDbBlockBegin
  2
*D11
 70
     1
 10
0.0
 20
0.0
 30
0.0
  3
*D11
  1

  0
POINT
  5
5954
330
5952
100
AcDbEntity
  8
Defpoints
  6
ByBlock
100
AcDbPoint
 10
459.03756799455
 20
-1592.899329150583
 30
0.0
  0
POINT
  5
5955
330
5952
100
AcDbEntity
  8
Defpoints
  6
ByBlock
100
AcDbPoint
 10
459.0375679945573
 20
-2135.899329150605
 30
0.0
  0
LINE
  5
5956
330
5952
100
AcDbEntity
  8
标注
  6
ByBlock
 62
     0
370
    -2
100
AcDbLine
 10
459.03756799455
 20
-1592.899329150583
 30
0.0
 11
384.75
 21
-1592.899329150583
 31
0.0
  0
LINE
  5
5957
330
5952
100
AcDbEntity
  8
标注
  6
ByBlock
 62
     0
370
    -2
100
AcDbLine
 10
459.0375679945573
 20
-2135.899329150605
 30
0.0
 11
384.75
 21
-2135.899329150605
 31
0.0
  0
LINE
  5
5958
330
5952
100
AcDbEntity
  8
标注
  6
ByBlock
 62
     0
370
    -2
100
AcDbLine
 10
388.5
 20
-1604.899329150583
 30
0.0
 11
388.5
 21
-2123.899329150605
 31
0.0
  0
SOLID
  5
5959
330
5952
100
AcDbEntity
  8
标注
  6
ByBlock
 62
     0
100
AcDbTrace
 10
388.5
 20
-1592.899329150583
 30
0.0
 11
386.4999999999996
 21
-1604.899329150583
 31
0.0
 12
390.5000000000004
 22
-1604.899329150583
 32
0.0
 13
390.5000000000004
 23
-1604.899329150583
 33
0.0
  0
SOLID
  5
595A
330
5952
100
AcDbEntity
  8
标注
  6
ByBlock
 62
     0
100
AcDbTrace
 10
388.5
 20
-2135.899329150605
 30
0.0
 11
386.4999999999996
 21
-2123.899329150605
 31
0.0
 12
390.5000000000004
 22
-2123.899329150605
 32
0.0
 13
390.5000000000004
 23
-2123.899329150605
 33
0.0
  0
MTEXT
  5
595B
330
5952
100
AcDbEntity
  8
标注
  6
ByBlock
 62
     0
100
AcDbMText
 10
376.5392223738063
 20
-1871.0
 30
0.0
 40
15.0
 41
0.0
 71
     5
 72
     1
  1
\fArial|b0|i0|c0|p0;54,3 cm(21 3/8")
 11
0.0000000000000001
 21
1.0
 31
0.0
 73
     1
 44
1.0
1001
ACAD
1000
MTEXTBEGIN
1070
    73
1070
     1
1070
    44
1040
1.0
1070
    74
1070
     0
1000
MTEXTEND
  0
ENDBLK
  5
595C
330
5952
100
AcDbEntity
  8
0
100
AcDbBlockEnd
  0
BLOCK
  5
595F
330
595E
100
AcDbEntity
  8
0
100
AcDbBlockBegin
  2
*D12
 70
     1
 10
0.0
 20
0.0
 30
0.0
  3
*D12
  1

  0
POINT
  5
5960
330
595E
100
AcDbEntity
  8
Defpoints
  6
ByBlock
100
AcDbPoint
 10
1251.037567994557
 20
-1622.89932915059
 30
0.0
  0
POINT
  5
5961
330
595E
100
AcDbEntity
  8
Defpoints
  6
ByBlock
100
AcDbPoint
 10
429.03756799455
 20
-1622.899329150583
 30
0.0
  0
LINE
  5
5962
330
595E
100
AcDbEntity
  8
标注
  6
ByBlock
 62
     0
370
    -2
100
AcDbLine
 10
1251.037567994557
 20
-1622.89932915059
 30
0.0
 11
1251.037567994557
 21
-1546.75
 31
0.0
  0
LINE
  5
5963
330
595E
100
AcDbEntity
  8
标注
  6
ByBlock
 62
     0
370
    -2
100
AcDbLine
 10
429.03756799455
 20
-1622.899329150583
 30
0.0
 11
429.03756799455
 21
-1546.75
 31
0.0
  0
LINE
  5
5964
330
595E
100
AcDbEntity
  8
标注
  6
ByBlock
 62
     0
370
    -2
100
AcDbLine
 10
1239.037567994557
 20
-1550.5
 30
0.0
 11
441.03756799455
 21
-1550.5
 31
0.0
  0
SOLID
  5
5965
330
595E
100
AcDbEntity
  8
标注
  6
ByBlock
 62
     0
100
AcDbTrace
 10
1251.037567994557
 20
-1550.5
 30
0.0
 11
1239.037567994557
 21
-1548.499999999999
 31
0.0
 12
1239.037567994557
 22
-1552.5
 32
0.0
 13
1239.037567994557
 23
-1552.5
 33
0.0
  0
SOLID
  5
5966
330
595E
100
AcDbEntity
  8
标注
  6
ByBlock
 62
     0
100
AcDbTrace
 10
429.03756799455
 20
-1550.5
 30
0.0
 11
441.03756799455
 21
-1548.499999999999
 31
0.0
 12
441.03756799455
 22
-1552.5
 32
0.0
 13
441.03756799455
 23
-1552.5
 33
0.0
  0
MTEXT
  5
5967
330
595E
100
AcDbEntity
  8
标注
  6
ByBlock
 62
     0
100
AcDbMText
 10
833.5
 20
-1538.539222373806
 30
0.0
 40
15.0
 41
0.0
 71
     5
 72
     1
  1
\fArial|b0|i0|c0|p0;82,2 cm(32 3/8")
 73
     1
 44
1.0
1001
ACAD
1000
MTEXTBEGIN
1070
    73
1070
     1
1070
    44
1040
1.0
1070
    74
1070
     0
1000
MTEXTEND
  0
ENDBLK
  5
5968
330
595E
100
AcDbEntity
  8
0
100
AcDbBlockEnd
  0
ENDSEC
  0
SECTION
  2
ENTITIES
  0
LINE
  5
47E5
330
1F
100
AcDbEntity
  8
粗实线
 48
2.0
100
AcDbLine
 10
440.03756799455
 20
886.6006708494095
 30
0.0
 11
1202.037567994557
 21
886.6006708494024
 31
0.0
  0
LINE
  5
47E6
330
1F
100
AcDbEntity
  8
粗实线
 48
2.0
100
AcDbLine
 10
440.0375679945573
 20
343.6006708493878
 30
0.0
 11
1202.037567994557
 21
343.6006708494024
 31
0.0
  0
ARC
  5
47E7
330
1F
100
AcDbEntity
  8
粗实线
 48
2.0
100
AcDbCircle
 10
440.0375679945573
 20
373.6006708493878
 30
0.0
 40
30.0
100
AcDbArc
 50
180.0
 51
270.0
  0
LINE
  5
47E8
330
1F
100
AcDbEntity
  8
粗实线
 48
2.0
100
AcDbLine
 10
410.0375679945573
 20
373.6006708493878
 30
0.0
 11
410.03756799455
 21
856.6006708494096
 31
0.0
  0
ARC
  5
47E9
330
1F
100
AcDbEntity
  8
粗实线
 48
2.0
100
AcDbCircle
 10
440.03756799455
 20
856.6006708494096
 30
0.0
 40
30.0
100
AcDbArc
 50
90.0
 51
180.0
  0
LINE
  5
47EA
330
1F
100
AcDbEntity
  8
粗实线
 48
2.0
100
AcDbLine
 10
1232.037567994557
 20
373.6006708494024
 30
0.0
 11
1232.037567994557
 21
856.6006708494024
 31
0.0
  0
ARC
  5
47EB
330
1F
100
AcDbEntity
  8
粗实线
 48
2.0
100
AcDbCircle
 10
1202.037567994557
 20
373.6006708494024
 30
0.0
 40
30.0
100
AcDbArc
 50
270.0
 51
0.0
  0
ARC
  5
47EC
330
1F
100
AcDbEntity
  8
粗实线
 48
2.0
100
AcDbCircle
 10
1202.037567994557
 20
856.6006708494024
 30
0.0
 40
30.0
100
AcDbArc
 50
0.0
 51
90.0
  0
DIMENSION
  5
4974
330
1F
100
AcDbEntity
  8
标注
100
AcDbDimension
  2
*D2
 10
361.5
 20
343.6006708493951
 30
0.0
 11
361.5
 21
612.5
 31
0.0
 70
   160
  1
\fArial|b0|i0|c0|p0;54,3 cm(21 3/8")
 71
     5
 42
543.0000000000218
  3
英寸
100
AcDbAlignedDimension
 13
400.53756799455
 23
886.6006708494168
 33
0.0
 14
400.5375679945573
 24
343.6006708493951
 34
0.0
 50
90.0
100
AcDbRotatedDimension
1001
ACAD
1000
DSTYLE
1002
{
1070
    41
1040
12.0
1070
   140
1040
15.0
1002
}
  0
DIMENSION
  5
4990
330
1F
100
AcDbEntity
  8
标注
100
AcDbDimension
  2
*D1
 10
410.03756799455
 20
936.5
 30
0.0
 11
820.0
 21
936.5
 31
0.0
 70
   160
  1
\fArial|b0|i0|c0|p0;82,2 cm(32 3/8")
 71
     5
 42
822.0000000000073
  3
英寸
100
AcDbAlignedDimension
 13
1232.037567994557
 23
902.6006708494096
 33
0.0
 14
410.03756799455
 24
902.6006708494168
 34
0.0
100
AcDbRotatedDimension
1001
ACAD
1000
DSTYLE
1002
{
1070
    41
1040
12.0
1070
   140
1040
15.0
1002
}
  0
LINE
  5
4996
330
1F
100
AcDbEntity
  8
标注
100
AcDbLine
 10
1214.797052991154
 20
362.2634303822488
 30
0.0
 11
1186.157828171985
 21
395.7208876893419
 31
0.0
  0
LINE
  5
4997
330
1F
100
AcDbEntity
  8
标注
100
AcDbLine
 10
1186.157828171985
 20
395.7208876893419
 30
0.0
 11
1118.72499920769
 21
395.7208876893419
 31
0.0
  0
MTEXT
  5
4998
330
1F
100
AcDbEntity
  8
标注
 62
     6
100
AcDbMText
 10
1151.44481886227
 20
385.817211908914
 30
0.0
 40
15.0
 41
0.0
 71
     5
 72
     1
  1
\fArial|b0|i0|c0|p0;1 3/16"
 73
     1
 44
1.0
1001
ACAD
1000
MTEXTBEGIN
1070
    73
1070
     1
1070
    44
1040
1.0
1070
    74
1070
     0
1000
MTEXTEND
  0
MTEXT
  5
4999
330
1F
100
AcDbEntity
  8
标注
 62
     6
100
AcDbMText
 10
1149.657933472688
 20
405.8516085833107
 30
0.0
 40
15.0
 41
0.0
 71
     5
 72
     1
  1
\fArial|b0|i0|c0|p0;R3 cm
 73
     1
 44
1.0
1001
ACAD
1000
MTEXTBEGIN
1070
    73
1070
     1
1070
    44
1040
1.0
1070
    74
1070
     0
1000
MTEXTEND
  0
SOLID
  5
499A
330
1F
100
AcDbEntity
  8
标注
100
AcDbTrace
 10
1223.250771430153
 20
352.387467413806
 30
0.0
 11
1216.443046819229
 21
363.6723834554214
 31
0.0
 12
1213.151059163079
 22
360.8544773090835
 32
0.0
 13
1213.151059163079
 23
360.8544773090835
 33
0.0
  0
LINE
  5
4B59
330
1F
100
AcDbEntity
  8
粗实线
100
AcDbLine
 10
1425.791200365771
 20
122.6727855465747
 30
0.0
 11
863.3709206890562
 21
122.6727855465747
 31
0.0
  0
LINE
  5
4B5A
330
1F
100
AcDbEntity
  8
图框线
100
AcDbLine
 10
1238.317773806855
 20
266.4024125750735
 30
0.0
 11
1238.317773806855
 21
122.6727855465747
 31
0.0
  0
LINE
  5
4B5B
330
1F
100
AcDbEntity
  8
图框线
100
AcDbLine
 10
1050.844347247943
 20
266.4024125750735
 30
0.0
 11
1050.844347247943
 21
122.6727855465747
 31
0.0
  0
LINE
  5
4B5C
330
1F
100
AcDbEntity
  8
图框线
100
AcDbLine
 10
1074.278525567839
 20
178.9148135142463
 30
0.0
 11
1074.278525567839
 21
144.5446853117922
 31
0.0
  0
LINE
  5
4B5D
330
1F
100
AcDbEntity
  8
图框线
100
AcDbLine
 10
1097.712703887682
 20
178.9148135142463
 30
0.0
 11
1097.712703887682
 21
144.5446853117922
 31
0.0
  0
LINE
  5
4B5E
330
1F
100
AcDbEntity
  8
图框线
100
AcDbLine
 10
1144.581060527387
 20
144.5446853117922
 30
0.0
 11
1144.581060527387
 21
122.6727855465747
 31
0.0
  0
LINE
  5
4B5F
330
1F
100
AcDbEntity
  8
图框线
100
AcDbLine
 10
1121.14688220753
 20
197.6621561701508
 30
0.0
 11
1121.14688220753
 21
144.5446853117922
 31
0.0
  0
LINE
  5
4B60
330
1F
100
AcDbEntity
  8
图框线
100
AcDbLine
 10
1158.64156751932
 20
197.6621561701508
 30
0.0
 11
1158.64156751932
 21
144.5446853117922
 31
0.0
  0
LINE
  5
4B61
330
1F
100
AcDbEntity
  8
图框线
100
AcDbLine
 10
1200.823088495069
 20
197.6621561701508
 30
0.0
 11
1200.823088495069
 21
144.5446853117922
 31
0.0
  0
LINE
  5
4B62
330
1F
100
AcDbEntity
  8
粗实线
100
AcDbLine
 10
1425.791200365771
 20
122.6727855465747
 30
0.0
 11
863.3709206890562
 21
122.6727855465747
 31
0.0
  0
LINE
  5
4B63
330
1F
100
AcDbEntity
  8
粗实线
100
AcDbLine
 10
1425.791200365771
 20
266.4024125750735
 30
0.0
 11
863.3709206890562
 21
266.4024125750735
 31
0.0
  0
LINE
  5
4B64
330
1F
100
AcDbEntity
  8
图框线
100
AcDbLine
 10
1238.317773806855
 20
197.6621561701508
 30
0.0
 11
863.3709206890562
 21
197.6621561701508
 31
0.0
  0
LINE
  5
4B65
330
1F
100
AcDbEntity
  8
图框线
100
AcDbLine
 10
1050.844347247943
 20
211.4102074511321
 30
0.0
 11
863.3709206890562
 21
211.4102074511321
 31
0.0
  0
LINE
  5
4B66
330
1F
100
AcDbEntity
  8
图框线
100
AcDbLine
 10
1050.844347247943
 20
225.1582587321096
 30
0.0
 11
863.3709206890562
 21
225.1582587321096
 31
0.0
  0
LINE
  5
4B67
330
1F
100
AcDbEntity
  8
图框线
100
AcDbLine
 10
1050.844347247943
 20
238.9063100131005
 30
0.0
 11
863.3709206890562
 21
238.9063100131005
 31
0.0
  0
LINE
  5
4B68
330
1F
100
AcDbEntity
  8
图框线
100
AcDbLine
 10
1050.844347247943
 20
252.6543612940925
 30
0.0
 11
863.3709206890562
 21
252.6543612940925
 31
0.0
  0
LINE
  5
4B69
330
1F
100
AcDbEntity
  8
图框线
100
AcDbLine
 10
1238.317773806855
 20
178.9148135142463
 30
0.0
 11
863.3709206890562
 21
178.9148135142463
 31
0.0
  0
LINE
  5
4B6A
330
1F
100
AcDbEntity
  8
图框线
100
AcDbLine
 10
1238.317773806855
 20
160.1674708583526
 30
0.0
 11
863.3709206890562
 21
160.1674708583526
 31
0.0
  0
LINE
  5
4B6B
330
1F
100
AcDbEntity
  8
图框线
100
AcDbLine
 10
1050.844347247943
 20
141.4201282024636
 30
0.0
 11
863.3709206890562
 21
141.4201282024636
 31
0.0
  0
LINE
  5
4B6C
330
1F
100
AcDbEntity
  8
图框线
100
AcDbLine
 10
1238.317773806855
 20
178.9148135142463
 30
0.0
 11
1050.844347247943
 21
178.9148135142463
 31
0.0
  0
LINE
  5
4B6D
330
1F
100
AcDbEntity
  8
图框线
100
AcDbLine
 10
1238.317773806855
 20
160.1674708583526
 30
0.0
 11
1050.844347247943
 21
160.1674708583526
 31
0.0
  0
LINE
  5
4B6E
330
1F
100
AcDbEntity
  8
图框线
100
AcDbLine
 10
1238.317773806855
 20
144.5446853117922
 30
0.0
 11
1050.844347247943
 21
144.5446853117922
 31
0.0
  0
LINE
  5
4B6F
330
1F
100
AcDbEntity
  8
图框线
100
AcDbLine
 10
1425.791200365771
 20
216.4094988260305
 30
0.0
 11
1238.317773806855
 21
216.4094988260305
 31
0.0
  0
LINE
  5
4B70
330
1F
100
AcDbEntity
  8
图框线
100
AcDbLine
 10
1425.791200365771
 20
169.5411421862844
 30
0.0
 11
1238.317773806855
 21
169.5411421862844
 31
0.0
  0
LINE
  5
4B71
330
1F
100
AcDbEntity
  8
图框线
100
AcDbLine
 10
888.3673775635601
 20
197.6621561701256
 30
0.0
 11
888.3673775635601
 21
266.4024125750735
 31
0.0
  0
LINE
  5
4B72
330
1F
100
AcDbEntity
  8
图框线
100
AcDbLine
 10
913.3638344380793
 20
197.6621561701256
 30
0.0
 11
913.3638344380793
 21
266.4024125750735
 31
0.0
  0
LINE
  5
4B73
330
1F
100
AcDbEntity
  8
图框线
100
AcDbLine
 10
966.4813052964577
 20
197.6621561701508
 30
0.0
 11
966.4813052964577
 21
266.4024125750735
 31
0.0
  0
LINE
  5
4B74
330
1F
100
AcDbEntity
  8
图框线
100
AcDbLine
 10
1013.349661936168
 20
197.6621561701508
 30
0.0
 11
1013.349661936168
 21
266.4024125750735
 31
0.0
  0
LINE
  5
4B75
330
1F
100
AcDbEntity
  8
图框线
100
AcDbLine
 10
900.8656060008265
 20
122.6727855465747
 30
0.0
 11
900.8656060008265
 21
197.6621561701256
 31
0.0
  0
LINE
  5
4B76
330
1F
100
AcDbEntity
  8
图框线
100
AcDbLine
 10
957.1076339685046
 20
122.6727855465747
 30
0.0
 11
957.1076339685046
 21
197.6621561701508
 31
0.0
  0
LINE
  5
4B77
330
1F
100
AcDbEntity
  8
图框线
100
AcDbLine
 10
994.6023192802753
 20
122.6727855465747
 30
0.0
 11
994.6023192802753
 21
197.6621561701508
 31
0.0
  0
MTEXT
  5
4B78
330
1F
100
AcDbEntity
  8
文字
100
AcDbMText
 10
868.1477325135833
 20
208.4133110145634
 30
0.0
 40
6.342780452714839
 41
40.76028244526948
 71
     1
 72
     5
  1
{\fSimSun|b0|i0|c134|p2;标记}
 73
     1
 44
1.0
1001
ACAD
1000
MTEXTBEGIN
1070
    73
1070
     1
1070
    44
1040
1.0
1070
    74
1070
     0
1000
MTEXTEND
  0
MTEXT
  5
4B79
330
1F
100
AcDbEntity
  8
文字
100
AcDbMText
 10
892.6125959350384
 20
208.3390291030702
 30
0.0
 40
6.342780452714839
 41
40.76028244526948
 71
     1
 72
     5
  1
{\fSimSun|b0|i0|c134|p2;处数}
 73
     1
 44
1.0
1001
ACAD
1000
MTEXTBEGIN
1070
    73
1070
     1
1070
    44
1040
1.0
1070
    74
1070
     0
1000
MTEXTEND
  0
MTEXT
  5
4B7A
330
1F
100
AcDbEntity
  8
文字
100
AcDbMText
 10
922.9384732072972
 20
207.5450301373716
 30
0.0
 40
5.074224362171871
 41
86.67244503016112
 71
     1
 72
     5
  1
{\fSimSun|b0|i0|c134|p2;\C1;更改文件号}
 73
     1
 44
1.0
1001
ACAD
1000
MTEXTBEGIN
1070
    73
1070
     1
1070
    44
1040
1.0
1070
    74
1070
     0
1000
MTEXTEND
  0
MTEXT
  5
4B7B
330
1F
100
AcDbEntity
  8
文字
100
AcDbMText
 10
980.1195400586557
 20
208.8035789372065
 30
0.0
 40
6.342780452714839
 41
40.76028244526948
 71
     1
 72
     5
  1
{\fSimSun|b0|i0|c134|p2;签名}
 73
     1
 44
1.0
1001
ACAD
1000
MTEXTBEGIN
1070
    73
1070
     1
1070
    44
1040
1.0
1070
    74
1070
     0
1000
MTEXTEND
  0
MTEXT
  5
4B7C
330
1F
100
AcDbEntity
  8
文字
100
AcDbMText
 10
1025.051768052124
 20
208.4301115648548
 30
0.0
 40
6.342780452714839
 41
40.76028244526948
 71
     1
 72
     5
  1
{\fSimSun|b0|i0|c134|p2;日期}
 73
     1
 44
1.0
1001
ACAD
1000
MTEXTBEGIN
1070
    73
1070
     1
1070
    44
1040
1.0
1070
    74
1070
     0
1000
MTEXTEND
  0
MTEXT
  5
4B7D
330
1F
100
AcDbEntity
  8
文字
100
AcDbMText
 10
871.4757165024797
 20
192.7784976884023
 30
0.0
 40
7.928475565893546
 41
50.95035305658687
 71
     1
 72
     5
  1
{\fSimSun|b0|i0|c134|p2;设计}
 73
     1
 44
1.0
1001
ACAD
1000
MTEXTBEGIN
1070
    73
1070
     1
1070
    44
1040
1.0
1070
    74
1070
     0
1000
MTEXTEND
  0
MTEXT
  5
4B7E
330
1F
100
AcDbEntity
  8
文字
100
AcDbMText
 10
871.4757165024797
 20
173.9036398795478
 30
0.0
 40
7.928475565893546
 41
50.95035305658687
 71
     1
 72
     5
  1
{\fSimSun|b0|i0|c134|p2;校对}
 73
     1
 44
1.0
1001
ACAD
1000
MTEXTBEGIN
1070
    73
1070
     1
1070
    44
1040
1.0
1070
    74
1070
     0
1000
MTEXTEND
  0
MTEXT
  5
4B7F
330
1F
100
AcDbEntity
  8
文字
100
AcDbMText
 10
871.4757165024797
 20
155.2138295680029
 30
0.0
 40
7.928475565893546
 41
50.95035305658687
 71
     1
 72
     5
  1
{\fSimSun|b0|i0|c134|p2;会签}
 73
     1
 44
1.0
1001
ACAD
1000
MTEXTBEGIN
1070
    73
1070
     1
1070
    44
1040
1.0
1070
    74
1070
     0
1000
MTEXTEND
  0
MTEXT
  5
4B80
330
1F
100
AcDbEntity
  8
文字
100
AcDbMText
 10
871.4757165024797
 20
136.7269085537629
 30
0.0
 40
7.928475565893546
 41
50.95035305658687
 71
     1
 72
     5
  1
{\fSimSun|b0|i0|c134|p2;工艺}
 73
     1
 44
1.0
1001
ACAD
1000
MTEXTBEGIN
1070
    73
1070
     1
1070
    44
1040
1.0
1070
    74
1070
     0
1000
MTEXTEND
  0
MTEXT
  5
4B81
330
1F
100
AcDbEntity
  8
文字
100
AcDbMText
 10
965.0837319086486
 20
172.7881635274932
 30
0.0
 40
7.928475565893546
 41
50.95035305658687
 71
     1
 72
     5
  1
{\fSimSun|b0|i0|c134|p2;批准}
 73
     1
 44
1.0
1001
ACAD
1000
MTEXTBEGIN
1070
    73
1070
     1
1070
    44
1040
1.0
1070
    74
1070
     0
1000
MTEXTEND
  0
MTEXT
  5
4B82
330
1F
100
AcDbEntity
  8
文字
100
AcDbMText
 10
966.7734433538667
 20
135.6114466856519
 30
0.0
 40
7.928475565893546
 41
50.95035305658687
 71
     1
 72
     5
  1
{\fSimSun|b0|i0|c134|p2;日期}
 73
     1
 44
1.0
1001
ACAD
1000
MTEXTBEGIN
1070
    73
1070
     1
1070
    44
1040
1.0
1070
    74
1070
     0
1000
MTEXTEND
  0
MTEXT
  5
4B83
330
1F
100
AcDbEntity
  8
文字
100
AcDbMText
 10
1064.545573800125
 20
192.9329693700857
 30
0.0
 40
7.928475565893546
 41
50.95035305658687
 71
     1
 72
     5
  1
{\fSimSun|b0|i0|c134|p2;图样标记}
 73
     1
 44
1.0
1001
ACAD
1000
MTEXTBEGIN
1070
    73
1070
     1
1070
    44
1040
1.0
1070
    74
1070
     0
1000
MTEXTEND
  0
MTEXT
  5
4B84
330
1F
100
AcDbEntity
  8
文字
100
AcDbMText
 10
1077.015354929415
 20
137.4040959570248
 30
0.0
 40
7.928475565893546
 41
50.95035305658687
 71
     1
 72
     5
  1
{\fSimSun|b0|i0|c134|p2;共  页}
 73
     1
 44
1.0
1001
ACAD
1000
MTEXTBEGIN
1070
    73
1070
     1
1070
    44
1040
1.0
1070
    74
1070
     0
1000
MTEXTEND
  0
MTEXT
  5
4B85
330
1F
100
AcDbEntity
  8
文字
100
AcDbMText
 10
1130.868567792856
 20
192.8617589349466
 30
0.0
 40
7.928475565893546
 41
50.95035305658687
 71
     1
 72
     5
  1
{\fSimSun|b0|i0|c134|p2;数量}
 73
     1
 44
1.0
1001
ACAD
1000
MTEXTBEGIN
1070
    73
1070
     1
1070
    44
1040
1.0
1070
    74
1070
     0
1000
MTEXTEND
  0
MTEXT
  5
4B86
330
1F
100
AcDbEntity
  8
文字
100
AcDbMText
 10
1164.180308458166
 20
192.3460726167891
 30
0.0
 40
7.928475565893546
 41
50.95035305658687
 71
     1
 72
     5
  1
{\fSimSun|b0|i0|c134|p2;重量}
 73
     1
 44
1.0
1001
ACAD
1000
MTEXTBEGIN
1070
    73
1070
     1
1070
    44
1040
1.0
1070
    74
1070
     0
1000
MTEXTEND
  0
MTEXT
  5
4B87
330
1F
100
AcDbEntity
  8
文字
100
AcDbMText
 10
1209.755085642498
 20
192.7586187745293
 30
0.0
 40
7.928475565893546
 41
50.95035305658687
 71
     1
 72
     5
  1
{\fSimSun|b0|i0|c134|p2;比例}
 73
     1
 44
1.0
1001
ACAD
1000
MTEXTBEGIN
1070
    73
1070
     1
1070
    44
1040
1.0
1070
    74
1070
     0
1000
MTEXTEND
  0
MTEXT
  5
4B88
330
1F
100
AcDbEntity
  8
文字
100
AcDbMText
 10
1188.347111184939
 20
191.5233395515958
 30
0.0
 40
9.214693862223372
 41
182.9622740851866
 71
     1
 72
     5
  1
{\fArial|b0|i0|c0|p34;kg}
  7
样式 8
 73
     1
 44
1.0
1001
ACAD
1000
MTEXTBEGIN
1070
    73
1070
     1
1070
    44
1040
1.0
1070
    74
1070
     0
1000
MTEXTEND
  0
MTEXT
  5
4B89
330
1F
100
AcDbEntity
  8
文字
100
AcDbMText
 10
1171.466073787322
 20
137.4040959570248
 30
0.0
 40
7.928475565893546
 41
50.95035305658687
 71
     1
 72
     5
  1
{\fSimSun|b0|i0|c134|p2;第  页}
 73
     1
 44
1.0
1001
ACAD
1000
MTEXTBEGIN
1070
    73
1070
     1
1070
    44
1040
1.0
1070
    74
1070
     0
1000
MTEXTEND
  0
MTEXT
  5
4B8A
330
1F
100
AcDbEntity
  8
文字
100
AcDbMText
 10
1247.477229191475
 20
244.6693162921936
 30
0.0
 40
11.51836732777921
 41
228.7028426064833
 71
     1
 72
     5
  1
{\fSimSun|b0|i0|c134|p2;\C1;泰捷不锈钢制品（泰国）有限公司}
  7
样式 8
 73
     1
 44
1.0
1001
ACAD
1000
MTEXTBEGIN
1070
    73
1070
     1
1070
    44
1040
1.0
1070
    74
1070
     0
1000
MTEXTEND
  0
MTEXT
  5
4B8B
330
1F
100
AcDbEntity
  8
文字
100
AcDbMText
 10
1264.473032364441
 20
203.2334551987665
 30
0.0
 40
14.99787412471252
 41
297.7901596438584
 71
     1
 72
     5
  1
\fSimSun|b0|i0|c134|p2;\H1x;\C1;开孔纸板（FD2005）
  7
样式 8
 73
     1
 44
1.0
1001
ACAD
1000
MTEXTBEGIN
1070
    73
1070
     1
1070
    44
1040
1.0
1070
    74
1070
     0
1000
MTEXTEND
  0
LINE
  5
4B8C
330
1F
100
AcDbEntity
  8
不可见
100
AcDbLine
 10
1441.413985912346
 20
1035.043461466589
 30
0.0
 11
1441.413985912346
 21
107.0499999999999
 31
0.0
  0
LINE
  5
4B8D
330
1F
100
AcDbEntity
  8
粗实线
100
AcDbLine
 10
1425.791200365771
 20
1019.420675920031
 30
0.0
 11
1425.791200365771
 21
122.6727855465747
 31
0.0
  0
LINE
  5
4B8E
330
1F
100
AcDbEntity
  8
不可见
100
AcDbLine
 10
1441.413985912346
 20
107.0499999999999
 30
0.0
 11
129.0999999999999
 21
107.0499999999999
 31
0.0
  0
LINE
  5
4B8F
330
1F
100
AcDbEntity
  8
粗实线
100
AcDbLine
 10
1425.791200365771
 20
122.6727855465747
 30
0.0
 11
207.2139277328643
 21
122.6727855465747
 31
0.0
  0
LINE
  5
4B90
330
1F
100
AcDbEntity
  8
粗实线
100
AcDbLine
 10
1425.791200365771
 20
122.6727855465747
 30
0.0
 11
207.2139277328643
 21
122.6727855465747
 31
0.0
  0
MTEXT
  5
4B91
330
1F
100
AcDbEntity
  8
文字
100
AcDbMText
 10
1102.502257927052
 20
235.4452222374665
 30
0.0
 40
14.99787412471252
 41
297.7901596438584
 71
     1
 72
     5
  1
{\fSimSun|b0|i0|c0|p2;\C1;0.3\fSimSun|b0|i0|c134|p2;mm厚白纸板}
  7
样式 8
 73
     1
 44
1.0
1001
ACAD
1000
MTEXTBEGIN
1070
    73
1070
     1
1070
    44
1040
1.0
1070
    74
1070
     0
1000
MTEXTEND
  0
MTEXT
  5
4B92
330
1F
100
AcDbEntity
  8
文字
100
AcDbMText
 10
1059.043378633345
 20
258.7858516897214
 30
0.0
 40
14.99787412471252
 41
297.7901596438584
 71
     1
 72
     5
  1
{\fSimSun|b0|i0|c134|p2;材料:}
  7
样式 8
 73
     1
 44
1.0
1001
ACAD
1000
MTEXTBEGIN
1070
    73
1070
     1
1070
    44
1040
1.0
1070
    74
1070
     0
1000
MTEXTEND
  0
MTEXT
  5
4B93
330
1F
100
AcDbEntity
  8
文字
100
AcDbMText
 10
965.0837319086486
 20
191.5843961500202
 30
0.0
 40
7.928475565893546
 41
50.95035305658687
 71
     1
 72
     5
  1
{\fSimSun|b0|i0|c134|p2;审核}
 73
     1
 44
1.0
1001
ACAD
1000
MTEXTBEGIN
1070
    73
1070
     1
1070
    44
1040
1.0
1070
    74
1070
     0
1000
MTEXTEND
  0
LINE
  5
4B94
330
1F
100
AcDbEntity
  8
不可见
100
AcDbLine
 10
129.0999999999999
 20
1035.043461466589
 30
0.0
 11
1441.413985912346
 21
1035.043461466589
 31
0.0
  0
LINE
  5
4B95
330
1F
100
AcDbEntity
  8
粗实线
100
AcDbLine
 10
207.2139277328643
 20
1019.42067592001
 30
0.0
 11
1425.791200365771
 21
1019.42067592001
 31
0.0
  0
LINE
  5
4B96
330
1F
100
AcDbEntity
  8
不可见
100
AcDbLine
 10
129.0999999999999
 20
107.0499999999999
 30
0.0
 11
129.0999999999999
 21
1035.043461466589
 31
0.0
  0
LINE
  5
4B97
330
1F
100
AcDbEntity
  8
粗实线
100
AcDbLine
 10
207.2139277328643
 20
122.6727855465747
 30
0.0
 11
207.2139277328643
 21
1019.42067592001
 31
0.0
  0
LINE
  5
4B98
330
1F
100
AcDbEntity
  8
粗实线
100
AcDbLine
 10
207.2139277328643
 20
987.018145379177
 30
0.0
 11
361.2655444962947
 21
987.018145379177
 31
0.0
  0
LINE
  5
4B99
330
1F
100
AcDbEntity
  8
粗实线
100
AcDbLine
 10
361.2655444962947
 20
987.018145379177
 30
0.0
 11
361.2655444962947
 21
1019.42067592001
 31
0.0
  0
LINE
  5
4B9A
330
1F
100
AcDbEntity
  8
图框线
100
AcDbLine
 10
207.2139277328643
 20
147.6692424210908
 30
0.0
 11
129.0999999999999
 21
147.6692424210908
 31
0.0
  0
LINE
  5
4B9B
330
1F
100
AcDbEntity
  8
图框线
100
AcDbLine
 10
207.2139277328643
 20
166.4165850769953
 30
0.0
 11
129.0999999999999
 21
166.4165850769953
 31
0.0
  0
LINE
  5
4B9C
330
1F
100
AcDbEntity
  8
图框线
100
AcDbLine
 10
207.2139277328643
 20
191.4130419515021
 30
0.0
 11
129.0999999999999
 21
191.4130419515021
 31
0.0
  0
LINE
  5
4B9D
330
1F
100
AcDbEntity
  8
图框线
100
AcDbLine
 10
207.2139277328643
 20
210.1603846073959
 30
0.0
 11
129.0999999999999
 21
210.1603846073959
 31
0.0
  0
LINE
  5
4B9E
330
1F
100
AcDbEntity
  8
图框线
100
AcDbLine
 10
207.2139277328643
 20
235.1568414819144
 30
0.0
 11
129.0999999999999
 21
235.1568414819144
 31
0.0
  0
LINE
  5
4B9F
330
1F
100
AcDbEntity
  8
图框线
100
AcDbLine
 10
207.2139277328643
 20
253.9041841377986
 30
0.0
 11
129.0999999999999
 21
253.9041841377986
 31
0.0
  0
LINE
  5
4BA0
330
1F
100
AcDbEntity
  8
图框线
100
AcDbLine
 10
207.2139277328643
 20
278.9006410123352
 30
0.0
 11
129.0999999999999
 21
278.9006410123352
 31
0.0
  0
LINE
  5
4BA1
330
1F
100
AcDbEntity
  8
图框线
100
AcDbLine
 10
207.2139277328643
 20
297.6479836682182
 30
0.0
 11
129.0999999999999
 21
297.6479836682182
 31
0.0
  0
LINE
  5
4BA2
330
1F
100
AcDbEntity
  8
图框线
100
AcDbLine
 10
207.2139277328643
 20
322.644440542756
 30
0.0
 11
129.0999999999999
 21
322.644440542756
 31
0.0
  0
LINE
  5
4BA3
330
1F
100
AcDbEntity
  8
图框线
100
AcDbLine
 10
207.2139277328643
 20
341.3917831986546
 30
0.0
 11
129.0999999999999
 21
341.3917831986546
 31
0.0
  0
LINE
  5
4BA4
330
1F
100
AcDbEntity
  8
图框线
100
AcDbLine
 10
207.2139277328643
 20
366.3882400731456
 30
0.0
 11
129.0999999999999
 21
366.3882400731456
 31
0.0
  0
LINE
  5
4BA5
330
1F
100
AcDbEntity
  8
图框线
100
AcDbLine
 10
207.2139277328643
 20
385.1355827290406
 30
0.0
 11
129.0999999999999
 21
385.1355827290406
 31
0.0
  0
LINE
  5
4BA6
330
1F
100
AcDbEntity
  8
图框线
100
AcDbLine
 10
207.2139277328643
 20
403.8829253849248
 30
0.0
 11
129.0999999999999
 21
403.8829253849248
 31
0.0
  0
LINE
  5
4BA7
330
1F
100
AcDbEntity
  8
图框线
100
AcDbLine
 10
207.2139277328643
 20
122.6727855465747
 30
0.0
 11
129.0999999999999
 21
122.6727855465747
 31
0.0
  0
MTEXT
  5
4BA8
102
{ACAD_XDICTIONARY
360
5A97
102
}
330
1F
100
AcDbEntity
  8
文字
100
AcDbMText
 10
137.4723404661931
 20
161.2488047660862
 30
0.0
 40
6.506890180148712
 41
165.3051002413503
 71
     1
 72
     5
  1
\U+65E5   
 73
     1
 44
1.0
1001
ACAD
1000
MTEXTBEGIN
1070
    73
1070
     1
1070
    44
1040
1.0
1070
    74
1070
     0
1000
MTEXTEND
  0
MTEXT
  5
4BA9
102
{ACAD_XDICTIONARY
360
5A99
102
}
330
1F
100
AcDbEntity
  8
文字
100
AcDbMText
 10
137.4723404661931
 20
204.968646560017
 30
0.0
 40
6.506890180148712
 41
165.3051002413503
 71
     1
 72
     5
  1
\U+7B7E   
 73
     1
 44
1.0
1001
ACAD
1000
MTEXTBEGIN
1070
    73
1070
     1
1070
    44
1040
1.0
1070
    74
1070
     0
1000
MTEXTEND
  0
MTEXT
  5
4BAA
102
{ACAD_XDICTIONARY
360
5A9B
102
}
330
1F
100
AcDbEntity
  8
文字
100
AcDbMText
 10
137.4723404661931
 20
249.9106172593433
 30
0.0
 40
6.506890180148712
 41
165.3051002413503
 71
     1
 72
     5
  1
\U+5E95
 73
     1
 44
1.0
1001
ACAD
1000
MTEXTBEGIN
1070
    73
1070
     1
1070
    44
1040
1.0
1070
    74
1070
     0
1000
MTEXTEND
  0
MTEXT
  5
4BAB
102
{ACAD_XDICTIONARY
360
5A9D
102
}
330
1F
100
AcDbEntity
  8
文字
100
AcDbMText
 10
137.4723404661931
 20
292.3841985090635
 30
0.0
 40
6.506890180148712
 41
165.3051002413503
 71
     1
 72
     5
  1
\U+65E7
 73
     1
 44
1.0
1001
ACAD
1000
MTEXTBEGIN
1070
    73
1070
     1
1070
    44
1040
1.0
1070
    74
1070
     0
1000
MTEXTEND
  0
MTEXT
  5
4BAC
102
{ACAD_XDICTIONARY
360
5A9F
102
}
330
1F
100
AcDbEntity
  8
文字
100
AcDbMText
 10
136.2969782940677
 20
382.0468439028805
 30
0.0
 40
6.506890180148712
 41
165.3051002413503
 71
     1
 72
     5
  1
\U+63CF   
 73
     1
 44
1.0
1001
ACAD
1000
MTEXTBEGIN
1070
    73
1070
     1
1070
    44
1040
1.0
1070
    74
1070
     0
1000
MTEXTEND
  0
MTEXT
  5
4BAD
102
{ACAD_XDICTIONARY
360
5AA1
102
}
330
1F
100
AcDbEntity
  8
文字
100
AcDbMText
 10
133.1616777448698
 20
401.1132154009699
 30
0.0
 40
6.506890180148712
 41
165.3051002413503
 71
     1
 72
     5
  1
\ftxt.shx,gbcbig.shx;\H1x;\C1;\U+501F\U+FF08\U+901A\U+FF09\U+7528\U+4EF6\U+767B\U+8BB0
 73
     1
 44
1.0
1001
ACAD
1000
MTEXTBEGIN
1070
    73
1070
     1
1070
    44
1040
1.0
1070
    74
1070
     0
1000
MTEXTEND
  0
MTEXT
  5
4BAE
102
{ACAD_XDICTIONARY
360
5AA3
102
}
330
1F
100
AcDbEntity
  8
文字
100
AcDbMText
 10
191.7625674378832
 20
382.0468439028805
 30
0.0
 40
6.506890180148712
 41
165.3051002413503
 71
     1
 72
     5
  1
\U+56FE   
 73
     1
 44
1.0
1001
ACAD
1000
MTEXTBEGIN
1070
    73
1070
     1
1070
    44
1040
1.0
1070
    74
1070
     0
1000
MTEXTEND
  0
MTEXT
  5
4BAF
102
{ACAD_XDICTIONARY
360
5AA5
102
}
330
1F
100
AcDbEntity
  8
文字
100
AcDbMText
 10
136.2969782940677
 20
337.9317256973976
 30
0.0
 40
6.506890180148712
 41
165.3051002413503
 71
     1
 72
     5
  1
\U+63CF   
 73
     1
 44
1.0
1001
ACAD
1000
MTEXTBEGIN
1070
    73
1070
     1
1070
    44
1040
1.0
1070
    74
1070
     0
1000
MTEXTEND
  0
MTEXT
  5
4BB0
102
{ACAD_XDICTIONARY
360
5AA7
102
}
330
1F
100
AcDbEntity
  8
文字
100
AcDbMText
 10
191.7625674378832
 20
337.9317256973976
 30
0.0
 40
6.506890180148712
 41
165.3051002413503
 71
     1
 72
     5
  1
\U+6821   
 73
     1
 44
1.0
1001
ACAD
1000
MTEXTBEGIN
1070
    73
1070
     1
1070
    44
1040
1.0
1070
    74
1070
     0
1000
MTEXTEND
  0
MTEXT
  5
4BB1
102
{ACAD_XDICTIONARY
360
5AA9
102
}
330
1F
100
AcDbEntity
  8
文字
100
AcDbMText
 10
149.5369383429088
 20
292.5184247483313
 30
0.0
 40
6.506890180148712
 41
165.3051002413503
 71
     1
 72
     5
  1
\U+5E95
 73
     1
 44
1.0
1001
ACAD
1000
MTEXTBEGIN
1070
    73
1070
     1
1070
    44
1040
1.0
1070
    74
1070
     0
1000
MTEXTEND
  0
MTEXT
  5
4BB2
102
{ACAD_XDICTIONARY
360
5AAB
102
}
330
1F
100
AcDbEntity
  8
文字
100
AcDbMText
 10
164.8075042061778
 20
292.3841985090635
 30
0.0
 40
6.506890180148712
 41
165.3051002413503
 71
     1
 72
     5
  1
\U+56FE
 73
     1
 44
1.0
1001
ACAD
1000
MTEXTBEGIN
1070
    73
1070
     1
1070
    44
1040
1.0
1070
    74
1070
     0
1000
MTEXTEND
  0
MTEXT
  5
4BB3
102
{ACAD_XDICTIONARY
360
5AAD
102
}
330
1F
100
AcDbEntity
  8
文字
100
AcDbMText
 10
179.0195589397253
 20
292.3841985090635
 30
0.0
 40
6.506890180148712
 41
165.3051002413503
 71
     1
 72
     5
  1
\U+603B
 73
     1
 44
1.0
1001
ACAD
1000
MTEXTBEGIN
1070
    73
1070
     1
1070
    44
1040
1.0
1070
    74
1070
     0
1000
MTEXTEND
  0
MTEXT
  5
4BB4
102
{ACAD_XDICTIONARY
360
5AAF
102
}
330
1F
100
AcDbEntity
  8
文字
100
AcDbMText
 10
193.1915057746482
 20
292.3841985090635
 30
0.0
 40
6.506890180148712
 41
165.3051002413503
 71
     1
 72
     5
  1
\U+53F7
 73
     1
 44
1.0
1001
ACAD
1000
MTEXTBEGIN
1070
    73
1070
     1
1070
    44
1040
1.0
1070
    74
1070
     0
1000
MTEXTEND
  0
MTEXT
  5
4BB5
102
{ACAD_XDICTIONARY
360
5AB1
102
}
330
1F
100
AcDbEntity
  8
文字
100
AcDbMText
 10
155.2227734772596
 20
249.9106172593433
 30
0.0
 40
6.506890180148712
 41
165.3051002413503
 71
     1
 72
     5
  1
\U+56FE
 73
     1
 44
1.0
1001
ACAD
1000
MTEXTBEGIN
1070
    73
1070
     1
1070
    44
1040
1.0
1070
    74
1070
     0
1000
MTEXTEND
  0
MTEXT
  5
4BB6
102
{ACAD_XDICTIONARY
360
5AB3
102
}
330
1F
100
AcDbEntity
  8
文字
100
AcDbMText
 10
172.6619738937224
 20
249.9106172593433
 30
0.0
 40
6.506890180148712
 41
165.3051002413503
 71
     1
 72
     5
  1
\U+603B
 73
     1
 44
1.0
1001
ACAD
1000
MTEXTBEGIN
1070
    73
1070
     1
1070
    44
1040
1.0
1070
    74
1070
     0
1000
MTEXTEND
  0
MTEXT
  5
4BB7
102
{ACAD_XDICTIONARY
360
5AB5
102
}
330
1F
100
AcDbEntity
  8
文字
100
AcDbMText
 10
191.4689534788927
 20
249.9106172593433
 30
0.0
 40
6.506890180148712
 41
165.3051002413503
 71
     1
 72
     5
  1
\U+53F7
 73
     1
 44
1.0
1001
ACAD
1000
MTEXTBEGIN
1070
    73
1070
     1
1070
    44
1040
1.0
1070
    74
1070
     0
1000
MTEXTEND
  0
MTEXT
  5
4BB8
102
{ACAD_XDICTIONARY
360
5AB7
102
}
330
1F
100
AcDbEntity
  8
文字
100
AcDbMText
 10
191.6085436998805
 20
204.968646560017
 30
0.0
 40
6.506890180148712
 41
165.3051002413503
 71
     1
 72
     5
  1
\U+5B57  
 73
     1
 44
1.0
1001
ACAD
1000
MTEXTBEGIN
1070
    73
1070
     1
1070
    44
1040
1.0
1070
    74
1070
     0
1000
MTEXTEND
  0
MTEXT
  5
4BB9
102
{ACAD_XDICTIONARY
360
5AB9
102
}
330
1F
100
AcDbEntity
  8
文字
100
AcDbMText
 10
190.4833497855834
 20
161.2488047660862
 30
0.0
 40
6.506890180148712
 41
165.3051002413503
 71
     1
 72
     5
  1
\U+671F  
 73
     1
 44
1.0
1001
ACAD
1000
MTEXTBEGIN
1070
    73
1070
     1
1070
    44
1040
1.0
1070
    74
1070
     0
1000
MTEXTEND
  0
MTEXT
  5
4BBA
330
1F
100
AcDbEntity
  8
文字
100
AcDbMText
 10
1310.996355500797
 20
152.0976161416133
 30
0.0
 40
17.99744894965502
 41
357.34819157263
 71
     1
 72
     5
  1
\fNSimSun|b0|i0|c134|p49;\H1x;\C1;1b16
  7
样式 8
 73
     1
 44
1.0
1001
ACAD
1000
MTEXTBEGIN
1070
    73
1070
     1
1070
    44
1040
1.0
1070
    74
1070
     0
1000
MTEXTEND
  0
LINE
  5
4BBB
330
1F
100
AcDbEntity
  8
粗实线
100
AcDbLine
 10
863.3709206890562
 20
266.4024125750735
 30
0.0
 11
863.3709206890562
 21
122.6727855465747
 31
0.0
  0
MTEXT
  5
4BBC
330
1F
100
AcDbEntity
  8
文字
100
AcDbMText
 10
1195.452257927052
 20
310.2452222374666
 30
0.0
 40
14.99787412471252
 41
297.7901596438584
 71
     1
 72
     5
  1
{\fSimSun|b0|i0|c134|p2;\C1;注：图纸上标注尺寸不用印刷}
  7
样式 8
 73
     1
 44
1.0
1001
ACAD
1000
MTEXTBEGIN
1070
    73
1070
     1
1070
    44
1040
1.0
1070
    74
1070
     0
1000
MTEXTEND
  0
ENDSEC
  0
SECTION
  2
OBJECTS
  0
DICTIONARY
  5
C
330
0
100
AcDbDictionary
281
     1
  3
ACAD_2007HEADERVARS_RT
350
5A87
  3
ACAD_COLOR
350
3513
  3
ACAD_GROUP
350
D
  3
ACAD_LAYOUT
350
1A
  3
ACAD_MATERIAL
350
350F
  3
ACAD_MLINESTYLE
350
17
  3
ACAD_PLOTSETTINGS
350
19
  3
ACAD_PLOTSTYLENAME
350
E
  3
ACAD_TABLESTYLE
350
E9
  3
ACAD_VISUALSTYLE
350
28
  3
AcDbVariableDictionary
350
366A
  3
DWGPROPS
350
5A86
  0
DICTIONARY
  5
36E2
330
2
100
AcDbDictionary
280
     1
281
     1
  3
ACAD_LAYERSTATES
360
36E3
  0
DICTIONARY
  5
5A97
330
4BA8
100
AcDbDictionary
280
     1
281
     1
  3
ACAD_MTEXT_RT
360
5A98
  0
DICTIONARY
  5
5A99
330
4BA9
100
AcDbDictionary
280
     1
281
     1
  3
ACAD_MTEXT_RT
360
5A9A
  0
DICTIONARY
  5
5A9B
330
4BAA
100
AcDbDictionary
280
     1
281
     1
  3
ACAD_MTEXT_RT
360
5A9C
  0
DICTIONARY
  5
5A9D
330
4BAB
100
AcDbDictionary
280
     1
281
     1
  3
ACAD_MTEXT_RT
360
5A9E
  0
DICTIONARY
  5
5A9F
330
4BAC
100
AcDbDictionary
280
     1
281
     1
  3
ACAD_MTEXT_RT
360
5AA0
  0
DICTIONARY
  5
5AA1
330
4BAD
100
AcDbDictionary
280
     1
281
     1
  3
ACAD_MTEXT_RT
360
5AA2
  0
DICTIONARY
  5
5AA3
330
4BAE
100
AcDbDictionary
280
     1
281
     1
  3
ACAD_MTEXT_RT
360
5AA4
  0
DICTIONARY
  5
5AA5
330
4BAF
100
AcDbDictionary
280
     1
281
     1
  3
ACAD_MTEXT_RT
360
5AA6
  0
DICTIONARY
  5
5AA7
330
4BB0
100
AcDbDictionary
280
     1
281
     1
  3
ACAD_MTEXT_RT
360
5AA8
  0
DICTIONARY
  5
5AA9
330
4BB1
100
AcDbDictionary
280
     1
281
     1
  3
ACAD_MTEXT_RT
360
5AAA
  0
DICTIONARY
  5
5AAB
330
4BB2
100
AcDbDictionary
280
     1
281
     1
  3
ACAD_MTEXT_RT
360
5AAC
  0
DICTIONARY
  5
5AAD
330
4BB3
100
AcDbDictionary
280
     1
281
     1
  3
ACAD_MTEXT_RT
360
5AAE
  0
DICTIONARY
  5
5AAF
330
4BB4
100
AcDbDictionary
280
     1
281
     1
  3
ACAD_MTEXT_RT
360
5AB0
  0
DICTIONARY
  5
5AB1
330
4BB5
100
AcDbDictionary
280
     1
281
     1
  3
ACAD_MTEXT_RT
360
5AB2
  0
DICTIONARY
  5
5AB3
330
4BB6
100
AcDbDictionary
280
     1
281
     1
  3
ACAD_MTEXT_RT
360
5AB4
  0
DICTIONARY
  5
5AB5
330
4BB7
100
AcDbDictionary
280
     1
281
     1
  3
ACAD_MTEXT_RT
360
5AB6
  0
DICTIONARY
  5
5AB7
330
4BB8
100
AcDbDictionary
280
     1
281
     1
  3
ACAD_MTEXT_RT
360
5AB8
  0
DICTIONARY
  5
5AB9
330
4BB9
100
AcDbDictionary
280
     1
281
     1
  3
ACAD_MTEXT_RT
360
5ABA
  0
DICTIONARY
  5
5A87
102
{ACAD_REACTORS
330
C
102
}
330
C
100
AcDbDictionary
281
     1
  3
INTERFERECOLOR
350
5A88
  0
DICTIONARY
  5
3513
102
{ACAD_REACTORS
330
C
102
}
330
C
100
AcDbDictionary
281
     1
  0
DICTIONARY
  5
D
102
{ACAD_REACTORS
330
C
102
}
330
C
100
AcDbDictionary
281
     1
  0
DICTIONARY
  5
1A
102
{ACAD_REACTORS
330
C
102
}
330
C
100
AcDbDictionary
281
     1
  3
Layout1
350
1E
  3
Layout2
350
24
  3
Model
350
22
  0
DICTIONARY
  5
350F
102
{ACAD_REACTORS
330
C
102
}
330
C
100
AcDbDictionary
281
     1
  3
ByBlock
350
3511
  3
ByLayer
350
3510
  3
Global
350
3512
  0
DICTIONARY
  5
17
102
{ACAD_REACTORS
330
C
102
}
330
C
100
AcDbDictionary
281
     1
  3
Standard
350
18
  0
DICTIONARY
  5
19
102
{ACAD_REACTORS
330
C
102
}
330
C
100
AcDbDictionary
281
     1
  0
ACDBDICTIONARYWDFLT
  5
E
102
{ACAD_REACTORS
330
C
102
}
330
C
100
AcDbDictionary
281
     1
  3
Normal
350
F
100
AcDbDictionaryWithDefault
340
F
  0
DICTIONARY
  5
E9
102
{ACAD_REACTORS
330
C
102
}
330
C
100
AcDbDictionary
281
     1
  3
Standard
350
3514
  0
DICTIONARY
  5
28
102
{ACAD_REACTORS
330
C
102
}
330
C
100
AcDbDictionary
281
     1
  3
2dWireframe
350
2D
  3
3D Hidden
350
2F
  3
3dWireframe
350
2E
  3
Basic
350
30
  3
Brighten
350
34
  3
ColorChange
350
38
  3
Conceptual
350
32
  3
Dim
350
33
  3
Facepattern
350
37
  3
Flat
350
29
  3
FlatWithEdges
350
2A
  3
Gouraud
350
2B
  3
GouraudWithEdges
350
2C
  3
Linepattern
350
36
  3
Realistic
350
31
  3
Thicken
350
35
  0
DICTIONARY
  5
366A
102
{ACAD_REACTORS
330
C
102
}
330
C
100
AcDbDictionary
281
     1
  3
CTABLESTYLE
350
366B
  3
DGNFRAME
350
5A1B
  3
DIMASSOC
350
5A1A
  3
HIDETEXT
350
5A19
  3
INDEXCTL
350
5A18
  3
SORTENTS
350
5A17
  0
XRECORD
  5
5A86
102
{ACAD_REACTORS
330
C
102
}
330
C
100
AcDbXrecord
280
     1
  1
DWGPROPS COOKIE
  2

  3

  4

  6

  7

  8
Administrator
  9

300
=
301
=
302
=
303
=
304
=
305
=
306
=
307
=
308
=
309
=
 40
0.0592600578703704
 41
2455841.60680022
 42
2459756.672961551
  1

 90
        0
  0
DICTIONARY
  5
36E3
102
{ACAD_REACTORS
330
36E2
102
}
330
36E2
100
AcDbDictionary
281
     1
  0
XRECORD
  5
5A98
102
{ACAD_REACTORS
330
5A97
102
}
330
5A97
100
AcDbXrecord
280
     1
 40
2521.0
  1
日   
  0
XRECORD
  5
5A9A
102
{ACAD_REACTORS
330
5A99
102
}
330
5A99
100
AcDbXrecord
280
     1
 40
2618.0
  1
签   
  0
XRECORD
  5
5A9C
102
{ACAD_REACTORS
330
5A9B
102
}
330
5A9B
100
AcDbXrecord
280
     1
 40
1661.0
  1
底
  0
XRECORD
  5
5A9E
102
{ACAD_REACTORS
330
5A9D
102
}
330
5A9D
100
AcDbXrecord
280
     1
 40
1671.0
  1
旧
  0
XRECORD
  5
5AA0
102
{ACAD_REACTORS
330
5A9F
102
}
330
5A9F
100
AcDbXrecord
280
     1
 40
2618.0
  1
描   
  0
XRECORD
  5
5AA2
102
{ACAD_REACTORS
330
5AA1
102
}
330
5AA1
100
AcDbXrecord
280
     1
 40
249260.0
  1
\ftxt.shx,gbcbig.shx;\H1x;\C1;借（通）用件登记
  0
XRECORD
  5
5AA4
102
{ACAD_REACTORS
330
5AA3
102
}
330
5AA3
100
AcDbXrecord
280
     1
 40
2640.0
  1
图   
  0
XRECORD
  5
5AA6
102
{ACAD_REACTORS
330
5AA5
102
}
330
5AA5
100
AcDbXrecord
280
     1
 40
2618.0
  1
描   
  0
XRECORD
  5
5AA8
102
{ACAD_REACTORS
330
5AA7
102
}
330
5AA7
100
AcDbXrecord
280
     1
 40
2394.0
  1
校   
  0
XRECORD
  5
5AAA
102
{ACAD_REACTORS
330
5AA9
102
}
330
5AA9
100
AcDbXrecord
280
     1
 40
1661.0
  1
底
  0
XRECORD
  5
5AAC
102
{ACAD_REACTORS
330
5AAB
102
}
330
5AAB
100
AcDbXrecord
280
     1
 40
1776.0
  1
图
  0
XRECORD
  5
5AAE
102
{ACAD_REACTORS
330
5AAD
102
}
330
5AAD
100
AcDbXrecord
280
     1
 40
1615.0
  1
总
  0
XRECORD
  5
5AB0
102
{ACAD_REACTORS
330
5AAF
102
}
330
5AAF
100
AcDbXrecord
280
     1
 40
1663.0
  1
号
  0
XRECORD
  5
5AB2
102
{ACAD_REACTORS
330
5AB1
102
}
330
5AB1
100
AcDbXrecord
280
     1
 40
1776.0
  1
图
  0
XRECORD
  5
5AB4
102
{ACAD_REACTORS
330
5AB3
102
}
330
5AB3
100
AcDbXrecord
280
     1
 40
1615.0
  1
总
  0
XRECORD
  5
5AB6
102
{ACAD_REACTORS
330
5AB5
102
}
330
5AB5
100
AcDbXrecord
280
     1
 40
1663.0
  1
号
  0
XRECORD
  5
5AB8
102
{ACAD_REACTORS
330
5AB7
102
}
330
5AB7
100
AcDbXrecord
280
     1
 40
2180.0
  1
字  
  0
XRECORD
  5
5ABA
102
{ACAD_REACTORS
330
5AB9
102
}
330
5AB9
100
AcDbXrecord
280
     1
 40
2210.0
  1
期  
  0
XRECORD
  5
5A88
102
{ACAD_REACTORS
330
5A87
102
}
330
5A87
100
AcDbXrecord
280
     1
1004
1800000001000000000000C0000000000000000000000000
  0
LAYOUT
  5
1E
102
{ACAD_XDICTIONARY
360
5A89
102
}
102
{ACAD_REACTORS
330
1A
102
}
330
1A
100
AcDbPlotSettings
  1

  2
none_device
  4

  6

 40
0.0
 41
0.0
 42
0.0
 43
0.0
 44
0.0
 45
0.0
 46
0.0
 47
0.0
 48
0.0
 49
0.0
140
0.0
141
0.0
142
1.0
143
1.0
 70
   688
 72
     0
 73
     0
 74
     5
  7

 75
    16
147
1.0
148
0.0
149
0.0
100
AcDbLayout
  1
Layout1
 70
     1
 71
     1
 10
0.0
 20
0.0
 11
12.0
 21
9.0
 12
0.0
 22
0.0
 32
0.0
 14
1.000000000000000E+20
 24
1.000000000000000E+20
 34
1.000000000000000E+20
 15
-1.000000000000000E+20
 25
-1.000000000000000E+20
 35
-1.000000000000000E+20
146
0.0
 13
0.0
 23
0.0
 33
0.0
 16
1.0
 26
0.0
 36
0.0
 17
0.0
 27
1.0
 37
0.0
 76
     0
330
1B
  0
LAYOUT
  5
24
102
{ACAD_XDICTIONARY
360
5A8D
102
}
102
{ACAD_REACTORS
330
1A
102
}
330
1A
100
AcDbPlotSettings
  1

  2
none_device
  4

  6

 40
0.0
 41
0.0
 42
0.0
 43
0.0
 44
0.0
 45
0.0
 46
0.0
 47
0.0
 48
0.0
 49
0.0
140
0.0
141
0.0
142
1.0
143
1.0
 70
   688
 72
     0
 73
     0
 74
     5
  7

 75
    16
147
1.0
148
0.0
149
0.0
100
AcDbLayout
  1
Layout2
 70
     1
 71
     2
 10
0.0
 20
0.0
 11
0.0
 21
0.0
 12
0.0
 22
0.0
 32
0.0
 14
0.0
 24
0.0
 34
0.0
 15
0.0
 25
0.0
 35
0.0
146
0.0
 13
0.0
 23
0.0
 33
0.0
 16
1.0
 26
0.0
 36
0.0
 17
0.0
 27
1.0
 37
0.0
 76
     0
330
23
  0
LAYOUT
  5
22
102
{ACAD_XDICTIONARY
360
5A8B
102
}
102
{ACAD_REACTORS
330
1A
102
}
330
1A
100
AcDbPlotSettings
  1

  2
pdfFactory Pro
  4
A4
  6

 40
6.349999999999999
 41
6.350000000000009
 42
6.350000000000017
 43
6.349999999999999
 44
210.0
 45
297.0
 46
-0.0000000000000034
 47
2.644949494949707
 48
141.0999999999999
 49
-2388.95
140
1453.413985912346
141
-1460.956538533411
142
1.0
143
4.703464072309118
 70
  1716
 72
     1
 73
     1
 74
     4
  7
Monochrome.ctb
 75
     0
147
0.2126092566300948
148
0.0
149
0.0
100
AcDbLayout
  1
Model
 70
     1
 71
     0
 10
0.0
 20
0.0
 11
12.0
 21
9.0
 12
0.0
 22
0.0
 32
0.0
 14
129.0999999999999
 24
-2388.95
 34
0.0
 15
4817.413985912346
 25
1035.043461466589
 35
0.0
146
0.0
 13
0.0
 23
0.0
 33
0.0
 16
1.0
 26
0.0
 36
0.0
 17
0.0
 27
1.0
 37
0.0
 76
     0
330
1F
331
27
  0
MATERIAL
  5
3511
102
{ACAD_XDICTIONARY
360
5A91
102
}
102
{ACAD_REACTORS
330
350F
102
}
330
350F
100
AcDbMaterial
  1
ByBlock
  0
MATERIAL
  5
3510
102
{ACAD_XDICTIONARY
360
5A8F
102
}
102
{ACAD_REACTORS
330
350F
102
}
330
350F
100
AcDbMaterial
  1
ByLayer
  0
MATERIAL
  5
3512
102
{ACAD_XDICTIONARY
360
5A93
102
}
102
{ACAD_REACTORS
330
350F
102
}
330
350F
100
AcDbMaterial
  1
Global
  0
MLINESTYLE
  5
18
102
{ACAD_REACTORS
330
17
102
}
330
17
100
AcDbMlineStyle
  2
STANDARD
 70
     0
  3

 62
   256
 51
90.0
 52
90.0
 71
     2
 49
0.5
 62
   256
  6
BYLAYER
 49
-0.5
 62
   256
  6
BYLAYER
  0
ACDBPLACEHOLDER
  5
F
102
{ACAD_REACTORS
330
E
102
}
330
E
  0
TABLESTYLE
  5
3514
102
{ACAD_XDICTIONARY
360
5A95
102
}
102
{ACAD_REACTORS
330
E9
102
}
330
E9
100
AcDbTableStyle
  3
Standard
 70
     0
 71
     0
 40
0.06
 41
0.06
280
     0
281
     0
  7
Standard
140
0.18
170
     2
 62
     0
 63
     7
283
     0
274
    -2
284
     1
 64
     0
275
    -2
285
     1
 65
     0
276
    -2
286
     1
 66
     0
277
    -2
287
     1
 67
     0
278
    -2
288
     1
 68
     0
279
    -2
289
     1
 69
     0
  7
Standard
140
0.25
170
     5
 62
     0
 63
     7
283
     0
274
    -2
284
     1
 64
     0
275
    -2
285
     1
 65
     0
276
    -2
286
     1
 66
     0
277
    -2
287
     1
 67
     0
278
    -2
288
     1
 68
     0
279
    -2
289
     1
 69
     0
  7
Standard
140
0.18
170
     5
 62
     0
 63
     7
283
     0
274
    -2
284
     1
 64
     0
275
    -2
285
     1
 65
     0
276
    -2
286
     1
 66
     0
277
    -2
287
     1
 67
     0
278
    -2
288
     1
 68
     0
279
    -2
289
     1
 69
     0
  0
VISUALSTYLE
  5
2D
102
{ACAD_REACTORS
330
28
102
}
330
28
100
AcDbVisualStyle
  2
2dWireframe
 70
     4
 71
     0
 72
     2
 73
     0
 90
        0
 40
-0.6
 41
-30.0
 62
     5
 63
     7
 74
     1
 91
        4
 64
     7
 65
   257
 75
     1
175
     1
 42
1.0
 92
        0
 66
   257
 43
1.0
 76
     1
 77
     6
 78
     2
 67
     7
 79
     5
170
     0
171
     0
290
     0
174
     0
 93
        1
 44
0.0
173
     0
291
     0
 45
0.0
1001
ACAD
1000
AcDbSavedByObjectVersion
1070
     0
  0
VISUALSTYLE
  5
2F
102
{ACAD_REACTORS
330
28
102
}
330
28
100
AcDbVisualStyle
  2
3D Hidden
 70
     6
 71
     1
 72
     2
 73
     2
 90
        0
 40
-0.6
 41
-30.0
 62
     5
 63
     7
 74
     2
 91
        2
 64
     7
 65
   257
 75
     2
175
     1
 42
40.0
 92
        0
 66
   257
 43
1.0
 76
     1
 77
     6
 78
     2
 67
     7
 79
     3
170
     0
171
     0
290
     0
174
     0
 93
        1
 44
0.0
173
     0
291
     0
 45
0.0
1001
ACAD
1000
AcDbSavedByObjectVersion
1070
     0
  0
VISUALSTYLE
  5
2E
102
{ACAD_REACTORS
330
28
102
}
330
28
100
AcDbVisualStyle
  2
3dWireframe
 70
     5
 71
     0
 72
     2
 73
     0
 90
        0
 40
-0.6
 41
-30.0
 62
     5
 63
     7
 74
     1
 91
        4
 64
     7
 65
   257
 75
     1
175
     1
 42
1.0
 92
        0
 66
   257
 43
1.0
 76
     1
 77
     6
 78
     2
 67
     7
 79
     5
170
     0
171
     0
290
     0
174
     0
 93
        1
 44
0.0
173
     0
291
     0
 45
0.0
1001
ACAD
1000
AcDbSavedByObjectVersion
1070
     0
  0
VISUALSTYLE
  5
30
102
{ACAD_REACTORS
330
28
102
}
330
28
100
AcDbVisualStyle
  2
Basic
 70
     7
 71
     1
 72
     0
 73
     1
 90
        0
 40
-0.6
 41
-30.0
 62
     5
 63
     7
 74
     0
 91
        4
 64
     7
 65
   257
 75
     1
175
     1
 42
1.0
 92
        8
 66
     7
 43
1.0
 76
     1
 77
     6
 78
     2
 67
     7
 79
     5
170
     0
171
     0
290
     0
174
     0
 93
        1
 44
0.0
173
     0
291
     1
 45
0.0
1001
ACAD
1000
AcDbSavedByObjectVersion
1070
     0
  0
VISUALSTYLE
  5
34
102
{ACAD_REACTORS
330
28
102
}
330
28
100
AcDbVisualStyle
  2
Brighten
 70
    12
 71
     2
 72
     2
 73
     0
 90
        0
 40
-0.6
 41
-30.0
 62
     5
 63
     7
 74
     1
 91
        4
 64
     7
 65
   257
 75
     1
175
     1
 42
1.0
 92
        8
 66
     7
 43
1.0
 76
     1
 77
     6
 78
     2
 67
     7
 79
     5
170
     0
171
     0
290
     0
174
     0
 93
        1
 44
50.0
173
     0
291
     1
 45
0.0
1001
ACAD
1000
AcDbSavedByObjectVersion
1070
     0
  0
VISUALSTYLE
  5
38
102
{ACAD_REACTORS
330
28
102
}
330
28
100
AcDbVisualStyle
  2
ColorChange
 70
    16
 71
     2
 72
     2
 73
     3
 90
        0
 40
-0.6
 41
-30.0
 62
     5
 63
     8
 74
     1
 91
        4
 64
     7
 65
   257
 75
     1
175
     1
 42
1.0
 92
        8
 66
     8
 43
1.0
 76
     1
 77
     6
 78
     2
 67
     7
 79
     5
170
     0
171
     0
290
     0
174
     0
 93
        1
 44
0.0
173
     0
291
     1
 45
0.0
1001
ACAD
1000
AcDbSavedByObjectVersion
1070
     0
  0
VISUALSTYLE
  5
32
102
{ACAD_REACTORS
330
28
102
}
330
28
100
AcDbVisualStyle
  2
Conceptual
 70
     9
 71
     3
 72
     2
 73
     0
 90
        0
 40
-0.6
 41
-30.0
 62
     5
 63
     7
 74
     2
 91
        2
 64
     7
 65
   257
 75
     1
175
     1
 42
40.0
 92
        8
 66
     7
 43
1.0
 76
     1
 77
     6
 78
     2
 67
     7
 79
     3
170
     0
171
     0
290
     0
174
     0
 93
        1
 44
0.0
173
     0
291
     0
 45
0.0
1001
ACAD
1000
AcDbSavedByObjectVersion
1070
     0
  0
VISUALSTYLE
  5
33
102
{ACAD_REACTORS
330
28
102
}
330
28
100
AcDbVisualStyle
  2
Dim
 70
    11
 71
     2
 72
     2
 73
     0
 90
        0
 40
-0.6
 41
-30.0
 62
     5
 63
     7
 74
     1
 91
        4
 64
     7
 65
   257
 75
     1
175
     1
 42
1.0
 92
        8
 66
     7
 43
1.0
 76
     1
 77
     6
 78
     2
 67
     7
 79
     5
170
     0
171
     0
290
     0
174
     0
 93
        1
 44
-50.0
173
     0
291
     1
 45
0.0
1001
ACAD
1000
AcDbSavedByObjectVersion
1070
     0
  0
VISUALSTYLE
  5
37
102
{ACAD_REACTORS
330
28
102
}
330
28
100
AcDbVisualStyle
  2
Facepattern
 70
    15
 71
     2
 72
     2
 73
     0
 90
        0
 40
-0.6
 41
-30.0
 62
     5
 63
     7
 74
     1
 91
        4
 64
     7
 65
   257
 75
     1
175
     1
 42
1.0
 92
        8
 66
     7
 43
1.0
 76
     1
 77
     6
 78
     2
 67
     7
 79
     5
170
     0
171
     0
290
     0
174
     0
 93
        1
 44
0.0
173
     0
291
     1
 45
0.0
1001
ACAD
1000
AcDbSavedByObjectVersion
1070
     0
  0
VISUALSTYLE
  5
29
102
{ACAD_REACTORS
330
28
102
}
330
28
100
AcDbVisualStyle
  2
Flat
 70
     0
 71
     2
 72
     1
 73
     1
 90
        2
 40
-0.6
 41
30.0
 62
     5
 63
     7
 74
     0
 91
        4
 64
     7
 65
   257
 75
     1
175
     1
 42
1.0
 92
        8
 66
     7
 43
1.0
 76
     1
 77
     6
 78
     2
 67
     7
 79
     5
170
     0
171
     0
290
     0
174
     0
 93
       13
 44
0.0
173
     0
291
     1
 45
0.0
1001
ACAD
1000
AcDbSavedByObjectVersion
1070
     0
  0
VISUALSTYLE
  5
2A
102
{ACAD_REACTORS
330
28
102
}
330
28
100
AcDbVisualStyle
  2
FlatWithEdges
 70
     1
 71
     2
 72
     1
 73
     1
 90
        2
 40
-0.6
 41
30.0
 62
     5
 63
     7
 74
     1
 91
        4
 64
     7
 65
   257
 75
     1
175
     1
 42
1.0
 92
        0
 66
   257
 43
1.0
 76
     1
 77
     6
 78
     2
 67
     7
 79
     5
170
     0
171
     0
290
     0
174
     0
 93
       13
 44
0.0
173
     0
291
     1
 45
0.0
1001
ACAD
1000
AcDbSavedByObjectVersion
1070
     0
  0
VISUALSTYLE
  5
2B
102
{ACAD_REACTORS
330
28
102
}
330
28
100
AcDbVisualStyle
  2
Gouraud
 70
     2
 71
     2
 72
     2
 73
     1
 90
        2
 40
-0.6
 41
30.0
 62
     5
 63
     7
 74
     0
 91
        4
 64
     7
 65
   257
 75
     1
175
     1
 42
1.0
 92
        0
 66
     7
 43
1.0
 76
     1
 77
     6
 78
     2
 67
     7
 79
     5
170
     0
171
     0
290
     0
174
     0
 93
       13
 44
0.0
173
     0
291
     1
 45
0.0
1001
ACAD
1000
AcDbSavedByObjectVersion
1070
     0
  0
VISUALSTYLE
  5
2C
102
{ACAD_REACTORS
330
28
102
}
330
28
100
AcDbVisualStyle
  2
GouraudWithEdges
 70
     3
 71
     2
 72
     2
 73
     1
 90
        2
 40
-0.6
 41
30.0
 62
     5
 63
     7
 74
     1
 91
        4
 64
     7
 65
   257
 75
     1
175
     1
 42
1.0
 92
        0
 66
   257
 43
1.0
 76
     1
 77
     6
 78
     2
 67
     7
 79
     5
170
     0
171
     0
290
     0
174
     0
 93
       13
 44
0.0
173
     0
291
     1
 45
0.0
1001
ACAD
1000
AcDbSavedByObjectVersion
1070
     0
  0
VISUALSTYLE
  5
36
102
{ACAD_REACTORS
330
28
102
}
330
28
100
AcDbVisualStyle
  2
Linepattern
 70
    14
 71
     2
 72
     2
 73
     0
 90
        0
 40
-0.6
 41
-30.0
 62
     5
 63
     7
 74
     1
 91
        4
 64
     7
 65
   257
 75
     7
175
     7
 42
1.0
 92
        8
 66
     7
 43
1.0
 76
     1
 77
     6
 78
     2
 67
     7
 79
     5
170
     0
171
     0
290
     0
174
     0
 93
        1
 44
0.0
173
     0
291
     1
 45
0.0
1001
ACAD
1000
AcDbSavedByObjectVersion
1070
     0
  0
VISUALSTYLE
  5
31
102
{ACAD_REACTORS
330
28
102
}
330
28
100
AcDbVisualStyle
  2
Realistic
 70
     8
 71
     2
 72
     2
 73
     0
 90
        0
 40
-0.6
 41
-30.0
 62
     5
 63
     7
 74
     1
 91
        0
 64
     7
 65
   257
 75
     1
175
     1
 42
1.0
 92
        8
 66
     8
 43
1.0
 76
     1
 77
     6
 78
     2
 67
     7
 79
     5
170
     0
171
     0
290
     0
174
     0
 93
       13
 44
0.0
173
     0
291
     0
 45
0.0
1001
ACAD
1000
AcDbSavedByObjectVersion
1070
     0
  0
VISUALSTYLE
  5
35
102
{ACAD_REACTORS
330
28
102
}
330
28
100
AcDbVisualStyle
  2
Thicken
 70
    13
 71
     2
 72
     2
 73
     0
 90
        0
 40
-0.6
 41
-30.0
 62
     5
 63
     7
 74
     1
 91
        4
 64
     7
 65
   257
 75
     1
175
     1
 42
1.0
 92
       12
 66
     7
 43
1.0
 76
     1
 77
     6
 78
     2
 67
     7
 79
     5
170
     0
171
     0
290
     0
174
     0
 93
        1
 44
0.0
173
     0
291
     1
 45
0.0
1001
ACAD
1000
AcDbSavedByObjectVersion
1070
     0
  0
DICTIONARYVAR
  5
366B
102
{ACAD_REACTORS
330
366A
102
}
330
366A
100
DictionaryVariables
280
     0
  1
STANDARD
  0
DICTIONARYVAR
  5
5A1B
102
{ACAD_REACTORS
330
366A
102
}
330
366A
100
DictionaryVariables
280
     0
  1
2
  0
DICTIONARYVAR
  5
5A1A
102
{ACAD_REACTORS
330
366A
102
}
330
366A
100
DictionaryVariables
280
     0
  1
2
  0
DICTIONARYVAR
  5
5A19
102
{ACAD_REACTORS
330
366A
102
}
330
366A
100
DictionaryVariables
280
     0
  1
1
  0
DICTIONARYVAR
  5
5A18
102
{ACAD_REACTORS
330
366A
102
}
330
366A
100
DictionaryVariables
280
     0
  1
0
  0
DICTIONARYVAR
  5
5A17
102
{ACAD_REACTORS
330
366A
102
}
330
366A
100
DictionaryVariables
280
     0
  1
127
  0
DICTIONARY
  5
5A89
330
1E
100
AcDbDictionary
280
     1
281
     1
  3
ACAD_XREC_ROUNDTRIP
360
5A8A
  0
DICTIONARY
  5
5A8D
330
24
100
AcDbDictionary
280
     1
281
     1
  3
ACAD_XREC_ROUNDTRIP
360
5A8E
  0
DICTIONARY
  5
5A8B
330
22
100
AcDbDictionary
280
     1
281
     1
  3
ACAD_XREC_ROUNDTRIP
360
5A8C
  0
DICTIONARY
  5
5A91
330
3511
100
AcDbDictionary
280
     1
281
     1
  3
ACAD_XREC_ROUNDTRIP
360
5A92
  0
DICTIONARY
  5
5A8F
330
3510
100
AcDbDictionary
280
     1
281
     1
  3
ACAD_XREC_ROUNDTRIP
360
5A90
  0
DICTIONARY
  5
5A93
330
3512
100
AcDbDictionary
280
     1
281
     1
  3
ACAD_XREC_ROUNDTRIP
360
5A94
  0
DICTIONARY
  5
5A95
330
3514
100
AcDbDictionary
280
     1
281
     1
  3
ACAD_XREC_ROUNDTRIP
360
5A96
  0
XRECORD
  5
5A8A
102
{ACAD_REACTORS
330
5A89
102
}
330
5A89
100
AcDbXrecord
280
     1
102
SHADEPLOT
 70
     0
102
SHADEPLOTRESLEVEL
 70
     2
102
SHADEPLOTCUSTOMDPI
 70
   300
  0
XRECORD
  5
5A8E
102
{ACAD_REACTORS
330
5A8D
102
}
330
5A8D
100
AcDbXrecord
280
     1
102
SHADEPLOT
 70
     0
102
SHADEPLOTRESLEVEL
 70
     2
102
SHADEPLOTCUSTOMDPI
 70
   300
  0
XRECORD
  5
5A8C
102
{ACAD_REACTORS
330
5A8B
102
}
330
5A8B
100
AcDbXrecord
280
     1
102
SHADEPLOT
 70
     0
102
SHADEPLOTRESLEVEL
 70
     2
102
SHADEPLOTCUSTOMDPI
 70
   300
  0
XRECORD
  5
5A92
102
{ACAD_REACTORS
330
5A91
102
}
330
5A91
100
AcDbXrecord
280
     1
102
MATERIAL
148
0.0
149
0.0
149
0.0
 93
        0
 94
       63
282
     0
 72
     1
 77
     1
171
     1
175
     1
179
     1
273
     0
  0
XRECORD
  5
5A90
102
{ACAD_REACTORS
330
5A8F
102
}
330
5A8F
100
AcDbXrecord
280
     1
102
MATERIAL
148
0.0
149
0.0
149
0.0
 93
        0
 94
       63
282
     0
 72
     1
 77
     1
171
     1
175
     1
179
     1
273
     0
  0
XRECORD
  5
5A94
102
{ACAD_REACTORS
330
5A93
102
}
330
5A93
100
AcDbXrecord
280
     1
102
MATERIAL
148
0.0
149
0.0
149
0.0
 93
        0
 94
       63
282
     0
 72
     1
 77
     1
171
     1
175
     1
179
     1
273
     0
  0
XRECORD
  5
5A96
102
{ACAD_REACTORS
330
5A95
102
}
330
5A95
100
AcDbXrecord
280
     1
102
ACAD_ROUNDTRIP_PRE2007_TABLESTYLE
 90
      512
 91
        0
  1

 92
      512
 93
        0
  2

 94
      512
 95
        0
  3

  0
ENDSEC
  0
EOF
