  0
SECTION
  2
HEADER
  9
$ACADVER
  1
AC1015
  9
$ACADMAINTVER
 70
    20
  9
$DWGCODEPAGE
  3
ANSI_936
  9
$INSBASE
 10
0.0
 20
0.0
 30
0.0
  9
$EXTMIN
 10
-232.5
 20
-349.0
 30
0.0
  9
$EXTMAX
 10
2950.325114877424
 20
3449.524926861369
 30
0.0
  9
$LIMMIN
 10
0.0
 20
0.0
  9
$LIMMAX
 10
12.0
 20
9.0
  9
$ORTHOMODE
 70
     1
  9
$REGENMODE
 70
     1
  9
$FILLMODE
 70
     1
  9
$QTEXTMODE
 70
     0
  9
$MIRRTEXT
 70
     1
  9
$LTSCALE
 40
1.0
  9
$ATTMODE
 70
     1
  9
$TEXTSIZE
 40
0.2
  9
$TRACEWID
 40
0.05
  9
$TEXTSTYLE
  7
Standard
  9
$CLAYER
  8
0
  9
$CELTYPE
  6
ByLayer
  9
$CECOLOR
 62
   256
  9
$CELTSCALE
 40
1.0
  9
$DISPSILH
 70
     0
  9
$DIMSCALE
 40
1.0
  9
$DIMASZ
 40
0.18
  9
$DIMEXO
 40
0.0625
  9
$DIMDLI
 40
0.38
  9
$DIMRND
 40
0.0
  9
$DIMDLE
 40
0.0
  9
$DIMEXE
 40
0.18
  9
$DIMTP
 40
0.0
  9
$DIMTM
 40
0.0
  9
$DIMTXT
 40
0.18
  9
$DIMCEN
 40
0.09
  9
$DIMTSZ
 40
0.0
  9
$DIMTOL
 70
     0
  9
$DIMLIM
 70
     0
  9
$DIMTIH
 70
     1
  9
$DIMTOH
 70
     1
  9
$DIMSE1
 70
     0
  9
$DIMSE2
 70
     0
  9
$DIMTAD
 70
     0
  9
$DIMZIN
 70
     0
  9
$DIMBLK
  1

  9
$DIMASO
 70
     1
  9
$DIMSHO
 70
     1
  9
$DIMPOST
  1

  9
$DIMAPOST
  1

  9
$DIMALT
 70
     0
  9
$DIMALTD
 70
     2
  9
$DIMALTF
 40
25.4
  9
$DIMLFAC
 40
1.0
  9
$DIMTOFL
 70
     0
  9
$DIMTVP
 40
0.0
  9
$DIMTIX
 70
     0
  9
$DIMSOXD
 70
     0
  9
$DIMSAH
 70
     0
  9
$DIMBLK1
  1

  9
$DIMBLK2
  1

  9
$DIMSTYLE
  2
Standard
  9
$DIMCLRD
 70
     0
  9
$DIMCLRE
 70
     0
  9
$DIMCLRT
 70
     0
  9
$DIMTFAC
 40
1.0
  9
$DIMGAP
 40
0.09
  9
$DIMJUST
 70
     0
  9
$DIMSD1
 70
     0
  9
$DIMSD2
 70
     0
  9
$DIMTOLJ
 70
     1
  9
$DIMTZIN
 70
     0
  9
$DIMALTZ
 70
     0
  9
$DIMALTTZ
 70
     0
  9
$DIMUPT
 70
     0
  9
$DIMDEC
 70
     4
  9
$DIMTDEC
 70
     4
  9
$DIMALTU
 70
     2
  9
$DIMALTTD
 70
     2
  9
$DIMTXSTY
  7
Standard
  9
$DIMAUNIT
 70
     0
  9
$DIMADEC
 70
     0
  9
$DIMALTRND
 40
0.0
  9
$DIMAZIN
 70
     0
  9
$DIMDSEP
 70
    46
  9
$DIMATFIT
 70
     3
  9
$DIMFRAC
 70
     0
  9
$DIMLDRBLK
  1

  9
$DIMLUNIT
 70
     2
  9
$DIMLWD
 70
    -2
  9
$DIMLWE
 70
    -2
  9
$DIMTMOVE
 70
     0
  9
$LUNITS
 70
     2
  9
$LUPREC
 70
     4
  9
$SKETCHINC
 40
0.1
  9
$FILLETRAD
 40
0.0
  9
$AUNITS
 70
     0
  9
$AUPREC
 70
     0
  9
$MENU
  1
.
  9
$ELEVATION
 40
0.0
  9
$PELEVATION
 40
0.0
  9
$THICKNESS
 40
0.0
  9
$LIMCHECK
 70
     0
  9
$CHAMFERA
 40
0.5
  9
$CHAMFERB
 40
0.5
  9
$CHAMFERC
 40
1.0
  9
$CHAMFERD
 40
0.0
  9
$SKPOLY
 70
     0
  9
$TDCREATE
 40
2455841.606800220
  9
$TDUCREATE
 40
2455841.273466887
  9
$TDUPDATE
 40
2459756.664684109
  9
$TDUUPDATE
 40
2459756.331350775
  9
$TDINDWG
 40
0.0355152546
  9
$TDUSRTIMER
 40
0.0355152546
  9
$USRTIMER
 70
     1
  9
$ANGBASE
 50
0.0
  9
$ANGDIR
 70
     0
  9
$PDMODE
 70
     0
  9
$PDSIZE
 40
0.0
  9
$PLINEWID
 40
0.0
  9
$SPLFRAME
 70
     0
  9
$SPLINETYPE
 70
     6
  9
$SPLINESEGS
 70
     8
  9
$HANDSEED
  5
5A3A
  9
$SURFTAB1
 70
     6
  9
$SURFTAB2
 70
     6
  9
$SURFTYPE
 70
     6
  9
$SURFU
 70
     6
  9
$SURFV
 70
     6
  9
$UCSBASE
  2

  9
$UCSNAME
  2

  9
$UCSORG
 10
0.0
 20
0.0
 30
0.0
  9
$UCSXDIR
 10
1.0
 20
0.0
 30
0.0
  9
$UCSYDIR
 10
0.0
 20
1.0
 30
0.0
  9
$UCSORTHOREF
  2

  9
$UCSORTHOVIEW
 70
     0
  9
$UCSORGTOP
 10
0.0
 20
0.0
 30
0.0
  9
$UCSORGBOTTOM
 10
0.0
 20
0.0
 30
0.0
  9
$UCSORGLEFT
 10
0.0
 20
0.0
 30
0.0
  9
$UCSORGRIGHT
 10
0.0
 20
0.0
 30
0.0
  9
$UCSORGFRONT
 10
0.0
 20
0.0
 30
0.0
  9
$UCSORGBACK
 10
0.0
 20
0.0
 30
0.0
  9
$PUCSBASE
  2

  9
$PUCSNAME
  2

  9
$PUCSORG
 10
0.0
 20
0.0
 30
0.0
  9
$PUCSXDIR
 10
1.0
 20
0.0
 30
0.0
  9
$PUCSYDIR
 10
0.0
 20
1.0
 30
0.0
  9
$PUCSORTHOREF
  2

  9
$PUCSORTHOVIEW
 70
     0
  9
$PUCSORGTOP
 10
0.0
 20
0.0
 30
0.0
  9
$PUCSORGBOTTOM
 10
0.0
 20
0.0
 30
0.0
  9
$PUCSORGLEFT
 10
0.0
 20
0.0
 30
0.0
  9
$PUCSORGRIGHT
 10
0.0
 20
0.0
 30
0.0
  9
$PUCSORGFRONT
 10
0.0
 20
0.0
 30
0.0
  9
$PUCSORGBACK
 10
0.0
 20
0.0
 30
0.0
  9
$USERI1
 70
     0
  9
$USERI2
 70
     0
  9
$USERI3
 70
     0
  9
$USERI4
 70
     0
  9
$USERI5
 70
     0
  9
$USERR1
 40
0.0
  9
$USERR2
 40
0.0
  9
$USERR3
 40
0.0
  9
$USERR4
 40
0.0
  9
$USERR5
 40
0.0
  9
$WORLDVIEW
 70
     1
  9
$SHADEDGE
 70
     3
  9
$SHADEDIF
 70
    70
  9
$TILEMODE
 70
     1
  9
$MAXACTVP
 70
    64
  9
$PINSBASE
 10
0.0
 20
0.0
 30
0.0
  9
$PLIMCHECK
 70
     0
  9
$PEXTMIN
 10
1.000000000000000E+20
 20
1.000000000000000E+20
 30
1.000000000000000E+20
  9
$PEXTMAX
 10
-1.000000000000000E+20
 20
-1.000000000000000E+20
 30
-1.000000000000000E+20
  9
$PLIMMIN
 10
0.0
 20
0.0
  9
$PLIMMAX
 10
12.0
 20
9.0
  9
$UNITMODE
 70
     0
  9
$VISRETAIN
 70
     1
  9
$PLINEGEN
 70
     0
  9
$PSLTSCALE
 70
     1
  9
$TREEDEPTH
 70
  3020
  9
$CMLSTYLE
  2
Standard
  9
$CMLJUST
 70
     0
  9
$CMLSCALE
 40
1.0
  9
$PROXYGRAPHICS
 70
     1
  9
$MEASUREMENT
 70
     0
  9
$CELWEIGHT
370
    -1
  9
$ENDCAPS
280
     0
  9
$JOINSTYLE
280
     0
  9
$LWDISPLAY
290
     0
  9
$INSUNITS
 70
     1
  9
$HYPERLINKBASE
  1

  9
$STYLESHEET
  1
Monochrome.ctb
  9
$XEDIT
290
     1
  9
$CEPSNTYPE
380
     0
  9
$PSTYLEMODE
290
     1
  9
$FINGERPRINTGUID
  2
{168A8766-4015-4ABD-915A-AD1ECBE2E3C2}
  9
$VERSIONGUID
  2
{327FF399-20EE-4A8E-A217-9B0FDA9E6F92}
  9
$EXTNAMES
290
     1
  9
$PSVPSCALE
 40
0.0
  9
$OLESTARTUP
290
     0
  0
ENDSEC
  0
SECTION
  2
CLASSES
  0
CLASS
  1
ACDBDICTIONARYWDFLT
  2
AcDbDictionaryWithDefault
  3
ObjectDBX Classes
 90
        0
280
     0
281
     0
  0
CLASS
  1
VISUALSTYLE
  2
AcDbVisualStyle
  3
ObjectDBX Classes
 90
     4095
280
     0
281
     0
  0
CLASS
  1
DIMASSOC
  2
AcDbDimAssoc
  3
"AcDbDimAssoc|Product Desc:     AcDim ARX App For Dimension|Company:          Autodesk, Inc.|WEB Address:      www.autodesk.com"
 90
    32768
280
     0
281
     0
  0
CLASS
  1
MATERIAL
  2
AcDbMaterial
  3
ObjectDBX Classes
 90
     1024
280
     0
281
     0
  0
CLASS
  1
TABLESTYLE
  2
AcDbTableStyle
  3
ObjectDBX Classes
 90
     4095
280
     0
281
     0
  0
CLASS
  1
DICTIONARYVAR
  2
AcDbDictionaryVar
  3
ObjectDBX Classes
 90
        0
280
     0
281
     0
  0
CLASS
  1
SORTENTSTABLE
  2
AcDbSortentsTable
  3
ObjectDBX Classes
 90
    32768
280
     0
281
     0
  0
CLASS
  1
IMAGEDEF_REACTOR
  2
AcDbRasterImageDefReactor
  3
ISM
 90
    32769
280
     0
281
     0
  0
CLASS
  1
IMAGEDEF
  2
AcDbRasterImageDef
  3
ISM
 90
        0
280
     0
281
     0
  0
CLASS
  1
IMAGE
  2
AcDbRasterImage
  3
ISM
 90
    34943
280
     0
281
     1
  0
CLASS
  1
RASTERVARIABLES
  2
AcDbRasterVariables
  3
ISM
 90
        0
280
     0
281
     0
  0
CLASS
  1
ACDBPLACEHOLDER
  2
AcDbPlaceHolder
  3
ObjectDBX Classes
 90
        0
280
     0
281
     0
  0
CLASS
  1
LAYOUT
  2
AcDbLayout
  3
ObjectDBX Classes
 90
        0
280
     0
281
     0
  0
ENDSEC
  0
SECTION
  2
TABLES
  0
TABLE
  2
VPORT
  5
8
330
0
100
AcDbSymbolTable
 70
     1
  0
VPORT
  5
27
330
8
100
AcDbSymbolTableRecord
100
AcDbViewportTableRecord
  2
*Active
 70
     0
 10
0.0
 20
0.0
 11
1.0
 21
1.0
 12
760.5334019599504
 22
496.4446098060597
 13
0.0
 23
0.0
 14
0.5
 24
0.5
 15
0.5
 25
0.5
 16
0.0
 26
0.0
 36
1.0
 17
0.0
 27
0.0
 37
0.0
 40
820.0915216198097
 41
2.294999999999999
 42
50.0
 43
0.0
 44
0.0
 50
0.0
 51
0.0
 71
     0
 72
   100
 73
     1
 74
     3
 75
     1
 76
     0
 77
     0
 78
     0
281
     0
 65
     1
110
0.0
120
0.0
130
0.0
111
1.0
121
0.0
131
0.0
112
0.0
122
1.0
132
0.0
 79
     0
146
0.0
  0
ENDTAB
  0
TABLE
  2
LTYPE
  5
5
330
0
100
AcDbSymbolTable
 70
     6
  0
LTYPE
  5
14
330
5
100
AcDbSymbolTableRecord
100
AcDbLinetypeTableRecord
  2
ByBlock
 70
     0
  3

 72
    65
 73
     0
 40
0.0
  0
LTYPE
  5
15
330
5
100
AcDbSymbolTableRecord
100
AcDbLinetypeTableRecord
  2
ByLayer
 70
     0
  3

 72
    65
 73
     0
 40
0.0
  0
LTYPE
  5
16
330
5
100
AcDbSymbolTableRecord
100
AcDbLinetypeTableRecord
  2
Continuous
 70
     0
  3
Solid line
 72
    65
 73
     0
 40
0.0
  0
LTYPE
  5
5B
330
5
100
AcDbSymbolTableRecord
100
AcDbLinetypeTableRecord
  2
CENTERX2
 70
     0
  3
Center (2x) ________  __  ________  __  _____
 72
    65
 73
     4
 40
101.6
 49
63.5
 74
     4
 75
     0
340
0
 46
1.0
 50
0.0
 44
0.0
 45
0.0
 49
-12.7
 74
     4
 75
     0
340
0
 46
1.0
 50
0.0
 44
0.0
 45
0.0
 49
12.7
 74
     4
 75
     0
340
0
 46
1.0
 50
0.0
 44
0.0
 45
0.0
 49
-12.7
 74
     4
 75
     0
340
0
 46
1.0
 50
0.0
 44
0.0
 45
0.0
  0
LTYPE
  5
192
330
5
100
AcDbSymbolTableRecord
100
AcDbLinetypeTableRecord
  2
CENTER
 70
     0
  3
Center ____ _ ____ _ ____ _ ____ _ ____ _ ____
 72
    65
 73
     4
 40
50.8
 49
31.75
 74
     4
 75
     0
340
0
 46
1.0
 50
0.0
 44
0.0
 45
0.0
 49
-6.349999999999999
 74
     4
 75
     0
340
0
 46
1.0
 50
0.0
 44
0.0
 45
0.0
 49
6.349999999999999
 74
     4
 75
     0
340
0
 46
1.0
 50
0.0
 44
0.0
 45
0.0
 49
-6.349999999999999
 74
     4
 75
     0
340
0
 46
1.0
 50
0.0
 44
0.0
 45
0.0
  0
LTYPE
  5
112E
330
5
100
AcDbSymbolTableRecord
100
AcDbLinetypeTableRecord
  2
DASHED
 70
     0
  3
Dashed __ __ __ __ __ __ __ __ __ __ __ __ __ _
 72
    65
 73
     2
 40
19.05
 49
12.7
 74
     4
 75
     0
340
0
 46
1.0
 50
0.0
 44
0.0
 45
0.0
 49
-6.349999999999999
 74
     4
 75
     0
340
0
 46
1.0
 50
0.0
 44
0.0
 45
0.0
  0
LTYPE
  5
121B
330
5
100
AcDbSymbolTableRecord
100
AcDbLinetypeTableRecord
  2
ACAD_ISO02W100
 70
     0
  3
ISO dash __ __ __ __ __ __ __ __ __ __ __ __ __
 72
    65
 73
     2
 40
15.0
 49
12.0
 74
     4
 75
     0
340
0
 46
1.0
 50
0.0
 44
0.0
 45
0.0
 49
-3.0
 74
     4
 75
     0
340
0
 46
1.0
 50
0.0
 44
0.0
 45
0.0
  0
LTYPE
  5
121C
330
5
100
AcDbSymbolTableRecord
100
AcDbLinetypeTableRecord
  2
DIVIDE
 70
     0
  3
Divide ____ . . ____ . . ____ . . ____ . . ____
 72
    65
 73
     6
 40
31.75
 49
12.7
 74
     4
 75
     0
340
0
 46
1.0
 50
0.0
 44
0.0
 45
0.0
 49
-6.349999999999999
 74
     4
 75
     0
340
0
 46
1.0
 50
0.0
 44
0.0
 45
0.0
 49
0.0
 74
     4
 75
     0
340
0
 46
1.0
 50
0.0
 44
0.0
 45
0.0
 49
-6.349999999999999
 74
     4
 75
     0
340
0
 46
1.0
 50
0.0
 44
0.0
 45
0.0
 49
0.0
 74
     4
 75
     0
340
0
 46
1.0
 50
0.0
 44
0.0
 45
0.0
 49
-6.349999999999999
 74
     4
 75
     0
340
0
 46
1.0
 50
0.0
 44
0.0
 45
0.0
  0
ENDTAB
  0
TABLE
  2
LAYER
  5
2
102
{ACAD_XDICTIONARY
360
36E2
102
}
330
0
100
AcDbSymbolTable
 70
    18
  0
LAYER
  5
10
330
2
100
AcDbSymbolTableRecord
100
AcDbLayerTableRecord
  2
0
 70
     0
 62
     7
  6
Continuous
370
    -3
390
F
  0
LAYER
  5
5C
330
2
100
AcDbSymbolTableRecord
100
AcDbLayerTableRecord
  2
粗实线
 70
     0
 62
     7
  6
Continuous
370
    30
390
F
1001
AcAecLayerStandard
1000

1000

  0
LAYER
  5
5D
330
2
100
AcDbSymbolTableRecord
100
AcDbLayerTableRecord
  2
中心线
 70
     0
 62
     1
  6
CENTERX2
370
    15
390
F
1001
AcAecLayerStandard
1000

1000

  0
LAYER
  5
5E
330
2
100
AcDbSymbolTableRecord
100
AcDbLayerTableRecord
  2
标注
 70
     0
 62
     4
  6
Continuous
370
    15
390
F
1001
AcAecLayerStandard
1000

1000

  0
LAYER
  5
5F
330
2
100
AcDbSymbolTableRecord
100
AcDbLayerTableRecord
  2
Defpoints
 70
     0
 62
     7
  6
Continuous
290
     0
370
    -3
390
F
  0
LAYER
  5
118
330
2
100
AcDbSymbolTableRecord
100
AcDbLayerTableRecord
  2
图层1粗线
 70
     0
 62
     7
  6
Continuous
370
    -3
390
F
1001
AcAecLayerStandard
1000

1000

  0
LAYER
  5
193
330
2
100
AcDbSymbolTableRecord
100
AcDbLayerTableRecord
  2
细实线
 70
     0
 62
     3
  6
Continuous
370
    15
390
F
1001
AcAecLayerStandard
1000

1000

  0
LAYER
  5
357
330
2
100
AcDbSymbolTableRecord
100
AcDbLayerTableRecord
  2
图层2
 70
     0
 62
     7
  6
Continuous
370
    30
390
F
1001
AcAecLayerStandard
1000

1000

  0
LAYER
  5
358
330
2
100
AcDbSymbolTableRecord
100
AcDbLayerTableRecord
  2
图层3
 70
     0
 62
     7
  6
Continuous
370
    18
390
F
1001
AcAecLayerStandard
1000

1000

  0
LAYER
  5
4E7
330
2
100
AcDbSymbolTableRecord
100
AcDbLayerTableRecord
  2
文字
 70
     0
 62
     1
  6
Continuous
370
    15
390
F
1001
AcAecLayerStandard
1000

1000

  0
LAYER
  5
4E8
330
2
100
AcDbSymbolTableRecord
100
AcDbLayerTableRecord
  2
不可见
 70
     0
 62
     2
  6
Continuous
290
     0
370
    15
390
F
1001
AcAecLayerStandard
1000

1000

  0
LAYER
  5
4E9
330
2
100
AcDbSymbolTableRecord
100
AcDbLayerTableRecord
  2
图层2细线
 70
     0
 62
     3
  6
Continuous
370
    -3
390
F
1001
AcAecLayerStandard
1000

1000

  0
LAYER
  5
4EA
330
2
100
AcDbSymbolTableRecord
100
AcDbLayerTableRecord
  2
图框线
 70
     0
 62
     7
  6
Continuous
370
    13
390
F
1001
AcAecLayerStandard
1000

1000

  0
LAYER
  5
4EB
330
2
100
AcDbSymbolTableRecord
100
AcDbLayerTableRecord
  2
图层 1
 70
     0
 62
     7
  6
Continuous
370
    -3
390
F
  0
LAYER
  5
112F
330
2
100
AcDbSymbolTableRecord
100
AcDbLayerTableRecord
  2
图层1
 70
     0
 62
     7
  6
DASHED
370
    25
390
F
1001
AcAecLayerStandard
1000

1000

  0
LAYER
  5
121D
330
2
100
AcDbSymbolTableRecord
100
AcDbLayerTableRecord
  2
虚线
 70
     0
 62
     2
  6
ACAD_ISO02W100
370
    15
390
F
1001
AcAecLayerStandard
1000

1000

  0
LAYER
  5
121E
330
2
100
AcDbSymbolTableRecord
100
AcDbLayerTableRecord
  2
剖切线
 70
     0
 62
   241
  6
Continuous
370
    15
390
F
1001
AcAecLayerStandard
1000

1000

  0
LAYER
  5
501C
330
2
100
AcDbSymbolTableRecord
100
AcDbLayerTableRecord
  2
点划线
 70
     0
 62
     4
  6
CENTERX2
370
    13
390
F
1001
AcAecLayerStandard
1000

1000

  0
ENDTAB
  0
TABLE
  2
STYLE
  5
3
330
0
100
AcDbSymbolTable
 70
     5
  0
STYLE
  5
11
330
3
100
AcDbSymbolTableRecord
100
AcDbTextStyleTableRecord
  2
Standard
 70
     0
 40
0.0
 41
1.0
 50
0.0
 71
     0
 42
0.2
  3
txt
  4

  0
STYLE
  5
5A
330
3
100
AcDbSymbolTableRecord
100
AcDbTextStyleTableRecord
  2
样式 8
 70
     0
 40
10.0
 41
0.7
 50
0.0
 71
     0
 42
10.0
  3
txt.shx
  4
gbcbig.shx
  0
STYLE
  5
117
330
3
100
AcDbSymbolTableRecord
100
AcDbTextStyleTableRecord
  2
样式 1
 70
     0
 40
5.0
 41
1.0
 50
0.0
 71
     0
 42
5.0
  3
txt.shx
  4
gbcbig.shx
  0
STYLE
  5
356
330
3
100
AcDbSymbolTableRecord
100
AcDbTextStyleTableRecord
  2
样式 2
 70
     0
 40
0.0
 41
0.35
 50
0.0
 71
     0
 42
2.5
  3
txt.shx
  4
gbcbig.shx
  0
STYLE
  5
4E6
330
3
100
AcDbSymbolTableRecord
100
AcDbTextStyleTableRecord
  2
样式 3
 70
     0
 40
3.5
 41
0.7
 50
0.0
 71
     0
 42
5.0
  3
txt.shx
  4
gbcbig.shx
  0
ENDTAB
  0
TABLE
  2
VIEW
  5
6
330
0
100
AcDbSymbolTable
 70
     0
  0
ENDTAB
  0
TABLE
  2
UCS
  5
7
330
0
100
AcDbSymbolTable
 70
     0
  0
ENDTAB
  0
TABLE
  2
APPID
  5
9
330
0
100
AcDbSymbolTable
 70
    48
  0
APPID
  5
12
330
9
100
AcDbSymbolTableRecord
100
AcDbRegAppTableRecord
  2
ACAD
 70
     0
  0
APPID
  5
3B
330
9
100
AcDbSymbolTableRecord
100
AcDbRegAppTableRecord
  2
ACAD_PSEXT
 70
     0
  0
APPID
  5
3C
330
9
100
AcDbSymbolTableRecord
100
AcDbRegAppTableRecord
  2
AcAecLayerStandard
 70
     0
  0
APPID
  5
3D
330
9
100
AcDbSymbolTableRecord
100
AcDbRegAppTableRecord
  2
ACAD_DSTYLE_DIMTEXT_FILL
 70
     0
  0
APPID
  5
3E
330
9
100
AcDbSymbolTableRecord
100
AcDbRegAppTableRecord
  2
DCO15
 70
     0
  0
APPID
  5
3F
330
9
100
AcDbSymbolTableRecord
100
AcDbRegAppTableRecord
  2
ACAD_DSTYLE_DIMEXT_LENGTH
 70
     0
  0
APPID
  5
40
330
9
100
AcDbSymbolTableRecord
100
AcDbRegAppTableRecord
  2
ACAD_DSTYLE_DIMEXT_ENABLED
 70
     0
  0
APPID
  5
41
330
9
100
AcDbSymbolTableRecord
100
AcDbRegAppTableRecord
  2
ACAD_DSTYLE_DIM_LINETYPE
 70
     0
  0
APPID
  5
42
330
9
100
AcDbSymbolTableRecord
100
AcDbRegAppTableRecord
  2
ACAD_DSTYLE_DIM_EXT1_LINETYPE
 70
     0
  0
APPID
  5
43
330
9
100
AcDbSymbolTableRecord
100
AcDbRegAppTableRecord
  2
ACAD_DSTYLE_DIM_EXT2_LINETYPE
 70
     0
  0
APPID
  5
44
330
9
100
AcDbSymbolTableRecord
100
AcDbRegAppTableRecord
  2
ACAD_EXEMPT_FROM_CAD_STANDARDS
 70
     0
  0
APPID
  5
45
330
9
100
AcDbSymbolTableRecord
100
AcDbRegAppTableRecord
  2
AcadAnnoPO
 70
     0
  0
APPID
  5
46
330
9
100
AcDbSymbolTableRecord
100
AcDbRegAppTableRecord
  2
AcadAnnotative
 70
     0
  0
APPID
  5
47
330
9
100
AcDbSymbolTableRecord
100
AcDbRegAppTableRecord
  2
ACAD_DSTYLE_DIMJAG
 70
     0
  0
APPID
  5
48
330
9
100
AcDbSymbolTableRecord
100
AcDbRegAppTableRecord
  2
ACAD_DSTYLE_DIMTALN
 70
     0
  0
APPID
  5
49
330
9
100
AcDbSymbolTableRecord
100
AcDbRegAppTableRecord
  2
ACAD_MLEADERVER
 70
     0
  0
APPID
  5
4A
330
9
100
AcDbSymbolTableRecord
100
AcDbRegAppTableRecord
  2
ACAD_DSTYLE_DIMRADIAL_EXTENSION
 70
     0
  0
APPID
  5
4B
330
9
100
AcDbSymbolTableRecord
100
AcDbRegAppTableRecord
  2
ACAD_DSTYLE_DIMBREAK
 70
     0
  0
APPID
  5
4C
330
9
100
AcDbSymbolTableRecord
100
AcDbRegAppTableRecord
  2
ACAD_DSTYLE_DIMARC_LENGTH_SYMBOL
 70
     0
  0
APPID
  5
4D
330
9
100
AcDbSymbolTableRecord
100
AcDbRegAppTableRecord
  2
ACAD_DSTYLE_DIMJOGGED_JOGANGLE_SYMBOL
 70
     0
  0
APPID
  5
4E
330
9
100
AcDbSymbolTableRecord
100
AcDbRegAppTableRecord
  2
MCAD_NO_VIS
 70
     0
  0
APPID
  5
4F
330
9
100
AcDbSymbolTableRecord
100
AcDbRegAppTableRecord
  2
ACAD_TEMP_GRAPHIC
 70
     0
  0
APPID
  5
50
330
9
100
AcDbSymbolTableRecord
100
AcDbRegAppTableRecord
  2
AD_DRAW
 70
     0
  0
APPID
  5
51
330
9
100
AcDbSymbolTableRecord
100
AcDbRegAppTableRecord
  2
ACATTRIBSERVICES
 70
     0
  0
APPID
  5
52
330
9
100
AcDbSymbolTableRecord
100
AcDbRegAppTableRecord
  2
DESIGNERASSEMBLIES
 70
     0
  0
APPID
  5
53
330
9
100
AcDbSymbolTableRecord
100
AcDbRegAppTableRecord
  2
ACADM_DIM_EDIT
 70
     0
  0
APPID
  5
54
330
9
100
AcDbSymbolTableRecord
100
AcDbRegAppTableRecord
  2
AMDT_DM_ADJ
 70
     0
  0
APPID
  5
55
330
9
100
AcDbSymbolTableRecord
100
AcDbRegAppTableRecord
  2
GENIUS_GENODEF_13
 70
     0
  0
APPID
  5
56
330
9
100
AcDbSymbolTableRecord
100
AcDbRegAppTableRecord
  2
GENIUS_GENOBJ-N-FIL_13
 70
     0
  0
APPID
  5
57
330
9
100
AcDbSymbolTableRecord
100
AcDbRegAppTableRecord
  2
ACAD_DIMASSOC_CALC_DIMLFAC
 70
     0
  0
APPID
  5
58
330
9
100
AcDbSymbolTableRecord
100
AcDbRegAppTableRecord
  2
ACAD_DIMASSOC_DIMLFAC
 70
     0
  0
APPID
  5
59
330
9
100
AcDbSymbolTableRecord
100
AcDbRegAppTableRecord
  2
ACAD_DIMASSOC_OVERRIDDEN_DIMLFAC
 70
     0
  0
APPID
  5
4E5
330
9
100
AcDbSymbolTableRecord
100
AcDbRegAppTableRecord
  2
CAXA
 70
     0
  0
APPID
  5
1BF7
330
9
100
AcDbSymbolTableRecord
100
AcDbRegAppTableRecord
  2
AVE_RENDER
 70
     0
  0
APPID
  5
1BF8
330
9
100
AcDbSymbolTableRecord
100
AcDbRegAppTableRecord
  2
AVE_ENTITY_MATERIAL
 70
     0
  0
APPID
  5
1BF9
330
9
100
AcDbSymbolTableRecord
100
AcDbRegAppTableRecord
  2
AVE_FINISH
 70
     0
  0
APPID
  5
1BFA
330
9
100
AcDbSymbolTableRecord
100
AcDbRegAppTableRecord
  2
AVE_MATERIAL
 70
     0
  0
APPID
  5
1BFB
330
9
100
AcDbSymbolTableRecord
100
AcDbRegAppTableRecord
  2
AVE_GLOBAL
 70
     0
  0
APPID
  5
1BFC
330
9
100
AcDbSymbolTableRecord
100
AcDbRegAppTableRecord
  2
GENIUS_GENBLLY_14
 70
     0
  0
APPID
  5
1BFD
330
9
100
AcDbSymbolTableRecord
100
AcDbRegAppTableRecord
  2
ODA
 70
     0
  0
APPID
  5
1BFE
330
9
100
AcDbSymbolTableRecord
100
AcDbRegAppTableRecord
  2
RAK
 70
     0
  0
APPID
  5
1BFF
330
9
100
AcDbSymbolTableRecord
100
AcDbRegAppTableRecord
  2
AcDbDynamicBlockGUID
 70
     0
  0
APPID
  5
1C00
330
9
100
AcDbSymbolTableRecord
100
AcDbRegAppTableRecord
  2
AcDbBlockRepETag
 70
     0
  0
APPID
  5
1C01
330
9
100
AcDbSymbolTableRecord
100
AcDbRegAppTableRecord
  2
ACAUTHENVIRON
 70
     0
  0
APPID
  5
1C02
330
9
100
AcDbSymbolTableRecord
100
AcDbRegAppTableRecord
  2
AcDbDynamicBlockTrueName
 70
     0
  0
APPID
  5
501B
330
9
100
AcDbSymbolTableRecord
100
AcDbRegAppTableRecord
  2
AcDbAttr
 70
     0
  0
APPID
  5
577A
330
9
100
AcDbSymbolTableRecord
100
AcDbRegAppTableRecord
  2
AcDbBlockRepBTag
 70
     0
  0
APPID
  5
5938
330
9
100
AcDbSymbolTableRecord
100
AcDbRegAppTableRecord
  2
AcadStringInfo
 70
     0
  0
ENDTAB
  0
TABLE
  2
DIMSTYLE
  5
A
330
0
100
AcDbSymbolTable
 70
     7
100
AcDbDimStyleTable
 71
     0
  0
DIMSTYLE
105
25
330
A
100
AcDbSymbolTableRecord
100
AcDbDimStyleTableRecord
  2
Standard
 70
     0
340
11
  0
DIMSTYLE
105
60
330
A
100
AcDbSymbolTableRecord
100
AcDbDimStyleTableRecord
  2
副本 (3) ISO-25 4
 70
     0
 41
14.0
 42
0.0
 43
10.0
 44
6.0
 73
     0
 74
     0
 77
     1
 78
     8
140
20.0
141
7.5
143
0.03937007874016
147
1.5
171
     3
172
     1
271
     1
272
     1
274
     3
283
     0
284
     8
340
11
  0
DIMSTYLE
105
119
330
A
100
AcDbSymbolTableRecord
100
AcDbDimStyleTableRecord
  2
副本 ISO-25
 70
     0
 41
12.0
 42
0.0
 43
10.0
 44
5.0
 73
     0
 74
     0
 77
     1
 78
     8
140
18.0
141
1.5
143
0.03937007874016
147
1.5
171
     3
172
     1
271
     1
272
     1
274
     3
278
    44
283
     0
284
     8
340
11
  0
DIMSTYLE
105
359
330
A
100
AcDbSymbolTableRecord
100
AcDbDimStyleTableRecord
  2
ISO-25
 70
     0
 41
17.0
 42
3.0
 43
3.75
 44
1.25
 73
     0
 77
     1
 78
     8
140
19.0
141
80.0
143
0.03937007874016
147
7.0
170
     1
171
     3
172
     1
271
     2
272
     2
273
     7
274
     3
283
     0
284
     8
340
11
  0
DIMSTYLE
105
4EC
330
A
100
AcDbSymbolTableRecord
100
AcDbDimStyleTableRecord
  2
英寸
 70
     0
 41
12.0
 42
0.0
 43
10.0
 44
3.75
 73
     0
 74
     0
 77
     1
 78
     8
140
16.0
141
7.5
143
0.03937007874016
147
2.0
170
     1
171
     3
172
     1
179
     1
271
     1
272
     1
273
     7
274
     3
283
     0
284
     8
340
11
  0
DIMSTYLE
105
4E49
330
A
100
AcDbSymbolTableRecord
100
AcDbDimStyleTableRecord
  2
LXF
 70
     0
 41
18.0
 42
0.0
 43
10.0
 44
2.5
 73
     0
 74
     0
 77
     1
 78
     8
140
20.0
141
0.0
143
0.03937007874016
147
3.0
171
     3
172
     1
178
     6
179
     1
271
     1
272
     1
274
     3
283
     0
284
     8
340
11
  0
DIMSTYLE
105
513E
330
A
100
AcDbSymbolTableRecord
100
AcDbDimStyleTableRecord
  2
FD1026
 70
     0
 41
8.0
 42
0.5
 43
1.0
 44
2.0
 73
     0
 74
     0
 77
     1
 78
     8
140
13.0
141
0.0
143
0.03937007874016
147
2.0
171
     3
172
     1
176
   256
177
   256
178
     6
271
     2
272
     2
274
     3
283
     0
284
     8
340
11
371
    -1
372
    -1
  0
ENDTAB
  0
TABLE
  2
BLOCK_RECORD
  5
1
330
0
100
AcDbSymbolTable
 70
    29
  0
BLOCK_RECORD
  5
1F
330
1
100
AcDbSymbolTableRecord
100
AcDbBlockTableRecord
  2
*Model_Space
340
22
  0
BLOCK_RECORD
  5
1B
330
1
100
AcDbSymbolTableRecord
100
AcDbBlockTableRecord
  2
*Paper_Space
340
1E
  0
BLOCK_RECORD
  5
23
330
1
100
AcDbSymbolTableRecord
100
AcDbBlockTableRecord
  2
*Paper_Space0
340
24
  0
BLOCK_RECORD
  5
53AE
330
1
100
AcDbSymbolTableRecord
100
AcDbBlockTableRecord
  2
*D1
340
0
  0
BLOCK_RECORD
  5
53BB
330
1
100
AcDbSymbolTableRecord
100
AcDbBlockTableRecord
  2
*D2
340
0
  0
BLOCK_RECORD
  5
53C8
330
1
100
AcDbSymbolTableRecord
100
AcDbBlockTableRecord
  2
*D3
340
0
  0
BLOCK_RECORD
  5
53D5
330
1
100
AcDbSymbolTableRecord
100
AcDbBlockTableRecord
  2
*D4
340
0
  0
BLOCK_RECORD
  5
53E2
330
1
100
AcDbSymbolTableRecord
100
AcDbBlockTableRecord
  2
*D5
340
0
  0
BLOCK_RECORD
  5
53EF
330
1
100
AcDbSymbolTableRecord
100
AcDbBlockTableRecord
  2
*D6
340
0
  0
BLOCK_RECORD
  5
5538
330
1
100
AcDbSymbolTableRecord
100
AcDbBlockTableRecord
  2
*D7
340
0
  0
BLOCK_RECORD
  5
554D
330
1
100
AcDbSymbolTableRecord
100
AcDbBlockTableRecord
  2
*D8
340
0
  0
BLOCK_RECORD
  5
5560
330
1
100
AcDbSymbolTableRecord
100
AcDbBlockTableRecord
  2
*D9
340
0
  0
BLOCK_RECORD
  5
556B
330
1
100
AcDbSymbolTableRecord
100
AcDbBlockTableRecord
  2
*D10
340
0
  0
BLOCK_RECORD
  5
5582
330
1
100
AcDbSymbolTableRecord
100
AcDbBlockTableRecord
  2
*D11
340
0
  0
BLOCK_RECORD
  5
5591
330
1
100
AcDbSymbolTableRecord
100
AcDbBlockTableRecord
  2
*D12
340
0
  0
BLOCK_RECORD
  5
55A0
330
1
100
AcDbSymbolTableRecord
100
AcDbBlockTableRecord
  2
*D13
340
0
  0
BLOCK_RECORD
  5
55AF
330
1
100
AcDbSymbolTableRecord
100
AcDbBlockTableRecord
  2
*D14
340
0
  0
BLOCK_RECORD
  5
55BE
330
1
100
AcDbSymbolTableRecord
100
AcDbBlockTableRecord
  2
*D15
340
0
  0
BLOCK_RECORD
  5
55CA
330
1
100
AcDbSymbolTableRecord
100
AcDbBlockTableRecord
  2
*D16
340
0
  0
BLOCK_RECORD
  5
55D7
330
1
100
AcDbSymbolTableRecord
100
AcDbBlockTableRecord
  2
*D17
340
0
  0
BLOCK_RECORD
  5
55E5
330
1
100
AcDbSymbolTableRecord
100
AcDbBlockTableRecord
  2
*D18
340
0
  0
BLOCK_RECORD
  5
5639
330
1
100
AcDbSymbolTableRecord
100
AcDbBlockTableRecord
  2
*D19
340
0
  0
BLOCK_RECORD
  5
5659
330
1
100
AcDbSymbolTableRecord
100
AcDbBlockTableRecord
  2
*D20
340
0
  0
BLOCK_RECORD
  5
56C5
330
1
100
AcDbSymbolTableRecord
100
AcDbBlockTableRecord
  2
*D21
340
0
  0
BLOCK_RECORD
  5
56DD
330
1
100
AcDbSymbolTableRecord
100
AcDbBlockTableRecord
  2
*D22
340
0
  0
BLOCK_RECORD
  5
5894
330
1
100
AcDbSymbolTableRecord
100
AcDbBlockTableRecord
  2
*D23
340
0
  0
BLOCK_RECORD
  5
58A1
330
1
100
AcDbSymbolTableRecord
100
AcDbBlockTableRecord
  2
*D24
340
0
  0
BLOCK_RECORD
  5
58BB
330
1
100
AcDbSymbolTableRecord
100
AcDbBlockTableRecord
  2
*D25
340
0
  0
BLOCK_RECORD
  5
5932
330
1
100
AcDbSymbolTableRecord
100
AcDbBlockTableRecord
  2
*D26
340
0
  0
BLOCK_RECORD
  5
59C0
330
1
100
AcDbSymbolTableRecord
100
AcDbBlockTableRecord
  2
*D27
340
0
  0
BLOCK_RECORD
  5
59D0
330
1
100
AcDbSymbolTableRecord
100
AcDbBlockTableRecord
  2
*D28
340
0
  0
ENDTAB
  0
ENDSEC
  0
SECTION
  2
BLOCKS
  0
BLOCK
  5
20
330
1F
100
AcDbEntity
  8
0
100
AcDbBlockBegin
  2
*Model_Space
 70
     0
 10
0.0
 20
0.0
 30
0.0
  3
*Model_Space
  1

  0
ENDBLK
  5
21
330
1F
100
AcDbEntity
  8
0
100
AcDbBlockEnd
  0
BLOCK
  5
1C
330
1B
100
AcDbEntity
 67
     1
  8
0
100
AcDbBlockBegin
  2
*Paper_Space
 70
     0
 10
0.0
 20
0.0
 30
0.0
  3
*Paper_Space
  1

  0
ENDBLK
  5
1D
330
1B
100
AcDbEntity
 67
     1
  8
0
100
AcDbBlockEnd
  0
BLOCK
  5
39
330
23
100
AcDbEntity
 67
     1
  8
0
100
AcDbBlockBegin
  2
*Paper_Space0
 70
     0
 10
0.0
 20
0.0
 30
0.0
  3
*Paper_Space0
  1

  0
ENDBLK
  5
3A
330
23
100
AcDbEntity
 67
     1
  8
0
100
AcDbBlockEnd
  0
BLOCK
  5
53AF
330
53AE
100
AcDbEntity
  8
0
100
AcDbBlockBegin
  2
*D1
 70
     1
 10
0.0
 20
0.0
 30
0.0
  3
*D1
  1

  0
POINT
  5
53A5
330
53AE
100
AcDbEntity
  8
Defpoints
  6
ByBlock
100
AcDbPoint
 10
864.6631249916369
 20
383.2732090624771
 30
0.0
  0
POINT
  5
53A6
330
53AE
100
AcDbEntity
  8
Defpoints
  6
ByBlock
100
AcDbPoint
 10
869.2631295428869
 20
593.2732090624771
 30
0.0
  0
LINE
  5
53A7
330
53AE
100
AcDbEntity
  8
标注
  6
ByBlock
 62
     0
370
    -2
100
AcDbLine
 10
864.6631249916369
 20
383.2732090624771
 30
0.0
 11
931.0482356626209
 21
383.2732090624771
 31
0.0
  0
LINE
  5
53A8
330
53AE
100
AcDbEntity
  8
标注
  6
ByBlock
 62
     0
370
    -2
100
AcDbLine
 10
869.2631295428869
 20
593.2732090624771
 30
0.0
 11
931.0482356626209
 21
593.2732090624771
 31
0.0
  0
LINE
  5
53A9
330
53AE
100
AcDbEntity
  8
标注
  6
ByBlock
 62
     0
370
     0
100
AcDbLine
 10
927.298235662621
 20
388.2732090624771
 30
0.0
 11
927.298235662621
 21
588.2732090624771
 31
0.0
  0
SOLID
  5
53AA
330
53AE
100
AcDbEntity
  8
标注
  6
ByBlock
 62
     0
100
AcDbTrace
 10
927.298235662621
 20
383.2732090624771
 30
0.0
 11
928.1315689959544
 21
388.2732090624771
 31
0.0
 12
926.4649023292875
 22
388.2732090624771
 32
0.0
 13
926.4649023292875
 23
388.2732090624771
 33
0.0
  0
SOLID
  5
53AB
330
53AE
100
AcDbEntity
  8
标注
  6
ByBlock
 62
     0
100
AcDbTrace
 10
927.298235662621
 20
593.2732090624771
 30
0.0
 11
928.1315689959544
 21
588.2732090624771
 31
0.0
 12
926.4649023292875
 22
588.2732090624771
 32
0.0
 13
926.4649023292875
 23
588.2732090624771
 33
0.0
  0
MTEXT
  5
53AC
330
53AE
100
AcDbEntity
  8
标注
  6
ByBlock
 62
     0
100
AcDbMText
 10
918.7395726339715
 20
488.2731986244949
 30
0.0
 40
10.0
 41
0.0
 71
     5
 72
     1
  1
\A0;{\fArial|b0|i0|c0|p34;210 [8 1/4]}
 11
-0.0000000000001034
 21
1.0
 31
0.0
 73
     1
 44
1.0
1001
ACAD
1000
MTEXTBEGIN
1070
    73
1070
     1
1070
    44
1040
1.0
1070
    74
1070
     0
1000
MTEXTEND
  0
ENDBLK
  5
53B0
330
53AE
100
AcDbEntity
  8
0
100
AcDbBlockEnd
  0
BLOCK
  5
53BC
330
53BB
100
AcDbEntity
  8
0
100
AcDbBlockBegin
  2
*D2
 70
     1
 10
0.0
 20
0.0
 30
0.0
  3
*D2
  1

  0
POINT
  5
53B2
330
53BB
100
AcDbEntity
  8
Defpoints
  6
ByBlock
100
AcDbPoint
 10
863.9554319837523
 20
376.9232090624763
 30
0.0
  0
POINT
  5
53B3
330
53BB
100
AcDbEntity
  8
Defpoints
  6
ByBlock
100
AcDbPoint
 10
867.4938970231753
 20
599.6232090624779
 30
0.0
  0
LINE
  5
53B4
330
53BB
100
AcDbEntity
  8
标注
  6
ByBlock
 62
     0
370
    -2
100
AcDbLine
 10
863.9554319837523
 20
376.9232090624763
 30
0.0
 11
953.048235662621
 21
376.9232090624763
 31
0.0
  0
LINE
  5
53B5
330
53BB
100
AcDbEntity
  8
标注
  6
ByBlock
 62
     0
370
    -2
100
AcDbLine
 10
867.4938970231753
 20
599.6232090624779
 30
0.0
 11
953.048235662621
 21
599.6232090624779
 31
0.0
  0
LINE
  5
53B6
330
53BB
100
AcDbEntity
  8
标注
  6
ByBlock
 62
     0
370
     0
100
AcDbLine
 10
949.298235662621
 20
381.9232090624763
 30
0.0
 11
949.298235662621
 21
594.6232090624779
 31
0.0
  0
SOLID
  5
53B7
330
53BB
100
AcDbEntity
  8
标注
  6
ByBlock
 62
     0
100
AcDbTrace
 10
949.298235662621
 20
376.9232090624763
 30
0.0
 11
950.1315689959545
 21
381.9232090624763
 31
0.0
 12
948.4649023292874
 22
381.9232090624763
 32
0.0
 13
948.4649023292874
 23
381.9232090624763
 33
0.0
  0
SOLID
  5
53B8
330
53BB
100
AcDbEntity
  8
标注
  6
ByBlock
 62
     0
100
AcDbTrace
 10
949.298235662621
 20
599.6232090624779
 30
0.0
 11
950.1315689959545
 21
594.6232090624779
 31
0.0
 12
948.4649023292874
 22
594.6232090624779
 32
0.0
 13
948.4649023292874
 23
594.6232090624779
 33
0.0
  0
MTEXT
  5
53B9
330
53BB
100
AcDbEntity
  8
标注
  6
ByBlock
 62
     0
100
AcDbMText
 10
940.7395726339716
 20
488.2732090624773
 30
0.0
 40
10.0
 41
0.0
 71
     5
 72
     1
  1
\A0;{\fArial|b0|i0|c0|p34;222.7 [8 3/4]}
 11
-0.0000000000001034
 21
1.0
 31
0.0
 73
     1
 44
1.0
1001
ACAD
1000
MTEXTBEGIN
1070
    73
1070
     1
1070
    44
1040
1.0
1070
    74
1070
     0
1000
MTEXTEND
  0
ENDBLK
  5
53BD
330
53BB
100
AcDbEntity
  8
0
100
AcDbBlockEnd
  0
BLOCK
  5
53C9
330
53C8
100
AcDbEntity
  8
0
100
AcDbBlockBegin
  2
*D3
 70
     1
 10
0.0
 20
0.0
 30
0.0
  3
*D3
  1

  0
POINT
  5
53BF
330
53C8
100
AcDbEntity
  8
Defpoints
  6
ByBlock
100
AcDbPoint
 10
864.6631249916369
 20
389.6232090624775
 30
0.0
  0
POINT
  5
53C0
330
53C8
100
AcDbEntity
  8
Defpoints
  6
ByBlock
100
AcDbPoint
 10
869.9708225507716
 20
586.9232090624767
 30
0.0
  0
LINE
  5
53C1
330
53C8
100
AcDbEntity
  8
标注
  6
ByBlock
 62
     0
370
    -2
100
AcDbLine
 10
864.6631249916369
 20
389.6232090624775
 30
0.0
 11
908.816999293505
 21
389.6232090624775
 31
0.0
  0
LINE
  5
53C2
330
53C8
100
AcDbEntity
  8
标注
  6
ByBlock
 62
     0
370
    -2
100
AcDbLine
 10
869.9708225507716
 20
586.9232090624767
 30
0.0
 11
908.816999293505
 21
586.9232090624767
 31
0.0
  0
LINE
  5
53C3
330
53C8
100
AcDbEntity
  8
标注
  6
ByBlock
 62
     0
370
     0
100
AcDbLine
 10
905.066999293505
 20
394.6232090624775
 30
0.0
 11
905.066999293505
 21
581.9232090624767
 31
0.0
  0
SOLID
  5
53C4
330
53C8
100
AcDbEntity
  8
标注
  6
ByBlock
 62
     0
100
AcDbTrace
 10
905.066999293505
 20
389.6232090624775
 30
0.0
 11
905.9003326268385
 21
394.6232090624775
 31
0.0
 12
904.2336659601714
 22
394.6232090624775
 32
0.0
 13
904.2336659601714
 23
394.6232090624775
 33
0.0
  0
SOLID
  5
53C5
330
53C8
100
AcDbEntity
  8
标注
  6
ByBlock
 62
     0
100
AcDbTrace
 10
905.066999293505
 20
586.9232090624767
 30
0.0
 11
905.9003326268385
 21
581.9232090624767
 31
0.0
 12
904.2336659601714
 22
581.9232090624767
 32
0.0
 13
904.2336659601714
 23
581.9232090624767
 33
0.0
  0
MTEXT
  5
53C6
330
53C8
100
AcDbEntity
  8
标注
  6
ByBlock
 62
     0
100
AcDbMText
 10
896.5083362648556
 20
488.2731986244931
 30
0.0
 40
10.0
 41
0.0
 71
     5
 72
     1
  1
\A0;{\fArial|b0|i0|c0|p34;197.3 [7 3/4]}
 11
-0.0000000000001034
 21
1.0
 31
0.0
 73
     1
 44
1.0
1001
ACAD
1000
MTEXTBEGIN
1070
    73
1070
     1
1070
    44
1040
1.0
1070
    74
1070
     0
1000
MTEXTEND
  0
ENDBLK
  5
53CA
330
53C8
100
AcDbEntity
  8
0
100
AcDbBlockEnd
  0
BLOCK
  5
53D6
330
53D5
100
AcDbEntity
  8
0
100
AcDbBlockBegin
  2
*D4
 70
     1
 10
0.0
 20
0.0
 30
0.0
  3
*D4
  1

  0
POINT
  5
53CC
330
53D5
100
AcDbEntity
  8
Defpoints
  6
ByBlock
100
AcDbPoint
 10
867.2058119988337
 20
613.2756085823635
 30
0.0
  0
POINT
  5
53CD
330
53D5
100
AcDbEntity
  8
Defpoints
  6
ByBlock
100
AcDbPoint
 10
467.2058210288867
 20
611.421452901706
 30
0.0
  0
LINE
  5
53CE
330
53D5
100
AcDbEntity
  8
标注
  6
ByBlock
 62
     0
370
    -2
100
AcDbLine
 10
867.2058119988337
 20
613.2756085823635
 30
0.0
 11
867.2058119988337
 21
679.1044454315938
 31
0.0
  0
LINE
  5
53CF
330
53D5
100
AcDbEntity
  8
标注
  6
ByBlock
 62
     0
370
    -2
100
AcDbLine
 10
467.2058210288867
 20
611.421452901706
 30
0.0
 11
467.2058210288867
 21
679.1044454315938
 31
0.0
  0
LINE
  5
53D0
330
53D5
100
AcDbEntity
  8
标注
  6
ByBlock
 62
     0
370
     0
100
AcDbLine
 10
862.2058119988336
 20
675.3544454315938
 30
0.0
 11
472.2058210288866
 21
675.3544454315938
 31
0.0
  0
SOLID
  5
53D1
330
53D5
100
AcDbEntity
  8
标注
  6
ByBlock
 62
     0
100
AcDbTrace
 10
867.2058119988337
 20
675.3544454315938
 30
0.0
 11
862.2058119988336
 21
676.1877787649273
 31
0.0
 12
862.2058119988336
 22
674.5211120982603
 32
0.0
 13
862.2058119988336
 23
674.5211120982603
 33
0.0
  0
SOLID
  5
53D2
330
53D5
100
AcDbEntity
  8
标注
  6
ByBlock
 62
     0
100
AcDbTrace
 10
467.2058210288867
 20
675.3544454315938
 30
0.0
 11
472.2058210288866
 21
676.1877787649273
 31
0.0
 12
472.2058210288866
 22
674.5211120982603
 32
0.0
 13
472.2058210288866
 23
674.5211120982603
 33
0.0
  0
MTEXT
  5
53D3
330
53D5
100
AcDbEntity
  8
标注
  6
ByBlock
 62
     0
100
AcDbMText
 10
664.6521145975444
 20
683.9131084602431
 30
0.0
 40
10.0
 41
0.0
 71
     5
 72
     1
  1
\A0;{\fArial|b0|i0|c0|p34;400 [15 3/4]}
 73
     1
 44
1.0
1001
ACAD
1000
MTEXTBEGIN
1070
    73
1070
     1
1070
    44
1040
1.0
1070
    74
1070
     0
1000
MTEXTEND
  0
ENDBLK
  5
53D7
330
53D5
100
AcDbEntity
  8
0
100
AcDbBlockEnd
  0
BLOCK
  5
53E3
330
53E2
100
AcDbEntity
  8
0
100
AcDbBlockBegin
  2
*D5
 70
     1
 10
0.0
 20
0.0
 30
0.0
  3
*D5
  1

  0
POINT
  5
53D9
330
53E2
100
AcDbEntity
  8
Defpoints
  6
ByBlock
100
AcDbPoint
 10
873.555811998834
 20
612.709454176056
 30
0.0
  0
POINT
  5
53DA
330
53E2
100
AcDbEntity
  8
Defpoints
  6
ByBlock
100
AcDbPoint
 10
460.8558210288863
 20
618.6682293024444
 30
0.0
  0
LINE
  5
53DB
330
53E2
100
AcDbEntity
  8
标注
  6
ByBlock
 62
     0
370
    -2
100
AcDbLine
 10
873.555811998834
 20
612.709454176056
 30
0.0
 11
873.555811998834
 21
701.1044454315938
 31
0.0
  0
LINE
  5
53DC
330
53E2
100
AcDbEntity
  8
标注
  6
ByBlock
 62
     0
370
    -2
100
AcDbLine
 10
460.8558210288863
 20
618.6682293024444
 30
0.0
 11
460.8558210288863
 21
701.1044454315938
 31
0.0
  0
LINE
  5
53DD
330
53E2
100
AcDbEntity
  8
标注
  6
ByBlock
 62
     0
370
     0
100
AcDbLine
 10
868.5558119988341
 20
697.3544454315938
 30
0.0
 11
465.8558210288863
 21
697.3544454315938
 31
0.0
  0
SOLID
  5
53DE
330
53E2
100
AcDbEntity
  8
标注
  6
ByBlock
 62
     0
100
AcDbTrace
 10
873.555811998834
 20
697.3544454315938
 30
0.0
 11
868.5558119988341
 21
698.1877787649273
 31
0.0
 12
868.5558119988341
 22
696.5211120982603
 32
0.0
 13
868.5558119988341
 23
696.5211120982603
 33
0.0
  0
SOLID
  5
53DF
330
53E2
100
AcDbEntity
  8
标注
  6
ByBlock
 62
     0
100
AcDbTrace
 10
460.8558210288863
 20
697.3544454315938
 30
0.0
 11
465.8558210288863
 21
698.1877787649273
 31
0.0
 12
465.8558210288863
 22
696.5211120982603
 32
0.0
 13
465.8558210288863
 23
696.5211120982603
 33
0.0
  0
MTEXT
  5
53E0
330
53E2
100
AcDbEntity
  8
标注
  6
ByBlock
 62
     0
100
AcDbMText
 10
662.5013642564802
 20
705.9131084602431
 30
0.0
 40
10.0
 41
0.0
 71
     5
 72
     1
  1
\A0;{\fArial|b0|i0|c0|p34;412.7 [16 1/4]}
 73
     1
 44
1.0
1001
ACAD
1000
MTEXTBEGIN
1070
    73
1070
     1
1070
    44
1040
1.0
1070
    74
1070
     0
1000
MTEXTEND
  0
ENDBLK
  5
53E4
330
53E2
100
AcDbEntity
  8
0
100
AcDbBlockEnd
  0
BLOCK
  5
53F0
330
53EF
100
AcDbEntity
  8
0
100
AcDbBlockBegin
  2
*D6
 70
     1
 10
0.0
 20
0.0
 30
0.0
  3
*D6
  1

  0
POINT
  5
53E6
330
53EF
100
AcDbEntity
  8
Defpoints
  6
ByBlock
100
AcDbPoint
 10
860.8558119988337
 20
616.6725350202097
 30
0.0
  0
POINT
  5
53E7
330
53EF
100
AcDbEntity
  8
Defpoints
  6
ByBlock
100
AcDbPoint
 10
473.5558210288866
 20
621.3857704527213
 30
0.0
  0
LINE
  5
53E8
330
53EF
100
AcDbEntity
  8
标注
  6
ByBlock
 62
     0
370
    -2
100
AcDbLine
 10
860.8558119988337
 20
616.6725350202097
 30
0.0
 11
860.8558119988337
 21
656.873209062478
 31
0.0
  0
LINE
  5
53E9
330
53EF
100
AcDbEntity
  8
标注
  6
ByBlock
 62
     0
370
    -2
100
AcDbLine
 10
473.5558210288866
 20
621.3857704527213
 30
0.0
 11
473.5558210288866
 21
656.873209062478
 31
0.0
  0
LINE
  5
53EA
330
53EF
100
AcDbEntity
  8
标注
  6
ByBlock
 62
     0
370
     0
100
AcDbLine
 10
855.8558119988338
 20
653.123209062478
 30
0.0
 11
478.5558210288866
 21
653.123209062478
 31
0.0
  0
SOLID
  5
53EB
330
53EF
100
AcDbEntity
  8
标注
  6
ByBlock
 62
     0
100
AcDbTrace
 10
860.8558119988337
 20
653.123209062478
 30
0.0
 11
855.8558119988338
 21
653.9565423958115
 31
0.0
 12
855.8558119988338
 22
652.2898757291446
 32
0.0
 13
855.8558119988338
 23
652.2898757291446
 33
0.0
  0
SOLID
  5
53EC
330
53EF
100
AcDbEntity
  8
标注
  6
ByBlock
 62
     0
100
AcDbTrace
 10
473.5558210288866
 20
653.123209062478
 30
0.0
 11
478.5558210288866
 21
653.9565423958115
 31
0.0
 12
478.5558210288866
 22
652.2898757291446
 32
0.0
 13
478.5558210288866
 23
652.2898757291446
 33
0.0
  0
MTEXT
  5
53ED
330
53EF
100
AcDbEntity
  8
标注
  6
ByBlock
 62
     0
100
AcDbMText
 10
667.2058193185584
 20
661.6818720911274
 30
0.0
 40
10.0
 41
0.0
 71
     5
 72
     1
  1
\A0;{\fArial|b0|i0|c0|p34;387.3 [15 1/4]}
 73
     1
 44
1.0
1001
ACAD
1000
MTEXTBEGIN
1070
    73
1070
     1
1070
    44
1040
1.0
1070
    74
1070
     0
1000
MTEXTEND
  0
ENDBLK
  5
53F1
330
53EF
100
AcDbEntity
  8
0
100
AcDbBlockEnd
  0
BLOCK
  5
5539
330
5538
100
AcDbEntity
  8
0
100
AcDbBlockBegin
  2
*D7
 70
     1
 10
0.0
 20
0.0
 30
0.0
  3
*D7
  1

  0
LINE
  5
552E
330
5538
100
AcDbEntity
  8
标注
100
AcDbLine
 10
118.7267909375227
 20
1012.119094857413
 30
0.0
 11
140.5549546824154
 21
1012.119094857413
 31
0.0
  0
LINE
  5
552F
330
5538
100
AcDbEntity
  8
标注
100
AcDbLine
 10
45.72679093752276
 20
872.1190948574129
 30
0.0
 11
140.5549546824154
 21
872.1190948574129
 31
0.0
  0
LINE
  5
5530
330
5538
100
AcDbEntity
  8
标注
100
AcDbLine
 10
138.5549546824154
 20
1004.119094857413
 30
0.0
 11
138.5549546824154
 21
880.1190948574129
 31
0.0
  0
SOLID
  5
5531
330
5538
100
AcDbEntity
  8
标注
100
AcDbTrace
 10
137.2216213490819
 20
1004.119094857413
 30
0.0
 11
139.8882880157489
 21
1004.119094857413
 31
0.0
 12
138.5549546824154
 22
1012.119094857413
 32
0.0
 13
138.5549546824154
 23
1012.119094857413
 33
0.0
  0
SOLID
  5
5532
330
5538
100
AcDbEntity
  8
标注
100
AcDbTrace
 10
137.2216213490819
 20
880.1190948574129
 30
0.0
 11
139.8882880157489
 21
880.1190948574129
 31
0.0
 12
138.5549546824154
 22
872.1190948574129
 32
0.0
 13
138.5549546824154
 23
872.1190948574129
 33
0.0
  0
MTEXT
  5
5533
330
5538
100
AcDbEntity
  8
标注
 62
     6
100
AcDbMText
 10
130.0549546824149
 20
942.1190948574134
 30
0.0
 40
13.0
 41
0.0
 71
     5
 72
     1
  1
140
 11
0.0
 21
1.0
 31
0.0
 73
     1
 44
1.0
1001
ACAD
1000
MTEXTBEGIN
1070
    73
1070
     1
1070
    44
1040
1.0
1070
    74
1070
     0
1000
MTEXTEND
  0
POINT
  5
5534
330
5538
100
AcDbEntity
  8
Defpoints
 62
     0
100
AcDbPoint
 10
118.2267909375227
 20
1012.119094857413
 30
0.0
  0
POINT
  5
5535
330
5538
100
AcDbEntity
  8
Defpoints
 62
     0
100
AcDbPoint
 10
45.22679093752276
 20
872.1190948574129
 30
0.0
  0
POINT
  5
5536
330
5538
100
AcDbEntity
  8
Defpoints
 62
     0
100
AcDbPoint
 10
138.5549546824154
 20
872.1190948574129
 30
0.0
  0
ENDBLK
  5
553A
330
5538
100
AcDbEntity
  8
0
100
AcDbBlockEnd
  0
BLOCK
  5
554E
330
554D
100
AcDbEntity
  8
0
100
AcDbBlockBegin
  2
*D8
 70
     1
 10
0.0
 20
0.0
 30
0.0
  3
*D8
  1

  0
LINE
  5
553D
330
554D
100
AcDbEntity
  8
标注
100
AcDbLine
 10
45.72679093752412
 20
872.1190948574133
 30
0.0
 11
116.8235276600398
 21
872.1190948574133
 31
0.0
  0
LINE
  5
553E
330
554D
100
AcDbEntity
  8
标注
100
AcDbLine
 10
58.75227420837109
 20
872.709630210312
 30
0.0
 11
116.755383431218
 21
875.2421006506081
 31
0.0
  0
ARC
  5
553F
330
554D
100
AcDbEntity
  8
标注
100
AcDbCircle
 10
45.22679093752367
 20
872.1190948574133
 30
0.0
 40
69.59673672251598
100
AcDbArc
 50
346.798757878665
 51
-0.0000000000002544
  0
LINE
  5
5540
330
554D
100
AcDbEntity
  8
标注
100
AcDbLine
 10
112.9843609687859
 20
856.2251505426191
 30
0.0
 11
104.1939989515522
 21
818.7509051201988
 31
0.0
  0
ARC
  5
5541
330
554D
100
AcDbEntity
  8
标注
100
AcDbCircle
 10
45.22679093752367
 20
872.1190948574133
 30
0.0
 40
69.59673672251589
100
AcDbArc
 50
346.8206762638843
 51
353.4103381319421
  0
ARC
  5
5542
330
554D
100
AcDbEntity
  8
标注
100
AcDbCircle
 10
45.22679093752367
 20
872.1190948574133
 30
0.0
 40
69.59673672251577
100
AcDbArc
 50
9.089661868059176
 51
15.67932373611698
  0
ARC
  5
5543
330
554D
100
AcDbEntity
  8
标注
100
AcDbCircle
 10
45.22679093752367
 20
872.1190948574133
 30
0.0
 40
69.59673672251574
100
AcDbArc
 50
0.0
 51
2.500000000001485
  0
SOLID
  5
5544
330
554D
100
AcDbEntity
  8
标注
100
AcDbTrace
 10
113.0326066461361
 20
864.2089507563403
 30
0.0
 11
115.6948653283166
 21
864.0556868654028
 31
0.0
 12
114.8235276600398
 22
872.1190948574133
 32
0.0
 13
114.8235276600398
 23
872.1190948574133
 33
0.0
  0
SOLID
  5
5545
330
554D
100
AcDbEntity
  8
标注
100
AcDbTrace
 10
115.2760744192551
 20
883.2486025054633
 30
0.0
 11
112.6230348944595
 21
882.9793583950642
 31
0.0
 12
114.7572869880541
 22
875.1548618758777
 32
0.0
 13
114.7572869880541
 23
875.1548618758777
 33
0.0
  0
MTEXT
  5
5546
102
{ACAD_XDICTIONARY
360
5A38
102
}
330
554D
100
AcDbEntity
  8
标注
 62
     6
100
AcDbMText
 10
117.2135418639532
 20
835.4650047538969
 30
0.0
 40
12.99999999999993
 41
0.0
 71
     5
 72
     1
  1
2.5\U+00B0
 11
-0.2283719763781848
 21
-0.9735739522014348
 31
0.0
 73
     1
 44
1.0
1001
ACAD
1000
MTEXTBEGIN
1070
    73
1070
     1
1070
    44
1040
1.0
1070
    74
1070
     0
1000
MTEXTEND
  0
POINT
  5
5547
330
554D
100
AcDbEntity
  8
Defpoints
 62
     0
100
AcDbPoint
 10
114.7940847662898
 20
874.1432963704268
 30
0.0
  0
POINT
  5
5548
330
554D
100
AcDbEntity
  8
Defpoints
 62
     0
100
AcDbPoint
 10
45.22679093752322
 20
872.1190948574133
 30
0.0
  0
POINT
  5
5549
330
554D
100
AcDbEntity
  8
Defpoints
 62
     0
100
AcDbPoint
 10
-74.77320906247541
 20
872.1190948574133
 30
0.0
  0
POINT
  5
554A
330
554D
100
AcDbEntity
  8
Defpoints
 62
     0
100
AcDbPoint
 10
45.22679093752413
 20
872.1190948574133
 30
0.0
  0
POINT
  5
554B
330
554D
100
AcDbEntity
  8
Defpoints
 62
     0
100
AcDbPoint
 10
58.25275009758025
 20
872.6878205166297
 30
0.0
  0
ENDBLK
  5
554F
330
554D
100
AcDbEntity
  8
0
100
AcDbBlockEnd
  0
BLOCK
  5
5561
330
5560
100
AcDbEntity
  8
0
100
AcDbBlockBegin
  2
*D9
 70
     1
 10
0.0
 20
0.0
 30
0.0
  3
*D9
  1

  0
LINE
  5
5553
330
5560
100
AcDbEntity
  8
标注
100
AcDbLine
 10
90.95551525615428
 20
993.2113596792945
 30
0.0
 11
90.95551525615475
 21
920.6733124188287
 31
0.0
  0
ARC
  5
5554
330
5560
100
AcDbEntity
  8
标注
100
AcDbCircle
 10
90.95551525615428
 20
1005.337633699878
 30
0.0
 40
82.66432128104845
100
AcDbArc
 50
254.9058473867231
 51
260.4529236933615
  0
ARC
  5
5555
330
5560
100
AcDbEntity
  8
标注
100
AcDbCircle
 10
90.95551525615428
 20
1005.337633699878
 30
0.0
 40
82.66432128104854
100
AcDbArc
 50
275.547076306639
 51
281.0941526132775
  0
ARC
  5
5556
330
5560
100
AcDbEntity
  8
标注
100
AcDbCircle
 10
90.95551525615428
 20
1005.337633699878
 30
0.0
 40
82.66432128104845
100
AcDbArc
 50
266.0
 51
270.0000000000004
  0
SOLID
  5
5557
330
5560
100
AcDbEntity
  8
标注
100
AcDbTrace
 10
77.40224348357924
 20
925.1422681985566
 30
0.0
 11
77.08772252838298
 21
922.4942146341716
 31
0.0
 12
85.18914369913682
 22
922.8746785507757
 32
0.0
 13
85.18914369913682
 23
922.8746785507757
 33
0.0
  0
SOLID
  5
5558
330
5560
100
AcDbEntity
  8
标注
100
AcDbTrace
 10
99.01066195090379
 20
921.728648720016
 30
0.0
 11
98.88162603188357
 21
924.3921916317619
 31
0.0
 12
90.95551525615475
 22
922.6733124188292
 32
0.0
 13
90.95551525615475
 23
922.6733124188292
 33
0.0
  0
MTEXT
  5
5559
330
5560
100
AcDbEntity
  8
标注
 62
     6
100
AcDbMText
 10
66.52463737772905
 20
935.3127898430859
 30
0.0
 40
12.99999999999997
 41
0.0
 71
     5
 72
     1
  1
3%%d
 11
0.9441850562001434
 21
-0.3294155121549866
 31
0.0
 73
     1
 44
1.0
1001
ACAD
1000
MTEXTBEGIN
1070
    73
1070
     1
1070
    44
1040
1.0
1070
    74
1070
     0
1000
MTEXTEND
  0
POINT
  5
555A
330
5560
100
AcDbEntity
  8
Defpoints
 62
     0
100
AcDbPoint
 10
89.03200277057521
 20
922.6956945129598
 30
0.0
  0
POINT
  5
555B
330
5560
100
AcDbEntity
  8
Defpoints
 62
     0
100
AcDbPoint
 10
90.95551525615428
 20
1005.337633699878
 30
0.0
  0
POINT
  5
555C
330
5560
100
AcDbEntity
  8
Defpoints
 62
     0
100
AcDbPoint
 10
90.95551525615428
 20
1005.337633699878
 30
0.0
  0
POINT
  5
555D
330
5560
100
AcDbEntity
  8
Defpoints
 62
     0
100
AcDbPoint
 10
83.29844353025464
 20
895.8364064440804
 30
0.0
  0
POINT
  5
555E
330
5560
100
AcDbEntity
  8
Defpoints
 62
     0
100
AcDbPoint
 10
90.95551525615428
 20
993.7113596792944
 30
0.0
  0
ENDBLK
  5
5562
330
5560
100
AcDbEntity
  8
0
100
AcDbBlockEnd
  0
BLOCK
  5
556C
330
556B
100
AcDbEntity
  8
0
100
AcDbBlockBegin
  2
*D10
 70
     1
 10
0.0
 20
0.0
 30
0.0
  3
*D10
  1

  0
LINE
  5
5565
330
556B
100
AcDbEntity
  8
标注
100
AcDbLine
 10
-61.48608461622507
 20
930.5380991647933
 30
0.0
 11
-97.0569655601912
 21
884.1765111183773
 31
0.0
  0
MTEXT
  5
5566
330
556B
100
AcDbEntity
  8
标注
 62
     6
100
AcDbMText
 10
-79.99847654128325
 20
920.3734976974054
 30
0.0
 40
13.00000000000001
 41
0.0
 71
     5
 72
     1
  1
R25
 11
0.6087224718703494
 21
0.7933832316352872
 31
0.0
 73
     1
 44
1.0
1001
ACAD
1000
MTEXTBEGIN
1070
    73
1070
     1
1070
    44
1040
1.0
1070
    74
1070
     0
1000
MTEXTEND
  0
SOLID
  5
5567
330
556B
100
AcDbEntity
  8
标注
100
AcDbTrace
 10
-98.11480986903871
 20
884.9881410808709
 30
0.0
 11
-95.99912125134414
 21
883.3648811558839
 31
0.0
 12
-101.9267453351526
 22
877.8294452652941
 32
0.0
 13
-101.9267453351526
 23
877.8294452652941
 33
0.0
  0
POINT
  5
5568
330
556B
100
AcDbEntity
  8
Defpoints
 62
     0
100
AcDbPoint
 10
-101.9267453351526
 20
877.8294452652941
 30
0.0
  0
POINT
  5
5569
330
556B
100
AcDbEntity
  8
Defpoints
 62
     0
100
AcDbPoint
 10
-86.70868353840024
 20
897.664026056176
 30
0.0
  0
ENDBLK
  5
556D
330
556B
100
AcDbEntity
  8
0
100
AcDbBlockEnd
  0
BLOCK
  5
5583
330
5582
100
AcDbEntity
  8
0
100
AcDbBlockBegin
  2
*D11
 70
     1
 10
0.0
 20
0.0
 30
0.0
  3
*D11
  1

  0
LINE
  5
5578
330
5582
100
AcDbEntity
  8
标注
100
AcDbLine
 10
90.22679093752277
 20
476.7058119988321
 30
0.0
 11
90.22679093752277
 21
736.9090647074424
 31
0.0
  0
LINE
  5
5579
330
5582
100
AcDbEntity
  8
标注
100
AcDbLine
 10
-119.7732090624772
 20
476.7058119988357
 30
0.0
 11
-119.7732090624772
 21
736.9090647074424
 31
0.0
  0
LINE
  5
557A
330
5582
100
AcDbEntity
  8
标注
100
AcDbLine
 10
82.22679093752276
 20
734.9090647074424
 30
0.0
 11
-111.7732090624772
 21
734.9090647074424
 31
0.0
  0
SOLID
  5
557B
330
5582
100
AcDbEntity
  8
标注
100
AcDbTrace
 10
82.22679093752276
 20
736.2423980407759
 30
0.0
 11
82.22679093752276
 21
733.575731374109
 31
0.0
 12
90.22679093752277
 22
734.9090647074424
 32
0.0
 13
90.22679093752277
 23
734.9090647074424
 33
0.0
  0
SOLID
  5
557C
330
5582
100
AcDbEntity
  8
标注
100
AcDbTrace
 10
-111.7732090624772
 20
736.2423980407759
 30
0.0
 11
-111.7732090624772
 21
733.575731374109
 31
0.0
 12
-119.7732090624772
 22
734.9090647074424
 32
0.0
 13
-119.7732090624772
 23
734.9090647074424
 33
0.0
  0
MTEXT
  5
557D
330
5582
100
AcDbEntity
  8
标注
 62
     6
100
AcDbMText
 10
-12.05879005807173
 20
743.4090647074424
 30
0.0
 40
13.0
 41
0.0
 71
     5
 72
     1
  1
210
 73
     1
 44
1.0
1001
ACAD
1000
MTEXTBEGIN
1070
    73
1070
     1
1070
    44
1040
1.0
1070
    74
1070
     0
1000
MTEXTEND
  0
POINT
  5
557E
330
5582
100
AcDbEntity
  8
Defpoints
 62
     0
100
AcDbPoint
 10
90.22679093752277
 20
476.2058119988321
 30
0.0
  0
POINT
  5
557F
330
5582
100
AcDbEntity
  8
Defpoints
 62
     0
100
AcDbPoint
 10
-119.7732090624772
 20
476.2058119988357
 30
0.0
  0
POINT
  5
5580
330
5582
100
AcDbEntity
  8
Defpoints
 62
     0
100
AcDbPoint
 10
-119.7732090624772
 20
734.9090647074424
 30
0.0
  0
ENDBLK
  5
5584
330
5582
100
AcDbEntity
  8
0
100
AcDbBlockEnd
  0
BLOCK
  5
5592
330
5591
100
AcDbEntity
  8
0
100
AcDbBlockBegin
  2
*D12
 70
     1
 10
0.0
 20
0.0
 30
0.0
  3
*D12
  1

  0
LINE
  5
5587
330
5591
100
AcDbEntity
  8
标注
100
AcDbLine
 10
118.2267909375227
 20
476.7058119988321
 30
0.0
 11
118.2267909375227
 21
758.7567319492461
 31
0.0
  0
LINE
  5
5588
330
5591
100
AcDbEntity
  8
标注
100
AcDbLine
 10
-147.7732090624781
 20
476.7058119988339
 30
0.0
 11
-147.7732090624781
 21
758.7567319492461
 31
0.0
  0
LINE
  5
5589
330
5591
100
AcDbEntity
  8
标注
100
AcDbLine
 10
110.2267909375227
 20
756.7567319492461
 30
0.0
 11
-139.7732090624781
 21
756.7567319492461
 31
0.0
  0
SOLID
  5
558A
330
5591
100
AcDbEntity
  8
标注
100
AcDbTrace
 10
110.2267909375227
 20
758.0900652825796
 30
0.0
 11
110.2267909375227
 21
755.4233986159126
 31
0.0
 12
118.2267909375227
 22
756.7567319492461
 32
0.0
 13
118.2267909375227
 23
756.7567319492461
 33
0.0
  0
SOLID
  5
558B
330
5591
100
AcDbEntity
  8
标注
100
AcDbTrace
 10
-139.7732090624781
 20
758.0900652825796
 30
0.0
 11
-139.7732090624781
 21
755.4233986159126
 31
0.0
 12
-147.7732090624781
 22
756.7567319492461
 32
0.0
 13
-147.7732090624781
 23
756.7567319492461
 33
0.0
  0
MTEXT
  5
558C
330
5591
100
AcDbEntity
  8
标注
 62
     6
100
AcDbMText
 10
-14.77320906247769
 20
765.2567319492462
 30
0.0
 40
13.0
 41
0.0
 71
     5
 72
     1
  1
266
 73
     1
 44
1.0
1001
ACAD
1000
MTEXTBEGIN
1070
    73
1070
     1
1070
    44
1040
1.0
1070
    74
1070
     0
1000
MTEXTEND
  0
POINT
  5
558D
330
5591
100
AcDbEntity
  8
Defpoints
 62
     0
100
AcDbPoint
 10
118.2267909375227
 20
476.2058119988321
 30
0.0
  0
POINT
  5
558E
330
5591
100
AcDbEntity
  8
Defpoints
 62
     0
100
AcDbPoint
 10
-147.7732090624781
 20
476.2058119988339
 30
0.0
  0
POINT
  5
558F
330
5591
100
AcDbEntity
  8
Defpoints
 62
     0
100
AcDbPoint
 10
-147.7732090624781
 20
756.7567319492461
 30
0.0
  0
ENDBLK
  5
5593
330
5591
100
AcDbEntity
  8
0
100
AcDbBlockEnd
  0
BLOCK
  5
55A1
330
55A0
100
AcDbEntity
  8
0
100
AcDbBlockBegin
  2
*D13
 70
     1
 10
0.0
 20
0.0
 30
0.0
  3
*D13
  1

  0
LINE
  5
5596
330
55A0
100
AcDbEntity
  8
标注
100
AcDbLine
 10
-38.27320906247769
 20
676.2058119988348
 30
0.0
 11
-180.921662561042
 21
676.2058119988348
 31
0.0
  0
LINE
  5
5597
330
55A0
100
AcDbEntity
  8
标注
100
AcDbLine
 10
-38.27320906247724
 20
276.2058119988342
 30
0.0
 11
-180.921662561042
 21
276.2058119988342
 31
0.0
  0
LINE
  5
5598
330
55A0
100
AcDbEntity
  8
标注
100
AcDbLine
 10
-178.921662561042
 20
668.2058119988348
 30
0.0
 11
-178.921662561042
 21
284.2058119988342
 31
0.0
  0
SOLID
  5
5599
330
55A0
100
AcDbEntity
  8
标注
100
AcDbTrace
 10
-180.2549958943755
 20
668.2058119988348
 30
0.0
 11
-177.5883292277085
 21
668.2058119988348
 31
0.0
 12
-178.921662561042
 22
676.2058119988348
 32
0.0
 13
-178.921662561042
 23
676.2058119988348
 33
0.0
  0
SOLID
  5
559A
330
55A0
100
AcDbEntity
  8
标注
100
AcDbTrace
 10
-180.2549958943755
 20
284.2058119988342
 30
0.0
 11
-177.5883292277085
 21
284.2058119988342
 31
0.0
 12
-178.921662561042
 22
276.2058119988342
 32
0.0
 13
-178.921662561042
 23
276.2058119988342
 33
0.0
  0
MTEXT
  5
559B
330
55A0
100
AcDbEntity
  8
标注
 62
     6
100
AcDbMText
 10
-187.4216625610424
 20
476.2058119988348
 30
0.0
 40
13.0
 41
0.0
 71
     5
 72
     1
  1
400
 11
0.0
 21
1.0
 31
0.0
 73
     1
 44
1.0
1001
ACAD
1000
MTEXTBEGIN
1070
    73
1070
     1
1070
    44
1040
1.0
1070
    74
1070
     0
1000
MTEXTEND
  0
POINT
  5
559C
330
55A0
100
AcDbEntity
  8
Defpoints
 62
     0
100
AcDbPoint
 10
-37.77320906247769
 20
676.2058119988348
 30
0.0
  0
POINT
  5
559D
330
55A0
100
AcDbEntity
  8
Defpoints
 62
     0
100
AcDbPoint
 10
-37.77320906247723
 20
276.2058119988342
 30
0.0
  0
POINT
  5
559E
330
55A0
100
AcDbEntity
  8
Defpoints
 62
     0
100
AcDbPoint
 10
-178.921662561042
 20
276.2058119988342
 30
0.0
  0
ENDBLK
  5
55A2
330
55A0
100
AcDbEntity
  8
0
100
AcDbBlockEnd
  0
BLOCK
  5
55B0
330
55AF
100
AcDbEntity
  8
0
100
AcDbBlockBegin
  2
*D14
 70
     1
 10
0.0
 20
0.0
 30
0.0
  3
*D14
  1

  0
LINE
  5
55A5
330
55AF
100
AcDbEntity
  8
标注
100
AcDbLine
 10
-38.27320906247724
 20
704.2058119988348
 30
0.0
 11
-219.4999999999995
 21
704.2058119988348
 31
0.0
  0
LINE
  5
55A6
330
55AF
100
AcDbEntity
  8
标注
100
AcDbLine
 10
-38.27320906247815
 20
248.2058119988342
 30
0.0
 11
-219.4999999999995
 21
248.2058119988342
 31
0.0
  0
LINE
  5
55A7
330
55AF
100
AcDbEntity
  8
标注
100
AcDbLine
 10
-217.4999999999995
 20
696.2058119988348
 30
0.0
 11
-217.4999999999995
 21
256.2058119988342
 31
0.0
  0
SOLID
  5
55A8
330
55AF
100
AcDbEntity
  8
标注
100
AcDbTrace
 10
-218.833333333333
 20
696.2058119988348
 30
0.0
 11
-216.1666666666661
 21
696.2058119988348
 31
0.0
 12
-217.4999999999995
 22
704.2058119988348
 32
0.0
 13
-217.4999999999995
 23
704.2058119988348
 33
0.0
  0
SOLID
  5
55A9
330
55AF
100
AcDbEntity
  8
标注
100
AcDbTrace
 10
-218.833333333333
 20
256.2058119988342
 30
0.0
 11
-216.1666666666661
 21
256.2058119988342
 31
0.0
 12
-217.4999999999995
 22
248.2058119988342
 32
0.0
 13
-217.4999999999995
 23
248.2058119988342
 33
0.0
  0
MTEXT
  5
55AA
330
55AF
100
AcDbEntity
  8
标注
 62
     6
100
AcDbMText
 10
-226.0
 20
476.2058119988348
 30
0.0
 40
13.0
 41
0.0
 71
     5
 72
     1
  1
456
 11
0.0
 21
1.0
 31
0.0
 73
     1
 44
1.0
1001
ACAD
1000
MTEXTBEGIN
1070
    73
1070
     1
1070
    44
1040
1.0
1070
    74
1070
     0
1000
MTEXTEND
  0
POINT
  5
55AB
330
55AF
100
AcDbEntity
  8
Defpoints
 62
     0
100
AcDbPoint
 10
-37.77320906247723
 20
704.2058119988348
 30
0.0
  0
POINT
  5
55AC
330
55AF
100
AcDbEntity
  8
Defpoints
 62
     0
100
AcDbPoint
 10
-37.77320906247815
 20
248.2058119988342
 30
0.0
  0
POINT
  5
55AD
330
55AF
100
AcDbEntity
  8
Defpoints
 62
     0
100
AcDbPoint
 10
-217.4999999999995
 20
248.2058119988342
 30
0.0
  0
ENDBLK
  5
55B1
330
55AF
100
AcDbEntity
  8
0
100
AcDbBlockEnd
  0
BLOCK
  5
55BF
330
55BE
100
AcDbEntity
  8
0
100
AcDbBlockBegin
  2
*D15
 70
     1
 10
0.0
 20
0.0
 30
0.0
  3
*D15
  1

  0
LINE
  5
55B7
330
55BE
100
AcDbEntity
  8
标注
100
AcDbLine
 10
203.0027745666748
 20
748.125948499882
 30
0.0
 11
98.96487913258216
 21
666.805370875971
 31
0.0
  0
MTEXT
  5
55B8
330
55BE
100
AcDbEntity
  8
标注
 62
     6
100
AcDbMText
 10
171.4400457493534
 20
734.2436662409984
 30
0.0
 40
13.00000000000013
 41
0.0
 71
     5
 72
     1
  1
4-R110
 11
0.7878738213490954
 21
0.6158367004594432
 31
0.0
 73
     1
 44
1.0
1001
ACAD
1000
MTEXTBEGIN
1070
    73
1070
     1
1070
    44
1040
1.0
1070
    74
1070
     0
1000
MTEXTEND
  0
LINE
  5
55B9
330
55BE
100
AcDbEntity
  8
标注
100
AcDbLine
 10
5.995768213381779
 20
594.1366402217616
 30
0.0
 11
92.66188856178905
 21
661.8786772722958
 31
0.0
  0
SOLID
  5
55BA
330
55BE
100
AcDbEntity
  8
标注
100
AcDbTrace
 10
98.14376353196941
 20
667.8558693044363
 30
0.0
 11
99.78599473319446
 21
665.7548724475052
 31
0.0
 12
92.66188856178905
 22
661.8786772722958
 32
0.0
 13
92.66188856178905
 23
661.8786772722958
 33
0.0
  0
POINT
  5
55BB
330
55BE
100
AcDbEntity
  8
Defpoints
 62
     0
100
AcDbPoint
 10
92.66188856178905
 20
661.8786772722958
 30
0.0
  0
POINT
  5
55BC
330
55BE
100
AcDbEntity
  8
Defpoints
 62
     0
100
AcDbPoint
 10
5.995768213381779
 20
594.1366402217616
 30
0.0
  0
ENDBLK
  5
55C0
330
55BE
100
AcDbEntity
  8
0
100
AcDbBlockEnd
  0
BLOCK
  5
55CB
330
55CA
100
AcDbEntity
  8
0
100
AcDbBlockBegin
  2
*D16
 70
     1
 10
0.0
 20
0.0
 30
0.0
  3
*D16
  1

  0
LINE
  5
55C3
330
55CA
100
AcDbEntity
  8
标注
100
AcDbLine
 10
209.2978633474386
 20
700.3710944297111
 30
0.0
 11
85.76203268866766
 21
635.8180875533856
 31
0.0
  0
MTEXT
  5
55C4
330
55CA
100
AcDbEntity
  8
标注
 62
     6
100
AcDbMText
 10
176.704513121294
 20
692.9301290702749
 30
0.0
 40
13.00000000000016
 41
0.0
 71
     5
 72
     1
  1
4-R82
 11
0.8862918275031285
 21
0.4631271925736652
 31
0.0
 73
     1
 44
1.0
1001
ACAD
1000
MTEXTBEGIN
1070
    73
1070
     1
1070
    44
1040
1.0
1070
    74
1070
     0
1000
MTEXTEND
  0
LINE
  5
55C5
330
55CA
100
AcDbEntity
  8
标注
100
AcDbLine
 10
5.995768213381325
 20
594.1366402217616
 30
0.0
 11
78.67169806864239
 21
632.1130700127967
 31
0.0
  0
SOLID
  5
55C6
330
55CA
100
AcDbEntity
  8
标注
100
AcDbTrace
 10
85.14452976523626
 20
636.9998099900564
 30
0.0
 11
86.37953561209906
 21
634.6363651167146
 31
0.0
 12
78.67169806864239
 22
632.1130700127967
 32
0.0
 13
78.67169806864239
 23
632.1130700127967
 33
0.0
  0
POINT
  5
55C7
330
55CA
100
AcDbEntity
  8
Defpoints
 62
     0
100
AcDbPoint
 10
78.67169806864239
 20
632.1130700127967
 30
0.0
  0
POINT
  5
55C8
330
55CA
100
AcDbEntity
  8
Defpoints
 62
     0
100
AcDbPoint
 10
5.995768213381325
 20
594.1366402217616
 30
0.0
  0
ENDBLK
  5
55CC
330
55CA
100
AcDbEntity
  8
0
100
AcDbBlockEnd
  0
BLOCK
  5
55D8
330
55D7
100
AcDbEntity
  8
0
100
AcDbBlockBegin
  2
*D17
 70
     1
 10
0.0
 20
0.0
 30
0.0
  3
*D17
  1

  0
LINE
  5
55D1
330
55D7
100
AcDbEntity
  8
标注
100
AcDbLine
 10
-34.80704680659528
 20
376.0834956425453
 30
0.0
 11
-50.65181859602262
 21
258.2446377232111
 31
0.0
  0
MTEXT
  5
55D2
330
55D7
100
AcDbEntity
  8
标注
 62
     6
100
AcDbMText
 10
-49.27244756245546
 20
332.2872253437688
 30
0.0
 40
13.00000000000018
 41
0.0
 71
     5
 72
     1
  1
4-R3228
 11
0.133262065967755
 21
0.9910808351360678
 31
0.0
 73
     1
 44
1.0
1001
ACAD
1000
MTEXTBEGIN
1070
    73
1070
     1
1070
    44
1040
1.0
1070
    74
1070
     0
1000
MTEXTEND
  0
SOLID
  5
55D3
330
55D7
100
AcDbEntity
  8
标注
100
AcDbTrace
 10
-51.97325970953762
 20
258.4223204778348
 30
0.0
 11
-49.33037748250808
 21
258.0669549685874
 31
0.0
 12
-51.71791512376421
 22
250.315991042123
 32
0.0
 13
-51.71791512376421
 23
250.315991042123
 33
0.0
  0
POINT
  5
55D4
330
55D7
100
AcDbEntity
  8
Defpoints
 62
     0
100
AcDbPoint
 10
-51.71791512376421
 20
250.315991042123
 30
0.0
  0
POINT
  5
55D5
330
55D7
100
AcDbEntity
  8
Defpoints
 62
     0
100
AcDbPoint
 10
378.4520338200132
 20
3449.524926861369
 30
0.0
  0
ENDBLK
  5
55D9
330
55D7
100
AcDbEntity
  8
0
100
AcDbBlockEnd
  0
BLOCK
  5
55E6
330
55E5
100
AcDbEntity
  8
0
100
AcDbBlockBegin
  2
*D18
 70
     1
 10
0.0
 20
0.0
 30
0.0
  3
*D18
  1

  0
LINE
  5
55DF
330
55E5
100
AcDbEntity
  8
标注
100
AcDbLine
 10
-20.60766618535081
 20
527.9818630874672
 30
0.0
 11
-111.08156880461
 21
554.6886173383825
 31
0.0
  0
MTEXT
  5
55E0
330
55E5
100
AcDbEntity
  8
标注
 62
     6
100
AcDbMText
 10
-59.60182928003496
 20
548.3550404453633
 30
0.0
 40
12.99999999999979
 41
0.0
 71
     5
 72
     1
  1
4-R3200
 11
0.9590873069179012
 21
-0.2831104690910728
 31
0.0
 73
     1
 44
1.0
1001
ACAD
1000
MTEXTBEGIN
1070
    73
1070
     1
1070
    44
1040
1.0
1070
    74
1070
     0
1000
MTEXTEND
  0
SOLID
  5
55E1
330
55E5
100
AcDbEntity
  8
标注
100
AcDbTrace
 10
-110.7040881791554
 20
555.9674004142732
 30
0.0
 11
-111.4590494300646
 21
553.4098342624917
 31
0.0
 12
-118.7542672599534
 22
556.9535010911102
 32
0.0
 13
-118.7542672599534
 23
556.9535010911102
 33
0.0
  0
POINT
  5
55E2
330
55E5
100
AcDbEntity
  8
Defpoints
 62
     0
100
AcDbPoint
 10
-118.7542672599534
 20
556.9535010911102
 30
0.0
  0
POINT
  5
55E3
330
55E5
100
AcDbEntity
  8
Defpoints
 62
     0
100
AcDbPoint
 10
2950.325114877424
 20
-349.0
 30
0.0
  0
ENDBLK
  5
55E7
330
55E5
100
AcDbEntity
  8
0
100
AcDbBlockEnd
  0
BLOCK
  5
563A
330
5639
100
AcDbEntity
  8
0
100
AcDbBlockBegin
  2
*D19
 70
     1
 10
0.0
 20
0.0
 30
0.0
  3
*D19
  1

  0
POINT
  5
562D
330
5639
100
AcDbEntity
  8
Defpoints
  6
ByBlock
100
AcDbPoint
 10
467.2058057623141
 20
488.2732160815897
 30
0.0
  0
POINT
  5
562E
330
5639
100
AcDbEntity
  8
Defpoints
  6
ByBlock
100
AcDbPoint
 10
460.8558057623119
 20
488.273216081597
 30
0.0
  0
LINE
  5
562F
330
5639
100
AcDbEntity
  8
标注
  6
ByBlock
 62
     0
370
    -2
100
AcDbLine
 10
467.2058057623141
 20
488.2732160815897
 30
0.0
 11
467.2058057623141
 21
453.6156327029201
 31
0.0
  0
LINE
  5
5630
330
5639
100
AcDbEntity
  8
标注
  6
ByBlock
 62
     0
370
    -2
100
AcDbLine
 10
460.8558057623119
 20
488.273216081597
 30
0.0
 11
460.8558057623119
 21
453.6156327029201
 31
0.0
  0
LINE
  5
5631
330
5639
100
AcDbEntity
  8
标注
  6
ByBlock
 62
     0
370
     0
100
AcDbLine
 10
472.2058057623142
 20
457.36563270292
 30
0.0
 11
477.2058057623142
 21
457.36563270292
 31
0.0
  0
LINE
  5
5632
330
5639
100
AcDbEntity
  8
标注
  6
ByBlock
 62
     0
370
     0
100
AcDbLine
 10
402.2787252711796
 20
457.36563270292
 30
0.0
 11
455.855805762312
 21
457.36563270292
 31
0.0
  0
SOLID
  5
5633
330
5639
100
AcDbEntity
  8
标注
  6
ByBlock
 62
     0
100
AcDbTrace
 10
467.2058057623141
 20
457.36563270292
 30
0.0
 11
472.2058057623142
 21
458.1989660362536
 31
0.0
 12
472.2058057623142
 22
456.5322993695866
 32
0.0
 13
472.2058057623142
 23
456.5322993695866
 33
0.0
  0
SOLID
  5
5634
330
5639
100
AcDbEntity
  8
标注
  6
ByBlock
 62
     0
100
AcDbTrace
 10
460.8558057623119
 20
457.36563270292
 30
0.0
 11
455.855805762312
 21
458.1989660362536
 31
0.0
 12
455.855805762312
 22
456.5322993695866
 32
0.0
 13
455.855805762312
 23
456.5322993695866
 33
0.0
  0
LINE
  5
5635
330
5639
100
AcDbEntity
  8
标注
  6
ByBlock
 62
     0
370
     0
100
AcDbLine
 10
467.2058057623141
 20
457.36563270292
 30
0.0
 11
460.8558057623119
 21
457.36563270292
 31
0.0
  0
LINE
  5
5636
330
5639
100
AcDbEntity
  8
标注
  6
ByBlock
 62
     0
370
     0
100
AcDbLine
 10
467.2058057623141
 20
488.2732160815897
 30
0.0
 11
467.2058057623141
 21
488.2732160815897
 31
0.0
  0
MTEXT
  5
5637
330
5639
100
AcDbEntity
  8
标注
  6
ByBlock
 62
     0
100
AcDbMText
 10
429.0672655167457
 20
465.9242957315695
 30
0.0
 40
10.0
 41
0.0
 71
     5
 72
     1
  1
\A0;{\fArial|b0|i0|c0|p34;6.4 [1/4]}
 73
     1
 44
1.0
1001
ACAD
1000
MTEXTBEGIN
1070
    73
1070
     1
1070
    44
1040
1.0
1070
    74
1070
     0
1000
MTEXTEND
  0
ENDBLK
  5
563B
330
5639
100
AcDbEntity
  8
0
100
AcDbBlockEnd
  0
BLOCK
  5
565A
330
5659
100
AcDbEntity
  8
0
100
AcDbBlockBegin
  2
*D20
 70
     1
 10
0.0
 20
0.0
 30
0.0
  3
*D20
  1

  0
POINT
  5
564D
330
5659
100
AcDbEntity
  8
Defpoints
  6
ByBlock
100
AcDbPoint
 10
473.5558057623164
 20
488.273216081597
 30
0.0
  0
POINT
  5
564E
330
5659
100
AcDbEntity
  8
Defpoints
  6
ByBlock
100
AcDbPoint
 10
467.2058057623141
 20
488.2732160815897
 30
0.0
  0
LINE
  5
564F
330
5659
100
AcDbEntity
  8
标注
  6
ByBlock
 62
     0
370
    -2
100
AcDbLine
 10
473.5558057623164
 20
488.273216081597
 30
0.0
 11
473.5558057623164
 21
475.11563270292
 31
0.0
  0
LINE
  5
5650
330
5659
100
AcDbEntity
  8
标注
  6
ByBlock
 62
     0
370
    -2
100
AcDbLine
 10
467.2058057623141
 20
488.2732160815897
 30
0.0
 11
467.2058057623141
 21
475.11563270292
 31
0.0
  0
LINE
  5
5651
330
5659
100
AcDbEntity
  8
标注
  6
ByBlock
 62
     0
370
     0
100
AcDbLine
 10
478.5558057623163
 20
478.86563270292
 30
0.0
 11
483.5558057623163
 21
478.86563270292
 31
0.0
  0
LINE
  5
5652
330
5659
100
AcDbEntity
  8
标注
  6
ByBlock
 62
     0
370
     0
100
AcDbLine
 10
404.2114597544338
 20
478.86563270292
 30
0.0
 11
462.2058057623141
 21
478.86563270292
 31
0.0
  0
SOLID
  5
5653
330
5659
100
AcDbEntity
  8
标注
  6
ByBlock
 62
     0
100
AcDbTrace
 10
473.5558057623164
 20
478.86563270292
 30
0.0
 11
478.5558057623163
 21
479.6989660362536
 31
0.0
 12
478.5558057623163
 22
478.0322993695865
 32
0.0
 13
478.5558057623163
 23
478.0322993695865
 33
0.0
  0
SOLID
  5
5654
330
5659
100
AcDbEntity
  8
标注
  6
ByBlock
 62
     0
100
AcDbTrace
 10
467.2058057623141
 20
478.86563270292
 30
0.0
 11
462.2058057623141
 21
479.6989660362536
 31
0.0
 12
462.2058057623141
 22
478.0322993695865
 32
0.0
 13
462.2058057623141
 23
478.0322993695865
 33
0.0
  0
LINE
  5
5655
330
5659
100
AcDbEntity
  8
标注
  6
ByBlock
 62
     0
370
     0
100
AcDbLine
 10
473.5558057623164
 20
478.86563270292
 30
0.0
 11
467.2058057623141
 21
478.86563270292
 31
0.0
  0
LINE
  5
5656
330
5659
100
AcDbEntity
  8
标注
  6
ByBlock
 62
     0
370
     0
100
AcDbLine
 10
473.5558057623164
 20
488.273216081597
 30
0.0
 11
473.5558057623164
 21
488.273216081597
 31
0.0
  0
MTEXT
  5
5657
330
5659
100
AcDbEntity
  8
标注
  6
ByBlock
 62
     0
100
AcDbMText
 10
431.0
 20
487.4242957315694
 30
0.0
 40
10.0
 41
0.0
 71
     5
 72
     1
  1
\A0;{\fArial|b0|i0|c0|p34;6.4 [1/4]}
 73
     1
 44
1.0
1001
ACAD
1000
MTEXTBEGIN
1070
    73
1070
     1
1070
    44
1040
1.0
1070
    74
1070
     0
1000
MTEXTEND
  0
ENDBLK
  5
565B
330
5659
100
AcDbEntity
  8
0
100
AcDbBlockEnd
  0
BLOCK
  5
56C6
330
56C5
100
AcDbEntity
  8
0
100
AcDbBlockBegin
  2
*D21
 70
     1
 10
0.0
 20
0.0
 30
0.0
  3
*D21
  1

  0
POINT
  5
56C7
330
56C5
100
AcDbEntity
  8
Defpoints
  6
ByBlock
100
AcDbPoint
 10
1759.163124991637
 20
380.7732090624771
 30
0.0
  0
POINT
  5
56C8
330
56C5
100
AcDbEntity
  8
Defpoints
  6
ByBlock
100
AcDbPoint
 10
1763.763129542887
 20
590.7732090624771
 30
0.0
  0
LINE
  5
56C9
330
56C5
100
AcDbEntity
  8
标注
  6
ByBlock
 62
     0
370
    -2
100
AcDbLine
 10
1759.163124991637
 20
380.7732090624771
 30
0.0
 11
1825.548235662621
 21
380.7732090624771
 31
0.0
  0
LINE
  5
56CA
330
56C5
100
AcDbEntity
  8
标注
  6
ByBlock
 62
     0
370
    -2
100
AcDbLine
 10
1763.763129542887
 20
590.7732090624771
 30
0.0
 11
1825.548235662621
 21
590.7732090624771
 31
0.0
  0
LINE
  5
56CB
330
56C5
100
AcDbEntity
  8
标注
  6
ByBlock
 62
     0
370
     0
100
AcDbLine
 10
1821.798235662621
 20
385.7732090624771
 30
0.0
 11
1821.798235662621
 21
585.7732090624771
 31
0.0
  0
SOLID
  5
56CC
330
56C5
100
AcDbEntity
  8
标注
  6
ByBlock
 62
     0
100
AcDbTrace
 10
1821.798235662621
 20
380.7732090624771
 30
0.0
 11
1822.631568995954
 21
385.7732090624771
 31
0.0
 12
1820.964902329287
 22
385.7732090624771
 32
0.0
 13
1820.964902329287
 23
385.7732090624771
 33
0.0
  0
SOLID
  5
56CD
330
56C5
100
AcDbEntity
  8
标注
  6
ByBlock
 62
     0
100
AcDbTrace
 10
1821.798235662621
 20
590.7732090624771
 30
0.0
 11
1822.631568995954
 21
585.7732090624771
 31
0.0
 12
1820.964902329287
 22
585.7732090624771
 32
0.0
 13
1820.964902329287
 23
585.7732090624771
 33
0.0
  0
MTEXT
  5
56CE
330
56C5
100
AcDbEntity
  8
标注
  6
ByBlock
 62
     0
100
AcDbMText
 10
1813.239572633971
 20
485.7731986244949
 30
0.0
 40
10.0
 41
0.0
 71
     5
 72
     1
  1
\A0;{\fArial|b0|i0|c0|p34;210 [8 1/4]}
 11
-0.0000000000001034
 21
1.0
 31
0.0
 73
     1
 44
1.0
1001
ACAD
1000
MTEXTBEGIN
1070
    73
1070
     1
1070
    44
1040
1.0
1070
    74
1070
     0
1000
MTEXTEND
  0
ENDBLK
  5
56CF
330
56C5
100
AcDbEntity
  8
0
100
AcDbBlockEnd
  0
BLOCK
  5
56DE
330
56DD
100
AcDbEntity
  8
0
100
AcDbBlockBegin
  2
*D22
 70
     1
 10
0.0
 20
0.0
 30
0.0
  3
*D22
  1

  0
POINT
  5
56DF
330
56DD
100
AcDbEntity
  8
Defpoints
  6
ByBlock
100
AcDbPoint
 10
1759.163124991637
 20
387.1232090624775
 30
0.0
  0
POINT
  5
56E0
330
56DD
100
AcDbEntity
  8
Defpoints
  6
ByBlock
100
AcDbPoint
 10
1764.470822550771
 20
584.4232090624768
 30
0.0
  0
LINE
  5
56E1
330
56DD
100
AcDbEntity
  8
标注
  6
ByBlock
 62
     0
370
    -2
100
AcDbLine
 10
1759.163124991637
 20
387.1232090624775
 30
0.0
 11
1803.316999293505
 21
387.1232090624775
 31
0.0
  0
LINE
  5
56E2
330
56DD
100
AcDbEntity
  8
标注
  6
ByBlock
 62
     0
370
    -2
100
AcDbLine
 10
1764.470822550771
 20
584.4232090624768
 30
0.0
 11
1803.316999293505
 21
584.4232090624768
 31
0.0
  0
LINE
  5
56E3
330
56DD
100
AcDbEntity
  8
标注
  6
ByBlock
 62
     0
370
     0
100
AcDbLine
 10
1799.566999293505
 20
392.1232090624775
 30
0.0
 11
1799.566999293505
 21
579.4232090624767
 31
0.0
  0
SOLID
  5
56E4
330
56DD
100
AcDbEntity
  8
标注
  6
ByBlock
 62
     0
100
AcDbTrace
 10
1799.566999293505
 20
387.1232090624775
 30
0.0
 11
1800.400332626838
 21
392.1232090624775
 31
0.0
 12
1798.733665960171
 22
392.1232090624775
 32
0.0
 13
1798.733665960171
 23
392.1232090624775
 33
0.0
  0
SOLID
  5
56E5
330
56DD
100
AcDbEntity
  8
标注
  6
ByBlock
 62
     0
100
AcDbTrace
 10
1799.566999293505
 20
584.4232090624768
 30
0.0
 11
1800.400332626838
 21
579.4232090624767
 31
0.0
 12
1798.733665960171
 22
579.4232090624767
 32
0.0
 13
1798.733665960171
 23
579.4232090624767
 33
0.0
  0
MTEXT
  5
56E6
330
56DD
100
AcDbEntity
  8
标注
  6
ByBlock
 62
     0
100
AcDbMText
 10
1791.008336264855
 20
485.7731986244931
 30
0.0
 40
10.0
 41
0.0
 71
     5
 72
     1
  1
\A0;{\fArial|b0|i0|c0|p34;197.3 [7 3/4]}
 11
-0.0000000000001034
 21
1.0
 31
0.0
 73
     1
 44
1.0
1001
ACAD
1000
MTEXTBEGIN
1070
    73
1070
     1
1070
    44
1040
1.0
1070
    74
1070
     0
1000
MTEXTEND
  0
ENDBLK
  5
56E7
330
56DD
100
AcDbEntity
  8
0
100
AcDbBlockEnd
  0
BLOCK
  5
5895
330
5894
100
AcDbEntity
  8
0
100
AcDbBlockBegin
  2
*D23
 70
     1
 10
0.0
 20
0.0
 30
0.0
  3
*D23
  1

  0
POINT
  5
588B
330
5894
100
AcDbEntity
  8
Defpoints
  6
ByBlock
100
AcDbPoint
 10
1755.355811998834
 20
614.1725350202096
 30
0.0
  0
POINT
  5
588C
330
5894
100
AcDbEntity
  8
Defpoints
  6
ByBlock
100
AcDbPoint
 10
1368.055821028886
 20
616.5
 30
0.0
  0
LINE
  5
588D
330
5894
100
AcDbEntity
  8
标注
  6
ByBlock
 62
     0
370
    -2
100
AcDbLine
 10
1755.355811998834
 20
614.1725350202096
 30
0.0
 11
1755.355811998834
 21
654.373209062478
 31
0.0
  0
LINE
  5
588E
330
5894
100
AcDbEntity
  8
标注
  6
ByBlock
 62
     0
370
    -2
100
AcDbLine
 10
1368.055821028886
 20
616.5
 30
0.0
 11
1368.055821028886
 21
654.373209062478
 31
0.0
  0
LINE
  5
588F
330
5894
100
AcDbEntity
  8
标注
  6
ByBlock
 62
     0
370
     0
100
AcDbLine
 10
1750.355811998834
 20
650.623209062478
 30
0.0
 11
1373.055821028886
 21
650.623209062478
 31
0.0
  0
SOLID
  5
5890
330
5894
100
AcDbEntity
  8
标注
  6
ByBlock
 62
     0
100
AcDbTrace
 10
1755.355811998834
 20
650.623209062478
 30
0.0
 11
1750.355811998834
 21
651.4565423958115
 31
0.0
 12
1750.355811998834
 22
649.7898757291445
 32
0.0
 13
1750.355811998834
 23
649.7898757291445
 33
0.0
  0
SOLID
  5
5891
330
5894
100
AcDbEntity
  8
标注
  6
ByBlock
 62
     0
100
AcDbTrace
 10
1368.055821028886
 20
650.623209062478
 30
0.0
 11
1373.055821028886
 21
651.4565423958115
 31
0.0
 12
1373.055821028886
 22
649.7898757291445
 32
0.0
 13
1373.055821028886
 23
649.7898757291445
 33
0.0
  0
MTEXT
  5
5892
330
5894
100
AcDbEntity
  8
标注
  6
ByBlock
 62
     0
100
AcDbMText
 10
1561.705819318558
 20
659.1818720911273
 30
0.0
 40
10.0
 41
0.0
 71
     5
 72
     1
  1
\A0;{\fArial|b0|i0|c0|p34;387.3 [15 1/4]}
 73
     1
 44
1.0
1001
ACAD
1000
MTEXTBEGIN
1070
    73
1070
     1
1070
    44
1040
1.0
1070
    74
1070
     0
1000
MTEXTEND
  0
ENDBLK
  5
5896
330
5894
100
AcDbEntity
  8
0
100
AcDbBlockEnd
  0
BLOCK
  5
58A2
330
58A1
100
AcDbEntity
  8
0
100
AcDbBlockBegin
  2
*D24
 70
     1
 10
0.0
 20
0.0
 30
0.0
  3
*D24
  1

  0
POINT
  5
5898
330
58A1
100
AcDbEntity
  8
Defpoints
  6
ByBlock
100
AcDbPoint
 10
1761.705811998834
 20
613.7756085823635
 30
0.0
  0
POINT
  5
5899
330
58A1
100
AcDbEntity
  8
Defpoints
  6
ByBlock
100
AcDbPoint
 10
1361.705821028887
 20
616.0
 30
0.0
  0
LINE
  5
589A
330
58A1
100
AcDbEntity
  8
标注
  6
ByBlock
 62
     0
370
    -2
100
AcDbLine
 10
1761.705811998834
 20
613.7756085823635
 30
0.0
 11
1761.705811998834
 21
676.6044454315938
 31
0.0
  0
LINE
  5
589B
330
58A1
100
AcDbEntity
  8
标注
  6
ByBlock
 62
     0
370
    -2
100
AcDbLine
 10
1361.705821028887
 20
616.0
 30
0.0
 11
1361.705821028887
 21
676.6044454315938
 31
0.0
  0
LINE
  5
589C
330
58A1
100
AcDbEntity
  8
标注
  6
ByBlock
 62
     0
370
     0
100
AcDbLine
 10
1756.705811998834
 20
672.8544454315938
 30
0.0
 11
1366.705821028887
 21
672.8544454315938
 31
0.0
  0
SOLID
  5
589D
330
58A1
100
AcDbEntity
  8
标注
  6
ByBlock
 62
     0
100
AcDbTrace
 10
1761.705811998834
 20
672.8544454315938
 30
0.0
 11
1756.705811998834
 21
673.6877787649273
 31
0.0
 12
1756.705811998834
 22
672.0211120982603
 32
0.0
 13
1756.705811998834
 23
672.0211120982603
 33
0.0
  0
SOLID
  5
589E
330
58A1
100
AcDbEntity
  8
标注
  6
ByBlock
 62
     0
100
AcDbTrace
 10
1361.705821028887
 20
672.8544454315938
 30
0.0
 11
1366.705821028887
 21
673.6877787649273
 31
0.0
 12
1366.705821028887
 22
672.0211120982603
 32
0.0
 13
1366.705821028887
 23
672.0211120982603
 33
0.0
  0
MTEXT
  5
589F
330
58A1
100
AcDbEntity
  8
标注
  6
ByBlock
 62
     0
100
AcDbMText
 10
1559.152114597544
 20
681.4131084602431
 30
0.0
 40
10.0
 41
0.0
 71
     5
 72
     1
  1
\A0;{\fArial|b0|i0|c0|p34;400 [15 3/4]}
 73
     1
 44
1.0
1001
ACAD
1000
MTEXTBEGIN
1070
    73
1070
     1
1070
    44
1040
1.0
1070
    74
1070
     0
1000
MTEXTEND
  0
ENDBLK
  5
58A3
330
58A1
100
AcDbEntity
  8
0
100
AcDbBlockEnd
  0
BLOCK
  5
58BC
330
58BB
100
AcDbEntity
  8
0
100
AcDbBlockBegin
  2
*D25
 70
     1
 10
0.0
 20
0.0
 30
0.0
  3
*D25
  1

  0
POINT
  5
58B2
330
58BB
100
AcDbEntity
  8
Defpoints
  6
ByBlock
100
AcDbPoint
 10
1768.055811998834
 20
613.7094541760561
 30
0.0
  0
POINT
  5
58B3
330
58BB
100
AcDbEntity
  8
Defpoints
  6
ByBlock
100
AcDbPoint
 10
1355.355821028886
 20
616.1682293024443
 30
0.0
  0
LINE
  5
58B4
330
58BB
100
AcDbEntity
  8
标注
  6
ByBlock
 62
     0
370
    -2
100
AcDbLine
 10
1768.055811998834
 20
613.7094541760561
 30
0.0
 11
1768.055811998834
 21
698.6044454315938
 31
0.0
  0
LINE
  5
58B5
330
58BB
100
AcDbEntity
  8
标注
  6
ByBlock
 62
     0
370
    -2
100
AcDbLine
 10
1355.355821028886
 20
616.1682293024443
 30
0.0
 11
1355.355821028886
 21
698.6044454315938
 31
0.0
  0
LINE
  5
58B6
330
58BB
100
AcDbEntity
  8
标注
  6
ByBlock
 62
     0
370
     0
100
AcDbLine
 10
1763.055811998834
 20
694.8544454315938
 30
0.0
 11
1360.355821028886
 21
694.8544454315938
 31
0.0
  0
SOLID
  5
58B7
330
58BB
100
AcDbEntity
  8
标注
  6
ByBlock
 62
     0
100
AcDbTrace
 10
1768.055811998834
 20
694.8544454315938
 30
0.0
 11
1763.055811998834
 21
695.6877787649273
 31
0.0
 12
1763.055811998834
 22
694.0211120982603
 32
0.0
 13
1763.055811998834
 23
694.0211120982603
 33
0.0
  0
SOLID
  5
58B8
330
58BB
100
AcDbEntity
  8
标注
  6
ByBlock
 62
     0
100
AcDbTrace
 10
1355.355821028886
 20
694.8544454315938
 30
0.0
 11
1360.355821028886
 21
695.6877787649273
 31
0.0
 12
1360.355821028886
 22
694.0211120982603
 32
0.0
 13
1360.355821028886
 23
694.0211120982603
 33
0.0
  0
MTEXT
  5
58B9
330
58BB
100
AcDbEntity
  8
标注
  6
ByBlock
 62
     0
100
AcDbMText
 10
1557.00136425648
 20
703.4131084602432
 30
0.0
 40
10.0
 41
0.0
 71
     5
 72
     1
  1
\A0;{\fArial|b0|i0|c0|p34;412.7 [16 1/4]}
 73
     1
 44
1.0
1001
ACAD
1000
MTEXTBEGIN
1070
    73
1070
     1
1070
    44
1040
1.0
1070
    74
1070
     0
1000
MTEXTEND
  0
ENDBLK
  5
58BD
330
58BB
100
AcDbEntity
  8
0
100
AcDbBlockEnd
  0
BLOCK
  5
5933
330
5932
100
AcDbEntity
  8
0
100
AcDbBlockBegin
  2
*D26
 70
     1
 10
0.0
 20
0.0
 30
0.0
  3
*D26
  1

  0
POINT
  5
5929
330
5932
100
AcDbEntity
  8
Defpoints
  6
ByBlock
100
AcDbPoint
 10
1758.955431983752
 20
374.4232090624763
 30
0.0
  0
POINT
  5
592A
330
5932
100
AcDbEntity
  8
Defpoints
  6
ByBlock
100
AcDbPoint
 10
1762.993897023175
 20
597.1232090624779
 30
0.0
  0
LINE
  5
592B
330
5932
100
AcDbEntity
  8
标注
  6
ByBlock
 62
     0
370
    -2
100
AcDbLine
 10
1758.955431983752
 20
374.4232090624763
 30
0.0
 11
1847.548235662621
 21
374.4232090624763
 31
0.0
  0
LINE
  5
592C
330
5932
100
AcDbEntity
  8
标注
  6
ByBlock
 62
     0
370
    -2
100
AcDbLine
 10
1762.993897023175
 20
597.1232090624779
 30
0.0
 11
1847.548235662621
 21
597.1232090624779
 31
0.0
  0
LINE
  5
592D
330
5932
100
AcDbEntity
  8
标注
  6
ByBlock
 62
     0
370
     0
100
AcDbLine
 10
1843.798235662621
 20
379.4232090624763
 30
0.0
 11
1843.798235662621
 21
592.1232090624779
 31
0.0
  0
SOLID
  5
592E
330
5932
100
AcDbEntity
  8
标注
  6
ByBlock
 62
     0
100
AcDbTrace
 10
1843.798235662621
 20
374.4232090624763
 30
0.0
 11
1844.631568995954
 21
379.4232090624763
 31
0.0
 12
1842.964902329287
 22
379.4232090624763
 32
0.0
 13
1842.964902329287
 23
379.4232090624763
 33
0.0
  0
SOLID
  5
592F
330
5932
100
AcDbEntity
  8
标注
  6
ByBlock
 62
     0
100
AcDbTrace
 10
1843.798235662621
 20
597.1232090624779
 30
0.0
 11
1844.631568995954
 21
592.1232090624779
 31
0.0
 12
1842.964902329287
 22
592.1232090624779
 32
0.0
 13
1842.964902329287
 23
592.1232090624779
 33
0.0
  0
MTEXT
  5
5930
330
5932
100
AcDbEntity
  8
标注
  6
ByBlock
 62
     0
100
AcDbMText
 10
1835.239572633972
 20
485.7732090624773
 30
0.0
 40
10.0
 41
0.0
 71
     5
 72
     1
  1
\A0;{\fArial|b0|i0|c0|p34;222.7 [8 3/4]}
 11
-0.0000000000001034
 21
1.0
 31
0.0
 73
     1
 44
1.0
1001
ACAD
1000
MTEXTBEGIN
1070
    73
1070
     1
1070
    44
1040
1.0
1070
    74
1070
     0
1000
MTEXTEND
  0
ENDBLK
  5
5934
330
5932
100
AcDbEntity
  8
0
100
AcDbBlockEnd
  0
BLOCK
  5
59C1
330
59C0
100
AcDbEntity
  8
0
100
AcDbBlockBegin
  2
*D27
 70
     1
 10
0.0
 20
0.0
 30
0.0
  3
*D27
  1

  0
POINT
  5
59B4
330
59C0
100
AcDbEntity
  8
Defpoints
  6
ByBlock
100
AcDbPoint
 10
1368.055811998834
 20
485.7732060656025
 30
0.0
  0
POINT
  5
59B5
330
59C0
100
AcDbEntity
  8
Defpoints
  6
ByBlock
100
AcDbPoint
 10
1361.705811998835
 20
485.7732090624782
 30
0.0
  0
LINE
  5
59B6
330
59C0
100
AcDbEntity
  8
标注
  6
ByBlock
 62
     0
370
    -2
100
AcDbLine
 10
1368.055811998834
 20
485.7732060656025
 30
0.0
 11
1368.055811998834
 21
454.75
 31
0.0
  0
LINE
  5
59B7
330
59C0
100
AcDbEntity
  8
标注
  6
ByBlock
 62
     0
370
    -2
100
AcDbLine
 10
1361.705811998835
 20
485.7732090624782
 30
0.0
 11
1361.705811998835
 21
454.75
 31
0.0
  0
LINE
  5
59B8
330
59C0
100
AcDbEntity
  8
标注
  6
ByBlock
 62
     0
370
     0
100
AcDbLine
 10
1373.055811998834
 20
458.4999999999999
 30
0.0
 11
1378.055811998834
 21
458.4999999999999
 31
0.0
  0
LINE
  5
59B9
330
59C0
100
AcDbEntity
  8
标注
  6
ByBlock
 62
     0
370
     0
100
AcDbLine
 10
1267.705811998834
 20
458.4999999999999
 30
0.0
 11
1356.705811998834
 21
458.4999999999999
 31
0.0
  0
SOLID
  5
59BA
330
59C0
100
AcDbEntity
  8
标注
  6
ByBlock
 62
     0
100
AcDbTrace
 10
1368.055811998834
 20
458.4999999999999
 30
0.0
 11
1373.055811998834
 21
459.3333333333334
 31
0.0
 12
1373.055811998834
 22
457.6666666666665
 32
0.0
 13
1373.055811998834
 23
457.6666666666665
 33
0.0
  0
SOLID
  5
59BB
330
59C0
100
AcDbEntity
  8
标注
  6
ByBlock
 62
     0
100
AcDbTrace
 10
1361.705811998835
 20
458.4999999999999
 30
0.0
 11
1356.705811998834
 21
459.3333333333334
 31
0.0
 12
1356.705811998834
 22
457.6666666666665
 32
0.0
 13
1356.705811998834
 23
457.6666666666665
 33
0.0
  0
LINE
  5
59BC
330
59C0
100
AcDbEntity
  8
标注
  6
ByBlock
 62
     0
370
     0
100
AcDbLine
 10
1368.055811998834
 20
458.4999999999999
 30
0.0
 11
1361.705811998835
 21
458.4999999999999
 31
0.0
  0
LINE
  5
59BD
330
59C0
100
AcDbEntity
  8
标注
  6
ByBlock
 62
     0
370
     0
100
AcDbLine
 10
1368.055811998834
 20
485.7732060656025
 30
0.0
 11
1368.055811998834
 21
485.7732060656025
 31
0.0
  0
MTEXT
  5
59BE
330
59C0
100
AcDbEntity
  8
标注
  6
ByBlock
 62
     0
100
AcDbMText
 10
1309.705811998834
 20
465.5
 30
0.0
 40
10.0
 41
0.0
 71
     5
 72
     1
  1
\A0;6.35 [1/4]
 73
     1
 44
1.0
1001
ACAD
1000
MTEXTBEGIN
1070
    73
1070
     1
1070
    44
1040
1.0
1070
    74
1070
     0
1000
MTEXTEND
  0
ENDBLK
  5
59C2
330
59C0
100
AcDbEntity
  8
0
100
AcDbBlockEnd
  0
BLOCK
  5
59D1
330
59D0
100
AcDbEntity
  8
0
100
AcDbBlockBegin
  2
*D28
 70
     1
 10
0.0
 20
0.0
 30
0.0
  3
*D28
  1

  0
POINT
  5
59C4
330
59D0
100
AcDbEntity
  8
Defpoints
  6
ByBlock
100
AcDbPoint
 10
1361.705811998835
 20
485.7732090624782
 30
0.0
  0
POINT
  5
59C5
330
59D0
100
AcDbEntity
  8
Defpoints
  6
ByBlock
100
AcDbPoint
 10
1355.355811998834
 20
485.7732090624613
 30
0.0
  0
LINE
  5
59C6
330
59D0
100
AcDbEntity
  8
标注
  6
ByBlock
 62
     0
370
    -2
100
AcDbLine
 10
1361.705811998835
 20
485.7732090624782
 30
0.0
 11
1361.705811998835
 21
478.2499999999999
 31
0.0
  0
LINE
  5
59C7
330
59D0
100
AcDbEntity
  8
标注
  6
ByBlock
 62
     0
370
    -2
100
AcDbLine
 10
1355.355811998834
 20
485.7732090624613
 30
0.0
 11
1355.355811998834
 21
478.2499999999999
 31
0.0
  0
LINE
  5
59C8
330
59D0
100
AcDbEntity
  8
标注
  6
ByBlock
 62
     0
370
     0
100
AcDbLine
 10
1366.705811998835
 20
482.0
 30
0.0
 11
1371.705811998835
 21
482.0
 31
0.0
  0
LINE
  5
59C9
330
59D0
100
AcDbEntity
  8
标注
  6
ByBlock
 62
     0
370
     0
100
AcDbLine
 10
1261.355811998834
 20
482.0
 30
0.0
 11
1350.355811998834
 21
482.0
 31
0.0
  0
SOLID
  5
59CA
330
59D0
100
AcDbEntity
  8
标注
  6
ByBlock
 62
     0
100
AcDbTrace
 10
1361.705811998835
 20
482.0
 30
0.0
 11
1366.705811998835
 21
482.8333333333334
 31
0.0
 12
1366.705811998835
 22
481.1666666666665
 32
0.0
 13
1366.705811998835
 23
481.1666666666665
 33
0.0
  0
SOLID
  5
59CB
330
59D0
100
AcDbEntity
  8
标注
  6
ByBlock
 62
     0
100
AcDbTrace
 10
1355.355811998834
 20
482.0
 30
0.0
 11
1350.355811998834
 21
482.8333333333334
 31
0.0
 12
1350.355811998834
 22
481.1666666666665
 32
0.0
 13
1350.355811998834
 23
481.1666666666665
 33
0.0
  0
LINE
  5
59CC
330
59D0
100
AcDbEntity
  8
标注
  6
ByBlock
 62
     0
370
     0
100
AcDbLine
 10
1361.705811998835
 20
482.0
 30
0.0
 11
1355.355811998834
 21
482.0
 31
0.0
  0
LINE
  5
59CD
330
59D0
100
AcDbEntity
  8
标注
  6
ByBlock
 62
     0
370
     0
100
AcDbLine
 10
1361.705811998835
 20
485.7732090624782
 30
0.0
 11
1361.705811998835
 21
485.7732090624782
 31
0.0
  0
MTEXT
  5
59CE
330
59D0
100
AcDbEntity
  8
标注
  6
ByBlock
 62
     0
100
AcDbMText
 10
1303.355811998834
 20
489.0
 30
0.0
 40
10.0
 41
0.0
 71
     5
 72
     1
  1
\A0;6.35 [1/4]
 73
     1
 44
1.0
1001
ACAD
1000
MTEXTBEGIN
1070
    73
1070
     1
1070
    44
1040
1.0
1070
    74
1070
     0
1000
MTEXTEND
  0
ENDBLK
  5
59D2
330
59D0
100
AcDbEntity
  8
0
100
AcDbBlockEnd
  0
ENDSEC
  0
SECTION
  2
ENTITIES
  0
LINE
  5
4915
330
1F
100
AcDbEntity
  8
粗实线
100
AcDbLine
 10
1048.766799662472
 20
247.7972796094128
 30
0.0
 11
732.877190969173
 21
247.7972796094128
 31
0.0
  0
LINE
  5
4916
330
1F
100
AcDbEntity
  8
图框线
100
AcDbLine
 10
943.4702634313662
 20
328.5246240532587
 30
0.0
 11
943.4702634313662
 21
247.7972796094128
 31
0.0
  0
LINE
  5
4917
330
1F
100
AcDbEntity
  8
图框线
100
AcDbLine
 10
838.1737272002622
 20
328.5246240532587
 30
0.0
 11
838.1737272002622
 21
247.7972796094128
 31
0.0
  0
LINE
  5
4918
330
1F
100
AcDbEntity
  8
图框线
100
AcDbLine
 10
851.3357942291683
 20
279.3862404787428
 30
0.0
 11
851.3357942291683
 21
260.0818755030478
 31
0.0
  0
LINE
  5
4919
330
1F
100
AcDbEntity
  8
图框线
100
AcDbLine
 10
864.4978612580452
 20
279.3862404787428
 30
0.0
 11
864.4978612580452
 21
260.0818755030478
 31
0.0
  0
LINE
  5
491A
330
1F
100
AcDbEntity
  8
图框线
100
AcDbLine
 10
890.8219953158079
 20
260.0818755030478
 30
0.0
 11
890.8219953158079
 21
247.7972796094128
 31
0.0
  0
LINE
  5
491B
330
1F
100
AcDbEntity
  8
图框线
100
AcDbLine
 10
877.6599282869232
 20
289.9158941018606
 30
0.0
 11
877.6599282869232
 21
260.0818755030478
 31
0.0
  0
LINE
  5
491C
330
1F
100
AcDbEntity
  8
图框线
100
AcDbLine
 10
898.719235533149
 20
289.9158941018606
 30
0.0
 11
898.719235533149
 21
260.0818755030478
 31
0.0
  0
LINE
  5
491D
330
1F
100
AcDbEntity
  8
图框线
100
AcDbLine
 10
922.4109561851433
 20
289.9158941018606
 30
0.0
 11
922.4109561851433
 21
260.0818755030478
 31
0.0
  0
LINE
  5
491E
330
1F
100
AcDbEntity
  8
粗实线
100
AcDbLine
 10
1048.766799662472
 20
247.7972796094128
 30
0.0
 11
732.877190969173
 21
247.7972796094128
 31
0.0
  0
LINE
  5
491F
330
1F
100
AcDbEntity
  8
粗实线
100
AcDbLine
 10
1048.766799662472
 20
328.5246240532587
 30
0.0
 11
732.877190969173
 21
328.5246240532587
 31
0.0
  0
LINE
  5
4920
330
1F
100
AcDbEntity
  8
图框线
100
AcDbLine
 10
943.4702634313662
 20
289.9158941018606
 30
0.0
 11
732.877190969173
 21
289.9158941018606
 31
0.0
  0
LINE
  5
4921
330
1F
100
AcDbEntity
  8
图框线
100
AcDbLine
 10
838.1737272002622
 20
297.6376400921385
 30
0.0
 11
732.877190969173
 21
297.6376400921385
 31
0.0
  0
LINE
  5
4922
330
1F
100
AcDbEntity
  8
图框线
100
AcDbLine
 10
838.1737272002622
 20
305.3593860824141
 30
0.0
 11
732.877190969173
 21
305.3593860824141
 31
0.0
  0
LINE
  5
4923
330
1F
100
AcDbEntity
  8
图框线
100
AcDbLine
 10
838.1737272002622
 20
313.0811320726972
 30
0.0
 11
732.877190969173
 21
313.0811320726972
 31
0.0
  0
LINE
  5
4924
330
1F
100
AcDbEntity
  8
图框线
100
AcDbLine
 10
838.1737272002622
 20
320.802878062981
 30
0.0
 11
732.877190969173
 21
320.802878062981
 31
0.0
  0
LINE
  5
4925
330
1F
100
AcDbEntity
  8
图框线
100
AcDbLine
 10
943.4702634313662
 20
279.3862404787428
 30
0.0
 11
732.877190969173
 21
279.3862404787428
 31
0.0
  0
LINE
  5
4926
330
1F
100
AcDbEntity
  8
图框线
100
AcDbLine
 10
943.4702634313662
 20
268.856586855631
 30
0.0
 11
732.877190969173
 21
268.856586855631
 31
0.0
  0
LINE
  5
4927
330
1F
100
AcDbEntity
  8
图框线
100
AcDbLine
 10
838.1737272002622
 20
258.3269332325219
 30
0.0
 11
732.877190969173
 21
258.3269332325219
 31
0.0
  0
LINE
  5
4928
330
1F
100
AcDbEntity
  8
图框线
100
AcDbLine
 10
943.4702634313662
 20
279.3862404787428
 30
0.0
 11
838.1737272002622
 21
279.3862404787428
 31
0.0
  0
LINE
  5
4929
330
1F
100
AcDbEntity
  8
图框线
100
AcDbLine
 10
943.4702634313662
 20
268.856586855631
 30
0.0
 11
838.1737272002622
 21
268.856586855631
 31
0.0
  0
LINE
  5
492A
330
1F
100
AcDbEntity
  8
图框线
100
AcDbLine
 10
943.4702634313662
 20
260.0818755030478
 30
0.0
 11
838.1737272002622
 21
260.0818755030478
 31
0.0
  0
LINE
  5
492B
330
1F
100
AcDbEntity
  8
图框线
100
AcDbLine
 10
1048.766799662472
 20
300.4455477249645
 30
0.0
 11
943.4702634313662
 21
300.4455477249645
 31
0.0
  0
LINE
  5
492C
330
1F
100
AcDbEntity
  8
图框线
100
AcDbLine
 10
1048.766799662472
 20
274.1214136671785
 30
0.0
 11
943.4702634313662
 21
274.1214136671785
 31
0.0
  0
LINE
  5
492D
330
1F
100
AcDbEntity
  8
图框线
100
AcDbLine
 10
746.9167291333103
 20
289.9158941018465
 30
0.0
 11
746.9167291333103
 21
328.5246240532587
 31
0.0
  0
LINE
  5
492E
330
1F
100
AcDbEntity
  8
图框线
100
AcDbLine
 10
760.9562672974554
 20
289.9158941018465
 30
0.0
 11
760.9562672974554
 21
328.5246240532587
 31
0.0
  0
LINE
  5
492F
330
1F
100
AcDbEntity
  8
图框线
100
AcDbLine
 10
790.7902858962797
 20
289.9158941018606
 30
0.0
 11
790.7902858962797
 21
328.5246240532587
 31
0.0
  0
LINE
  5
4930
330
1F
100
AcDbEntity
  8
图框线
100
AcDbLine
 10
817.1144199540464
 20
289.9158941018606
 30
0.0
 11
817.1144199540464
 21
328.5246240532587
 31
0.0
  0
LINE
  5
4931
330
1F
100
AcDbEntity
  8
图框线
100
AcDbLine
 10
753.936498215387
 20
247.7972796094128
 30
0.0
 11
753.936498215387
 21
289.9158941018465
 31
0.0
  0
LINE
  5
4932
330
1F
100
AcDbEntity
  8
图框线
100
AcDbLine
 10
785.52545908472
 20
247.7972796094128
 30
0.0
 11
785.52545908472
 21
289.9158941018606
 31
0.0
  0
LINE
  5
4933
330
1F
100
AcDbEntity
  8
图框线
100
AcDbLine
 10
806.584766330935
 20
247.7972796094128
 30
0.0
 11
806.584766330935
 21
289.9158941018606
 31
0.0
  0
MTEXT
  5
4934
330
1F
100
AcDbEntity
  8
文字
100
AcDbMText
 10
735.5601404867806
 20
295.9543998590761
 30
0.0
 40
3.562493223728167
 41
22.89346621580866
 71
     1
 72
     5
  1
{\fSimSun|b0|i0|c134|p2;标记}
 73
     1
 44
1.0
1001
ACAD
1000
MTEXTBEGIN
1070
    73
1070
     1
1070
    44
1040
1.0
1070
    74
1070
     0
1000
MTEXTEND
  0
MTEXT
  5
4935
330
1F
100
AcDbEntity
  8
文字
100
AcDbMText
 10
749.3011032724413
 20
295.9126785968767
 30
0.0
 40
3.562493223728167
 41
22.89346621580866
 71
     1
 72
     5
  1
{\fSimSun|b0|i0|c134|p2;处数}
 73
     1
 44
1.0
1001
ACAD
1000
MTEXTBEGIN
1070
    73
1070
     1
1070
    44
1040
1.0
1070
    74
1070
     0
1000
MTEXTEND
  0
MTEXT
  5
4936
330
1F
100
AcDbEntity
  8
文字
100
AcDbMText
 10
766.3339697087673
 20
295.4667202421717
 30
0.0
 40
2.849994578982533
 41
48.6805432421583
 71
     1
 72
     5
  1
{\fSimSun|b0|i0|c134|p2;\C1;更改文件号}
 73
     1
 44
1.0
1001
ACAD
1000
MTEXTBEGIN
1070
    73
1070
     1
1070
    44
1040
1.0
1070
    74
1070
     0
1000
MTEXTEND
  0
MTEXT
  5
4937
330
1F
100
AcDbEntity
  8
文字
100
AcDbMText
 10
798.4503522167448
 20
296.17359818073
 30
0.0
 40
3.562493223728167
 41
22.89346621580866
 71
     1
 72
     5
  1
{\fSimSun|b0|i0|c134|p2;签名}
 73
     1
 44
1.0
1001
ACAD
1000
MTEXTBEGIN
1070
    73
1070
     1
1070
    44
1040
1.0
1070
    74
1070
     0
1000
MTEXTEND
  0
MTEXT
  5
4938
330
1F
100
AcDbEntity
  8
文字
100
AcDbMText
 10
823.6870380751092
 20
295.9638360751038
 30
0.0
 40
3.562493223728167
 41
22.89346621580866
 71
     1
 72
     5
  1
{\fSimSun|b0|i0|c134|p2;日期}
 73
     1
 44
1.0
1001
ACAD
1000
MTEXTBEGIN
1070
    73
1070
     1
1070
    44
1040
1.0
1070
    74
1070
     0
1000
MTEXTEND
  0
MTEXT
  5
4939
330
1F
100
AcDbEntity
  8
文字
100
AcDbMText
 10
737.4293397279502
 20
287.172932970235
 30
0.0
 40
4.453116529660206
 41
28.61683276976083
 71
     1
 72
     5
  1
{\fSimSun|b0|i0|c134|p2;设计}
 73
     1
 44
1.0
1001
ACAD
1000
MTEXTBEGIN
1070
    73
1070
     1
1070
    44
1040
1.0
1070
    74
1070
     0
1000
MTEXTEND
  0
MTEXT
  5
493A
330
1F
100
AcDbEntity
  8
文字
100
AcDbMText
 10
737.4293397279502
 20
276.5716590424741
 30
0.0
 40
4.453116529660206
 41
28.61683276976083
 71
     1
 72
     5
  1
{\fSimSun|b0|i0|c134|p2;校对}
 73
     1
 44
1.0
1001
ACAD
1000
MTEXTBEGIN
1070
    73
1070
     1
1070
    44
1040
1.0
1070
    74
1070
     0
1000
MTEXTEND
  0
MTEXT
  5
493B
330
1F
100
AcDbEntity
  8
文字
100
AcDbMText
 10
737.4293397279502
 20
266.0743191007858
 30
0.0
 40
4.453116529660206
 41
28.61683276976083
 71
     1
 72
     5
  1
{\fSimSun|b0|i0|c134|p2;会签}
 73
     1
 44
1.0
1001
ACAD
1000
MTEXTBEGIN
1070
    73
1070
     1
1070
    44
1040
1.0
1070
    74
1070
     0
1000
MTEXTEND
  0
MTEXT
  5
493C
330
1F
100
AcDbEntity
  8
文字
100
AcDbMText
 10
737.4293397279502
 20
255.6909341906809
 30
0.0
 40
4.453116529660206
 41
28.61683276976083
 71
     1
 72
     5
  1
{\fSimSun|b0|i0|c134|p2;工艺}
 73
     1
 44
1.0
1001
ACAD
1000
MTEXTBEGIN
1070
    73
1070
     1
1070
    44
1040
1.0
1070
    74
1070
     0
1000
MTEXTEND
  0
MTEXT
  5
493D
330
1F
100
AcDbEntity
  8
文字
100
AcDbMText
 10
790.0053232508204
 20
275.9451393363219
 30
0.0
 40
4.453116529660206
 41
28.61683276976083
 71
     1
 72
     5
  1
{\fSimSun|b0|i0|c134|p2;批准}
 73
     1
 44
1.0
1001
ACAD
1000
MTEXTBEGIN
1070
    73
1070
     1
1070
    44
1040
1.0
1070
    74
1070
     0
1000
MTEXTEND
  0
MTEXT
  5
493E
330
1F
100
AcDbEntity
  8
文字
100
AcDbMText
 10
790.9543684871355
 20
255.0644226195966
 30
0.0
 40
4.453116529660206
 41
28.61683276976083
 71
     1
 72
     5
  1
{\fSimSun|b0|i0|c134|p2;日期}
 73
     1
 44
1.0
1001
ACAD
1000
MTEXTBEGIN
1070
    73
1070
     1
1070
    44
1040
1.0
1070
    74
1070
     0
1000
MTEXTEND
  0
MTEXT
  5
493F
330
1F
100
AcDbEntity
  8
文字
100
AcDbMText
 10
845.8691735605452
 20
287.2596937092133
 30
0.0
 40
4.453116529660206
 41
28.61683276976083
 71
     1
 72
     5
  1
{\fSimSun|b0|i0|c134|p2;图样标记}
 73
     1
 44
1.0
1001
ACAD
1000
MTEXTBEGIN
1070
    73
1070
     1
1070
    44
1040
1.0
1070
    74
1070
     0
1000
MTEXTEND
  0
MTEXT
  5
4940
330
1F
100
AcDbEntity
  8
文字
100
AcDbMText
 10
852.8729648955351
 20
256.0712840314643
 30
0.0
 40
4.453116529660206
 41
28.61683276976083
 71
     1
 72
     5
  1
{\fSimSun|b0|i0|c134|p2;共  页}
 73
     1
 44
1.0
1001
ACAD
1000
MTEXTBEGIN
1070
    73
1070
     1
1070
    44
1040
1.0
1070
    74
1070
     0
1000
MTEXTEND
  0
MTEXT
  5
4941
330
1F
100
AcDbEntity
  8
文字
100
AcDbMText
 10
883.120221178839
 20
287.2196975758877
 30
0.0
 40
4.453116529660206
 41
28.61683276976083
 71
     1
 72
     5
  1
{\fSimSun|b0|i0|c134|p2;数量}
 73
     1
 44
1.0
1001
ACAD
1000
MTEXTBEGIN
1070
    73
1070
     1
1070
    44
1040
1.0
1070
    74
1070
     0
1000
MTEXTEND
  0
MTEXT
  5
4942
330
1F
100
AcDbEntity
  8
文字
100
AcDbMText
 10
901.8301310165607
 20
286.9300566167373
 30
0.0
 40
4.453116529660206
 41
28.61683276976083
 71
     1
 72
     5
  1
{\fSimSun|b0|i0|c134|p2;重量}
 73
     1
 44
1.0
1001
ACAD
1000
MTEXTBEGIN
1070
    73
1070
     1
1070
    44
1040
1.0
1070
    74
1070
     0
1000
MTEXTEND
  0
MTEXT
  5
4943
330
1F
100
AcDbEntity
  8
文字
100
AcDbMText
 10
927.4277117782613
 20
287.1617677570457
 30
0.0
 40
4.453116529660206
 41
28.61683276976083
 71
     1
 72
     5
  1
{\fSimSun|b0|i0|c134|p2;比例}
 73
     1
 44
1.0
1001
ACAD
1000
MTEXTBEGIN
1070
    73
1070
     1
1070
    44
1040
1.0
1070
    74
1070
     0
1000
MTEXTEND
  0
MTEXT
  5
4944
330
1F
100
AcDbEntity
  8
文字
100
AcDbMText
 10
915.4036846962336
 20
286.4679594352978
 30
0.0
 40
5.175535348831056
 41
102.7627972441311
 71
     1
 72
     5
  1
{\fArial|b0|i0|c0|p34;kg}
  7
样式 8
 73
     1
 44
1.0
1001
ACAD
1000
MTEXTBEGIN
1070
    73
1070
     1
1070
    44
1040
1.0
1070
    74
1070
     0
1000
MTEXTEND
  0
MTEXT
  5
4945
330
1F
100
AcDbEntity
  8
文字
100
AcDbMText
 10
905.9222621896779
 20
256.0712840314643
 30
0.0
 40
4.453116529660206
 41
28.61683276976083
 71
     1
 72
     5
  1
{\fSimSun|b0|i0|c134|p2;第  页}
 73
     1
 44
1.0
1001
ACAD
1000
MTEXTBEGIN
1070
    73
1070
     1
1070
    44
1040
1.0
1070
    74
1070
     0
1000
MTEXTEND
  0
MTEXT
  5
4946
330
1F
100
AcDbEntity
  8
文字
100
AcDbMText
 10
948.6147734745573
 20
316.3179886800838
 30
0.0
 40
6.469419186038819
 41
128.4534965551638
 71
     1
 72
     5
  1
{\fSimSun|b0|i0|c134|p2;\C1;泰捷不锈钢制品（泰国）有限公司}
  7
样式 8
 73
     1
 44
1.0
1001
ACAD
1000
MTEXTBEGIN
1070
    73
1070
     1
1070
    44
1040
1.0
1070
    74
1070
     0
1000
MTEXTEND
  0
MTEXT
  5
4947
330
1F
100
AcDbEntity
  8
文字
100
AcDbMText
 10
958.1606554559513
 20
293.0450761986982
 30
0.0
 40
8.423722898488048
 41
167.2571569728695
 71
     1
 72
     5
  1
\fSimSun|b0|i0|c134|p2;\C1;开孔纸板（FD1003）
  7
样式 8
 73
     1
 44
1.0
1001
ACAD
1000
MTEXTBEGIN
1070
    73
1070
     1
1070
    44
1040
1.0
1070
    74
1070
     0
1000
MTEXTEND
  0
LINE
  5
4948
330
1F
100
AcDbEntity
  8
不可见
100
AcDbLine
 10
1057.541511015063
 20
760.2404226007705
 30
0.0
 11
1057.541511015063
 21
239.0225682568215
 31
0.0
  0
LINE
  5
4949
330
1F
100
AcDbEntity
  8
粗实线
100
AcDbLine
 10
1048.766799662472
 20
751.4657112481889
 30
0.0
 11
1048.766799662472
 21
247.7972796094128
 31
0.0
  0
LINE
  5
494A
330
1F
100
AcDbEntity
  8
不可见
100
AcDbLine
 10
1057.541511015063
 20
239.0225682568215
 30
0.0
 11
320.4657573973595
 21
239.0225682568215
 31
0.0
  0
LINE
  5
494B
330
1F
100
AcDbEntity
  8
粗实线
100
AcDbLine
 10
1048.766799662472
 20
247.7972796094128
 30
0.0
 11
364.3393141603096
 21
247.7972796094128
 31
0.0
  0
LINE
  5
494C
330
1F
100
AcDbEntity
  8
粗实线
100
AcDbLine
 10
1048.766799662472
 20
247.7972796094128
 30
0.0
 11
364.3393141603096
 21
247.7972796094128
 31
0.0
  0
MTEXT
  5
494D
330
1F
100
AcDbEntity
  8
文字
100
AcDbMText
 10
867.187967582414
 20
311.1371736085276
 30
0.0
 40
8.423722898488048
 41
167.2571569728695
 71
     1
 72
     5
  1
{\fSimSun|b0|i0|c0|p2;\C1;0.3\fSimSun|b0|i0|c134|p2;mm厚白纸板}
  7
样式 8
 73
     1
 44
1.0
1001
ACAD
1000
MTEXTBEGIN
1070
    73
1070
     1
1070
    44
1040
1.0
1070
    74
1070
     0
1000
MTEXTEND
  0
MTEXT
  5
494E
330
1F
100
AcDbEntity
  8
文字
100
AcDbMText
 10
842.7788044166947
 20
324.2466978749113
 30
0.0
 40
8.423722898488048
 41
167.2571569728695
 71
     1
 72
     5
  1
{\fSimSun|b0|i0|c134|p2;材料:}
  7
样式 8
 73
     1
 44
1.0
1001
ACAD
1000
MTEXTBEGIN
1070
    73
1070
     1
1070
    44
1040
1.0
1070
    74
1070
     0
1000
MTEXTEND
  0
MTEXT
  5
494F
330
1F
100
AcDbEntity
  8
文字
100
AcDbMText
 10
790.0053232508204
 20
286.5022525532408
 30
0.0
 40
4.453116529660206
 41
28.61683276976083
 71
     1
 72
     5
  1
{\fSimSun|b0|i0|c134|p2;审核}
 73
     1
 44
1.0
1001
ACAD
1000
MTEXTBEGIN
1070
    73
1070
     1
1070
    44
1040
1.0
1070
    74
1070
     0
1000
MTEXTEND
  0
LINE
  5
4950
330
1F
100
AcDbEntity
  8
不可见
100
AcDbLine
 10
320.4657573973595
 20
760.2404226007705
 30
0.0
 11
1057.541511015063
 21
760.2404226007705
 31
0.0
  0
LINE
  5
4951
330
1F
100
AcDbEntity
  8
粗实线
100
AcDbLine
 10
364.3393141603096
 20
751.4657112481773
 30
0.0
 11
1048.766799662472
 21
751.4657112481773
 31
0.0
  0
LINE
  5
4952
330
1F
100
AcDbEntity
  8
不可见
100
AcDbLine
 10
320.4657573973595
 20
239.0225682568215
 30
0.0
 11
320.4657573973595
 21
760.2404226007705
 31
0.0
  0
LINE
  5
4953
330
1F
100
AcDbEntity
  8
粗实线
100
AcDbLine
 10
364.3393141603096
 20
247.7972796094128
 30
0.0
 11
364.3393141603096
 21
751.4657112481773
 31
0.0
  0
LINE
  5
4954
330
1F
100
AcDbEntity
  8
粗实线
100
AcDbLine
 10
364.3393141603096
 20
733.2664693945583
 30
0.0
 11
450.8641190018818
 21
733.2664693945583
 31
0.0
  0
LINE
  5
4955
330
1F
100
AcDbEntity
  8
粗实线
100
AcDbLine
 10
450.8641190018818
 20
733.2664693945583
 30
0.0
 11
450.8641190018818
 21
751.4657112481773
 31
0.0
  0
LINE
  5
4956
330
1F
100
AcDbEntity
  8
图框线
100
AcDbLine
 10
364.3393141603096
 20
261.8368177735568
 30
0.0
 11
320.4657573973595
 21
261.8368177735568
 31
0.0
  0
LINE
  5
4957
330
1F
100
AcDbEntity
  8
图框线
100
AcDbLine
 10
364.3393141603096
 20
272.3664713966748
 30
0.0
 11
320.4657573973595
 21
272.3664713966748
 31
0.0
  0
LINE
  5
4958
330
1F
100
AcDbEntity
  8
图框线
100
AcDbLine
 10
364.3393141603096
 20
286.4060095608135
 30
0.0
 11
320.4657573973595
 21
286.4060095608135
 31
0.0
  0
LINE
  5
4959
330
1F
100
AcDbEntity
  8
图框线
100
AcDbLine
 10
364.3393141603096
 20
296.9356631839253
 30
0.0
 11
320.4657573973595
 21
296.9356631839253
 31
0.0
  0
LINE
  5
495A
330
1F
100
AcDbEntity
  8
图框线
100
AcDbLine
 10
364.3393141603096
 20
310.9752013480709
 30
0.0
 11
320.4657573973595
 21
310.9752013480709
 31
0.0
  0
LINE
  5
495B
330
1F
100
AcDbEntity
  8
图框线
100
AcDbLine
 10
364.3393141603096
 20
321.5048549711772
 30
0.0
 11
320.4657573973595
 21
321.5048549711772
 31
0.0
  0
LINE
  5
495C
330
1F
100
AcDbEntity
  8
图框线
100
AcDbLine
 10
364.3393141603096
 20
335.5443931353328
 30
0.0
 11
320.4657573973595
 21
335.5443931353328
 31
0.0
  0
LINE
  5
495D
330
1F
100
AcDbEntity
  8
图框线
100
AcDbLine
 10
364.3393141603096
 20
346.0740467584386
 30
0.0
 11
320.4657573973595
 21
346.0740467584386
 31
0.0
  0
LINE
  5
495E
330
1F
100
AcDbEntity
  8
图框线
100
AcDbLine
 10
364.3393141603096
 20
360.1135849225949
 30
0.0
 11
320.4657573973595
 21
360.1135849225949
 31
0.0
  0
LINE
  5
495F
330
1F
100
AcDbEntity
  8
图框线
100
AcDbLine
 10
364.3393141603096
 20
370.6432385457093
 30
0.0
 11
320.4657573973595
 21
370.6432385457093
 31
0.0
  0
LINE
  5
4960
330
1F
100
AcDbEntity
  8
图框线
100
AcDbLine
 10
364.3393141603096
 20
384.6827767098394
 30
0.0
 11
320.4657573973595
 21
384.6827767098394
 31
0.0
  0
LINE
  5
4961
330
1F
100
AcDbEntity
  8
图框线
100
AcDbLine
 10
364.3393141603096
 20
395.2124303329518
 30
0.0
 11
320.4657573973595
 21
395.2124303329518
 31
0.0
  0
LINE
  5
4962
330
1F
100
AcDbEntity
  8
图框线
100
AcDbLine
 10
364.3393141603096
 20
405.7420839560582
 30
0.0
 11
320.4657573973595
 21
405.7420839560582
 31
0.0
  0
LINE
  5
4963
330
1F
100
AcDbEntity
  8
图框线
100
AcDbLine
 10
364.3393141603096
 20
247.7972796094128
 30
0.0
 11
320.4657573973595
 21
247.7972796094128
 31
0.0
  0
MTEXT
  5
4964
102
{ACAD_XDICTIONARY
360
5A14
102
}
330
1F
100
AcDbEntity
  8
文字
100
AcDbMText
 10
325.1681755876007
 20
269.4639300779932
 30
0.0
 40
3.654667278354449
 41
92.84544906570991
 71
     1
 72
     5
  1
\U+65E5   
 73
     1
 44
1.0
1001
ACAD
1000
MTEXTBEGIN
1070
    73
1070
     1
1070
    44
1040
1.0
1070
    74
1070
     0
1000
MTEXTEND
  0
MTEXT
  5
4965
102
{ACAD_XDICTIONARY
360
5A16
102
}
330
1F
100
AcDbEntity
  8
文字
100
AcDbMText
 10
325.1681755876007
 20
294.0196657359539
 30
0.0
 40
3.654667278354449
 41
92.84544906570991
 71
     1
 72
     5
  1
\U+7B7E   
 73
     1
 44
1.0
1001
ACAD
1000
MTEXTBEGIN
1070
    73
1070
     1
1070
    44
1040
1.0
1070
    74
1070
     0
1000
MTEXTEND
  0
MTEXT
  5
4966
102
{ACAD_XDICTIONARY
360
5A18
102
}
330
1F
100
AcDbEntity
  8
文字
100
AcDbMText
 10
325.1681755876007
 20
319.2618236934806
 30
0.0
 40
3.654667278354449
 41
92.84544906570991
 71
     1
 72
     5
  1
\U+5E95
 73
     1
 44
1.0
1001
ACAD
1000
MTEXTBEGIN
1070
    73
1070
     1
1070
    44
1040
1.0
1070
    74
1070
     0
1000
MTEXTEND
  0
MTEXT
  5
4967
102
{ACAD_XDICTIONARY
360
5A1A
102
}
330
1F
100
AcDbEntity
  8
文字
100
AcDbMText
 10
325.1681755876007
 20
343.117583248398
 30
0.0
 40
3.654667278354449
 41
92.84544906570991
 71
     1
 72
     5
  1
\U+65E7
 73
     1
 44
1.0
1001
ACAD
1000
MTEXTBEGIN
1070
    73
1070
     1
1070
    44
1040
1.0
1070
    74
1070
     0
1000
MTEXTEND
  0
MTEXT
  5
4968
102
{ACAD_XDICTIONARY
360
5A1C
102
}
330
1F
100
AcDbEntity
  8
文字
100
AcDbMText
 10
324.5080203441964
 20
393.4776057997534
 30
0.0
 40
3.654667278354449
 41
92.84544906570991
 71
     1
 72
     5
  1
\U+63CF   
 73
     1
 44
1.0
1001
ACAD
1000
MTEXTBEGIN
1070
    73
1070
     1
1070
    44
1040
1.0
1070
    74
1070
     0
1000
MTEXTEND
  0
MTEXT
  5
4969
102
{ACAD_XDICTIONARY
360
5A1E
102
}
330
1F
100
AcDbEntity
  8
文字
100
AcDbMText
 10
322.7470439011149
 20
404.1864455222373
 30
0.0
 40
3.654667278354449
 41
92.84544906570991
 71
     1
 72
     5
  1
\ftxt.shx,gbcbig.shx;\H1x;\C1;\U+501F\U+FF08\U+901A\U+FF09\U+7528\U+4EF6\U+767B\U+8BB0
 73
     1
 44
1.0
1001
ACAD
1000
MTEXTBEGIN
1070
    73
1070
     1
1070
    44
1040
1.0
1070
    74
1070
     0
1000
MTEXTEND
  0
MTEXT
  5
496A
102
{ACAD_XDICTIONARY
360
5A20
102
}
330
1F
100
AcDbEntity
  8
文字
100
AcDbMText
 10
355.6608857078964
 20
393.4776057997534
 30
0.0
 40
3.654667278354449
 41
92.84544906570991
 71
     1
 72
     5
  1
\U+56FE   
 73
     1
 44
1.0
1001
ACAD
1000
MTEXTBEGIN
1070
    73
1070
     1
1070
    44
1040
1.0
1070
    74
1070
     0
1000
MTEXTEND
  0
MTEXT
  5
496B
102
{ACAD_XDICTIONARY
360
5A22
102
}
330
1F
100
AcDbEntity
  8
文字
100
AcDbMText
 10
324.5080203441964
 20
368.6998587466086
 30
0.0
 40
3.654667278354449
 41
92.84544906570991
 71
     1
 72
     5
  1
\U+63CF   
 73
     1
 44
1.0
1001
ACAD
1000
MTEXTBEGIN
1070
    73
1070
     1
1070
    44
1040
1.0
1070
    74
1070
     0
1000
MTEXTEND
  0
MTEXT
  5
496C
102
{ACAD_XDICTIONARY
360
5A24
102
}
330
1F
100
AcDbEntity
  8
文字
100
AcDbMText
 10
355.6608857078964
 20
368.6998587466086
 30
0.0
 40
3.654667278354449
 41
92.84544906570991
 71
     1
 72
     5
  1
\U+6821   
 73
     1
 44
1.0
1001
ACAD
1000
MTEXTBEGIN
1070
    73
1070
     1
1070
    44
1040
1.0
1070
    74
1070
     0
1000
MTEXTEND
  0
MTEXT
  5
496D
102
{ACAD_XDICTIONARY
360
5A26
102
}
330
1F
100
AcDbEntity
  8
文字
100
AcDbMText
 10
331.9443912399032
 20
343.1929729093525
 30
0.0
 40
3.654667278354449
 41
92.84544906570991
 71
     1
 72
     5
  1
\U+5E95
 73
     1
 44
1.0
1001
ACAD
1000
MTEXTBEGIN
1070
    73
1070
     1
1070
    44
1040
1.0
1070
    74
1070
     0
1000
MTEXTEND
  0
MTEXT
  5
496E
102
{ACAD_XDICTIONARY
360
5A28
102
}
330
1F
100
AcDbEntity
  8
文字
100
AcDbMText
 10
340.5212744878653
 20
343.117583248398
 30
0.0
 40
3.654667278354449
 41
92.84544906570991
 71
     1
 72
     5
  1
\U+56FE
 73
     1
 44
1.0
1001
ACAD
1000
MTEXTBEGIN
1070
    73
1070
     1
1070
    44
1040
1.0
1070
    74
1070
     0
1000
MTEXTEND
  0
MTEXT
  5
496F
102
{ACAD_XDICTIONARY
360
5A2A
102
}
330
1F
100
AcDbEntity
  8
文字
100
AcDbMText
 10
348.5036331807074
 20
343.117583248398
 30
0.0
 40
3.654667278354449
 41
92.84544906570991
 71
     1
 72
     5
  1
\U+603B
 73
     1
 44
1.0
1001
ACAD
1000
MTEXTBEGIN
1070
    73
1070
     1
1070
    44
1040
1.0
1070
    74
1070
     0
1000
MTEXTEND
  0
MTEXT
  5
4970
102
{ACAD_XDICTIONARY
360
5A2C
102
}
330
1F
100
AcDbEntity
  8
文字
100
AcDbMText
 10
356.4634648259663
 20
343.117583248398
 30
0.0
 40
3.654667278354449
 41
92.84544906570991
 71
     1
 72
     5
  1
\U+53F7
 73
     1
 44
1.0
1001
ACAD
1000
MTEXTBEGIN
1070
    73
1070
     1
1070
    44
1040
1.0
1070
    74
1070
     0
1000
MTEXTEND
  0
MTEXT
  5
4971
102
{ACAD_XDICTIONARY
360
5A2E
102
}
330
1F
100
AcDbEntity
  8
文字
100
AcDbMText
 10
335.1379038150846
 20
319.2618236934806
 30
0.0
 40
3.654667278354449
 41
92.84544906570991
 71
     1
 72
     5
  1
\U+56FE
 73
     1
 44
1.0
1001
ACAD
1000
MTEXTBEGIN
1070
    73
1070
     1
1070
    44
1040
1.0
1070
    74
1070
     0
1000
MTEXTEND
  0
MTEXT
  5
4972
102
{ACAD_XDICTIONARY
360
5A30
102
}
330
1F
100
AcDbEntity
  8
文字
100
AcDbMText
 10
344.9328247924133
 20
319.2618236934806
 30
0.0
 40
3.654667278354449
 41
92.84544906570991
 71
     1
 72
     5
  1
\U+603B
 73
     1
 44
1.0
1001
ACAD
1000
MTEXTBEGIN
1070
    73
1070
     1
1070
    44
1040
1.0
1070
    74
1070
     0
1000
MTEXTEND
  0
MTEXT
  5
4973
102
{ACAD_XDICTIONARY
360
5A32
102
}
330
1F
100
AcDbEntity
  8
文字
100
AcDbMText
 10
355.4959741604936
 20
319.2618236934806
 30
0.0
 40
3.654667278354449
 41
92.84544906570991
 71
     1
 72
     5
  1
\U+53F7
 73
     1
 44
1.0
1001
ACAD
1000
MTEXTBEGIN
1070
    73
1070
     1
1070
    44
1040
1.0
1070
    74
1070
     0
1000
MTEXTEND
  0
MTEXT
  5
4974
102
{ACAD_XDICTIONARY
360
5A34
102
}
330
1F
100
AcDbEntity
  8
文字
100
AcDbMText
 10
355.5743765614711
 20
294.0196657359539
 30
0.0
 40
3.654667278354449
 41
92.84544906570991
 71
     1
 72
     5
  1
\U+5B57  
 73
     1
 44
1.0
1001
ACAD
1000
MTEXTBEGIN
1070
    73
1070
     1
1070
    44
1040
1.0
1070
    74
1070
     0
1000
MTEXTEND
  0
MTEXT
  5
4975
102
{ACAD_XDICTIONARY
360
5A36
102
}
330
1F
100
AcDbEntity
  8
文字
100
AcDbMText
 10
354.9423988783481
 20
269.4639300779932
 30
0.0
 40
3.654667278354449
 41
92.84544906570991
 71
     1
 72
     5
  1
\U+671F  
 73
     1
 44
1.0
1001
ACAD
1000
MTEXTBEGIN
1070
    73
1070
     1
1070
    44
1040
1.0
1070
    74
1070
     0
1000
MTEXTEND
  0
MTEXT
  5
4976
330
1F
100
AcDbEntity
  8
文字
100
AcDbMText
 10
983.3499059550659
 20
265.2358569182417
 30
0.0
 40
10.95083976803446
 41
217.4343040647304
 71
     1
 72
     5
  1
\fNSimSun|b0|i0|c134|p49;\C1;1b21
  7
样式 8
 73
     1
 44
1.0
1001
ACAD
1000
MTEXTBEGIN
1070
    73
1070
     1
1070
    44
1040
1.0
1070
    74
1070
     0
1000
MTEXTEND
  0
LINE
  5
4977
330
1F
100
AcDbEntity
  8
粗实线
100
AcDbLine
 10
732.877190969173
 20
328.5246240532587
 30
0.0
 11
732.877190969173
 21
247.7972796094128
 31
0.0
  0
MTEXT
  5
4978
330
1F
100
AcDbEntity
  8
文字
100
AcDbMText
 10
924.9891383328135
 20
347.4173621377277
 30
0.0
 40
8.423722898488048
 41
167.2571569728695
 71
     1
 72
     5
  1
{\fSimSun|b0|i0|c134|p2;\C1;注：图纸上标注尺寸不用印刷}
  7
样式 8
 73
     1
 44
1.0
1001
ACAD
1000
MTEXTBEGIN
1070
    73
1070
     1
1070
    44
1040
1.0
1070
    74
1070
     0
1000
MTEXTEND
  0
LWPOLYLINE
  5
51F9
330
1F
100
AcDbEntity
  8
虚线
 48
2.0
100
AcDbPolyline
 90
        8
 70
     1
 43
0.0
 10
467.2768029182152
 20
466.9580303316406
 42
0.4012411991714653
 10
546.1735315904395
 20
385.5629052514604
 42
0.0189180620348341
 10
788.2380924072265
 20
385.5629052514609
 42
0.401241199171471
 10
867.1348210794528
 20
466.9580303316405
 42
0.0033305336200751
 10
867.1348210794528
 20
509.588387793315
 42
0.4012411991714675
 10
788.2380924072283
 20
590.9835128734938
 42
0.0189180620348339
 10
546.1735315904422
 20
590.9835128734939
 42
0.4012411991714701
 10
467.2768029182152
 20
509.5883877933151
 42
0.0033305336200751
  0
LWPOLYLINE
  5
5231
330
1F
100
AcDbEntity
  8
粗实线
 48
0.2
100
AcDbPolyline
 90
        8
 70
     1
 43
0.0
 10
460.9269437908208
 20
466.9157330238467
 42
0.4012412288371305
 10
545.9333671825991
 20
379.2174485257957
 42
0.0189180613305061
 10
788.4782658386618
 20
379.2174488673357
 42
0.401241199171471
 10
873.4846802068473
 20
466.9157330238464
 42
0.0033305336200751
 10
873.4846802068471
 20
509.6306851011092
 42
0.4012412196597808
 10
788.4782596066025
 20
597.3289694935
 42
0.0189180615483964
 10
545.9333581590069
 20
597.328969257619
 42
0.4012411991714701
 10
460.926943790821
 20
509.6306851011092
 42
0.0033305336200751
  0
LWPOLYLINE
  5
5233
330
1F
100
AcDbEntity
  8
虚线
 48
2.0
100
AcDbPolyline
 90
        8
 70
     1
 43
0.0
 10
473.6266620456095
 20
467.0003276394346
 42
0.4012412237127338
 10
546.4137114137003
 20
391.908361393657
 42
0.0189180615339423
 10
787.997918975791
 20
391.9083616355857
 42
0.4012412041021812
 10
860.7849619520584
 20
467.0003276394346
 42
0.0033305336200751
 10
860.7849619520584
 20
509.5460904855209
 42
0.4012412073480269
 10
787.9979189757928
 20
584.6380564893687
 42
0.0189180620348339
 10
546.4137050218775
 20
584.638056489369
 42
0.4012412221678751
 10
473.6266620056856
 20
509.5460844919027
 42
0.0033305331508771
  0
DIMENSION
  5
5234
330
1F
100
AcDbEntity
  8
标注
100
AcDbDimension
  2
*D1
 10
927.298235662621
 20
593.2732090624771
 30
0.0
 11
927.298235662621
 21
488.2731986244949
 31
0.0
 70
   160
  1
{\fArial|b0|i0|c0|p34;<>}
 71
     5
 42
210.0
  3
英寸
100
AcDbAlignedDimension
 13
864.6631249916369
 23
383.2732090624771
 33
0.0
 14
869.2631295428869
 24
593.2732090624771
 34
0.0
 50
-90.00000000000001
100
AcDbRotatedDimension
1001
ACAD
1000
DSTYLE
1002
{
1070
    41
1040
5.0
1070
   140
1040
10.0
1070
   371
1070
     0
1002
}
  0
DIMENSION
  5
5240
330
1F
100
AcDbEntity
  8
标注
100
AcDbDimension
  2
*D2
 10
949.298235662621
 20
599.6232090624779
 30
0.0
 11
949.298235662621
 21
488.2732090624773
 31
0.0
 70
   160
  1
{\fArial|b0|i0|c0|p34;<>}
 71
     5
 42
222.7000000000016
  3
英寸
100
AcDbAlignedDimension
 13
863.9554319837523
 23
376.9232090624763
 33
0.0
 14
867.4938970231753
 24
599.6232090624779
 34
0.0
 50
-90.00000000000001
100
AcDbRotatedDimension
1001
ACAD
1000
DSTYLE
1002
{
1070
    41
1040
5.0
1070
   140
1040
10.0
1070
   371
1070
     0
1002
}
  0
DIMENSION
  5
524C
330
1F
100
AcDbEntity
  8
标注
100
AcDbDimension
  2
*D3
 10
905.066999293505
 20
586.9232090624767
 30
0.0
 11
905.066999293505
 21
488.2731986244931
 31
0.0
 70
   160
  1
{\fArial|b0|i0|c0|p34;<>}
 71
     5
 42
197.2999999999992
  3
英寸
100
AcDbAlignedDimension
 13
864.6631249916369
 23
389.6232090624775
 33
0.0
 14
869.9708225507716
 24
586.9232090624767
 34
0.0
 50
-90.00000000000001
100
AcDbRotatedDimension
1001
ACAD
1000
DSTYLE
1002
{
1070
    41
1040
5.0
1070
   140
1040
10.0
1070
   371
1070
     0
1002
}
  0
DIMENSION
  5
52B9
330
1F
100
AcDbEntity
  8
标注
100
AcDbDimension
  2
*D4
 10
467.2058210288867
 20
675.3544454315938
 30
0.0
 11
664.6521145975444
 21
675.3544454315937
 31
0.0
 70
   160
  1
{\fArial|b0|i0|c0|p34;<>}
 71
     5
 42
399.999990969947
  3
英寸
100
AcDbAlignedDimension
 13
867.2058119988337
 23
613.2756085823635
 33
0.0
 14
467.2058210288867
 24
611.421452901706
 34
0.0
 50
-0.000000000000014
100
AcDbRotatedDimension
1001
ACAD
1000
DSTYLE
1002
{
1070
    41
1040
5.0
1070
   140
1040
10.0
1070
   371
1070
     0
1002
}
  0
DIMENSION
  5
52C5
330
1F
100
AcDbEntity
  8
标注
100
AcDbDimension
  2
*D5
 10
460.8558210288863
 20
697.3544454315938
 30
0.0
 11
662.5013642564802
 21
697.3544454315937
 31
0.0
 70
   160
  1
{\fArial|b0|i0|c0|p34;<>}
 71
     5
 42
412.6999909699477
  3
英寸
100
AcDbAlignedDimension
 13
873.555811998834
 23
612.709454176056
 33
0.0
 14
460.8558210288863
 24
618.6682293024444
 34
0.0
 50
-0.000000000000014
100
AcDbRotatedDimension
1001
ACAD
1000
DSTYLE
1002
{
1070
    41
1040
5.0
1070
   140
1040
10.0
1070
   371
1070
     0
1002
}
  0
DIMENSION
  5
52D1
330
1F
100
AcDbEntity
  8
标注
100
AcDbDimension
  2
*D6
 10
473.5558210288866
 20
653.123209062478
 30
0.0
 11
667.2058193185584
 21
653.1232090624779
 31
0.0
 70
   160
  1
{\fArial|b0|i0|c0|p34;<>}
 71
     5
 42
387.2999909699472
  3
英寸
100
AcDbAlignedDimension
 13
860.8558119988337
 23
616.6725350202097
 33
0.0
 14
473.5558210288866
 24
621.3857704527213
 34
0.0
 50
-0.000000000000014
100
AcDbRotatedDimension
1001
ACAD
1000
DSTYLE
1002
{
1070
    41
1040
5.0
1070
   140
1040
10.0
1070
   371
1070
     0
1002
}
  0
DIMENSION
  5
55EE
330
1F
100
AcDbEntity
  8
标注
100
AcDbDimension
  2
*D20
 10
467.2058057623141
 20
478.86563270292
 30
0.0
 11
431.0
 21
478.86563270292
 31
0.0
 70
   160
  1
{\fArial|b0|i0|c0|p34;<>}
 71
     5
 42
6.350000000002182
  3
英寸
100
AcDbAlignedDimension
 13
473.5558057623164
 23
488.273216081597
 33
0.0
 14
467.2058057623141
 24
488.2732160815897
 34
0.0
 50
180.0
100
AcDbRotatedDimension
1001
ACAD
1000
DSTYLE
1002
{
1070
   140
1040
10.0
1070
   371
1070
     0
1070
    41
1040
5.0
1002
}
  0
DIMENSION
  5
55FD
330
1F
100
AcDbEntity
  8
标注
100
AcDbDimension
  2
*D19
 10
460.8558057623119
 20
457.36563270292
 30
0.0
 11
429.0672655167457
 21
457.36563270292
 31
0.0
 70
   160
  1
{\fArial|b0|i0|c0|p34;<>}
 71
     5
 42
6.350000000002182
  3
英寸
100
AcDbAlignedDimension
 13
467.2058057623141
 23
488.2732160815897
 33
0.0
 14
460.8558057623119
 24
488.273216081597
 34
0.0
 50
180.0
100
AcDbRotatedDimension
1001
ACAD
1000
DSTYLE
1002
{
1070
    41
1040
5.0
1070
   140
1040
10.0
1070
   371
1070
     0
1002
}
  0
ENDSEC
  0
SECTION
  2
OBJECTS
  0
DICTIONARY
  5
C
330
0
100
AcDbDictionary
281
     1
  3
ACAD_2007HEADERVARS_RT
350
5A04
  3
ACAD_COLOR
350
3513
  3
ACAD_GROUP
350
D
  3
ACAD_IMAGE_DICT
350
4E7F
  3
ACAD_IMAGE_VARS
350
4FE5
  3
ACAD_LAYOUT
350
1A
  3
ACAD_MATERIAL
350
350F
  3
ACAD_MLINESTYLE
350
17
  3
ACAD_PLOTSETTINGS
350
19
  3
ACAD_PLOTSTYLENAME
350
E
  3
ACAD_TABLESTYLE
350
E9
  3
ACAD_VISUALSTYLE
350
28
  3
AcDbVariableDictionary
350
366A
  3
DWGPROPS
350
5A03
  0
DICTIONARY
  5
36E2
330
2
100
AcDbDictionary
280
     1
281
     1
  3
ACAD_LAYERSTATES
360
36E3
  0
DICTIONARY
  5
5A38
330
5546
100
AcDbDictionary
280
     1
281
     1
  3
ACAD_MTEXT_RT
360
5A39
  0
DICTIONARY
  5
5A14
330
4964
100
AcDbDictionary
280
     1
281
     1
  3
ACAD_MTEXT_RT
360
5A15
  0
DICTIONARY
  5
5A16
330
4965
100
AcDbDictionary
280
     1
281
     1
  3
ACAD_MTEXT_RT
360
5A17
  0
DICTIONARY
  5
5A18
330
4966
100
AcDbDictionary
280
     1
281
     1
  3
ACAD_MTEXT_RT
360
5A19
  0
DICTIONARY
  5
5A1A
330
4967
100
AcDbDictionary
280
     1
281
     1
  3
ACAD_MTEXT_RT
360
5A1B
  0
DICTIONARY
  5
5A1C
330
4968
100
AcDbDictionary
280
     1
281
     1
  3
ACAD_MTEXT_RT
360
5A1D
  0
DICTIONARY
  5
5A1E
330
4969
100
AcDbDictionary
280
     1
281
     1
  3
ACAD_MTEXT_RT
360
5A1F
  0
DICTIONARY
  5
5A20
330
496A
100
AcDbDictionary
280
     1
281
     1
  3
ACAD_MTEXT_RT
360
5A21
  0
DICTIONARY
  5
5A22
330
496B
100
AcDbDictionary
280
     1
281
     1
  3
ACAD_MTEXT_RT
360
5A23
  0
DICTIONARY
  5
5A24
330
496C
100
AcDbDictionary
280
     1
281
     1
  3
ACAD_MTEXT_RT
360
5A25
  0
DICTIONARY
  5
5A26
330
496D
100
AcDbDictionary
280
     1
281
     1
  3
ACAD_MTEXT_RT
360
5A27
  0
DICTIONARY
  5
5A28
330
496E
100
AcDbDictionary
280
     1
281
     1
  3
ACAD_MTEXT_RT
360
5A29
  0
DICTIONARY
  5
5A2A
330
496F
100
AcDbDictionary
280
     1
281
     1
  3
ACAD_MTEXT_RT
360
5A2B
  0
DICTIONARY
  5
5A2C
330
4970
100
AcDbDictionary
280
     1
281
     1
  3
ACAD_MTEXT_RT
360
5A2D
  0
DICTIONARY
  5
5A2E
330
4971
100
AcDbDictionary
280
     1
281
     1
  3
ACAD_MTEXT_RT
360
5A2F
  0
DICTIONARY
  5
5A30
330
4972
100
AcDbDictionary
280
     1
281
     1
  3
ACAD_MTEXT_RT
360
5A31
  0
DICTIONARY
  5
5A32
330
4973
100
AcDbDictionary
280
     1
281
     1
  3
ACAD_MTEXT_RT
360
5A33
  0
DICTIONARY
  5
5A34
330
4974
100
AcDbDictionary
280
     1
281
     1
  3
ACAD_MTEXT_RT
360
5A35
  0
DICTIONARY
  5
5A36
330
4975
100
AcDbDictionary
280
     1
281
     1
  3
ACAD_MTEXT_RT
360
5A37
  0
DICTIONARY
  5
5A04
102
{ACAD_REACTORS
330
C
102
}
330
C
100
AcDbDictionary
281
     1
  3
INTERFERECOLOR
350
5A05
  0
DICTIONARY
  5
3513
102
{ACAD_REACTORS
330
C
102
}
330
C
100
AcDbDictionary
281
     1
  0
DICTIONARY
  5
D
102
{ACAD_REACTORS
330
C
102
}
330
C
100
AcDbDictionary
281
     1
  0
DICTIONARY
  5
4E7F
102
{ACAD_REACTORS
330
C
102
}
330
C
100
AcDbDictionary
281
     1
  3
LOGO1
350
4E81
  0
ACAD_PROXY_OBJECT
  5
4FE5
102
{ACAD_REACTORS
330
C
102
}
330
C
100
AcDbProxyObject
 90
      499
 91
      510
 95
    65563
 70
     0
 93
       41
310
40901405054C
 94
        0
1001
ACAD
1000
AcRTDxfName
1000
RASTERVARIABLES
  0
DICTIONARY
  5
1A
102
{ACAD_REACTORS
330
C
102
}
330
C
100
AcDbDictionary
281
     1
  3
Layout1
350
1E
  3
Layout2
350
24
  3
Model
350
22
  0
DICTIONARY
  5
350F
102
{ACAD_REACTORS
330
C
102
}
330
C
100
AcDbDictionary
281
     1
  3
ByBlock
350
3511
  3
ByLayer
350
3510
  3
Global
350
3512
  0
DICTIONARY
  5
17
102
{ACAD_REACTORS
330
C
102
}
330
C
100
AcDbDictionary
281
     1
  3
Standard
350
18
  0
DICTIONARY
  5
19
102
{ACAD_REACTORS
330
C
102
}
330
C
100
AcDbDictionary
281
     1
  0
ACDBDICTIONARYWDFLT
  5
E
102
{ACAD_REACTORS
330
C
102
}
330
C
100
AcDbDictionary
281
     1
  3
Normal
350
F
100
AcDbDictionaryWithDefault
340
F
  0
DICTIONARY
  5
E9
102
{ACAD_REACTORS
330
C
102
}
330
C
100
AcDbDictionary
281
     1
  3
Standard
350
3514
  0
DICTIONARY
  5
28
102
{ACAD_REACTORS
330
C
102
}
330
C
100
AcDbDictionary
281
     1
  3
2dWireframe
350
2D
  3
3D Hidden
350
2F
  3
3dWireframe
350
2E
  3
Basic
350
30
  3
Brighten
350
34
  3
ColorChange
350
38
  3
Conceptual
350
32
  3
Dim
350
33
  3
Facepattern
350
37
  3
Flat
350
29
  3
FlatWithEdges
350
2A
  3
Gouraud
350
2B
  3
GouraudWithEdges
350
2C
  3
Linepattern
350
36
  3
Realistic
350
31
  3
Thicken
350
35
  0
DICTIONARY
  5
366A
102
{ACAD_REACTORS
330
C
102
}
330
C
100
AcDbDictionary
281
     1
  3
CTABLESTYLE
350
366B
  3
DGNFRAME
350
5A02
  3
DIMASSOC
350
5A01
  3
HIDETEXT
350
5A00
  3
INDEXCTL
350
59FF
  3
SORTENTS
350
59FE
  0
XRECORD
  5
5A03
102
{ACAD_REACTORS
330
C
102
}
330
C
100
AcDbXrecord
280
     1
  1
DWGPROPS COOKIE
  2

  3

  4

  6

  7

  8
Administrator
  9

300
=
301
=
302
=
303
=
304
=
305
=
306
=
307
=
308
=
309
=
 40
0.0355148032407408
 41
2455841.60680022
 42
2459756.664684109
  1

 90
        0
  0
DICTIONARY
  5
36E3
102
{ACAD_REACTORS
330
36E2
102
}
330
36E2
100
AcDbDictionary
281
     1
  0
XRECORD
  5
5A39
102
{ACAD_REACTORS
330
5A38
102
}
330
5A38
100
AcDbXrecord
280
     1
 40
3146.0
  1
2.5°
  0
XRECORD
  5
5A15
102
{ACAD_REACTORS
330
5A14
102
}
330
5A14
100
AcDbXrecord
280
     1
 40
2521.0
  1
日   
  0
XRECORD
  5
5A17
102
{ACAD_REACTORS
330
5A16
102
}
330
5A16
100
AcDbXrecord
280
     1
 40
2618.0
  1
签   
  0
XRECORD
  5
5A19
102
{ACAD_REACTORS
330
5A18
102
}
330
5A18
100
AcDbXrecord
280
     1
 40
1661.0
  1
底
  0
XRECORD
  5
5A1B
102
{ACAD_REACTORS
330
5A1A
102
}
330
5A1A
100
AcDbXrecord
280
     1
 40
1671.0
  1
旧
  0
XRECORD
  5
5A1D
102
{ACAD_REACTORS
330
5A1C
102
}
330
5A1C
100
AcDbXrecord
280
     1
 40
2618.0
  1
描   
  0
XRECORD
  5
5A1F
102
{ACAD_REACTORS
330
5A1E
102
}
330
5A1E
100
AcDbXrecord
280
     1
 40
249260.0
  1
\ftxt.shx,gbcbig.shx;\H1x;\C1;借（通）用件登记
  0
XRECORD
  5
5A21
102
{ACAD_REACTORS
330
5A20
102
}
330
5A20
100
AcDbXrecord
280
     1
 40
2640.0
  1
图   
  0
XRECORD
  5
5A23
102
{ACAD_REACTORS
330
5A22
102
}
330
5A22
100
AcDbXrecord
280
     1
 40
2618.0
  1
描   
  0
XRECORD
  5
5A25
102
{ACAD_REACTORS
330
5A24
102
}
330
5A24
100
AcDbXrecord
280
     1
 40
2394.0
  1
校   
  0
XRECORD
  5
5A27
102
{ACAD_REACTORS
330
5A26
102
}
330
5A26
100
AcDbXrecord
280
     1
 40
1661.0
  1
底
  0
XRECORD
  5
5A29
102
{ACAD_REACTORS
330
5A28
102
}
330
5A28
100
AcDbXrecord
280
     1
 40
1776.0
  1
图
  0
XRECORD
  5
5A2B
102
{ACAD_REACTORS
330
5A2A
102
}
330
5A2A
100
AcDbXrecord
280
     1
 40
1615.0
  1
总
  0
XRECORD
  5
5A2D
102
{ACAD_REACTORS
330
5A2C
102
}
330
5A2C
100
AcDbXrecord
280
     1
 40
1663.0
  1
号
  0
XRECORD
  5
5A2F
102
{ACAD_REACTORS
330
5A2E
102
}
330
5A2E
100
AcDbXrecord
280
     1
 40
1776.0
  1
图
  0
XRECORD
  5
5A31
102
{ACAD_REACTORS
330
5A30
102
}
330
5A30
100
AcDbXrecord
280
     1
 40
1615.0
  1
总
  0
XRECORD
  5
5A33
102
{ACAD_REACTORS
330
5A32
102
}
330
5A32
100
AcDbXrecord
280
     1
 40
1663.0
  1
号
  0
XRECORD
  5
5A35
102
{ACAD_REACTORS
330
5A34
102
}
330
5A34
100
AcDbXrecord
280
     1
 40
2180.0
  1
字  
  0
XRECORD
  5
5A37
102
{ACAD_REACTORS
330
5A36
102
}
330
5A36
100
AcDbXrecord
280
     1
 40
2210.0
  1
期  
  0
XRECORD
  5
5A05
102
{ACAD_REACTORS
330
5A04
102
}
330
5A04
100
AcDbXrecord
280
     1
1004
1800000001000000000000C0000000000000000000000000
  0
IMAGEDEF
  5
4E81
102
{ACAD_REACTORS
330
4E7F
102
}
330
4E7F
100
AcDbRasterImageDef
 90
        0
  1
G:\1-E盘家中电脑\TAJE泰捷资料\3-开孔纸板\Logo1.jpg
 10
2112.0
 20
586.0
 11
0.0004734848484848
 21
0.0004734848484848
280
     1
281
     0
  0
LAYOUT
  5
1E
102
{ACAD_XDICTIONARY
360
5A06
102
}
102
{ACAD_REACTORS
330
1A
102
}
330
1A
100
AcDbPlotSettings
  1

  2
none_device
  4

  6

 40
0.0
 41
0.0
 42
0.0
 43
0.0
 44
0.0
 45
0.0
 46
0.0
 47
0.0
 48
0.0
 49
0.0
140
0.0
141
0.0
142
1.0
143
1.0
 70
   688
 72
     0
 73
     0
 74
     5
  7

 75
    16
147
1.0
148
0.0
149
0.0
100
AcDbLayout
  1
Layout1
 70
     1
 71
     1
 10
0.0
 20
0.0
 11
12.0
 21
9.0
 12
0.0
 22
0.0
 32
0.0
 14
1.000000000000000E+20
 24
1.000000000000000E+20
 34
1.000000000000000E+20
 15
-1.000000000000000E+20
 25
-1.000000000000000E+20
 35
-1.000000000000000E+20
146
0.0
 13
0.0
 23
0.0
 33
0.0
 16
1.0
 26
0.0
 36
0.0
 17
0.0
 27
1.0
 37
0.0
 76
     0
330
1B
  0
LAYOUT
  5
24
102
{ACAD_XDICTIONARY
360
5A0A
102
}
102
{ACAD_REACTORS
330
1A
102
}
330
1A
100
AcDbPlotSettings
  1

  2
none_device
  4

  6

 40
0.0
 41
0.0
 42
0.0
 43
0.0
 44
0.0
 45
0.0
 46
0.0
 47
0.0
 48
0.0
 49
0.0
140
0.0
141
0.0
142
1.0
143
1.0
 70
   688
 72
     0
 73
     0
 74
     5
  7

 75
    16
147
1.0
148
0.0
149
0.0
100
AcDbLayout
  1
Layout2
 70
     1
 71
     2
 10
0.0
 20
0.0
 11
0.0
 21
0.0
 12
0.0
 22
0.0
 32
0.0
 14
0.0
 24
0.0
 34
0.0
 15
0.0
 25
0.0
 35
0.0
146
0.0
 13
0.0
 23
0.0
 33
0.0
 16
1.0
 26
0.0
 36
0.0
 17
0.0
 27
1.0
 37
0.0
 76
     0
330
23
  0
LAYOUT
  5
22
102
{ACAD_XDICTIONARY
360
5A08
102
}
102
{ACAD_REACTORS
330
1A
102
}
330
1A
100
AcDbPlotSettings
  1

  2
pdfFactory Pro
  4
A4
  6

 40
6.349999999999999
 41
6.350000000000009
 42
6.350000000000017
 43
6.349999999999999
 44
210.0
 45
297.0
 46
-0.0000000000000039
 47
2.644949494949818
 48
1174.965757397359
 49
239.0225682568215
140
1912.041511015064
141
760.2404226007705
142
1.0
143
2.641752936360613
 70
  1716
 72
     1
 73
     1
 74
     4
  7
Monochrome.ctb
 75
     0
147
0.3785365339188913
148
0.0
149
0.0
100
AcDbLayout
  1
Model
 70
     1
 71
     0
 10
0.0
 20
0.0
 11
12.0
 21
9.0
 12
0.0
 22
0.0
 32
0.0
 14
-232.5
 24
-349.0
 34
0.0
 15
2950.325114877424
 25
3449.524926861369
 35
0.0
146
0.0
 13
0.0
 23
0.0
 33
0.0
 16
1.0
 26
0.0
 36
0.0
 17
0.0
 27
1.0
 37
0.0
 76
     0
330
1F
331
27
  0
MATERIAL
  5
3511
102
{ACAD_XDICTIONARY
360
5A0E
102
}
102
{ACAD_REACTORS
330
350F
102
}
330
350F
100
AcDbMaterial
  1
ByBlock
  0
MATERIAL
  5
3510
102
{ACAD_XDICTIONARY
360
5A0C
102
}
102
{ACAD_REACTORS
330
350F
102
}
330
350F
100
AcDbMaterial
  1
ByLayer
  0
MATERIAL
  5
3512
102
{ACAD_XDICTIONARY
360
5A10
102
}
102
{ACAD_REACTORS
330
350F
102
}
330
350F
100
AcDbMaterial
  1
Global
  0
MLINESTYLE
  5
18
102
{ACAD_REACTORS
330
17
102
}
330
17
100
AcDbMlineStyle
  2
STANDARD
 70
     0
  3

 62
   256
 51
90.0
 52
90.0
 71
     2
 49
0.5
 62
   256
  6
BYLAYER
 49
-0.5
 62
   256
  6
BYLAYER
  0
ACDBPLACEHOLDER
  5
F
102
{ACAD_REACTORS
330
E
102
}
330
E
  0
TABLESTYLE
  5
3514
102
{ACAD_XDICTIONARY
360
5A12
102
}
102
{ACAD_REACTORS
330
E9
102
}
330
E9
100
AcDbTableStyle
  3
Standard
 70
     0
 71
     0
 40
0.06
 41
0.06
280
     0
281
     0
  7
Standard
140
0.18
170
     2
 62
     0
 63
     7
283
     0
274
    -2
284
     1
 64
     0
275
    -2
285
     1
 65
     0
276
    -2
286
     1
 66
     0
277
    -2
287
     1
 67
     0
278
    -2
288
     1
 68
     0
279
    -2
289
     1
 69
     0
  7
Standard
140
0.25
170
     5
 62
     0
 63
     7
283
     0
274
    -2
284
     1
 64
     0
275
    -2
285
     1
 65
     0
276
    -2
286
     1
 66
     0
277
    -2
287
     1
 67
     0
278
    -2
288
     1
 68
     0
279
    -2
289
     1
 69
     0
  7
Standard
140
0.18
170
     5
 62
     0
 63
     7
283
     0
274
    -2
284
     1
 64
     0
275
    -2
285
     1
 65
     0
276
    -2
286
     1
 66
     0
277
    -2
287
     1
 67
     0
278
    -2
288
     1
 68
     0
279
    -2
289
     1
 69
     0
  0
VISUALSTYLE
  5
2D
102
{ACAD_REACTORS
330
28
102
}
330
28
100
AcDbVisualStyle
  2
2dWireframe
 70
     4
 71
     0
 72
     2
 73
     0
 90
        0
 40
-0.6
 41
-30.0
 62
     5
 63
     7
 74
     1
 91
        4
 64
     7
 65
   257
 75
     1
175
     1
 42
1.0
 92
        0
 66
   257
 43
1.0
 76
     1
 77
     6
 78
     2
 67
     7
 79
     5
170
     0
171
     0
290
     0
174
     0
 93
        1
 44
0.0
173
     0
291
     0
 45
0.0
1001
ACAD
1000
AcDbSavedByObjectVersion
1070
     0
  0
VISUALSTYLE
  5
2F
102
{ACAD_REACTORS
330
28
102
}
330
28
100
AcDbVisualStyle
  2
3D Hidden
 70
     6
 71
     1
 72
     2
 73
     2
 90
        0
 40
-0.6
 41
-30.0
 62
     5
 63
     7
 74
     2
 91
        2
 64
     7
 65
   257
 75
     2
175
     1
 42
40.0
 92
        0
 66
   257
 43
1.0
 76
     1
 77
     6
 78
     2
 67
     7
 79
     3
170
     0
171
     0
290
     0
174
     0
 93
        1
 44
0.0
173
     0
291
     0
 45
0.0
1001
ACAD
1000
AcDbSavedByObjectVersion
1070
     0
  0
VISUALSTYLE
  5
2E
102
{ACAD_REACTORS
330
28
102
}
330
28
100
AcDbVisualStyle
  2
3dWireframe
 70
     5
 71
     0
 72
     2
 73
     0
 90
        0
 40
-0.6
 41
-30.0
 62
     5
 63
     7
 74
     1
 91
        4
 64
     7
 65
   257
 75
     1
175
     1
 42
1.0
 92
        0
 66
   257
 43
1.0
 76
     1
 77
     6
 78
     2
 67
     7
 79
     5
170
     0
171
     0
290
     0
174
     0
 93
        1
 44
0.0
173
     0
291
     0
 45
0.0
1001
ACAD
1000
AcDbSavedByObjectVersion
1070
     0
  0
VISUALSTYLE
  5
30
102
{ACAD_REACTORS
330
28
102
}
330
28
100
AcDbVisualStyle
  2
Basic
 70
     7
 71
     1
 72
     0
 73
     1
 90
        0
 40
-0.6
 41
-30.0
 62
     5
 63
     7
 74
     0
 91
        4
 64
     7
 65
   257
 75
     1
175
     1
 42
1.0
 92
        8
 66
     7
 43
1.0
 76
     1
 77
     6
 78
     2
 67
     7
 79
     5
170
     0
171
     0
290
     0
174
     0
 93
        1
 44
0.0
173
     0
291
     1
 45
0.0
1001
ACAD
1000
AcDbSavedByObjectVersion
1070
     0
  0
VISUALSTYLE
  5
34
102
{ACAD_REACTORS
330
28
102
}
330
28
100
AcDbVisualStyle
  2
Brighten
 70
    12
 71
     2
 72
     2
 73
     0
 90
        0
 40
-0.6
 41
-30.0
 62
     5
 63
     7
 74
     1
 91
        4
 64
     7
 65
   257
 75
     1
175
     1
 42
1.0
 92
        8
 66
     7
 43
1.0
 76
     1
 77
     6
 78
     2
 67
     7
 79
     5
170
     0
171
     0
290
     0
174
     0
 93
        1
 44
50.0
173
     0
291
     1
 45
0.0
1001
ACAD
1000
AcDbSavedByObjectVersion
1070
     0
  0
VISUALSTYLE
  5
38
102
{ACAD_REACTORS
330
28
102
}
330
28
100
AcDbVisualStyle
  2
ColorChange
 70
    16
 71
     2
 72
     2
 73
     3
 90
        0
 40
-0.6
 41
-30.0
 62
     5
 63
     8
 74
     1
 91
        4
 64
     7
 65
   257
 75
     1
175
     1
 42
1.0
 92
        8
 66
     8
 43
1.0
 76
     1
 77
     6
 78
     2
 67
     7
 79
     5
170
     0
171
     0
290
     0
174
     0
 93
        1
 44
0.0
173
     0
291
     1
 45
0.0
1001
ACAD
1000
AcDbSavedByObjectVersion
1070
     0
  0
VISUALSTYLE
  5
32
102
{ACAD_REACTORS
330
28
102
}
330
28
100
AcDbVisualStyle
  2
Conceptual
 70
     9
 71
     3
 72
     2
 73
     0
 90
        0
 40
-0.6
 41
-30.0
 62
     5
 63
     7
 74
     2
 91
        2
 64
     7
 65
   257
 75
     1
175
     1
 42
40.0
 92
        8
 66
     7
 43
1.0
 76
     1
 77
     6
 78
     2
 67
     7
 79
     3
170
     0
171
     0
290
     0
174
     0
 93
        1
 44
0.0
173
     0
291
     0
 45
0.0
1001
ACAD
1000
AcDbSavedByObjectVersion
1070
     0
  0
VISUALSTYLE
  5
33
102
{ACAD_REACTORS
330
28
102
}
330
28
100
AcDbVisualStyle
  2
Dim
 70
    11
 71
     2
 72
     2
 73
     0
 90
        0
 40
-0.6
 41
-30.0
 62
     5
 63
     7
 74
     1
 91
        4
 64
     7
 65
   257
 75
     1
175
     1
 42
1.0
 92
        8
 66
     7
 43
1.0
 76
     1
 77
     6
 78
     2
 67
     7
 79
     5
170
     0
171
     0
290
     0
174
     0
 93
        1
 44
-50.0
173
     0
291
     1
 45
0.0
1001
ACAD
1000
AcDbSavedByObjectVersion
1070
     0
  0
VISUALSTYLE
  5
37
102
{ACAD_REACTORS
330
28
102
}
330
28
100
AcDbVisualStyle
  2
Facepattern
 70
    15
 71
     2
 72
     2
 73
     0
 90
        0
 40
-0.6
 41
-30.0
 62
     5
 63
     7
 74
     1
 91
        4
 64
     7
 65
   257
 75
     1
175
     1
 42
1.0
 92
        8
 66
     7
 43
1.0
 76
     1
 77
     6
 78
     2
 67
     7
 79
     5
170
     0
171
     0
290
     0
174
     0
 93
        1
 44
0.0
173
     0
291
     1
 45
0.0
1001
ACAD
1000
AcDbSavedByObjectVersion
1070
     0
  0
VISUALSTYLE
  5
29
102
{ACAD_REACTORS
330
28
102
}
330
28
100
AcDbVisualStyle
  2
Flat
 70
     0
 71
     2
 72
     1
 73
     1
 90
        2
 40
-0.6
 41
30.0
 62
     5
 63
     7
 74
     0
 91
        4
 64
     7
 65
   257
 75
     1
175
     1
 42
1.0
 92
        8
 66
     7
 43
1.0
 76
     1
 77
     6
 78
     2
 67
     7
 79
     5
170
     0
171
     0
290
     0
174
     0
 93
       13
 44
0.0
173
     0
291
     1
 45
0.0
1001
ACAD
1000
AcDbSavedByObjectVersion
1070
     0
  0
VISUALSTYLE
  5
2A
102
{ACAD_REACTORS
330
28
102
}
330
28
100
AcDbVisualStyle
  2
FlatWithEdges
 70
     1
 71
     2
 72
     1
 73
     1
 90
        2
 40
-0.6
 41
30.0
 62
     5
 63
     7
 74
     1
 91
        4
 64
     7
 65
   257
 75
     1
175
     1
 42
1.0
 92
        0
 66
   257
 43
1.0
 76
     1
 77
     6
 78
     2
 67
     7
 79
     5
170
     0
171
     0
290
     0
174
     0
 93
       13
 44
0.0
173
     0
291
     1
 45
0.0
1001
ACAD
1000
AcDbSavedByObjectVersion
1070
     0
  0
VISUALSTYLE
  5
2B
102
{ACAD_REACTORS
330
28
102
}
330
28
100
AcDbVisualStyle
  2
Gouraud
 70
     2
 71
     2
 72
     2
 73
     1
 90
        2
 40
-0.6
 41
30.0
 62
     5
 63
     7
 74
     0
 91
        4
 64
     7
 65
   257
 75
     1
175
     1
 42
1.0
 92
        0
 66
     7
 43
1.0
 76
     1
 77
     6
 78
     2
 67
     7
 79
     5
170
     0
171
     0
290
     0
174
     0
 93
       13
 44
0.0
173
     0
291
     1
 45
0.0
1001
ACAD
1000
AcDbSavedByObjectVersion
1070
     0
  0
VISUALSTYLE
  5
2C
102
{ACAD_REACTORS
330
28
102
}
330
28
100
AcDbVisualStyle
  2
GouraudWithEdges
 70
     3
 71
     2
 72
     2
 73
     1
 90
        2
 40
-0.6
 41
30.0
 62
     5
 63
     7
 74
     1
 91
        4
 64
     7
 65
   257
 75
     1
175
     1
 42
1.0
 92
        0
 66
   257
 43
1.0
 76
     1
 77
     6
 78
     2
 67
     7
 79
     5
170
     0
171
     0
290
     0
174
     0
 93
       13
 44
0.0
173
     0
291
     1
 45
0.0
1001
ACAD
1000
AcDbSavedByObjectVersion
1070
     0
  0
VISUALSTYLE
  5
36
102
{ACAD_REACTORS
330
28
102
}
330
28
100
AcDbVisualStyle
  2
Linepattern
 70
    14
 71
     2
 72
     2
 73
     0
 90
        0
 40
-0.6
 41
-30.0
 62
     5
 63
     7
 74
     1
 91
        4
 64
     7
 65
   257
 75
     7
175
     7
 42
1.0
 92
        8
 66
     7
 43
1.0
 76
     1
 77
     6
 78
     2
 67
     7
 79
     5
170
     0
171
     0
290
     0
174
     0
 93
        1
 44
0.0
173
     0
291
     1
 45
0.0
1001
ACAD
1000
AcDbSavedByObjectVersion
1070
     0
  0
VISUALSTYLE
  5
31
102
{ACAD_REACTORS
330
28
102
}
330
28
100
AcDbVisualStyle
  2
Realistic
 70
     8
 71
     2
 72
     2
 73
     0
 90
        0
 40
-0.6
 41
-30.0
 62
     5
 63
     7
 74
     1
 91
        0
 64
     7
 65
   257
 75
     1
175
     1
 42
1.0
 92
        8
 66
     8
 43
1.0
 76
     1
 77
     6
 78
     2
 67
     7
 79
     5
170
     0
171
     0
290
     0
174
     0
 93
       13
 44
0.0
173
     0
291
     0
 45
0.0
1001
ACAD
1000
AcDbSavedByObjectVersion
1070
     0
  0
VISUALSTYLE
  5
35
102
{ACAD_REACTORS
330
28
102
}
330
28
100
AcDbVisualStyle
  2
Thicken
 70
    13
 71
     2
 72
     2
 73
     0
 90
        0
 40
-0.6
 41
-30.0
 62
     5
 63
     7
 74
     1
 91
        4
 64
     7
 65
   257
 75
     1
175
     1
 42
1.0
 92
       12
 66
     7
 43
1.0
 76
     1
 77
     6
 78
     2
 67
     7
 79
     5
170
     0
171
     0
290
     0
174
     0
 93
        1
 44
0.0
173
     0
291
     1
 45
0.0
1001
ACAD
1000
AcDbSavedByObjectVersion
1070
     0
  0
DICTIONARYVAR
  5
366B
102
{ACAD_REACTORS
330
366A
102
}
330
366A
100
DictionaryVariables
280
     0
  1
STANDARD
  0
DICTIONARYVAR
  5
5A02
102
{ACAD_REACTORS
330
366A
102
}
330
366A
100
DictionaryVariables
280
     0
  1
2
  0
DICTIONARYVAR
  5
5A01
102
{ACAD_REACTORS
330
366A
102
}
330
366A
100
DictionaryVariables
280
     0
  1
2
  0
DICTIONARYVAR
  5
5A00
102
{ACAD_REACTORS
330
366A
102
}
330
366A
100
DictionaryVariables
280
     0
  1
1
  0
DICTIONARYVAR
  5
59FF
102
{ACAD_REACTORS
330
366A
102
}
330
366A
100
DictionaryVariables
280
     0
  1
0
  0
DICTIONARYVAR
  5
59FE
102
{ACAD_REACTORS
330
366A
102
}
330
366A
100
DictionaryVariables
280
     0
  1
127
  0
DICTIONARY
  5
5A06
330
1E
100
AcDbDictionary
280
     1
281
     1
  3
ACAD_XREC_ROUNDTRIP
360
5A07
  0
DICTIONARY
  5
5A0A
330
24
100
AcDbDictionary
280
     1
281
     1
  3
ACAD_XREC_ROUNDTRIP
360
5A0B
  0
DICTIONARY
  5
5A08
330
22
100
AcDbDictionary
280
     1
281
     1
  3
ACAD_XREC_ROUNDTRIP
360
5A09
  0
DICTIONARY
  5
5A0E
330
3511
100
AcDbDictionary
280
     1
281
     1
  3
ACAD_XREC_ROUNDTRIP
360
5A0F
  0
DICTIONARY
  5
5A0C
330
3510
100
AcDbDictionary
280
     1
281
     1
  3
ACAD_XREC_ROUNDTRIP
360
5A0D
  0
DICTIONARY
  5
5A10
330
3512
100
AcDbDictionary
280
     1
281
     1
  3
ACAD_XREC_ROUNDTRIP
360
5A11
  0
DICTIONARY
  5
5A12
330
3514
100
AcDbDictionary
280
     1
281
     1
  3
ACAD_XREC_ROUNDTRIP
360
5A13
  0
XRECORD
  5
5A07
102
{ACAD_REACTORS
330
5A06
102
}
330
5A06
100
AcDbXrecord
280
     1
102
SHADEPLOT
 70
     0
102
SHADEPLOTRESLEVEL
 70
     2
102
SHADEPLOTCUSTOMDPI
 70
   300
  0
XRECORD
  5
5A0B
102
{ACAD_REACTORS
330
5A0A
102
}
330
5A0A
100
AcDbXrecord
280
     1
102
SHADEPLOT
 70
     0
102
SHADEPLOTRESLEVEL
 70
     2
102
SHADEPLOTCUSTOMDPI
 70
   300
  0
XRECORD
  5
5A09
102
{ACAD_REACTORS
330
5A08
102
}
330
5A08
100
AcDbXrecord
280
     1
102
SHADEPLOT
 70
     0
102
SHADEPLOTRESLEVEL
 70
     2
102
SHADEPLOTCUSTOMDPI
 70
   300
  0
XRECORD
  5
5A0F
102
{ACAD_REACTORS
330
5A0E
102
}
330
5A0E
100
AcDbXrecord
280
     1
102
MATERIAL
148
0.0
149
0.0
149
0.0
 93
        0
 94
       63
282
     0
 72
     1
 77
     1
171
     1
175
     1
179
     1
273
     0
  0
XRECORD
  5
5A0D
102
{ACAD_REACTORS
330
5A0C
102
}
330
5A0C
100
AcDbXrecord
280
     1
102
MATERIAL
148
0.0
149
0.0
149
0.0
 93
        0
 94
       63
282
     0
 72
     1
 77
     1
171
     1
175
     1
179
     1
273
     0
  0
XRECORD
  5
5A11
102
{ACAD_REACTORS
330
5A10
102
}
330
5A10
100
AcDbXrecord
280
     1
102
MATERIAL
148
0.0
149
0.0
149
0.0
 93
        0
 94
       63
282
     0
 72
     1
 77
     1
171
     1
175
     1
179
     1
273
     0
  0
XRECORD
  5
5A13
102
{ACAD_REACTORS
330
5A12
102
}
330
5A12
100
AcDbXrecord
280
     1
102
ACAD_ROUNDTRIP_PRE2007_TABLESTYLE
 90
      512
 91
        0
  1

 92
      512
 93
        0
  2

 94
      512
 95
        0
  3

  0
ENDSEC
  0
EOF
