  0
SECTION
  2
HEADER
  9
$ACADVER
  1
AC1015
  9
$ACADMAINTVER
 70
    20
  9
$DWGCODEPAGE
  3
ANSI_936
  9
$INSBASE
 10
0.0
 20
0.0
 30
0.0
  9
$EXTMIN
 10
-1365.452565121748
 20
-2098.135043852199
 30
0.0
  9
$EXTMAX
 10
2654.266360503509
 20
50.84286219415796
 30
0.0
  9
$LIMMIN
 10
0.0
 20
0.0
  9
$LIMMAX
 10
12.0
 20
9.0
  9
$ORTHOMODE
 70
     1
  9
$REGENMODE
 70
     1
  9
$FILLMODE
 70
     1
  9
$QTEXTMODE
 70
     0
  9
$MIRRTEXT
 70
     1
  9
$LTSCALE
 40
1.0
  9
$ATTMODE
 70
     1
  9
$TEXTSIZE
 40
0.2
  9
$TRACEWID
 40
0.05
  9
$TEXTSTYLE
  7
Standard
  9
$CLAYER
  8
0
  9
$CELTYPE
  6
ByLayer
  9
$CECOLOR
 62
   256
  9
$CELTSCALE
 40
1.0
  9
$DISPSILH
 70
     0
  9
$DIMSCALE
 40
1.0
  9
$DIMASZ
 40
0.18
  9
$DIMEXO
 40
0.0625
  9
$DIMDLI
 40
0.38
  9
$DIMRND
 40
0.0
  9
$DIMDLE
 40
0.0
  9
$DIMEXE
 40
0.18
  9
$DIMTP
 40
0.0
  9
$DIMTM
 40
0.0
  9
$DIMTXT
 40
0.18
  9
$DIMCEN
 40
0.09
  9
$DIMTSZ
 40
0.0
  9
$DIMTOL
 70
     0
  9
$DIMLIM
 70
     0
  9
$DIMTIH
 70
     1
  9
$DIMTOH
 70
     1
  9
$DIMSE1
 70
     0
  9
$DIMSE2
 70
     0
  9
$DIMTAD
 70
     0
  9
$DIMZIN
 70
     0
  9
$DIMBLK
  1

  9
$DIMASO
 70
     1
  9
$DIMSHO
 70
     1
  9
$DIMPOST
  1

  9
$DIMAPOST
  1

  9
$DIMALT
 70
     0
  9
$DIMALTD
 70
     2
  9
$DIMALTF
 40
25.4
  9
$DIMLFAC
 40
1.0
  9
$DIMTOFL
 70
     0
  9
$DIMTVP
 40
0.0
  9
$DIMTIX
 70
     0
  9
$DIMSOXD
 70
     0
  9
$DIMSAH
 70
     0
  9
$DIMBLK1
  1

  9
$DIMBLK2
  1

  9
$DIMSTYLE
  2
Standard
  9
$DIMCLRD
 70
     0
  9
$DIMCLRE
 70
     0
  9
$DIMCLRT
 70
     0
  9
$DIMTFAC
 40
1.0
  9
$DIMGAP
 40
0.09
  9
$DIMJUST
 70
     0
  9
$DIMSD1
 70
     0
  9
$DIMSD2
 70
     0
  9
$DIMTOLJ
 70
     1
  9
$DIMTZIN
 70
     0
  9
$DIMALTZ
 70
     0
  9
$DIMALTTZ
 70
     0
  9
$DIMUPT
 70
     0
  9
$DIMDEC
 70
     4
  9
$DIMTDEC
 70
     4
  9
$DIMALTU
 70
     2
  9
$DIMALTTD
 70
     2
  9
$DIMTXSTY
  7
Standard
  9
$DIMAUNIT
 70
     0
  9
$DIMADEC
 70
     0
  9
$DIMALTRND
 40
0.0
  9
$DIMAZIN
 70
     0
  9
$DIMDSEP
 70
    46
  9
$DIMATFIT
 70
     3
  9
$DIMFRAC
 70
     0
  9
$DIMLDRBLK
  1

  9
$DIMLUNIT
 70
     2
  9
$DIMLWD
 70
    -2
  9
$DIMLWE
 70
    -2
  9
$DIMTMOVE
 70
     0
  9
$LUNITS
 70
     2
  9
$LUPREC
 70
     4
  9
$SKETCHINC
 40
0.1
  9
$FILLETRAD
 40
0.0
  9
$AUNITS
 70
     0
  9
$AUPREC
 70
     0
  9
$MENU
  1
.
  9
$ELEVATION
 40
0.0
  9
$PELEVATION
 40
0.0
  9
$THICKNESS
 40
0.0
  9
$LIMCHECK
 70
     0
  9
$CHAMFERA
 40
0.5
  9
$CHAMFERB
 40
0.5
  9
$CHAMFERC
 40
1.0
  9
$CHAMFERD
 40
0.0
  9
$SKPOLY
 70
     0
  9
$TDCREATE
 40
2455841.606800220
  9
$TDUCREATE
 40
2455841.273466887
  9
$TDUPDATE
 40
2459756.664102894
  9
$TDUUPDATE
 40
2459756.330769560
  9
$TDINDWG
 40
0.0349352662
  9
$TDUSRTIMER
 40
0.0349352662
  9
$USRTIMER
 70
     1
  9
$ANGBASE
 50
0.0
  9
$ANGDIR
 70
     0
  9
$PDMODE
 70
     0
  9
$PDSIZE
 40
0.0
  9
$PLINEWID
 40
0.0
  9
$SPLFRAME
 70
     0
  9
$SPLINETYPE
 70
     6
  9
$SPLINESEGS
 70
     8
  9
$HANDSEED
  5
5CBA
  9
$SURFTAB1
 70
     6
  9
$SURFTAB2
 70
     6
  9
$SURFTYPE
 70
     6
  9
$SURFU
 70
     6
  9
$SURFV
 70
     6
  9
$UCSBASE
  2

  9
$UCSNAME
  2

  9
$UCSORG
 10
0.0
 20
0.0
 30
0.0
  9
$UCSXDIR
 10
1.0
 20
0.0
 30
0.0
  9
$UCSYDIR
 10
0.0
 20
1.0
 30
0.0
  9
$UCSORTHOREF
  2

  9
$UCSORTHOVIEW
 70
     0
  9
$UCSORGTOP
 10
0.0
 20
0.0
 30
0.0
  9
$UCSORGBOTTOM
 10
0.0
 20
0.0
 30
0.0
  9
$UCSORGLEFT
 10
0.0
 20
0.0
 30
0.0
  9
$UCSORGRIGHT
 10
0.0
 20
0.0
 30
0.0
  9
$UCSORGFRONT
 10
0.0
 20
0.0
 30
0.0
  9
$UCSORGBACK
 10
0.0
 20
0.0
 30
0.0
  9
$PUCSBASE
  2

  9
$PUCSNAME
  2

  9
$PUCSORG
 10
0.0
 20
0.0
 30
0.0
  9
$PUCSXDIR
 10
1.0
 20
0.0
 30
0.0
  9
$PUCSYDIR
 10
0.0
 20
1.0
 30
0.0
  9
$PUCSORTHOREF
  2

  9
$PUCSORTHOVIEW
 70
     0
  9
$PUCSORGTOP
 10
0.0
 20
0.0
 30
0.0
  9
$PUCSORGBOTTOM
 10
0.0
 20
0.0
 30
0.0
  9
$PUCSORGLEFT
 10
0.0
 20
0.0
 30
0.0
  9
$PUCSORGRIGHT
 10
0.0
 20
0.0
 30
0.0
  9
$PUCSORGFRONT
 10
0.0
 20
0.0
 30
0.0
  9
$PUCSORGBACK
 10
0.0
 20
0.0
 30
0.0
  9
$USERI1
 70
     0
  9
$USERI2
 70
     0
  9
$USERI3
 70
     0
  9
$USERI4
 70
     0
  9
$USERI5
 70
     0
  9
$USERR1
 40
0.0
  9
$USERR2
 40
0.0
  9
$USERR3
 40
0.0
  9
$USERR4
 40
0.0
  9
$USERR5
 40
0.0
  9
$WORLDVIEW
 70
     1
  9
$SHADEDGE
 70
     3
  9
$SHADEDIF
 70
    70
  9
$TILEMODE
 70
     1
  9
$MAXACTVP
 70
    64
  9
$PINSBASE
 10
0.0
 20
0.0
 30
0.0
  9
$PLIMCHECK
 70
     0
  9
$PEXTMIN
 10
1.000000000000000E+20
 20
1.000000000000000E+20
 30
1.000000000000000E+20
  9
$PEXTMAX
 10
-1.000000000000000E+20
 20
-1.000000000000000E+20
 30
-1.000000000000000E+20
  9
$PLIMMIN
 10
0.0
 20
0.0
  9
$PLIMMAX
 10
12.0
 20
9.0
  9
$UNITMODE
 70
     0
  9
$VISRETAIN
 70
     1
  9
$PLINEGEN
 70
     0
  9
$PSLTSCALE
 70
     1
  9
$TREEDEPTH
 70
  3020
  9
$CMLSTYLE
  2
Standard
  9
$CMLJUST
 70
     0
  9
$CMLSCALE
 40
1.0
  9
$PROXYGRAPHICS
 70
     1
  9
$MEASUREMENT
 70
     0
  9
$CELWEIGHT
370
    -1
  9
$ENDCAPS
280
     0
  9
$JOINSTYLE
280
     0
  9
$LWDISPLAY
290
     0
  9
$INSUNITS
 70
     1
  9
$HYPERLINKBASE
  1

  9
$STYLESHEET
  1
Monochrome.ctb
  9
$XEDIT
290
     1
  9
$CEPSNTYPE
380
     0
  9
$PSTYLEMODE
290
     1
  9
$FINGERPRINTGUID
  2
{168A8766-4015-4ABD-915A-AD1ECBE2E3C2}
  9
$VERSIONGUID
  2
{5EED51D9-5058-441B-8A79-E7BE7F0CBEB0}
  9
$EXTNAMES
290
     1
  9
$PSVPSCALE
 40
0.0
  9
$OLESTARTUP
290
     0
  0
ENDSEC
  0
SECTION
  2
CLASSES
  0
CLASS
  1
ACDBDICTIONARYWDFLT
  2
AcDbDictionaryWithDefault
  3
ObjectDBX Classes
 90
        0
280
     0
281
     0
  0
CLASS
  1
VISUALSTYLE
  2
AcDbVisualStyle
  3
ObjectDBX Classes
 90
     4095
280
     0
281
     0
  0
CLASS
  1
DIMASSOC
  2
AcDbDimAssoc
  3
"AcDbDimAssoc|Product Desc:     AcDim ARX App For Dimension|Company:          Autodesk, Inc.|WEB Address:      www.autodesk.com"
 90
    32768
280
     0
281
     0
  0
CLASS
  1
MATERIAL
  2
AcDbMaterial
  3
ObjectDBX Classes
 90
     1024
280
     0
281
     0
  0
CLASS
  1
TABLESTYLE
  2
AcDbTableStyle
  3
ObjectDBX Classes
 90
     4095
280
     0
281
     0
  0
CLASS
  1
DICTIONARYVAR
  2
AcDbDictionaryVar
  3
ObjectDBX Classes
 90
        0
280
     0
281
     0
  0
CLASS
  1
SORTENTSTABLE
  2
AcDbSortentsTable
  3
ObjectDBX Classes
 90
        0
280
     0
281
     0
  0
CLASS
  1
ACDBPLACEHOLDER
  2
AcDbPlaceHolder
  3
ObjectDBX Classes
 90
        0
280
     0
281
     0
  0
CLASS
  1
LAYOUT
  2
AcDbLayout
  3
ObjectDBX Classes
 90
        0
280
     0
281
     0
  0
ENDSEC
  0
SECTION
  2
TABLES
  0
TABLE
  2
VPORT
  5
8
330
0
100
AcDbSymbolTable
 70
     1
  0
VPORT
  5
27
330
8
100
AcDbSymbolTableRecord
100
AcDbViewportTableRecord
  2
*Active
 70
     0
 10
0.0
 20
0.0
 11
1.0
 21
1.0
 12
1075.222688728009
 22
-496.012629030095
 13
0.0
 23
0.0
 14
0.5
 24
0.5
 15
0.5
 25
0.5
 16
0.0
 26
0.0
 36
1.0
 17
0.0
 27
0.0
 37
0.0
 40
1644.850502843035
 41
2.294999999999999
 42
50.0
 43
0.0
 44
0.0
 50
0.0
 51
0.0
 71
     0
 72
   100
 73
     1
 74
     3
 75
     1
 76
     0
 77
     0
 78
     0
281
     0
 65
     1
110
0.0
120
0.0
130
0.0
111
1.0
121
0.0
131
0.0
112
0.0
122
1.0
132
0.0
 79
     0
146
0.0
  0
ENDTAB
  0
TABLE
  2
LTYPE
  5
5
330
0
100
AcDbSymbolTable
 70
     8
  0
LTYPE
  5
14
330
5
100
AcDbSymbolTableRecord
100
AcDbLinetypeTableRecord
  2
ByBlock
 70
     0
  3

 72
    65
 73
     0
 40
0.0
  0
LTYPE
  5
15
330
5
100
AcDbSymbolTableRecord
100
AcDbLinetypeTableRecord
  2
ByLayer
 70
     0
  3

 72
    65
 73
     0
 40
0.0
  0
LTYPE
  5
16
330
5
100
AcDbSymbolTableRecord
100
AcDbLinetypeTableRecord
  2
Continuous
 70
     0
  3
Solid line
 72
    65
 73
     0
 40
0.0
  0
LTYPE
  5
5B
330
5
100
AcDbSymbolTableRecord
100
AcDbLinetypeTableRecord
  2
CENTERX2
 70
     0
  3
Center (2x) ________  __  ________  __  _____
 72
    65
 73
     4
 40
101.6
 49
63.5
 74
     4
 75
     0
340
0
 46
1.0
 50
0.0
 44
0.0
 45
0.0
 49
-12.7
 74
     4
 75
     0
340
0
 46
1.0
 50
0.0
 44
0.0
 45
0.0
 49
12.7
 74
     4
 75
     0
340
0
 46
1.0
 50
0.0
 44
0.0
 45
0.0
 49
-12.7
 74
     4
 75
     0
340
0
 46
1.0
 50
0.0
 44
0.0
 45
0.0
  0
LTYPE
  5
192
330
5
100
AcDbSymbolTableRecord
100
AcDbLinetypeTableRecord
  2
CENTER
 70
     0
  3
Center ____ _ ____ _ ____ _ ____ _ ____ _ ____
 72
    65
 73
     4
 40
50.8
 49
31.75
 74
     4
 75
     0
340
0
 46
1.0
 50
0.0
 44
0.0
 45
0.0
 49
-6.349999999999999
 74
     4
 75
     0
340
0
 46
1.0
 50
0.0
 44
0.0
 45
0.0
 49
6.349999999999999
 74
     4
 75
     0
340
0
 46
1.0
 50
0.0
 44
0.0
 45
0.0
 49
-6.349999999999999
 74
     4
 75
     0
340
0
 46
1.0
 50
0.0
 44
0.0
 45
0.0
  0
LTYPE
  5
112E
330
5
100
AcDbSymbolTableRecord
100
AcDbLinetypeTableRecord
  2
DASHED
 70
     0
  3
Dashed __ __ __ __ __ __ __ __ __ __ __ __ __ _
 72
    65
 73
     2
 40
19.05
 49
12.7
 74
     4
 75
     0
340
0
 46
1.0
 50
0.0
 44
0.0
 45
0.0
 49
-6.349999999999999
 74
     4
 75
     0
340
0
 46
1.0
 50
0.0
 44
0.0
 45
0.0
  0
LTYPE
  5
121B
330
5
100
AcDbSymbolTableRecord
100
AcDbLinetypeTableRecord
  2
ACAD_ISO02W100
 70
     0
  3
ISO dash __ __ __ __ __ __ __ __ __ __ __ __ __
 72
    65
 73
     2
 40
15.0
 49
12.0
 74
     4
 75
     0
340
0
 46
1.0
 50
0.0
 44
0.0
 45
0.0
 49
-3.0
 74
     4
 75
     0
340
0
 46
1.0
 50
0.0
 44
0.0
 45
0.0
  0
LTYPE
  5
121C
330
5
100
AcDbSymbolTableRecord
100
AcDbLinetypeTableRecord
  2
DIVIDE
 70
     0
  3
Divide ____ . . ____ . . ____ . . ____ . . ____
 72
    65
 73
     6
 40
31.75
 49
12.7
 74
     4
 75
     0
340
0
 46
1.0
 50
0.0
 44
0.0
 45
0.0
 49
-6.349999999999999
 74
     4
 75
     0
340
0
 46
1.0
 50
0.0
 44
0.0
 45
0.0
 49
0.0
 74
     4
 75
     0
340
0
 46
1.0
 50
0.0
 44
0.0
 45
0.0
 49
-6.349999999999999
 74
     4
 75
     0
340
0
 46
1.0
 50
0.0
 44
0.0
 45
0.0
 49
0.0
 74
     4
 75
     0
340
0
 46
1.0
 50
0.0
 44
0.0
 45
0.0
 49
-6.349999999999999
 74
     4
 75
     0
340
0
 46
1.0
 50
0.0
 44
0.0
 45
0.0
  0
LTYPE
  5
4099
330
5
100
AcDbSymbolTableRecord
100
AcDbLinetypeTableRecord
  2
HIDDEN2
 70
     0
  3
Hidden (.5x) _ _ _ _ _ _ _ _ _ _ _ _ _ _ _ _ _
 72
    65
 73
     2
 40
4.762499999999999
 49
3.174999999999999
 74
     4
 75
     0
340
0
 46
1.0
 50
0.0
 44
0.0
 45
0.0
 49
-1.587499999999999
 74
     4
 75
     0
340
0
 46
1.0
 50
0.0
 44
0.0
 45
0.0
  0
LTYPE
  5
409A
330
5
100
AcDbSymbolTableRecord
100
AcDbLinetypeTableRecord
  2
CENTER2
 70
     0
  3
Center (.5x) ___ _ ___ _ ___ _ ___ _ ___ _ ___
 72
    65
 73
     4
 40
28.575
 49
19.05
 74
     4
 75
     0
340
0
 46
1.0
 50
0.0
 44
0.0
 45
0.0
 49
-3.174999999999998
 74
     4
 75
     0
340
0
 46
1.0
 50
0.0
 44
0.0
 45
0.0
 49
3.174999999999998
 74
     4
 75
     0
340
0
 46
1.0
 50
0.0
 44
0.0
 45
0.0
 49
-3.174999999999998
 74
     4
 75
     0
340
0
 46
1.0
 50
0.0
 44
0.0
 45
0.0
  0
ENDTAB
  0
TABLE
  2
LAYER
  5
2
102
{ACAD_XDICTIONARY
360
36E2
102
}
330
0
100
AcDbSymbolTable
 70
    19
  0
LAYER
  5
10
330
2
100
AcDbSymbolTableRecord
100
AcDbLayerTableRecord
  2
0
 70
     0
 62
     7
  6
Continuous
370
    -3
390
F
  0
LAYER
  5
5C
330
2
100
AcDbSymbolTableRecord
100
AcDbLayerTableRecord
  2
粗实线
 70
     0
 62
     7
  6
Continuous
370
    30
390
F
1001
AcAecLayerStandard
1000

1000

  0
LAYER
  5
5D
330
2
100
AcDbSymbolTableRecord
100
AcDbLayerTableRecord
  2
中心线
 70
     0
 62
     1
  6
CENTERX2
370
    15
390
F
1001
AcAecLayerStandard
1000

1000

  0
LAYER
  5
5E
330
2
100
AcDbSymbolTableRecord
100
AcDbLayerTableRecord
  2
标注
 70
     0
 62
     4
  6
Continuous
370
    15
390
F
1001
AcAecLayerStandard
1000

1000

  0
LAYER
  5
5F
330
2
100
AcDbSymbolTableRecord
100
AcDbLayerTableRecord
  2
Defpoints
 70
     0
 62
     7
  6
Continuous
290
     0
370
    -3
390
F
  0
LAYER
  5
118
330
2
100
AcDbSymbolTableRecord
100
AcDbLayerTableRecord
  2
图层1粗线
 70
     0
 62
     7
  6
Continuous
370
    -3
390
F
1001
AcAecLayerStandard
1000

1000

  0
LAYER
  5
193
330
2
100
AcDbSymbolTableRecord
100
AcDbLayerTableRecord
  2
细实线
 70
     0
 62
     3
  6
Continuous
370
    15
390
F
1001
AcAecLayerStandard
1000

1000

  0
LAYER
  5
357
330
2
100
AcDbSymbolTableRecord
100
AcDbLayerTableRecord
  2
图层2
 70
     0
 62
     7
  6
Continuous
370
    30
390
F
1001
AcAecLayerStandard
1000

1000

  0
LAYER
  5
358
330
2
100
AcDbSymbolTableRecord
100
AcDbLayerTableRecord
  2
图层3
 70
     0
 62
     7
  6
Continuous
370
    18
390
F
1001
AcAecLayerStandard
1000

1000

  0
LAYER
  5
4E7
330
2
100
AcDbSymbolTableRecord
100
AcDbLayerTableRecord
  2
文字
 70
     0
 62
     1
  6
Continuous
370
    15
390
F
1001
AcAecLayerStandard
1000

1000

  0
LAYER
  5
4E8
330
2
100
AcDbSymbolTableRecord
100
AcDbLayerTableRecord
  2
不可见
 70
     0
 62
     2
  6
Continuous
290
     0
370
    15
390
F
1001
AcAecLayerStandard
1000

1000

  0
LAYER
  5
4E9
330
2
100
AcDbSymbolTableRecord
100
AcDbLayerTableRecord
  2
图层2细线
 70
     0
 62
     3
  6
Continuous
370
    -3
390
F
1001
AcAecLayerStandard
1000

1000

  0
LAYER
  5
4EA
330
2
100
AcDbSymbolTableRecord
100
AcDbLayerTableRecord
  2
图框线
 70
     0
 62
     7
  6
Continuous
370
    13
390
F
1001
AcAecLayerStandard
1000

1000

  0
LAYER
  5
4EB
330
2
100
AcDbSymbolTableRecord
100
AcDbLayerTableRecord
  2
图层 1
 70
     0
 62
     7
  6
Continuous
370
    -3
390
F
  0
LAYER
  5
112F
330
2
100
AcDbSymbolTableRecord
100
AcDbLayerTableRecord
  2
图层1
 70
     0
 62
     7
  6
DASHED
370
    25
390
F
1001
AcAecLayerStandard
1000

1000

  0
LAYER
  5
121D
330
2
100
AcDbSymbolTableRecord
100
AcDbLayerTableRecord
  2
虚线
 70
     0
 62
     2
  6
ACAD_ISO02W100
370
    15
390
F
1001
AcAecLayerStandard
1000

1000

  0
LAYER
  5
121E
330
2
100
AcDbSymbolTableRecord
100
AcDbLayerTableRecord
  2
剖切线
 70
     0
 62
   241
  6
Continuous
370
    15
390
F
1001
AcAecLayerStandard
1000

1000

  0
LAYER
  5
3D01
330
2
100
AcDbSymbolTableRecord
100
AcDbLayerTableRecord
  2
Layer 1
 70
     0
 62
     7
  6
Continuous
370
    -3
390
F
  0
LAYER
  5
46AF
330
2
100
AcDbSymbolTableRecord
100
AcDbLayerTableRecord
  2
LABEL
 70
     0
 62
     7
  6
Continuous
370
    -3
390
F
  0
ENDTAB
  0
TABLE
  2
STYLE
  5
3
330
0
100
AcDbSymbolTable
 70
     5
  0
STYLE
  5
11
330
3
100
AcDbSymbolTableRecord
100
AcDbTextStyleTableRecord
  2
Standard
 70
     0
 40
0.0
 41
1.0
 50
0.0
 71
     0
 42
0.2
  3
txt
  4

  0
STYLE
  5
5A
330
3
100
AcDbSymbolTableRecord
100
AcDbTextStyleTableRecord
  2
样式 8
 70
     0
 40
10.0
 41
0.7
 50
0.0
 71
     0
 42
10.0
  3
txt.shx
  4
gbcbig.shx
  0
STYLE
  5
117
330
3
100
AcDbSymbolTableRecord
100
AcDbTextStyleTableRecord
  2
样式 1
 70
     0
 40
5.0
 41
1.0
 50
0.0
 71
     0
 42
5.0
  3
txt.shx
  4
gbcbig.shx
  0
STYLE
  5
356
330
3
100
AcDbSymbolTableRecord
100
AcDbTextStyleTableRecord
  2
样式 2
 70
     0
 40
0.0
 41
0.35
 50
0.0
 71
     0
 42
2.5
  3
txt.shx
  4
gbcbig.shx
  0
STYLE
  5
4E6
330
3
100
AcDbSymbolTableRecord
100
AcDbTextStyleTableRecord
  2
样式 3
 70
     0
 40
3.5
 41
0.7
 50
0.0
 71
     0
 42
5.0
  3
txt.shx
  4
gbcbig.shx
  0
ENDTAB
  0
TABLE
  2
VIEW
  5
6
330
0
100
AcDbSymbolTable
 70
     0
  0
ENDTAB
  0
TABLE
  2
UCS
  5
7
330
0
100
AcDbSymbolTable
 70
     0
  0
ENDTAB
  0
TABLE
  2
APPID
  5
9
330
0
100
AcDbSymbolTable
 70
    48
  0
APPID
  5
12
330
9
100
AcDbSymbolTableRecord
100
AcDbRegAppTableRecord
  2
ACAD
 70
     0
  0
APPID
  5
3B
330
9
100
AcDbSymbolTableRecord
100
AcDbRegAppTableRecord
  2
ACAD_PSEXT
 70
     0
  0
APPID
  5
3C
330
9
100
AcDbSymbolTableRecord
100
AcDbRegAppTableRecord
  2
AcAecLayerStandard
 70
     0
  0
APPID
  5
3D
330
9
100
AcDbSymbolTableRecord
100
AcDbRegAppTableRecord
  2
ACAD_DSTYLE_DIMTEXT_FILL
 70
     0
  0
APPID
  5
3E
330
9
100
AcDbSymbolTableRecord
100
AcDbRegAppTableRecord
  2
DCO15
 70
     0
  0
APPID
  5
3F
330
9
100
AcDbSymbolTableRecord
100
AcDbRegAppTableRecord
  2
ACAD_DSTYLE_DIMEXT_LENGTH
 70
     0
  0
APPID
  5
40
330
9
100
AcDbSymbolTableRecord
100
AcDbRegAppTableRecord
  2
ACAD_DSTYLE_DIMEXT_ENABLED
 70
     0
  0
APPID
  5
41
330
9
100
AcDbSymbolTableRecord
100
AcDbRegAppTableRecord
  2
ACAD_DSTYLE_DIM_LINETYPE
 70
     0
  0
APPID
  5
42
330
9
100
AcDbSymbolTableRecord
100
AcDbRegAppTableRecord
  2
ACAD_DSTYLE_DIM_EXT1_LINETYPE
 70
     0
  0
APPID
  5
43
330
9
100
AcDbSymbolTableRecord
100
AcDbRegAppTableRecord
  2
ACAD_DSTYLE_DIM_EXT2_LINETYPE
 70
     0
  0
APPID
  5
44
330
9
100
AcDbSymbolTableRecord
100
AcDbRegAppTableRecord
  2
ACAD_EXEMPT_FROM_CAD_STANDARDS
 70
     0
  0
APPID
  5
45
330
9
100
AcDbSymbolTableRecord
100
AcDbRegAppTableRecord
  2
AcadAnnoPO
 70
     0
  0
APPID
  5
46
330
9
100
AcDbSymbolTableRecord
100
AcDbRegAppTableRecord
  2
AcadAnnotative
 70
     0
  0
APPID
  5
47
330
9
100
AcDbSymbolTableRecord
100
AcDbRegAppTableRecord
  2
ACAD_DSTYLE_DIMJAG
 70
     0
  0
APPID
  5
48
330
9
100
AcDbSymbolTableRecord
100
AcDbRegAppTableRecord
  2
ACAD_DSTYLE_DIMTALN
 70
     0
  0
APPID
  5
49
330
9
100
AcDbSymbolTableRecord
100
AcDbRegAppTableRecord
  2
ACAD_MLEADERVER
 70
     0
  0
APPID
  5
4A
330
9
100
AcDbSymbolTableRecord
100
AcDbRegAppTableRecord
  2
ACAD_DSTYLE_DIMRADIAL_EXTENSION
 70
     0
  0
APPID
  5
4B
330
9
100
AcDbSymbolTableRecord
100
AcDbRegAppTableRecord
  2
ACAD_DSTYLE_DIMBREAK
 70
     0
  0
APPID
  5
4C
330
9
100
AcDbSymbolTableRecord
100
AcDbRegAppTableRecord
  2
ACAD_DSTYLE_DIMARC_LENGTH_SYMBOL
 70
     0
  0
APPID
  5
4D
330
9
100
AcDbSymbolTableRecord
100
AcDbRegAppTableRecord
  2
ACAD_DSTYLE_DIMJOGGED_JOGANGLE_SYMBOL
 70
     0
  0
APPID
  5
4E
330
9
100
AcDbSymbolTableRecord
100
AcDbRegAppTableRecord
  2
MCAD_NO_VIS
 70
     0
  0
APPID
  5
4F
330
9
100
AcDbSymbolTableRecord
100
AcDbRegAppTableRecord
  2
ACAD_TEMP_GRAPHIC
 70
     0
  0
APPID
  5
50
330
9
100
AcDbSymbolTableRecord
100
AcDbRegAppTableRecord
  2
AD_DRAW
 70
     0
  0
APPID
  5
51
330
9
100
AcDbSymbolTableRecord
100
AcDbRegAppTableRecord
  2
ACATTRIBSERVICES
 70
     0
  0
APPID
  5
52
330
9
100
AcDbSymbolTableRecord
100
AcDbRegAppTableRecord
  2
DESIGNERASSEMBLIES
 70
     0
  0
APPID
  5
53
330
9
100
AcDbSymbolTableRecord
100
AcDbRegAppTableRecord
  2
ACADM_DIM_EDIT
 70
     0
  0
APPID
  5
54
330
9
100
AcDbSymbolTableRecord
100
AcDbRegAppTableRecord
  2
AMDT_DM_ADJ
 70
     0
  0
APPID
  5
55
330
9
100
AcDbSymbolTableRecord
100
AcDbRegAppTableRecord
  2
GENIUS_GENODEF_13
 70
     0
  0
APPID
  5
56
330
9
100
AcDbSymbolTableRecord
100
AcDbRegAppTableRecord
  2
GENIUS_GENOBJ-N-FIL_13
 70
     0
  0
APPID
  5
57
330
9
100
AcDbSymbolTableRecord
100
AcDbRegAppTableRecord
  2
ACAD_DIMASSOC_CALC_DIMLFAC
 70
     0
  0
APPID
  5
58
330
9
100
AcDbSymbolTableRecord
100
AcDbRegAppTableRecord
  2
ACAD_DIMASSOC_DIMLFAC
 70
     0
  0
APPID
  5
59
330
9
100
AcDbSymbolTableRecord
100
AcDbRegAppTableRecord
  2
ACAD_DIMASSOC_OVERRIDDEN_DIMLFAC
 70
     0
  0
APPID
  5
4E5
330
9
100
AcDbSymbolTableRecord
100
AcDbRegAppTableRecord
  2
CAXA
 70
     0
  0
APPID
  5
1BF7
330
9
100
AcDbSymbolTableRecord
100
AcDbRegAppTableRecord
  2
AVE_RENDER
 70
     0
  0
APPID
  5
1BF8
330
9
100
AcDbSymbolTableRecord
100
AcDbRegAppTableRecord
  2
AVE_ENTITY_MATERIAL
 70
     0
  0
APPID
  5
1BF9
330
9
100
AcDbSymbolTableRecord
100
AcDbRegAppTableRecord
  2
AVE_FINISH
 70
     0
  0
APPID
  5
1BFA
330
9
100
AcDbSymbolTableRecord
100
AcDbRegAppTableRecord
  2
AVE_MATERIAL
 70
     0
  0
APPID
  5
1BFB
330
9
100
AcDbSymbolTableRecord
100
AcDbRegAppTableRecord
  2
AVE_GLOBAL
 70
     0
  0
APPID
  5
1BFC
330
9
100
AcDbSymbolTableRecord
100
AcDbRegAppTableRecord
  2
GENIUS_GENBLLY_14
 70
     0
  0
APPID
  5
1BFD
330
9
100
AcDbSymbolTableRecord
100
AcDbRegAppTableRecord
  2
ODA
 70
     0
  0
APPID
  5
1BFE
330
9
100
AcDbSymbolTableRecord
100
AcDbRegAppTableRecord
  2
RAK
 70
     0
  0
APPID
  5
1BFF
330
9
100
AcDbSymbolTableRecord
100
AcDbRegAppTableRecord
  2
AcDbDynamicBlockGUID
 70
     0
  0
APPID
  5
1C00
330
9
100
AcDbSymbolTableRecord
100
AcDbRegAppTableRecord
  2
AcDbBlockRepETag
 70
     0
  0
APPID
  5
1C01
330
9
100
AcDbSymbolTableRecord
100
AcDbRegAppTableRecord
  2
ACAUTHENVIRON
 70
     0
  0
APPID
  5
1C02
330
9
100
AcDbSymbolTableRecord
100
AcDbRegAppTableRecord
  2
AcDbDynamicBlockTrueName
 70
     0
  0
APPID
  5
4097
330
9
100
AcDbSymbolTableRecord
100
AcDbRegAppTableRecord
  2
AcDbAttr
 70
     0
  0
APPID
  5
4098
330
9
100
AcDbSymbolTableRecord
100
AcDbRegAppTableRecord
  2
AcDbBlockRepBTag
 70
     0
  0
APPID
  5
45F4
330
9
100
AcDbSymbolTableRecord
100
AcDbRegAppTableRecord
  2
AcadStringInfo
 70
     0
  0
ENDTAB
  0
TABLE
  2
DIMSTYLE
  5
A
330
0
100
AcDbSymbolTable
 70
     7
100
AcDbDimStyleTable
 71
     2
340
25
340
4EC
  0
DIMSTYLE
105
25
330
A
100
AcDbSymbolTableRecord
100
AcDbDimStyleTableRecord
  2
Standard
 70
     0
340
11
  0
DIMSTYLE
105
60
330
A
100
AcDbSymbolTableRecord
100
AcDbDimStyleTableRecord
  2
副本 (3) ISO-25 4
 70
     0
 41
14.0
 42
0.0
 43
10.0
 44
6.0
 73
     0
 74
     0
 77
     1
 78
     8
140
20.0
141
7.5
143
0.03937007874016
147
1.5
171
     3
172
     1
271
     1
272
     1
274
     3
283
     0
284
     8
340
11
  0
DIMSTYLE
105
119
330
A
100
AcDbSymbolTableRecord
100
AcDbDimStyleTableRecord
  2
副本 ISO-25
 70
     0
 41
12.0
 42
0.0
 43
10.0
 44
5.0
 73
     0
 74
     0
 77
     1
 78
     8
140
18.0
141
1.5
143
0.03937007874016
147
1.5
171
     3
172
     1
271
     1
272
     1
274
     3
278
    44
283
     0
284
     8
340
11
  0
DIMSTYLE
105
359
330
A
100
AcDbSymbolTableRecord
100
AcDbDimStyleTableRecord
  2
ISO-25
 70
     0
 41
17.0
 42
3.0
 43
3.75
 44
1.25
 73
     0
 77
     1
 78
     8
140
19.0
141
80.0
143
0.03937007874016
147
7.0
170
     1
171
     3
172
     1
271
     2
272
     2
273
     7
274
     3
283
     0
284
     8
340
11
  0
DIMSTYLE
105
4EC
330
A
100
AcDbSymbolTableRecord
100
AcDbDimStyleTableRecord
  2
英寸
 70
     0
 41
12.0
 42
0.0
 43
10.0
 44
3.75
 73
     0
 74
     0
 77
     1
 78
     8
140
16.0
141
7.5
143
0.03937007874016
147
2.0
170
     1
171
     3
172
     1
179
     1
271
     1
272
     1
273
     7
274
     3
283
     0
284
     8
340
11
  0
DIMSTYLE
105
468D
330
A
100
AcDbSymbolTableRecord
100
AcDbDimStyleTableRecord
  2
LXF
 70
     0
 41
18.0
 42
0.0
 43
10.0
 44
2.5
 73
     0
 74
     0
 77
     1
 78
     8
140
20.0
141
0.0
143
0.03937007874016
147
3.0
171
     3
172
     1
178
     6
179
     1
271
     1
272
     1
274
     3
283
     0
284
     8
340
11
  0
DIMSTYLE
105
4B7B
330
A
100
AcDbSymbolTableRecord
100
AcDbDimStyleTableRecord
  2
ISO-25$4
 70
     0
 41
20.0
 42
0.625
 43
3.75
 44
1.25
 77
     1
 78
     1
140
20.0
141
0.0
143
0.03937007874016
147
0.625
171
     3
274
     3
284
     8
285
     8
286
     8
340
11
  0
ENDTAB
  0
TABLE
  2
BLOCK_RECORD
  5
1
330
0
100
AcDbSymbolTable
 70
    35
  0
BLOCK_RECORD
  5
1F
102
{ACAD_XDICTIONARY
360
5BDE
102
}
330
1
100
AcDbSymbolTableRecord
100
AcDbBlockTableRecord
  2
*Model_Space
340
22
  0
BLOCK_RECORD
  5
1B
330
1
100
AcDbSymbolTableRecord
100
AcDbBlockTableRecord
  2
*Paper_Space
340
1E
  0
BLOCK_RECORD
  5
23
330
1
100
AcDbSymbolTableRecord
100
AcDbBlockTableRecord
  2
*Paper_Space0
340
24
  0
BLOCK_RECORD
  5
3D85
330
1
100
AcDbSymbolTableRecord
100
AcDbBlockTableRecord
  2
WMF0
340
0
  0
BLOCK_RECORD
  5
3E4E
330
1
100
AcDbSymbolTableRecord
100
AcDbBlockTableRecord
  2
AN-3206 drawing
340
0
  0
BLOCK_RECORD
  5
541B
330
1
100
AcDbSymbolTableRecord
100
AcDbBlockTableRecord
  2
*D3
340
0
  0
BLOCK_RECORD
  5
542A
330
1
100
AcDbSymbolTableRecord
100
AcDbBlockTableRecord
  2
*D4
340
0
  0
BLOCK_RECORD
  5
54B8
330
1
100
AcDbSymbolTableRecord
100
AcDbBlockTableRecord
  2
*D5
340
0
  0
BLOCK_RECORD
  5
54C5
330
1
100
AcDbSymbolTableRecord
100
AcDbBlockTableRecord
  2
*D6
340
0
  0
BLOCK_RECORD
  5
54D2
330
1
100
AcDbSymbolTableRecord
100
AcDbBlockTableRecord
  2
*D7
340
0
  0
BLOCK_RECORD
  5
54E5
330
1
100
AcDbSymbolTableRecord
100
AcDbBlockTableRecord
  2
*D8
340
0
  0
BLOCK_RECORD
  5
54FF
330
1
100
AcDbSymbolTableRecord
100
AcDbBlockTableRecord
  2
*D9
340
0
  0
BLOCK_RECORD
  5
555D
330
1
100
AcDbSymbolTableRecord
100
AcDbBlockTableRecord
  2
*D10
340
0
  0
BLOCK_RECORD
  5
55C9
330
1
100
AcDbSymbolTableRecord
100
AcDbBlockTableRecord
  2
*D11
340
0
  0
BLOCK_RECORD
  5
55D8
330
1
100
AcDbSymbolTableRecord
100
AcDbBlockTableRecord
  2
*D12
340
0
  0
BLOCK_RECORD
  5
55E7
330
1
100
AcDbSymbolTableRecord
100
AcDbBlockTableRecord
  2
*D13
340
0
  0
BLOCK_RECORD
  5
55F3
330
1
100
AcDbSymbolTableRecord
100
AcDbBlockTableRecord
  2
*D14
340
0
  0
BLOCK_RECORD
  5
55FF
330
1
100
AcDbSymbolTableRecord
100
AcDbBlockTableRecord
  2
*D15
340
0
  0
BLOCK_RECORD
  5
560B
330
1
100
AcDbSymbolTableRecord
100
AcDbBlockTableRecord
  2
*D16
340
0
  0
BLOCK_RECORD
  5
5617
330
1
100
AcDbSymbolTableRecord
100
AcDbBlockTableRecord
  2
*D17
340
0
  0
BLOCK_RECORD
  5
5623
330
1
100
AcDbSymbolTableRecord
100
AcDbBlockTableRecord
  2
*D18
340
0
  0
BLOCK_RECORD
  5
574A
330
1
100
AcDbSymbolTableRecord
100
AcDbBlockTableRecord
  2
*D19
340
0
  0
BLOCK_RECORD
  5
5758
330
1
100
AcDbSymbolTableRecord
100
AcDbBlockTableRecord
  2
*D20
340
0
  0
BLOCK_RECORD
  5
5766
330
1
100
AcDbSymbolTableRecord
100
AcDbBlockTableRecord
  2
*D21
340
0
  0
BLOCK_RECORD
  5
5772
330
1
100
AcDbSymbolTableRecord
100
AcDbBlockTableRecord
  2
*D22
340
0
  0
BLOCK_RECORD
  5
577E
330
1
100
AcDbSymbolTableRecord
100
AcDbBlockTableRecord
  2
*D23
340
0
  0
BLOCK_RECORD
  5
578A
330
1
100
AcDbSymbolTableRecord
100
AcDbBlockTableRecord
  2
*D24
340
0
  0
BLOCK_RECORD
  5
5796
330
1
100
AcDbSymbolTableRecord
100
AcDbBlockTableRecord
  2
*D25
340
0
  0
BLOCK_RECORD
  5
57A2
330
1
100
AcDbSymbolTableRecord
100
AcDbBlockTableRecord
  2
*D26
340
0
  0
BLOCK_RECORD
  5
58CA
330
1
100
AcDbSymbolTableRecord
100
AcDbBlockTableRecord
  2
*D27
340
0
  0
BLOCK_RECORD
  5
58D8
330
1
100
AcDbSymbolTableRecord
100
AcDbBlockTableRecord
  2
*D28
340
0
  0
BLOCK_RECORD
  5
58E6
330
1
100
AcDbSymbolTableRecord
100
AcDbBlockTableRecord
  2
*D29
340
0
  0
BLOCK_RECORD
  5
58F2
330
1
100
AcDbSymbolTableRecord
100
AcDbBlockTableRecord
  2
*D30
340
0
  0
BLOCK_RECORD
  5
58FE
330
1
100
AcDbSymbolTableRecord
100
AcDbBlockTableRecord
  2
*D31
340
0
  0
BLOCK_RECORD
  5
590A
330
1
100
AcDbSymbolTableRecord
100
AcDbBlockTableRecord
  2
*D32
340
0
  0
BLOCK_RECORD
  5
5916
330
1
100
AcDbSymbolTableRecord
100
AcDbBlockTableRecord
  2
*D33
340
0
  0
BLOCK_RECORD
  5
5922
330
1
100
AcDbSymbolTableRecord
100
AcDbBlockTableRecord
  2
*D34
340
0
  0
ENDTAB
  0
ENDSEC
  0
SECTION
  2
BLOCKS
  0
BLOCK
  5
20
330
1F
100
AcDbEntity
  8
0
100
AcDbBlockBegin
  2
*Model_Space
 70
     0
 10
0.0
 20
0.0
 30
0.0
  3
*Model_Space
  1

  0
ENDBLK
  5
21
330
1F
100
AcDbEntity
  8
0
100
AcDbBlockEnd
  0
BLOCK
  5
1C
330
1B
100
AcDbEntity
 67
     1
  8
0
100
AcDbBlockBegin
  2
*Paper_Space
 70
     0
 10
0.0
 20
0.0
 30
0.0
  3
*Paper_Space
  1

  0
ENDBLK
  5
1D
330
1B
100
AcDbEntity
 67
     1
  8
0
100
AcDbBlockEnd
  0
BLOCK
  5
39
330
23
100
AcDbEntity
 67
     1
  8
0
100
AcDbBlockBegin
  2
*Paper_Space0
 70
     0
 10
0.0
 20
0.0
 30
0.0
  3
*Paper_Space0
  1

  0
ENDBLK
  5
3A
330
23
100
AcDbEntity
 67
     1
  8
0
100
AcDbBlockEnd
  0
BLOCK
  5
3D86
330
3D85
100
AcDbEntity
  8
0
100
AcDbBlockBegin
  2
WMF0
 70
     0
 10
0.0
 20
0.0
 30
0.0
  3
WMF0
  1

  0
LWPOLYLINE
  5
3D77
330
3D85
100
AcDbEntity
  8
0
 62
     7
370
     0
100
AcDbPolyline
 90
       75
 70
     1
 43
0.0
 10
443.938630618862
 20
2020.315222057084
 10
453.9792458509528
 20
2020.315222057084
 10
459.7167402692901
 20
2005.97148601124
 10
459.7167402692901
 20
2005.97148601124
 10
486.9698387563933
 20
1944.293421014112
 10
503.4651352091136
 20
1907.716894097211
 10
509.9198164297432
 20
1894.807531655951
 10
513.5057504412039
 20
1886.918476830737
 10
513.5057504412039
 20
1886.918476830737
 10
515.6573108480805
 20
1884.766916423861
 10
517.8088712549572
 20
1883.332542819276
 10
519.9604316618338
 20
1881.898169214692
 10
522.8291788710023
 20
1881.898169214692
 10
522.8291788710023
 20
1881.898169214692
 10
524.980739277879
 20
1881.1809824124
 10
527.1322996847556
 20
1881.1809824124
 10
527.8494864870475
 20
1880.463795610108
 10
527.8494864870475
 20
1879.029422005523
 10
527.8494864870475
 20
1876.160674796355
 10
527.8494864870475
 20
1876.160674796355
 10
527.8494864870475
 20
1874.72630119177
 10
527.1322996847556
 20
1874.009114389478
 10
524.980739277879
 20
1873.291927587186
 10
468.3229818967965
 20
1873.291927587186
 10
468.3229818967965
 20
1873.291927587186
 10
467.6057950945041
 20
1874.009114389478
 10
466.1714214899197
 20
1876.160674796355
 10
466.8886082922121
 20
1879.746608807815
 10
466.8886082922121
 20
1879.746608807815
 10
467.6057950945041
 20
1881.1809824124
 10
468.3229818967965
 20
1881.898169214692
 10
474.777663117426
 20
1881.898169214692
 10
474.777663117426
 20
1881.898169214692
 10
479.0807839311792
 20
1881.898169214692
 10
482.6667179426401
 20
1883.332542819276
 10
484.8182783495166
 20
1885.484103226153
 10
485.5354651518085
 20
1889.070037237614
 10
485.5354651518085
 20
1889.070037237614
 10
484.8182783495166
 20
1892.655971249075
 10
482.6667179426401
 20
1898.393465667412
 10
474.0604763151337
 20
1919.909069736178
 10
410.9480377134216
 20
1919.909069736178
 10
400.9074224813311
 20
1894.807531655951
 10
400.9074224813311
 20
1894.807531655951
 10
400.1902356790387
 20
1891.938784446782
 10
399.4730488767467
 20
1889.070037237614
 10
399.4730488767467
 20
1889.070037237614
 10
400.1902356790387
 20
1886.201290028445
 10
402.3417960859155
 20
1883.332542819276
 10
405.2105432950843
 20
1881.898169214692
 10
409.513664108837
 20
1881.898169214692
 10
415.2511585271748
 20
1881.898169214692
 10
415.2511585271748
 20
1881.898169214692
 10
416.6855321317592
 20
1881.1809824124
 10
417.402718934051
 20
1879.029422005523
 10
417.402718934051
 20
1875.443487994061
 10
417.402718934051
 20
1875.443487994061
 10
416.6855321317592
 20
1874.009114389478
 10
415.968345329467
 20
1873.291927587186
 10
368.6340163781828
 20
1873.291927587186
 10
368.6340163781828
 20
1873.291927587186
 10
367.1996427735985
 20
1874.009114389478
 10
366.4824559713063
 20
1876.160674796355
 10
366.4824559713063
 20
1879.746608807815
 10
366.4824559713063
 20
1879.746608807815
 10
367.1996427735985
 20
1881.1809824124
 10
368.6340163781828
 20
1881.898169214692
 10
368.6340163781828
 20
1881.898169214692
 10
373.6543239942282
 20
1881.898169214692
 10
375.8058844011046
 20
1882.615356016984
 10
377.9574448079813
 20
1884.049729621569
 10
380.1090052148578
 20
1886.201290028445
 10
382.2605656217344
 20
1889.787224039906
 10
388.715246842364
 20
1901.262212876581
 10
443.938630618862
 20
2020.315222057084
  0
LWPOLYLINE
  5
3D78
330
3D85
100
AcDbEntity
  8
0
 62
     7
370
     0
100
AcDbPolyline
 90
        4
 70
     1
 43
0.0
 10
443.22144381657
 20
1993.062123569981
 10
414.5339717248825
 20
1928.515311363684
 10
470.474542303673
 20
1928.515311363684
 10
443.22144381657
 20
1993.062123569981
  0
LWPOLYLINE
  5
3D79
330
3D85
100
AcDbEntity
  8
0
 62
     7
370
     0
100
AcDbPolyline
 90
      104
 70
     1
 43
0.0
 10
703.5602530486328
 20
2011.708980429578
 10
703.5602530486328
 20
2011.708980429578
 10
702.8430662463407
 20
2010.274606824993
 10
702.1258794440488
 20
2010.274606824993
 10
697.8227586302955
 20
2009.557420022701
 10
697.8227586302955
 20
2009.557420022701
 10
692.8024510142502
 20
2009.557420022701
 10
688.499330200497
 20
2009.557420022701
 10
685.6305829913281
 20
2008.123046418117
 10
683.4790225844519
 20
2006.688672813532
 10
682.7618357821595
 20
2003.819925604364
 10
682.0446489798674
 20
1999.51680479061
 10
682.0446489798674
 20
1985.173068744767
 10
682.0446489798674
 20
1874.009114389478
 10
682.0446489798674
 20
1874.009114389478
 10
681.327462177575
 20
1872.574740784894
 10
679.8930885729909
 20
1871.857553982601
 10
671.2868469454847
 20
1871.857553982601
 10
655.5087372950564
 20
1894.090344853659
 10
592.3962986933442
 20
1975.849640314968
 10
592.3962986933442
 20
1975.849640314968
 10
583.7900570658381
 20
1986.607442349351
 10
575.1838154383317
 20
1995.213683976857
 10
575.1838154383317
 20
1912.020014910964
 10
575.1838154383317
 20
1912.020014910964
 10
575.9010022406243
 20
1894.807531655951
 10
576.6181890429162
 20
1889.787224039906
 10
578.0525626475007
 20
1885.484103226153
 10
580.204123054377
 20
1883.332542819276
 10
583.0728702635457
 20
1881.898169214692
 10
587.375991077299
 20
1881.1809824124
 10
593.1134854956366
 20
1881.1809824124
 10
593.1134854956366
 20
1881.1809824124
 10
598.1337931116819
 20
1881.1809824124
 10
598.850979913974
 20
1880.463795610108
 10
598.850979913974
 20
1879.029422005523
 10
598.850979913974
 20
1874.72630119177
 10
598.850979913974
 20
1874.72630119177
 10
598.850979913974
 20
1874.009114389478
 10
597.4166063093897
 20
1873.291927587186
 10
542.9104093351837
 20
1873.291927587186
 10
542.9104093351837
 20
1873.291927587186
 10
541.4760357305993
 20
1873.291927587186
 10
541.4760357305993
 20
1874.009114389478
 10
540.7588489283069
 20
1875.443487994061
 10
540.7588489283069
 20
1875.443487994061
 10
540.7588489283069
 20
1879.029422005523
 10
541.4760357305993
 20
1880.463795610108
 10
542.1932225328913
 20
1881.1809824124
 10
544.344782939768
 20
1881.1809824124
 10
544.344782939768
 20
1881.1809824124
 10
550.0822773581054
 20
1881.1809824124
 10
554.3853981718585
 20
1881.898169214692
 10
557.9713321833194
 20
1882.615356016984
 10
560.1228925901961
 20
1884.049729621569
 10
562.2744529970724
 20
1886.918476830737
 10
562.9916397993647
 20
1890.504410842198
 10
563.708826601657
 20
1895.524718458243
 10
563.708826601657
 20
1901.979399678873
 10
563.708826601657
 20
1985.173068744767
 10
563.708826601657
 20
1985.173068744767
 10
563.708826601657
 20
1998.799617988318
 10
562.9916397993647
 20
2003.102738802072
 10
561.5572661947805
 20
2005.97148601124
 10
559.4057057879039
 20
2008.123046418117
 10
556.5369585787351
 20
2008.840233220409
 10
552.2338377649821
 20
2009.557420022701
 10
546.4963433466444
 20
2009.557420022701
 10
546.4963433466444
 20
2009.557420022701
 10
542.1932225328913
 20
2010.274606824993
 10
541.4760357305993
 20
2010.991793627285
 10
540.7588489283069
 20
2011.708980429578
 10
540.7588489283069
 20
2011.708980429578
 10
541.4760357305993
 20
2016.729288045623
 10
541.4760357305993
 20
2017.446474847915
 10
542.1932225328913
 20
2017.446474847915
 10
587.375991077299
 20
2017.446474847915
 10
587.375991077299
 20
2017.446474847915
 10
600.2853535185582
 20
1999.51680479061
 10
651.9228032835957
 20
1932.101245375145
 10
651.9228032835957
 20
1932.101245375145
 10
669.8524733409002
 20
1909.868454504087
 10
669.8524733409002
 20
1985.173068744767
 10
669.8524733409002
 20
1985.173068744767
 10
669.8524733409002
 20
1999.51680479061
 10
668.4180997363157
 20
2003.819925604364
 10
666.9837261317316
 20
2006.688672813532
 10
664.8321657248549
 20
2008.123046418117
 10
661.2462317133941
 20
2009.557420022701
 10
656.943110899641
 20
2009.557420022701
 10
651.2056164813035
 20
2009.557420022701
 10
651.2056164813035
 20
2009.557420022701
 10
646.185308865258
 20
2010.274606824993
 10
645.468122062966
 20
2010.991793627285
 10
645.468122062966
 20
2011.708980429578
 10
645.468122062966
 20
2016.01210124333
 10
645.468122062966
 20
2016.01210124333
 10
646.185308865258
 20
2017.446474847915
 10
648.3368692721348
 20
2017.446474847915
 10
701.4086926417563
 20
2017.446474847915
 10
701.4086926417563
 20
2017.446474847915
 10
702.8430662463407
 20
2016.729288045623
 10
703.5602530486328
 20
2016.01210124333
 10
703.5602530486328
 20
2011.708980429578
  0
LWPOLYLINE
  5
3D7A
330
3D85
100
AcDbEntity
  8
0
 62
     7
370
     0
100
AcDbPolyline
 90
      122
 70
     1
 43
0.0
 10
831.2195038566416
 20
1971.546519501215
 10
831.2195038566416
 20
1971.546519501215
 10
829.7851302520575
 20
1972.263706303508
 10
829.0679434497651
 20
1972.980893105799
 10
828.350756647473
 20
1976.566827117261
 10
828.350756647473
 20
1976.566827117261
 10
826.9163830428889
 20
1983.738695140182
 10
824.04763583372
 20
1990.910563163104
 10
820.461701822259
 20
1996.648057581441
 10
815.4413942062134
 20
2001.668365197487
 10
809.7038997878765
 20
2005.97148601124
 10
803.9664053695387
 20
2009.557420022701
 10
797.5117241489091
 20
2010.991793627285
 10
790.3398561259872
 20
2011.708980429578
 10
790.3398561259872
 20
2011.708980429578
 10
785.319548509942
 20
2011.708980429578
 10
780.2992408938968
 20
2010.991793627285
 10
775.9961200801434
 20
2009.557420022701
 10
770.9758124640982
 20
2007.405859615825
 10
766.6726916503453
 20
2005.254299208948
 10
763.0867576388842
 20
2001.668365197487
 10
759.5008236274233
 20
1998.799617988318
 10
755.9148896159626
 20
1994.496497174565
 10
753.0461424067937
 20
1990.193376360812
 10
750.1773951976248
 20
1985.173068744767
 10
748.0258347907485
 20
1980.152761128722
 10
745.8742743838719
 20
1975.132453512676
 10
744.4399007792875
 20
1969.394959094339
 10
743.7227139769952
 20
1962.940277873709
 10
743.005527174703
 20
1956.485596653079
 10
742.2883403724107
 20
1950.030915432449
 10
742.2883403724107
 20
1950.030915432449
 10
743.005527174703
 20
1942.859047409528
 10
743.7227139769952
 20
1936.404366188898
 10
744.4399007792875
 20
1929.949684968268
 10
746.5914611861641
 20
1924.212190549931
 10
748.7430215930403
 20
1917.757509329301
 10
750.8945819999171
 20
1912.737201713255
 10
753.7633292090859
 20
1907.716894097211
 10
756.6320764182546
 20
1902.696586481164
 10
760.2180104297156
 20
1899.110652469704
 10
763.8039444411766
 20
1894.807531655951
 10
768.1070652549292
 20
1891.938784446782
 10
772.4101860686827
 20
1889.070037237614
 10
777.4304936847279
 20
1886.918476830737
 10
781.7336144984807
 20
1885.484103226153
 10
787.4711089168187
 20
1884.049729621569
 10
792.4914165328639
 20
1884.049729621569
 10
792.4914165328639
 20
1884.049729621569
 10
797.5117241489091
 20
1884.049729621569
 10
802.5320317649542
 20
1885.484103226153
 10
806.8351525787074
 20
1886.918476830737
 10
811.8554601947527
 20
1888.352850435322
 10
816.1585810085059
 20
1890.504410842198
 10
820.461701822259
 20
1893.373158051367
 10
824.04763583372
 20
1896.959092062828
 10
827.6335698451806
 20
1900.545026074289
 10
827.6335698451806
 20
1900.545026074289
 10
829.7851302520575
 20
1903.413773283457
 10
831.2195038566416
 20
1904.13096008575
 10
831.936690658934
 20
1903.413773283457
 10
836.2398114726872
 20
1900.545026074289
 10
836.2398114726872
 20
1900.545026074289
 10
836.9569982749792
 20
1900.545026074289
 10
836.9569982749792
 20
1899.110652469704
 10
836.9569982749792
 20
1899.110652469704
 10
836.2398114726872
 20
1896.959092062828
 10
834.0882510658106
 20
1893.373158051367
 10
829.7851302520575
 20
1888.352850435322
 10
824.7648226360123
 20
1883.332542819276
 10
816.8757678107981
 20
1879.029422005523
 10
812.572646997045
 20
1876.877861598647
 10
808.269526183292
 20
1874.72630119177
 10
802.5320317649542
 20
1872.574740784894
 10
796.7945373466168
 20
1871.857553982601
 10
790.3398561259872
 20
1871.140367180309
 10
783.8851749053576
 20
1870.423180378017
 10
783.8851749053576
 20
1870.423180378017
 10
776.7133068824358
 20
1871.140367180309
 10
770.2586256618062
 20
1871.857553982601
 10
763.8039444411766
 20
1873.291927587186
 10
757.3492632205467
 20
1876.160674796355
 10
751.6117688022093
 20
1879.029422005523
 10
746.5914611861641
 20
1882.615356016984
 10
741.5711535701185
 20
1886.201290028445
 10
736.5508459540732
 20
1891.221597644491
 10
732.2477251403204
 20
1896.241905260536
 10
728.6617911288592
 20
1901.262212876581
 10
725.7930439196907
 20
1907.716894097211
 10
722.924296710522
 20
1914.17157531784
 10
720.7727363036451
 20
1920.62625653847
 10
719.3383626990611
 20
1927.798124561392
 10
718.6211758967687
 20
1935.687179386606
 10
717.9039890944767
 20
1942.859047409528
 10
717.9039890944767
 20
1942.859047409528
 10
718.6211758967687
 20
1951.465289037034
 10
720.0555495013531
 20
1960.07153066454
 10
721.4899231059376
 20
1967.960585489754
 10
723.6414835128141
 20
1975.132453512676
 10
727.2274175242751
 20
1981.587134733306
 10
730.8133515357359
 20
1988.041815953935
 10
735.1164723494887
 20
1994.496497174565
 10
740.1367799655344
 20
1999.51680479061
 10
745.8742743838719
 20
2004.537112406656
 10
751.6117688022093
 20
2008.840233220409
 10
758.066450022839
 20
2012.42616723187
 10
765.2383180457608
 20
2015.294914441039
 10
773.1273728709749
 20
2017.446474847915
 10
781.0164276961886
 20
2019.598035254792
 10
789.622669323695
 20
2020.315222057084
 10
798.2289109512013
 20
2021.032408859376
 10
798.2289109512013
 20
2021.032408859376
 10
807.5523393809998
 20
2020.315222057084
 10
816.1585810085059
 20
2018.8808484525
 10
825.4820094383044
 20
2016.729288045623
 10
835.5226246703947
 20
2013.143354034162
 10
836.9569982749792
 20
1980.869947931014
 10
836.9569982749792
 20
1980.869947931014
 10
836.9569982749792
 20
1972.980893105799
 10
836.2398114726872
 20
1972.263706303508
 10
835.5226246703947
 20
1971.546519501215
 10
831.2195038566416
 20
1971.546519501215
  0
LWPOLYLINE
  5
3D7B
330
3D85
100
AcDbEntity
  8
0
 62
     7
370
     0
100
AcDbPolyline
 90
       70
 70
     1
 43
0.0
 10
998.3240287907207
 20
1946.444981420989
 10
998.3240287907207
 20
1946.444981420989
 10
997.6068419884287
 20
1938.555926595775
 10
996.8896551861362
 20
1930.66687177056
 10
994.7380947792597
 20
1922.777816945347
 10
992.5865343723835
 20
1916.323135724717
 10
989.7177871632147
 20
1909.151267701795
 10
986.1318531517538
 20
1902.696586481164
 10
981.8287323380003
 20
1896.959092062828
 10
977.5256115242475
 20
1891.938784446782
 10
972.5053039082022
 20
1886.918476830737
 10
966.7678094898647
 20
1882.615356016984
 10
961.0303150715273
 20
1879.029422005523
 10
954.5756338508978
 20
1876.160674796355
 10
947.4037658279755
 20
1874.009114389478
 10
940.2318978050541
 20
1871.857553982601
 10
933.060029782132
 20
1871.140367180309
 10
925.170974956918
 20
1870.423180378017
 10
925.170974956918
 20
1870.423180378017
 10
917.2819201317039
 20
1871.140367180309
 10
910.8272389110743
 20
1871.857553982601
 10
903.6553708881523
 20
1873.291927587186
 10
897.2006896675226
 20
1876.160674796355
 10
891.4631952491854
 20
1879.029422005523
 10
885.7257008308479
 20
1881.898169214692
 10
879.98820641251
 20
1886.201290028445
 10
875.6850855987572
 20
1890.504410842198
 10
871.3819647850042
 20
1895.524718458243
 10
867.0788439712511
 20
1901.262212876581
 10
864.2100967620821
 20
1906.999707294918
 10
861.3413495529135
 20
1913.454388515548
 10
859.1897891460366
 20
1919.909069736178
 10
857.7554155414526
 20
1927.0809377591
 10
856.3210419368683
 20
1934.969992584314
 10
856.3210419368683
 20
1942.141860607236
 10
856.3210419368683
 20
1942.141860607236
 10
856.3210419368683
 20
1950.748102234742
 10
857.7554155414526
 20
1958.637157059956
 10
859.1897891460366
 20
1966.52621188517
 10
861.3413495529135
 20
1973.698079908092
 10
864.2100967620821
 20
1980.869947931014
 10
867.7960307735432
 20
1987.324629151643
 10
872.0991515872963
 20
1993.062123569981
 10
877.1194592033417
 20
1998.799617988318
 10
882.1397668193869
 20
2003.819925604364
 10
887.8772612377243
 20
2008.123046418117
 10
893.6147556560619
 20
2011.708980429578
 10
900.0694368766916
 20
2014.577727638746
 10
907.2413048996134
 20
2017.446474847915
 10
914.4131729225353
 20
2018.8808484525
 10
922.302227747749
 20
2020.315222057084
 10
930.1912825729631
 20
2020.315222057084
 10
930.1912825729631
 20
2020.315222057084
 10
937.3631505958853
 20
2020.315222057084
 10
944.535018618807
 20
2018.8808484525
 10
951.7068866417288
 20
2017.446474847915
 10
958.1615678623585
 20
2015.294914441039
 10
963.8990622806959
 20
2012.42616723187
 10
969.6365566990337
 20
2008.840233220409
 10
974.6568643150787
 20
2004.537112406656
 10
979.6771719311239
 20
2000.233991592903
 10
983.980292744877
 20
1995.213683976857
 10
987.5662267563381
 20
1989.476189558519
 10
990.4349739655067
 20
1983.738695140182
 10
993.3037211746755
 20
1976.566827117261
 10
995.4552815815517
 20
1970.112145896631
 10
996.8896551861362
 20
1962.223091071417
 10
997.6068419884287
 20
1954.334036246203
 10
998.3240287907207
 20
1946.444981420989
 10
998.3240287907207
 20
1946.444981420989
  0
LWPOLYLINE
  5
3D7C
330
3D85
100
AcDbEntity
  8
0
 62
     7
370
     0
100
AcDbPolyline
 90
       68
 70
     1
 43
0.0
 10
881.4225800170945
 20
1945.727794618697
 10
881.4225800170945
 20
1945.727794618697
 10
881.4225800170945
 20
1938.555926595775
 10
882.1397668193869
 20
1931.384058572852
 10
883.5741404239714
 20
1924.929377352223
 10
885.0085140285557
 20
1918.474696131594
 10
886.44288763314
 20
1912.737201713255
 10
888.5944480400167
 20
1906.999707294918
 10
891.4631952491854
 20
1901.979399678873
 10
894.331942458354
 20
1896.959092062828
 10
897.2006896675226
 20
1893.373158051367
 10
900.7866236789835
 20
1889.787224039906
 10
905.0897444927368
 20
1886.201290028445
 10
908.6756785041977
 20
1883.332542819276
 10
912.9787993179505
 20
1881.898169214692
 10
917.999106933996
 20
1879.746608807815
 10
922.302227747749
 20
1879.029422005523
 10
927.3225353637942
 20
1879.029422005523
 10
927.3225353637942
 20
1879.029422005523
 10
932.3428429798395
 20
1879.029422005523
 10
937.3631505958853
 20
1879.746608807815
 10
941.6662714096382
 20
1881.1809824124
 10
945.9693922233913
 20
1883.332542819276
 10
950.2725130371443
 20
1886.201290028445
 10
953.8584470486052
 20
1889.070037237614
 10
957.4443810600664
 20
1892.655971249075
 10
960.3131282692347
 20
1896.959092062828
 10
963.1818754784037
 20
1901.262212876581
 10
966.0506226875723
 20
1906.282520492626
 10
968.202183094449
 20
1912.020014910964
 10
969.6365566990337
 20
1917.757509329301
 10
971.0709303036175
 20
1924.212190549931
 10
971.7881171059101
 20
1930.66687177056
 10
972.5053039082022
 20
1945.010607816404
 10
972.5053039082022
 20
1945.010607816404
 10
971.7881171059101
 20
1959.354343862248
 10
971.0709303036175
 20
1965.809025082878
 10
969.6365566990337
 20
1972.263706303508
 10
967.4849962921566
 20
1978.001200721845
 10
966.0506226875723
 20
1983.738695140182
 10
963.1818754784037
 20
1988.759002756227
 10
960.3131282692347
 20
1993.779310372273
 10
957.4443810600664
 20
1998.082431186026
 10
953.8584470486052
 20
2001.668365197487
 10
950.2725130371443
 20
2004.537112406656
 10
946.6865790256836
 20
2007.405859615825
 10
942.3834582119303
 20
2009.557420022701
 10
938.0803373981771
 20
2010.991793627285
 10
933.060029782132
 20
2012.42616723187
 10
928.0397221660866
 20
2012.42616723187
 10
928.0397221660866
 20
2012.42616723187
 10
923.0194145500414
 20
2012.42616723187
 10
917.999106933996
 20
2010.991793627285
 10
912.9787993179505
 20
2009.557420022701
 10
908.6756785041977
 20
2008.123046418117
 10
904.3725576904446
 20
2005.254299208948
 10
900.7866236789835
 20
2002.385551999779
 10
897.2006896675226
 20
1998.799617988318
 10
894.331942458354
 20
1994.496497174565
 10
891.4631952491854
 20
1990.193376360812
 10
888.5944480400167
 20
1985.173068744767
 10
886.44288763314
 20
1979.435574326429
 10
885.0085140285557
 20
1973.698079908092
 10
883.5741404239714
 20
1967.243398687462
 10
882.1397668193869
 20
1960.07153066454
 10
881.4225800170945
 20
1952.899662641618
 10
881.4225800170945
 20
1945.727794618697
 10
881.4225800170945
 20
1945.727794618697
  0
LWPOLYLINE
  5
3D7D
330
3D85
100
AcDbEntity
  8
0
 62
     7
370
     0
100
AcDbPolyline
 90
      104
 70
     1
 43
0.0
 10
1176.903542561475
 20
2011.708980429578
 10
1176.903542561475
 20
2011.708980429578
 10
1176.186355759182
 20
2010.274606824993
 10
1175.46916895689
 20
2010.274606824993
 10
1171.166048143137
 20
2009.557420022701
 10
1171.166048143137
 20
2009.557420022701
 10
1166.145740527092
 20
2009.557420022701
 10
1161.842619713339
 20
2009.557420022701
 10
1158.97387250417
 20
2008.123046418117
 10
1156.822312097293
 20
2006.688672813532
 10
1156.105125295001
 20
2003.819925604364
 10
1155.387938492709
 20
1999.51680479061
 10
1155.387938492709
 20
1985.173068744767
 10
1155.387938492709
 20
1874.009114389478
 10
1155.387938492709
 20
1874.009114389478
 10
1154.670751690417
 20
1872.574740784894
 10
1153.236378085833
 20
1871.857553982601
 10
1144.630136458326
 20
1871.857553982601
 10
1128.852026807898
 20
1894.090344853659
 10
1065.739588206186
 20
1975.849640314968
 10
1065.739588206186
 20
1975.849640314968
 10
1057.13334657868
 20
1986.607442349351
 10
1048.527104951173
 20
1995.213683976857
 10
1048.527104951173
 20
1912.020014910964
 10
1048.527104951173
 20
1912.020014910964
 10
1049.244291753466
 20
1894.807531655951
 10
1049.961478555758
 20
1889.787224039906
 10
1051.395852160342
 20
1885.484103226153
 10
1053.547412567219
 20
1883.332542819276
 10
1056.416159776388
 20
1881.898169214692
 10
1060.719280590141
 20
1881.1809824124
 10
1066.456775008478
 20
1881.1809824124
 10
1066.456775008478
 20
1881.1809824124
 10
1071.477082624523
 20
1881.1809824124
 10
1072.194269426816
 20
1880.463795610108
 10
1072.194269426816
 20
1879.029422005523
 10
1072.194269426816
 20
1874.72630119177
 10
1072.194269426816
 20
1874.72630119177
 10
1072.194269426816
 20
1874.009114389478
 10
1070.759895822231
 20
1873.291927587186
 10
1016.253698848025
 20
1873.291927587186
 10
1016.253698848025
 20
1873.291927587186
 10
1015.536512045733
 20
1873.291927587186
 10
1014.819325243441
 20
1874.009114389478
 10
1014.102138441149
 20
1875.443487994061
 10
1014.102138441149
 20
1875.443487994061
 10
1014.102138441149
 20
1879.029422005523
 10
1014.819325243441
 20
1880.463795610108
 10
1015.536512045733
 20
1881.1809824124
 10
1017.68807245261
 20
1881.1809824124
 10
1017.68807245261
 20
1881.1809824124
 10
1023.425566870947
 20
1881.1809824124
 10
1027.7286876847
 20
1881.898169214692
 10
1031.314621696161
 20
1882.615356016984
 10
1033.466182103038
 20
1884.049729621569
 10
1035.617742509914
 20
1886.918476830737
 10
1036.334929312206
 20
1890.504410842198
 10
1037.052116114499
 20
1895.524718458243
 10
1037.052116114499
 20
1901.979399678873
 10
1037.052116114499
 20
1985.173068744767
 10
1037.052116114499
 20
1985.173068744767
 10
1037.052116114499
 20
1998.799617988318
 10
1036.334929312206
 20
2003.102738802072
 10
1034.900555707622
 20
2005.97148601124
 10
1032.748995300746
 20
2008.123046418117
 10
1029.880248091577
 20
2008.840233220409
 10
1025.577127277824
 20
2009.557420022701
 10
1019.839632859486
 20
2009.557420022701
 10
1019.839632859486
 20
2009.557420022701
 10
1015.536512045733
 20
2010.274606824993
 10
1014.819325243441
 20
2010.991793627285
 10
1014.102138441149
 20
2011.708980429578
 10
1014.102138441149
 20
2011.708980429578
 10
1014.819325243441
 20
2016.729288045623
 10
1014.819325243441
 20
2017.446474847915
 10
1015.536512045733
 20
2017.446474847915
 10
1060.719280590141
 20
2017.446474847915
 10
1060.719280590141
 20
2017.446474847915
 10
1073.6286430314
 20
1999.51680479061
 10
1125.266092796437
 20
1932.101245375145
 10
1125.266092796437
 20
1932.101245375145
 10
1143.195762853742
 20
1909.868454504087
 10
1143.195762853742
 20
1985.173068744767
 10
1143.195762853742
 20
1985.173068744767
 10
1143.195762853742
 20
1999.51680479061
 10
1141.761389249158
 20
2003.819925604364
 10
1140.327015644573
 20
2006.688672813532
 10
1138.175455237697
 20
2008.123046418117
 10
1134.589521226236
 20
2009.557420022701
 10
1130.286400412483
 20
2009.557420022701
 10
1124.548905994145
 20
2009.557420022701
 10
1124.548905994145
 20
2009.557420022701
 10
1119.5285983781
 20
2010.274606824993
 10
1118.811411575808
 20
2010.991793627285
 10
1118.811411575808
 20
2011.708980429578
 10
1118.811411575808
 20
2016.01210124333
 10
1118.811411575808
 20
2016.01210124333
 10
1119.5285983781
 20
2017.446474847915
 10
1121.680158784976
 20
2017.446474847915
 10
1174.751982154598
 20
2017.446474847915
 10
1174.751982154598
 20
2017.446474847915
 10
1176.186355759182
 20
2016.729288045623
 10
1176.903542561475
 20
2016.01210124333
 10
1176.903542561475
 20
2011.708980429578
  0
LWPOLYLINE
  5
3D7E
330
3D85
100
AcDbEntity
  8
0
 62
     7
370
     0
100
AcDbPolyline
 90
       75
 70
     1
 43
0.0
 10
1255.794090813615
 20
2020.315222057084
 10
1265.117519243413
 20
2020.315222057084
 10
1271.572200464043
 20
2005.97148601124
 10
1271.572200464043
 20
2005.97148601124
 10
1298.825298951146
 20
1944.293421014112
 10
1315.320595403866
 20
1907.716894097211
 10
1321.775276624496
 20
1894.807531655951
 10
1325.361210635957
 20
1886.918476830737
 10
1325.361210635957
 20
1886.918476830737
 10
1327.512771042833
 20
1884.766916423861
 10
1329.66433144971
 20
1883.332542819276
 10
1331.815891856586
 20
1881.898169214692
 10
1333.967452263463
 20
1881.898169214692
 10
1333.967452263463
 20
1881.898169214692
 10
1336.836199472632
 20
1881.1809824124
 10
1338.987759879508
 20
1881.1809824124
 10
1339.7049466818
 20
1880.463795610108
 10
1339.7049466818
 20
1879.029422005523
 10
1339.7049466818
 20
1876.160674796355
 10
1339.7049466818
 20
1876.160674796355
 10
1339.7049466818
 20
1874.72630119177
 10
1338.987759879508
 20
1874.009114389478
 10
1336.836199472632
 20
1873.291927587186
 10
1280.178442091549
 20
1873.291927587186
 10
1280.178442091549
 20
1873.291927587186
 10
1278.744068486965
 20
1874.009114389478
 10
1278.026881684673
 20
1876.160674796355
 10
1278.744068486965
 20
1879.746608807815
 10
1278.744068486965
 20
1879.746608807815
 10
1278.744068486965
 20
1881.1809824124
 10
1280.178442091549
 20
1881.898169214692
 10
1285.915936509887
 20
1881.898169214692
 10
1285.915936509887
 20
1881.898169214692
 10
1290.936244125932
 20
1881.898169214692
 10
1294.522178137393
 20
1883.332542819276
 10
1295.956551741977
 20
1885.484103226153
 10
1296.673738544269
 20
1889.070037237614
 10
1296.673738544269
 20
1889.070037237614
 10
1296.673738544269
 20
1892.655971249075
 10
1294.522178137393
 20
1898.393465667412
 10
1285.915936509887
 20
1919.909069736178
 10
1222.803497908174
 20
1919.909069736178
 10
1212.762882676084
 20
1894.807531655951
 10
1212.762882676084
 20
1894.807531655951
 10
1212.045695873792
 20
1891.938784446782
 10
1211.328509071499
 20
1889.070037237614
 10
1211.328509071499
 20
1889.070037237614
 10
1212.045695873792
 20
1886.201290028445
 10
1214.197256280668
 20
1883.332542819276
 10
1217.066003489837
 20
1881.898169214692
 10
1221.36912430359
 20
1881.898169214692
 10
1227.106618721928
 20
1881.898169214692
 10
1227.106618721928
 20
1881.898169214692
 10
1228.540992326512
 20
1881.1809824124
 10
1229.258179128804
 20
1879.029422005523
 10
1229.258179128804
 20
1875.443487994061
 10
1229.258179128804
 20
1875.443487994061
 10
1228.540992326512
 20
1874.009114389478
 10
1227.82380552422
 20
1873.291927587186
 10
1179.772289770643
 20
1873.291927587186
 10
1179.772289770643
 20
1873.291927587186
 10
1179.055102968351
 20
1874.009114389478
 10
1178.337916166059
 20
1876.160674796355
 10
1178.337916166059
 20
1879.746608807815
 10
1178.337916166059
 20
1879.746608807815
 10
1179.055102968351
 20
1881.1809824124
 10
1180.489476572935
 20
1881.898169214692
 10
1180.489476572935
 20
1881.898169214692
 10
1185.509784188981
 20
1881.898169214692
 10
1187.661344595857
 20
1882.615356016984
 10
1189.812905002734
 20
1884.049729621569
 10
1191.96446540961
 20
1886.201290028445
 10
1194.116025816487
 20
1889.787224039906
 10
1200.570707037116
 20
1901.262212876581
 10
1255.794090813615
 20
2020.315222057084
  0
LWPOLYLINE
  5
3D7F
330
3D85
100
AcDbEntity
  8
0
 62
     7
370
     0
100
AcDbPolyline
 90
        4
 70
     1
 43
0.0
 10
1255.076904011323
 20
1993.062123569981
 10
1226.389431919636
 20
1928.515311363684
 10
1282.330002498426
 20
1928.515311363684
 10
1255.076904011323
 20
1993.062123569981
  0
LWPOLYLINE
  5
3D80
330
3D85
100
AcDbEntity
  8
0
 62
     7
370
     0
100
AcDbPolyline
 90
       46
 70
     1
 43
2.868747209168737
 10
908.6756785041977
 20
1802.29043416026
 10
908.6756785041977
 20
1802.29043416026
 10
908.6756785041977
 20
1802.29043416026
 10
908.6756785041977
 20
1802.29043416026
 10
900.7866236789835
 20
1802.29043416026
 10
892.1803820514774
 20
1803.007620962552
 10
882.8569536216789
 20
1805.159181369428
 10
872.8163383895886
 20
1807.310741776305
 10
849.8663607162384
 20
1814.482609799227
 10
824.7648226360123
 20
1823.806038229025
 10
798.2289109512013
 20
1834.563840263408
 10
769.5414388595137
 20
1846.756015902375
 10
709.2977474669702
 20
1873.291927587186
 10
709.2977474669702
 20
1873.291927587186
 10
650.4884296790112
 20
1899.827839271997
 10
622.518144389616
 20
1911.302828108672
 10
595.2650459025131
 20
1922.060630143054
 10
570.1635078222866
 20
1931.384058572852
 10
547.9307169512289
 20
1938.555926595775
 10
537.8901017191384
 20
1940.707487002651
 10
528.5666732893401
 20
1942.859047409528
 10
519.9604316618338
 20
1944.293421014112
 10
512.0713768366197
 20
1944.293421014112
 10
512.0713768366197
 20
1946.444981420989
 10
512.0713768366197
 20
1946.444981420989
 10
519.9604316618338
 20
1946.444981420989
 10
528.5666732893401
 20
1945.010607816404
 10
537.8901017191384
 20
1942.859047409528
 10
547.9307169512289
 20
1940.707487002651
 10
570.8806946245788
 20
1933.535618979729
 10
595.9822327048052
 20
1924.212190549931
 10
623.2353311919084
 20
1913.454388515548
 10
651.2056164813035
 20
1901.262212876581
 10
710.7321210715547
 20
1875.443487994061
 10
710.7321210715547
 20
1875.443487994061
 10
770.2586256618062
 20
1848.907576309252
 10
798.9460977534935
 20
1836.715400670284
 10
825.4820094383044
 20
1825.957598635902
 10
850.5835475185309
 20
1816.634170206103
 10
872.8163383895886
 20
1809.462302183181
 10
882.8569536216789
 20
1807.310741776305
 10
892.1803820514774
 20
1805.87636817172
 10
900.7866236789835
 20
1804.441994567136
 10
907.9584917019056
 20
1804.441994567136
 10
908.6756785041977
 20
1804.441994567136
 10
908.6756785041977
 20
1802.29043416026
  0
LWPOLYLINE
  5
3D81
330
3D85
100
AcDbEntity
  8
0
 62
     7
370
     0
100
AcDbPolyline
 90
      134
 70
     1
 43
2.868747209168737
 10
953.8584470486052
 20
1830.260719449655
 10
953.8584470486052
 20
1830.260719449655
 10
953.8584470486052
 20
1830.260719449655
 10
945.9693922233913
 20
1831.695093054239
 10
938.0803373981771
 20
1833.129466658824
 10
938.0803373981771
 20
1833.129466658824
 10
930.9084693752556
 20
1835.2810270657
 10
923.7366013523336
 20
1837.432587472576
 10
923.7366013523336
 20
1837.432587472576
 10
915.1303597248274
 20
1841.73570828633
 10
906.5241180973213
 20
1846.038829100083
 10
898.6350632721071
 20
1851.77632351842
 10
890.7460084468931
 20
1857.513817936758
 10
883.5741404239714
 20
1863.968499157387
 10
877.1194592033417
 20
1871.140367180309
 10
870.664777982712
 20
1879.029422005523
 10
865.6444703666666
 20
1887.635663633029
 10
865.6444703666666
 20
1887.635663633029
 10
865.6444703666666
 20
1887.635663633029
 10
865.6444703666666
 20
1887.635663633029
 10
865.6444703666666
 20
1887.635663633029
 10
859.1897891460366
 20
1899.827839271997
 10
854.886668332284
 20
1912.020014910964
 10
854.886668332284
 20
1912.020014910964
 10
852.0179211231152
 20
1924.212190549931
 10
849.8663607162384
 20
1936.404366188898
 10
849.8663607162384
 20
1936.404366188898
 10
849.8663607162384
 20
1945.010607816404
 10
849.8663607162384
 20
1952.899662641618
 10
850.5835475185309
 20
1960.788717466832
 10
852.0179211231152
 20
1968.677772292046
 10
854.1694815299917
 20
1976.566827117261
 10
856.3210419368683
 20
1984.455881942475
 10
859.1897891460366
 20
1991.627749965396
 10
862.775723157498
 20
1998.799617988318
 10
866.3616571689589
 20
2005.97148601124
 10
870.664777982712
 20
2013.143354034162
 10
875.6850855987572
 20
2019.598035254792
 10
881.4225800170945
 20
2025.335529673129
 10
887.1600744354322
 20
2031.790210893759
 10
893.6147556560619
 20
2036.810518509804
 10
900.0694368766916
 20
2041.830826125849
 10
907.2413048996134
 20
2046.851133741895
 10
907.2413048996134
 20
2046.851133741895
 10
907.2413048996134
 20
2046.851133741895
 10
907.2413048996134
 20
2046.851133741895
 10
907.2413048996134
 20
2046.851133741895
 10
917.999106933996
 20
2051.87144135794
 10
928.756908968379
 20
2056.174562171694
 10
928.756908968379
 20
2056.174562171694
 10
939.5147110027616
 20
2059.043309380862
 10
950.2725130371443
 20
2061.194869787739
 10
950.2725130371443
 20
2061.194869787739
 10
957.4443810600664
 20
2061.91205659003
 10
964.616249082988
 20
2062.629243392323
 10
971.7881171059101
 20
2061.91205659003
 10
978.9599851288318
 20
2061.91205659003
 10
985.4146663494615
 20
2060.477682985446
 10
992.5865343723835
 20
2059.043309380862
 10
999.7584023953052
 20
2057.608935776277
 10
1006.213083615935
 20
2055.457375369401
 10
1012.667764836564
 20
2052.588628160232
 10
1019.122446057194
 20
2049.002694148772
 10
1025.577127277824
 20
2046.133946939603
 10
1031.314621696161
 20
2041.830826125849
 10
1037.769302916791
 20
2037.527705312097
 10
1042.789610532836
 20
2033.224584498343
 10
1048.527104951173
 20
2028.204276882298
 10
1053.547412567219
 20
2022.46678246396
 10
1052.113038962634
 20
2021.032408859376
 10
1052.113038962634
 20
2021.032408859376
 10
1047.092731346589
 20
2026.769903277713
 10
1041.355236928252
 20
2031.790210893759
 10
1036.334929312206
 20
2036.093331707512
 10
1030.597434893869
 20
2040.396452521265
 10
1024.142753673239
 20
2043.982386532726
 10
1018.405259254902
 20
2047.568320544187
 10
1011.950578034272
 20
2050.437067753356
 10
1005.495896813642
 20
2053.305814962524
 10
991.8693475700912
 20
2056.891748973985
 10
978.2427983265396
 20
2059.043309380862
 10
964.616249082988
 20
2059.760496183154
 10
950.9896998394363
 20
2059.043309380862
 10
950.9896998394363
 20
2059.043309380862
 10
940.2318978050541
 20
2056.891748973985
 10
929.4740957706713
 20
2054.023001764816
 10
929.4740957706713
 20
2054.023001764816
 10
918.7162937362883
 20
2049.719880951063
 10
908.6756785041977
 20
2044.699573335018
 10
908.6756785041977
 20
2044.699573335018
 10
908.6756785041977
 20
2044.699573335018
 10
908.6756785041977
 20
2044.699573335018
 10
908.6756785041977
 20
2044.699573335018
 10
901.5038104812758
 20
2040.396452521265
 10
895.0491292606461
 20
2035.37614490522
 10
888.5944480400167
 20
2029.638650486882
 10
882.8569536216789
 20
2023.901156068545
 10
877.8366460056338
 20
2018.163661650207
 10
872.8163383895886
 20
2011.708980429578
 10
868.5132175758353
 20
2005.254299208948
 10
864.9272835643746
 20
1998.082431186026
 10
861.3413495529135
 20
1990.910563163104
 10
858.4726023437449
 20
1983.738695140182
 10
856.3210419368683
 20
1975.849640314968
 10
854.1694815299917
 20
1968.677772292046
 10
852.7351079254074
 20
1960.788717466832
 10
852.0179211231152
 20
1952.899662641618
 10
852.0179211231152
 20
1945.010607816404
 10
852.0179211231152
 20
1937.12155299119
 10
852.0179211231152
 20
1937.12155299119
 10
854.1694815299917
 20
1924.929377352223
 10
857.0382287391604
 20
1912.737201713255
 10
857.0382287391604
 20
1912.737201713255
 10
861.3413495529135
 20
1900.545026074289
 10
867.0788439712511
 20
1889.070037237614
 10
867.0788439712511
 20
1889.070037237614
 10
867.0788439712511
 20
1889.070037237614
 10
867.0788439712511
 20
1889.070037237614
 10
867.0788439712511
 20
1889.070037237614
 10
872.8163383895886
 20
1880.463795610108
 10
878.553832807926
 20
1872.574740784894
 10
885.0085140285557
 20
1865.402872761972
 10
892.1803820514774
 20
1858.948191541342
 10
899.3522500743994
 20
1853.210697123005
 10
907.2413048996134
 20
1848.190389506959
 10
915.8475465271195
 20
1843.170081890914
 10
924.4537881546259
 20
1839.584147879453
 10
924.4537881546259
 20
1839.584147879453
 10
931.6256561775476
 20
1837.432587472576
 10
938.7975242004696
 20
1835.2810270657
 10
938.7975242004696
 20
1835.2810270657
 10
953.8584470486052
 20
1832.412279856531
 10
953.8584470486052
 20
1832.412279856531
 10
953.8584470486052
 20
1830.260719449655
  0
LWPOLYLINE
  5
3D82
330
3D85
100
AcDbEntity
  8
0
 62
     7
370
     0
100
AcDbPolyline
 90
      164
 70
     1
 43
2.868747209168737
 10
973.9396775127866
 20
1833.129466658824
 10
973.9396775127866
 20
1833.129466658824
 10
966.7678094898647
 20
1837.432587472576
 10
961.0303150715273
 20
1841.73570828633
 10
961.0303150715273
 20
1841.73570828633
 10
956.727194257774
 20
1846.756015902375
 10
953.1412602463133
 20
1851.77632351842
 10
951.7068866417288
 20
1857.513817936758
 10
950.9896998394363
 20
1863.251312355094
 10
950.9896998394363
 20
1863.251312355094
 10
950.2725130371443
 20
1868.271619971141
 10
950.9896998394363
 20
1873.291927587186
 10
952.424073444021
 20
1878.312235203231
 10
953.8584470486052
 20
1882.615356016984
 10
953.8584470486052
 20
1882.615356016984
 10
956.727194257774
 20
1887.635663633029
 10
960.3131282692347
 20
1891.938784446782
 10
960.3131282692347
 20
1891.938784446782
 10
963.8990622806959
 20
1895.524718458243
 10
968.202183094449
 20
1899.110652469704
 10
972.5053039082022
 20
1901.979399678873
 10
976.0912379196632
 20
1904.13096008575
 10
980.3943587334163
 20
1905.565333690334
 10
984.6974795471693
 20
1906.999707294918
 10
989.0006003609224
 20
1907.716894097211
 10
993.3037211746755
 20
1907.716894097211
 10
993.3037211746755
 20
1907.716894097211
 10
1000.475589197597
 20
1906.999707294918
 10
1006.930270418227
 20
1904.848146888042
 10
1006.930270418227
 20
1904.848146888042
 10
1010.516204429688
 20
1903.413773283457
 10
1013.384951638856
 20
1901.262212876581
 10
1019.122446057194
 20
1896.959092062828
 10
1019.122446057194
 20
1896.959092062828
 10
1022.708380068655
 20
1894.090344853659
 10
1025.577127277824
 20
1890.504410842198
 10
1027.7286876847
 20
1886.918476830737
 10
1029.880248091577
 20
1882.615356016984
 10
1031.314621696161
 20
1878.312235203231
 10
1032.748995300746
 20
1874.009114389478
 10
1033.466182103038
 20
1869.705993575725
 10
1033.466182103038
 20
1864.685685959679
 10
1033.466182103038
 20
1864.685685959679
 10
1033.466182103038
 20
1864.685685959679
 10
1033.466182103038
 20
1864.685685959679
 10
1032.748995300746
 20
1855.362257529881
 10
1031.314621696161
 20
1846.038829100083
 10
1031.314621696161
 20
1846.038829100083
 10
1029.880248091577
 20
1841.018521484037
 10
1027.7286876847
 20
1835.998213867992
 10
1027.7286876847
 20
1835.998213867992
 10
1024.142753673239
 20
1830.260719449655
 10
1019.839632859486
 20
1824.523225031317
 10
1014.102138441149
 20
1819.502917415272
 10
1008.364644022811
 20
1815.199796601518
 10
1001.192775999889
 20
1810.896675787766
 10
992.5865343723835
 20
1808.027928578597
 10
983.263105942585
 20
1805.159181369428
 10
973.2224907104944
 20
1803.007620962552
 10
973.2224907104944
 20
1803.007620962552
 10
973.2224907104944
 20
1803.007620962552
 10
963.8990622806959
 20
1802.29043416026
 10
953.1412602463133
 20
1802.29043416026
 10
941.6662714096382
 20
1804.441994567136
 10
929.4740957706713
 20
1806.593554974013
 10
915.8475465271195
 20
1810.179488985474
 10
902.220997283568
 20
1815.199796601518
 10
887.1600744354322
 20
1820.220104217564
 10
871.3819647850042
 20
1826.674785438194
 10
838.3913718795637
 20
1841.018521484037
 10
803.9664053695387
 20
1857.513817936758
 10
768.1070652549292
 20
1875.443487994061
 10
731.5305383380282
 20
1893.373158051367
 10
731.5305383380282
 20
1893.373158051367
 10
669.8524733409002
 20
1924.212190549931
 10
639.7306276446286
 20
1938.555926595775
 10
610.325968750649
 20
1952.182475839325
 10
582.3556834612539
 20
1963.657464676001
 10
555.8197717764428
 20
1973.698079908092
 10
543.6275961374758
 20
1978.001200721845
 10
532.1526073008008
 20
1981.587134733306
 10
520.677618464126
 20
1984.455881942475
 10
509.9198164297432
 20
1986.607442349351
 10
510.6370032320354
 20
1988.041815953935
 10
510.6370032320354
 20
1988.041815953935
 10
521.394805266418
 20
1986.607442349351
 10
532.1526073008008
 20
1983.738695140182
 10
544.344782939768
 20
1980.152761128722
 10
556.5369585787351
 20
1975.849640314968
 10
583.0728702635457
 20
1965.809025082878
 10
611.0431555529412
 20
1954.334036246203
 10
640.4478144469208
 20
1940.707487002651
 10
670.5696601431925
 20
1926.363750956807
 10
732.2477251403204
 20
1895.524718458243
 10
732.2477251403204
 20
1895.524718458243
 10
804.683592171831
 20
1859.665378343634
 10
839.1085586818558
 20
1843.170081890914
 10
872.0991515872963
 20
1828.826345845071
 10
887.1600744354322
 20
1823.088851426733
 10
902.220997283568
 20
1817.351357008395
 10
916.5647333294119
 20
1812.33104939235
 10
929.4740957706713
 20
1808.745115380889
 10
941.6662714096382
 20
1806.593554974013
 10
953.1412602463133
 20
1804.441994567136
 10
963.8990622806959
 20
1804.441994567136
 10
972.5053039082022
 20
1805.159181369428
 10
972.5053039082022
 20
1805.159181369428
 10
972.5053039082022
 20
1805.159181369428
 10
982.5459191402925
 20
1807.310741776305
 10
991.8693475700912
 20
1809.462302183181
 10
999.7584023953052
 20
1813.048236194642
 10
1006.930270418227
 20
1816.634170206103
 10
1012.667764836564
 20
1820.937291019856
 10
1017.68807245261
 20
1825.957598635902
 10
1021.991193266363
 20
1831.695093054239
 10
1024.859940475531
 20
1836.715400670284
 10
1024.859940475531
 20
1836.715400670284
 10
1027.011500882408
 20
1841.73570828633
 10
1029.163061289285
 20
1846.756015902375
 10
1029.163061289285
 20
1846.756015902375
 10
1030.597434893869
 20
1855.362257529881
 10
1031.314621696161
 20
1864.685685959679
 10
1031.314621696161
 20
1864.685685959679
 10
1031.314621696161
 20
1864.685685959679
 10
1031.314621696161
 20
1864.685685959679
 10
1031.314621696161
 20
1868.988806773432
 10
1030.597434893869
 20
1873.291927587186
 10
1029.163061289285
 20
1877.595048400939
 10
1027.7286876847
 20
1881.898169214692
 10
1025.577127277824
 20
1885.484103226153
 10
1023.425566870947
 20
1889.070037237614
 10
1017.68807245261
 20
1895.524718458243
 10
1017.68807245261
 20
1895.524718458243
 10
1012.667764836564
 20
1899.827839271997
 10
1006.213083615935
 20
1902.696586481164
 10
1006.213083615935
 20
1902.696586481164
 10
999.7584023953052
 20
1904.848146888042
 10
993.3037211746755
 20
1905.565333690334
 10
993.3037211746755
 20
1905.565333690334
 10
989.0006003609224
 20
1905.565333690334
 10
985.4146663494615
 20
1904.848146888042
 10
981.111545535708
 20
1903.413773283457
 10
977.5256115242475
 20
1901.979399678873
 10
973.2224907104944
 20
1899.827839271997
 10
969.6365566990337
 20
1896.959092062828
 10
965.3334358852802
 20
1894.090344853659
 10
961.7475018738195
 20
1889.787224039906
 10
961.7475018738195
 20
1889.787224039906
 10
958.8787546646507
 20
1886.201290028445
 10
956.727194257774
 20
1881.898169214692
 10
956.727194257774
 20
1881.898169214692
 10
954.5756338508978
 20
1877.595048400939
 10
953.1412602463133
 20
1872.574740784894
 10
953.1412602463133
 20
1868.271619971141
 10
953.1412602463133
 20
1863.251312355094
 10
953.1412602463133
 20
1863.251312355094
 10
953.8584470486052
 20
1858.23100473905
 10
955.2928206531897
 20
1853.210697123005
 10
958.1615678623585
 20
1848.190389506959
 10
962.4646886761116
 20
1843.170081890914
 10
962.4646886761116
 20
1843.170081890914
 10
968.202183094449
 20
1839.584147879453
 10
974.6568643150787
 20
1835.998213867992
 10
973.9396775127866
 20
1833.129466658824
  0
LWPOLYLINE
  5
3D83
330
3D85
100
AcDbEntity
  8
0
 62
     7
370
     0
100
AcDbPolyline
 90
       84
 70
     1
 43
2.868747209168737
 10
808.269526183292
 20
1934.969992584314
 10
809.7038997878765
 20
1934.252805782022
 10
809.7038997878765
 20
1934.252805782022
 10
809.7038997878765
 20
1934.252805782022
 10
824.7648226360123
 20
1919.909069736178
 10
839.8257454841481
 20
1904.848146888042
 10
839.8257454841481
 20
1904.848146888042
 10
852.7351079254074
 20
1891.221597644491
 10
866.3616571689589
 20
1878.312235203231
 10
879.98820641251
 20
1866.120059564264
 10
894.331942458354
 20
1855.362257529881
 10
901.5038104812758
 20
1850.341949913836
 10
909.3928653064898
 20
1845.32164229779
 10
917.2819201317039
 20
1841.73570828633
 10
924.4537881546259
 20
1838.149774274869
 10
933.060029782132
 20
1835.2810270657
 10
940.9490846073461
 20
1833.846653461116
 10
949.555326234852
 20
1832.412279856531
 10
958.1615678623585
 20
1831.695093054239
 10
958.1615678623585
 20
1831.695093054239
 10
970.3537435013256
 20
1832.412279856531
 10
979.6771719311239
 20
1833.846653461116
 10
979.6771719311239
 20
1833.846653461116
 10
983.263105942585
 20
1834.563840263408
 10
986.1318531517538
 20
1836.715400670284
 10
992.5865343723835
 20
1840.301334681745
 10
992.5865343723835
 20
1840.301334681745
 10
995.4552815815517
 20
1843.887268693206
 10
997.6068419884287
 20
1847.473202704667
 10
998.3240287907207
 20
1851.77632351842
 10
997.6068419884287
 20
1855.362257529881
 10
997.6068419884287
 20
1855.362257529881
 10
996.8896551861362
 20
1858.23100473905
 10
995.4552815815517
 20
1860.382565145927
 10
995.4552815815517
 20
1860.382565145927
 10
993.3037211746755
 20
1861.816938750511
 10
991.8693475700912
 20
1863.251312355094
 10
991.8693475700912
 20
1863.251312355094
 10
989.7177871632147
 20
1863.251312355094
 10
987.5662267563381
 20
1863.251312355094
 10
985.4146663494615
 20
1862.534125552803
 10
983.980292744877
 20
1860.382565145927
 10
981.8287323380003
 20
1861.816938750511
 10
981.8287323380003
 20
1861.816938750511
 10
984.6974795471693
 20
1863.968499157387
 10
987.5662267563381
 20
1865.402872761972
 10
990.4349739655067
 20
1865.402872761972
 10
992.5865343723835
 20
1864.685685959679
 10
992.5865343723835
 20
1864.685685959679
 10
995.4552815815517
 20
1863.251312355094
 10
996.8896551861362
 20
1861.099751948219
 10
996.8896551861362
 20
1861.099751948219
 10
999.041215593013
 20
1858.948191541342
 10
999.7584023953052
 20
1856.079444332173
 10
999.7584023953052
 20
1856.079444332173
 10
1000.475589197597
 20
1851.77632351842
 10
999.7584023953052
 20
1847.473202704667
 10
997.6068419884287
 20
1842.452895088622
 10
994.0209079769676
 20
1838.866961077161
 10
994.0209079769676
 20
1838.866961077161
 10
987.5662267563381
 20
1834.563840263408
 10
980.3943587334163
 20
1831.695093054239
 10
980.3943587334163
 20
1831.695093054239
 10
971.0709303036175
 20
1830.260719449655
 10
958.1615678623585
 20
1829.543532647363
 10
958.1615678623585
 20
1829.543532647363
 10
948.83813943256
 20
1830.260719449655
 10
940.9490846073461
 20
1831.695093054239
 10
932.3428429798395
 20
1833.846653461116
 10
924.4537881546259
 20
1836.715400670284
 10
915.8475465271195
 20
1839.584147879453
 10
908.6756785041977
 20
1843.887268693206
 10
900.7866236789835
 20
1848.190389506959
 10
893.6147556560619
 20
1853.210697123005
 10
879.2710196102182
 20
1864.685685959679
 10
864.9272835643746
 20
1876.877861598647
 10
851.3007343208229
 20
1889.787224039906
 10
838.3913718795637
 20
1903.413773283457
 10
838.3913718795637
 20
1903.413773283457
 10
823.3304490314278
 20
1918.474696131594
 10
808.269526183292
 20
1932.818432177437
 10
808.269526183292
 20
1932.818432177437
 10
806.8351525787074
 20
1933.535618979729
 10
808.269526183292
 20
1934.969992584314
  0
ENDBLK
  5
3D87
330
3D85
100
AcDbEntity
  8
0
100
AcDbBlockEnd
  0
BLOCK
  5
3E4F
330
3E4E
100
AcDbEntity
  8
0
100
AcDbBlockBegin
  2
AN-3206 drawing
 70
     0
 10
0.0
 20
0.0
 30
0.0
  3
AN-3206 drawing
  1

  0
LWPOLYLINE
  5
3D89
330
3E4E
100
AcDbEntity
  8
Layer 1
 62
     7
370
    13
100
AcDbPolyline
 90
        2
 70
     0
 43
0.0
 10
148.0819172806878
 20
66.84449868120555
 10
148.0819172806878
 20
61.63723685525043
  0
LWPOLYLINE
  5
3D8A
330
3E4E
100
AcDbEntity
  8
Layer 1
 62
     7
370
    13
100
AcDbPolyline
 90
        2
 70
     0
 43
0.0
 10
148.0819172806878
 20
68.66454262606302
 10
148.0819172806878
 20
67.77570799086858
  0
LWPOLYLINE
  5
3D8B
330
3E4E
100
AcDbEntity
  8
Layer 1
 62
     7
370
    13
100
AcDbPolyline
 90
        2
 70
     0
 43
0.0
 10
148.0819172806878
 20
74.04095864034393
 10
148.0819172806878
 20
69.55372177080602
  0
LWPOLYLINE
  5
3D8C
330
3E4E
100
AcDbEntity
  8
Layer 1
 62
     7
370
    13
100
AcDbPolyline
 90
        2
 70
     0
 43
0.0
 10
148.0819172806878
 20
75.86134709474993
 10
148.0819172806878
 20
74.97216795000695
  0
LWPOLYLINE
  5
3D8D
330
3E4E
100
AcDbEntity
  8
Layer 1
 62
     7
370
    13
100
AcDbPolyline
 90
        2
 70
     0
 43
0.0
 10
148.0819172806878
 20
81.23776310903085
 10
148.0819172806878
 20
76.75018172994441
  0
LWPOLYLINE
  5
3D8E
330
3E4E
100
AcDbEntity
  8
Layer 1
 62
     7
370
    13
100
AcDbPolyline
 90
        2
 70
     0
 43
0.0
 10
148.0819172806878
 20
83.05815156343681
 10
148.0819172806878
 20
82.16897241869387
  0
LWPOLYLINE
  5
3D8F
330
3E4E
100
AcDbEntity
  8
Layer 1
 62
     7
370
    13
100
AcDbPolyline
 90
        2
 70
     0
 43
0.0
 10
148.0819172806878
 20
88.43422306816924
 10
148.0819172806878
 20
83.94698619863133
  0
LWPOLYLINE
  5
3D90
330
3E4E
100
AcDbEntity
  8
Layer 1
 62
     7
370
    13
100
AcDbPolyline
 90
        2
 70
     0
 43
0.0
 10
148.0819172806878
 20
90.25461152257523
 10
148.0819172806878
 20
89.36577688738077
  0
LWPOLYLINE
  5
3D91
330
3E4E
100
AcDbEntity
  8
Layer 1
 62
     7
370
    13
100
AcDbPolyline
 90
        2
 70
     0
 43
0.0
 10
148.0819172806878
 20
95.63102753685614
 10
148.0819172806878
 20
91.14379066731823
  0
LWPOLYLINE
  5
3D92
330
3E4E
100
AcDbEntity
  8
Layer 1
 62
     7
370
    13
100
AcDbPolyline
 90
        2
 70
     0
 43
0.0
 10
148.0819172806878
 20
97.45141599126215
 10
148.0819172806878
 20
96.5198621720506
  0
LWPOLYLINE
  5
3D93
330
3E4E
100
AcDbEntity
  8
Layer 1
 62
     7
370
    13
100
AcDbPolyline
 90
        2
 70
     0
 43
0.0
 10
148.0819172806878
 20
102.827832005543
 10
148.0819172806878
 20
98.34025062645658
  0
LWPOLYLINE
  5
3D94
330
3E4E
100
AcDbEntity
  8
Layer 1
 62
     7
370
    13
100
AcDbPolyline
 90
        2
 70
     0
 43
0.0
 10
148.0819172806878
 20
104.6478759504005
 10
148.0819172806878
 20
103.7166666407375
  0
LWPOLYLINE
  5
3D95
330
3E4E
100
AcDbEntity
  8
Layer 1
 62
     7
370
    13
100
AcDbPolyline
 90
        2
 70
     0
 43
0.0
 10
148.0819172806878
 20
110.0242919646814
 10
148.0819172806878
 20
105.5370550951435
  0
LWPOLYLINE
  5
3D96
330
3E4E
100
AcDbEntity
  8
Layer 1
 62
     7
370
    13
100
AcDbPolyline
 90
        2
 70
     0
 43
0.0
 10
148.0819172806878
 20
111.8446804190874
 10
148.0819172806878
 20
110.9132988546501
  0
LWPOLYLINE
  5
3D97
330
3E4E
100
AcDbEntity
  8
Layer 1
 62
     7
370
    13
100
AcDbPolyline
 90
        2
 70
     0
 43
0.0
 10
148.0819172806878
 20
117.2209241785941
 10
148.0819172806878
 20
112.7336873090561
  0
LWPOLYLINE
  5
3D98
330
3E4E
100
AcDbEntity
  8
Layer 1
 62
     7
370
    13
100
AcDbPolyline
 90
        2
 70
     0
 43
0.0
 10
148.0819172806878
 20
119.0413126330001
 10
148.0819172806878
 20
118.1099310685628
  0
LWPOLYLINE
  5
3D99
330
3E4E
100
AcDbEntity
  8
Layer 1
 62
     7
370
    13
100
AcDbPolyline
 90
        2
 70
     0
 43
0.0
 10
148.0819172806878
 20
124.417728647281
 10
148.0819172806878
 20
119.9303195229688
  0
LWPOLYLINE
  5
3D9A
330
3E4E
100
AcDbEntity
  8
Layer 1
 62
     7
370
    13
100
AcDbPolyline
 90
        2
 70
     0
 43
0.0
 10
148.0819172806878
 20
126.2379448469127
 10
148.0819172806878
 20
125.3067355372497
  0
LWPOLYLINE
  5
3D9B
330
3E4E
100
AcDbEntity
  8
Layer 1
 62
     7
370
    13
100
AcDbPolyline
 90
        2
 70
     0
 43
0.0
 10
148.0819172806878
 20
132.3764159825309
 10
148.0819172806878
 20
127.1269517368814
  0
LWPOLYLINE
  5
3D9C
330
3E4E
100
AcDbEntity
  8
Layer 1
 62
     7
370
    13
100
AcDbPolyline
 90
        2
 70
     0
 43
0.0
 10
203.3694986470743
 20
96.98563908165638
 10
209.1265977124753
 20
96.98563908165638
  0
LWPOLYLINE
  5
3D9D
330
3E4E
100
AcDbEntity
  8
Layer 1
 62
     7
370
    13
100
AcDbPolyline
 90
        2
 70
     0
 43
0.0
 10
201.5914848671369
 20
96.98563908165638
 10
202.4803195023313
 20
96.98563908165638
  0
LWPOLYLINE
  5
3D9E
330
3E4E
100
AcDbEntity
  8
Layer 1
 62
     7
370
    13
100
AcDbPolyline
 90
        2
 70
     0
 43
0.0
 10
196.1726941783874
 20
96.98563908165638
 10
200.6599310479253
 20
96.98563908165638
  0
LWPOLYLINE
  5
3D9F
330
3E4E
100
AcDbEntity
  8
Layer 1
 62
     7
370
    13
100
AcDbPolyline
 90
        2
 70
     0
 43
0.0
 10
194.3946803984499
 20
96.98563908165638
 10
195.2835150336444
 20
96.98563908165638
  0
LWPOLYLINE
  5
3DA0
330
3E4E
100
AcDbEntity
  8
Layer 1
 62
     7
370
    13
100
AcDbPolyline
 90
        2
 70
     0
 43
0.0
 10
188.9758897097005
 20
96.98563908165638
 10
193.4634710887869
 20
96.98563908165638
  0
LWPOLYLINE
  5
3DA1
330
3E4E
100
AcDbEntity
  8
Layer 1
 62
     7
370
    13
100
AcDbPolyline
 90
        2
 70
     0
 43
0.0
 10
187.197875929763
 20
96.98563908165638
 10
188.087055074506
 20
96.98563908165638
  0
LWPOLYLINE
  5
3DA2
330
3E4E
100
AcDbEntity
  8
Layer 1
 62
     7
370
    13
100
AcDbPolyline
 90
        2
 70
     0
 43
0.0
 10
181.7794297505621
 20
96.98563908165638
 10
186.3090412945686
 20
96.98563908165638
  0
LWPOLYLINE
  5
3DA3
330
3E4E
100
AcDbEntity
  8
Layer 1
 62
     7
370
    13
100
AcDbPolyline
 90
        2
 70
     0
 43
0.0
 10
180.0014159706245
 20
96.98563908165638
 10
180.8902506058191
 20
96.98563908165638
  0
LWPOLYLINE
  5
3DA4
330
3E4E
100
AcDbEntity
  8
Layer 1
 62
     7
370
    13
100
AcDbPolyline
 90
        2
 70
     0
 43
0.0
 10
174.582625281875
 20
96.98563908165638
 10
179.1122368258815
 20
96.98563908165638
  0
LWPOLYLINE
  5
3DA5
330
3E4E
100
AcDbEntity
  8
Layer 1
 62
     7
370
    13
100
AcDbPolyline
 90
        2
 70
     0
 43
0.0
 10
172.8046115019376
 20
96.98563908165638
 10
173.6937906466806
 20
96.98563908165638
  0
LWPOLYLINE
  5
3DA6
330
3E4E
100
AcDbEntity
  8
Layer 1
 62
     7
370
    13
100
AcDbPolyline
 90
        2
 70
     0
 43
0.0
 10
167.3861653227366
 20
96.98563908165638
 10
171.9157768667433
 20
96.98563908165638
  0
LWPOLYLINE
  5
3DA7
330
3E4E
100
AcDbEntity
  8
Layer 1
 62
     7
370
    13
100
AcDbPolyline
 90
        2
 70
     0
 43
0.0
 10
165.6081515427993
 20
96.98563908165638
 10
166.4969861779938
 20
96.98563908165638
  0
LWPOLYLINE
  5
3DA8
330
3E4E
100
AcDbEntity
  8
Layer 1
 62
     7
370
    13
100
AcDbPolyline
 90
        2
 70
     0
 43
0.0
 10
160.1893608540499
 20
96.98563908165638
 10
164.7189723980563
 20
96.98563908165638
  0
LWPOLYLINE
  5
3DA9
330
3E4E
100
AcDbEntity
  8
Layer 1
 62
     7
370
    13
100
AcDbPolyline
 90
        2
 70
     0
 43
0.0
 10
158.4113470741124
 20
96.98563908165638
 10
159.3001817093069
 20
96.98563908165638
  0
LWPOLYLINE
  5
3DAA
330
3E4E
100
AcDbEntity
  8
Layer 1
 62
     7
370
    13
100
AcDbPolyline
 90
        2
 70
     0
 43
0.0
 10
152.9925563853629
 20
96.98563908165638
 10
157.5221679293694
 20
96.98563908165638
  0
LWPOLYLINE
  5
3DAB
330
3E4E
100
AcDbEntity
  8
Layer 1
 62
     7
370
    13
100
AcDbPolyline
 90
        2
 70
     0
 43
0.0
 10
151.2145426054255
 20
96.98563908165638
 10
152.1037217501685
 20
96.98563908165638
  0
LWPOLYLINE
  5
3DAC
330
3E4E
100
AcDbEntity
  8
Layer 1
 62
     7
370
    13
100
AcDbPolyline
 90
        2
 70
     0
 43
0.0
 10
145.8382988459189
 20
96.98563908165638
 10
150.3257079702311
 20
96.98563908165638
  0
LWPOLYLINE
  5
3DAD
330
3E4E
100
AcDbEntity
  8
Layer 1
 62
     7
370
    13
100
AcDbPolyline
 90
        2
 70
     0
 43
0.0
 10
144.0180826462871
 20
96.98563908165638
 10
144.9069172814816
 20
96.98563908165638
  0
LWPOLYLINE
  5
3DAE
330
3E4E
100
AcDbEntity
  8
Layer 1
 62
     7
370
    13
100
AcDbPolyline
 90
        2
 70
     0
 43
0.0
 10
138.6416666320062
 20
96.98563908165638
 10
143.1290757563184
 20
96.98563908165638
  0
LWPOLYLINE
  5
3DAF
330
3E4E
100
AcDbEntity
  8
Layer 1
 62
     7
370
    13
100
AcDbPolyline
 90
        2
 70
     0
 43
0.0
 10
136.8212781776002
 20
96.98563908165638
 10
137.7102850675689
 20
96.98563908165638
  0
LWPOLYLINE
  5
3DB0
330
3E4E
100
AcDbEntity
  8
Layer 1
 62
     7
370
    13
100
AcDbPolyline
 90
        2
 70
     0
 43
0.0
 10
131.4450344180936
 20
96.98563908165638
 10
135.9322712876315
 20
96.98563908165638
  0
LWPOLYLINE
  5
3DB1
330
3E4E
100
AcDbEntity
  8
Layer 1
 62
     7
370
    13
100
AcDbPolyline
 90
        2
 70
     0
 43
0.0
 10
129.6246459636876
 20
96.98563908165638
 10
130.5136528536563
 20
96.98563908165638
  0
LWPOLYLINE
  5
3DB2
330
3E4E
100
AcDbEntity
  8
Layer 1
 62
     7
370
    13
100
AcDbPolyline
 90
        2
 70
     0
 43
0.0
 10
124.2484022041809
 20
96.98563908165638
 10
128.7356390737189
 20
96.98563908165638
  0
LWPOLYLINE
  5
3DB3
330
3E4E
100
AcDbEntity
  8
Layer 1
 62
     7
370
    13
100
AcDbPolyline
 90
        2
 70
     0
 43
0.0
 10
122.4280137497749
 20
96.98563908165638
 10
123.3170206397436
 20
96.98563908165638
  0
LWPOLYLINE
  5
3DB4
330
3E4E
100
AcDbEntity
  8
Layer 1
 62
     7
370
    13
100
AcDbPolyline
 90
        2
 70
     0
 43
0.0
 10
117.051597735494
 20
96.98563908165638
 10
121.5390068598062
 20
96.98563908165638
  0
LWPOLYLINE
  5
3DB5
330
3E4E
100
AcDbEntity
  8
Layer 1
 62
     7
370
    13
100
AcDbPolyline
 90
        2
 70
     0
 43
0.0
 10
115.2313815358623
 20
96.98563908165638
 10
116.120388425831
 20
96.98563908165638
  0
LWPOLYLINE
  5
3DB6
330
3E4E
100
AcDbEntity
  8
Layer 1
 62
     7
370
    13
100
AcDbPolyline
 90
        2
 70
     0
 43
0.0
 10
109.8549655215814
 20
96.98563908165638
 10
114.3423746458936
 20
96.98563908165638
  0
LWPOLYLINE
  5
3DB7
330
3E4E
100
AcDbEntity
  8
Layer 1
 62
     7
370
    13
100
AcDbPolyline
 90
        2
 70
     0
 43
0.0
 10
108.0347493219496
 20
96.98563908165638
 10
108.9235839571441
 20
96.98563908165638
  0
LWPOLYLINE
  5
3DB8
330
3E4E
100
AcDbEntity
  8
Layer 1
 62
     7
370
    13
100
AcDbPolyline
 90
        2
 70
     0
 43
0.0
 10
102.6583333076687
 20
96.98563908165638
 10
107.1457424319809
 20
96.98563908165638
  0
LWPOLYLINE
  5
3DB9
330
3E4E
100
AcDbEntity
  8
Layer 1
 62
     7
370
    13
100
AcDbPolyline
 90
        2
 70
     0
 43
0.0
 10
100.8379448532627
 20
96.98563908165638
 10
101.7693264177
 20
96.98563908165638
  0
LWPOLYLINE
  5
3DBA
330
3E4E
100
AcDbEntity
  8
Layer 1
 62
     7
370
    13
100
AcDbPolyline
 90
        2
 70
     0
 43
0.0
 10
95.46170109375609
 20
96.98563908165638
 10
99.948937963294
 20
96.98563908165638
  0
LWPOLYLINE
  5
3DBB
330
3E4E
100
AcDbEntity
  8
Layer 1
 62
     7
370
    13
100
AcDbPolyline
 90
        2
 70
     0
 43
0.0
 10
93.64131263935007
 20
96.98563908165638
 10
94.57269420378741
 20
96.98563908165638
  0
LWPOLYLINE
  5
3DBC
330
3E4E
100
AcDbEntity
  8
Layer 1
 62
     7
370
    13
100
AcDbPolyline
 90
        2
 70
     0
 43
0.0
 10
86.99503442920608
 20
96.98563908165638
 10
92.75230574938136
 20
96.98563908165638
  0
LWPOLYLINE
  5
3DBD
330
3E4E
100
AcDbEntity
  8
Layer 1
 62
     7
370
    20
100
AcDbPolyline
 90
        4
 70
     0
 43
0.0
 10
200.787055071331
 20
82.16897241869387
 10
200.9985839341254
 20
92.03262530251269
 10
200.9985839341254
 20
101.9386528608
 10
200.787055071331
 20
111.8023057446189
  0
LWPOLYLINE
  5
3DBE
330
3E4E
100
AcDbEntity
  8
Layer 1
 62
     7
370
    20
100
AcDbPolyline
 90
       15
 70
     0
 43
0.0
 10
108.9659586316127
 20
125.4760619803497
 10
107.0186184085752
 20
125.2643608627811
 10
105.1560275344749
 20
124.7985839531753
 10
103.3780137545374
 20
124.0790757610809
 10
101.6847493235371
 20
123.1476941966436
 10
100.1606390808626
 20
121.9624090949434
 10
98.80602753606241
 20
120.6076252953689
 10
97.66294485405651
 20
119.0836873074687
 10
96.73173554439344
 20
117.3902506216941
 10
96.01205509752475
 20
115.6124090965309
 10
95.54627818791898
 20
113.7072712931878
 10
95.33474932512465
 20
111.8023057446189
 10
95.12304820755606
 20
101.9386528608
 10
95.12304820755606
 20
92.03262530251269
 10
95.33474932512465
 20
82.16897241869387
  0
LWPOLYLINE
  5
3DBF
330
3E4E
100
AcDbEntity
  8
Layer 1
 62
     7
370
    20
100
AcDbPolyline
 90
       12
 70
     0
 43
0.0
 10
95.33474932512465
 20
82.16897241869387
 10
95.54627818791898
 20
80.26383461535072
 10
96.01205509752475
 20
78.40141599602465
 10
96.73173554439344
 20
76.58102754161864
 10
97.66294485405651
 20
74.93013778508691
 10
98.80602753606241
 20
73.36365286794381
 10
100.1606390808626
 20
72.00904132314358
 10
101.6847493235371
 20
70.86595864113768
 10
103.3780137545374
 20
69.89237465700607
 10
105.1560275344749
 20
69.17269421013738
 10
107.0186184085752
 20
68.7069173005316
 10
108.9659586316127
 20
68.49538843773726
  0
LWPOLYLINE
  5
3DC0
330
3E4E
100
AcDbEntity
  8
Layer 1
 62
     7
370
    20
100
AcDbPolyline
 90
       12
 70
     0
 43
0.0
 10
187.197875929763
 20
68.49538843773726
 10
189.1030137331062
 20
68.7069173005316
 10
190.9657768619808
 20
69.17269421013738
 10
192.7437906419182
 20
69.89237465700607
 10
194.4370550729185
 20
70.86595864113768
 10
195.961165315593
 20
72.00904132314358
 10
197.3157768603933
 20
73.36365286794381
 10
198.4585150328507
 20
74.93013778508691
 10
199.4324435265308
 20
76.58102754161864
 10
200.1097492989309
 20
78.40141599602465
 10
200.5751816989882
 20
80.26383461535072
 10
200.787055071331
 20
82.16897241869387
  0
LWPOLYLINE
  5
3DC1
330
3E4E
100
AcDbEntity
  8
Layer 1
 62
     7
370
    20
100
AcDbPolyline
 90
       12
 70
     0
 43
0.0
 10
200.787055071331
 20
111.8023057446189
 10
200.5751816989882
 20
113.7072712931878
 10
200.1097492989309
 20
115.6124090965309
 10
199.4324435265308
 20
117.3902506216941
 10
198.4585150328507
 20
119.0836873074687
 10
197.3157768603933
 20
120.6076252953689
 10
195.961165315593
 20
121.9624090949434
 10
194.4370550729185
 20
123.1476941966436
 10
192.7437906419182
 20
124.0790757610809
 10
190.9657768619808
 20
124.7985839531753
 10
189.1030137331062
 20
125.2643608627811
 10
187.197875929763
 20
125.4760619803497
  0
LWPOLYLINE
  5
3DC2
330
3E4E
100
AcDbEntity
  8
Layer 1
 62
     7
370
    20
100
AcDbPolyline
 90
        6
 70
     0
 43
0.0
 10
108.9659586316127
 20
68.49538843773726
 10
124.587055090381
 20
68.02961152813145
 10
140.2503539688436
 20
67.77570799086858
 10
155.8712781728377
 20
67.77570799086858
 10
171.5347493060746
 20
68.02961152813145
 10
187.197875929763
 20
68.49538843773726
  0
LWPOLYLINE
  5
3DC3
330
3E4E
100
AcDbEntity
  8
Layer 1
 62
     7
370
    20
100
AcDbPolyline
 90
        6
 70
     0
 43
0.0
 10
187.197875929763
 20
125.4760619803497
 10
171.5347493060746
 20
125.9416666351812
 10
155.8712781728377
 20
126.1957424272184
 10
140.2503539688436
 20
126.1957424272184
 10
124.587055090381
 20
125.9416666351812
 10
108.9659586316127
 20
125.4760619803497
  0
LWPOLYLINE
  5
3DC4
330
3E4E
100
AcDbEntity
  8
Layer 1
 62
     7
370
    20
100
AcDbPolyline
 90
       14
 70
     0
 43
0.0
 10
186.859223043563
 20
64.0501817331194
 10
189.018264384169
 20
64.17730575652512
 10
191.1349310503065
 20
64.55833331719374
 10
193.2092230419755
 20
65.23563908959387
 10
195.1567355197872
 20
66.12481823433686
 10
197.0194986486618
 20
67.22518173232565
 10
198.7127630796621
 20
68.53776311220584
 10
200.2365288127881
 20
70.06152884533185
 10
201.5491101926683
 20
71.75513778588066
 10
202.6918483651257
 20
73.61755640520674
 10
203.5386528354
 20
75.56506888301846
 10
204.2159586078002
 20
77.63936087468739
 10
204.5969861684688
 20
79.75602754082489
 10
204.7241101918745
 20
81.91506888143095
  0
LWPOLYLINE
  5
3DC5
330
3E4E
100
AcDbEntity
  8
Layer 1
 62
     7
370
    20
100
AcDbPolyline
 90
       14
 70
     0
 43
0.0
 10
91.39769420458113
 20
81.91506888143095
 10
91.52464597321259
 20
79.75602754082489
 10
91.94804820834979
 20
77.63936087468739
 10
92.58297930628136
 20
75.56506888301846
 10
93.47198619625006
 20
73.61755640520674
 10
94.57269420378741
 20
71.75513778588066
 10
95.88493107411904
 20
70.06152884533185
 10
97.40904131679357
 20
68.53776311220584
 10
99.10230574779388
 20
67.22518173232565
 10
100.9650688766684
 20
66.12481823433686
 10
102.9124090997059
 20
65.23563908959387
 10
104.9867010913748
 20
64.55833331719374
 10
107.1033677575123
 20
64.17730575652512
 10
109.2624090981184
 20
64.0501817331194
  0
LWPOLYLINE
  5
3DC6
330
3E4E
100
AcDbEntity
  8
Layer 1
 62
     7
370
    20
100
AcDbPolyline
 90
       14
 70
     0
 43
0.0
 10
109.2624090981184
 20
129.9209241754191
 10
107.1033677575123
 20
129.7939724067876
 10
104.9867010913748
 20
129.412944846119
 10
102.9124090997059
 20
128.7780137481874
 10
100.9650688766684
 20
127.8890068582187
 10
99.10230574779388
 20
126.7459241762127
 10
97.40904131679357
 20
125.4336873058811
 10
95.88493107411904
 20
123.9097493179809
 10
94.57269420378741
 20
122.2163126322063
 10
93.47198619625006
 20
120.353721758106
 10
92.58297930628136
 20
118.4063815350685
 10
91.94804820834979
 20
116.3319172886253
 10
91.52464597321259
 20
114.2152506224878
 10
91.39769420458113
 20
112.056381536656
  0
LWPOLYLINE
  5
3DC7
330
3E4E
100
AcDbEntity
  8
Layer 1
 62
     7
370
    20
100
AcDbPolyline
 90
       15
 70
     0
 43
0.0
 10
109.2624090981184
 20
129.9209241754191
 10
186.859223043563
 20
129.9209241754191
 10
189.018264384169
 20
129.7939724067876
 10
191.1349310503065
 20
129.412944846119
 10
193.2092230419755
 20
128.7780137481874
 10
195.1567355197872
 20
127.8890068582187
 10
197.0194986486618
 20
126.7459241762127
 10
198.7127630796621
 20
125.4336873058811
 10
200.2365288127881
 20
123.9097493179809
 10
201.5491101926683
 20
122.2163126322063
 10
202.6918483651257
 20
120.353721758106
 10
203.5386528354
 20
118.4063815350685
 10
204.2159586078002
 20
116.3319172886253
 10
204.5969861684688
 20
114.2152506224878
 10
204.7241101918745
 20
112.056381536656
  0
LWPOLYLINE
  5
3DC8
330
3E4E
100
AcDbEntity
  8
Layer 1
 62
     7
370
    20
100
AcDbPolyline
 90
        2
 70
     0
 43
0.0
 10
109.2624090981184
 20
64.0501817331194
 10
186.859223043563
 20
64.0501817331194
  0
LWPOLYLINE
  5
3DC9
330
3E4E
100
AcDbEntity
  8
Layer 1
 62
     7
370
    20
100
AcDbPolyline
 90
        2
 70
     0
 43
0.0
 10
91.39769420458113
 20
112.056381536656
 10
91.39769420458113
 20
81.91506888143095
  0
LWPOLYLINE
  5
3DCA
330
3E4E
100
AcDbEntity
  8
Layer 1
 62
     7
370
    20
100
AcDbPolyline
 90
        2
 70
     0
 43
0.0
 10
204.7241101918745
 20
112.056381536656
 10
204.7241101918745
 20
81.91506888143095
  0
LWPOLYLINE
  5
3DCB
330
3E4E
100
AcDbEntity
  8
Layer 1
 62
     7
370
    13
100
AcDbPolyline
 90
        2
 70
     0
 43
0.0
 10
213.6138345820132
 20
124.2484022041809
 10
213.6138345820132
 20
69.72287595913178
  0
LWPOLYLINE
  5
3DCC
330
3E4E
100
AcDbEntity
  8
Layer 1
 62
     7
370
    13
100
AcDbPolyline
 90
        2
 70
     0
 43
0.0
 10
148.0819172806878
 20
67.7333333164
 10
214.4606390522876
 20
67.7333333164
  0
LWPOLYLINE
  5
3DCD
330
3E4E
100
AcDbEntity
  8
Layer 1
 62
     7
370
    13
100
AcDbPolyline
 90
        2
 70
     0
 43
0.0
 10
148.0819172806878
 20
126.2379448469127
 10
214.4606390522876
 20
126.2379448469127
  0
LWPOLYLINE
  5
3DCE
330
3E4E
100
AcDbEntity
  8
Layer 1
 62
     7
370
     0
100
AcDbPolyline
 90
        4
 70
     0
 43
0.0
 10
213.2751816958132
 20
124.2484022041809
 10
213.9528319777618
 20
124.2484022041809
 10
213.6138345820132
 20
126.2379448469127
 10
213.2751816958132
 20
124.2484022041809
  0
HATCH
  5
3DCF
330
3E4E
100
AcDbEntity
  8
Layer 1
 62
     7
100
AcDbHatch
 10
0.0
 20
0.0
 30
0.0
210
0.0
220
0.0
230
1.0
  2
SOLID
 70
     1
 71
     0
 91
        1
 92
        1
 93
        3
 72
     1
 10
213.2751816958132
 20
124.2484022041809
 11
213.9528319777618
 21
124.2484022041809
 72
     1
 10
213.9528319777618
 20
124.2484022041809
 11
213.6138345820132
 21
126.2379448469127
 72
     1
 10
213.6138345820132
 20
126.2379448469127
 11
213.2751816958132
 21
124.2484022041809
 97
        0
 75
     0
 76
     1
 98
        0
  0
LWPOLYLINE
  5
3DD0
330
3E4E
100
AcDbEntity
  8
Layer 1
 62
     7
370
     0
100
AcDbPolyline
 90
        4
 70
     0
 43
0.0
 10
213.2751816958132
 20
69.72287595913178
 10
213.9528319777618
 20
69.72287595913178
 10
213.6138345820132
 20
67.7333333164
 10
213.2751816958132
 20
69.72287595913178
  0
HATCH
  5
3DD1
330
3E4E
100
AcDbEntity
  8
Layer 1
 62
     7
100
AcDbHatch
 10
0.0
 20
0.0
 30
0.0
210
0.0
220
0.0
230
1.0
  2
SOLID
 70
     1
 71
     0
 91
        1
 92
        1
 93
        3
 72
     1
 10
213.2751816958132
 20
69.72287595913178
 11
213.9528319777618
 21
69.72287595913178
 72
     1
 10
213.9528319777618
 20
69.72287595913178
 11
213.6138345820132
 21
67.7333333164
 72
     1
 10
213.6138345820132
 20
67.7333333164
 11
213.2751816958132
 21
69.72287595913178
 97
        0
 75
     0
 76
     1
 98
        0
  0
LWPOLYLINE
  5
3DD2
330
3E4E
100
AcDbEntity
  8
Layer 1
 62
     7
370
    13
100
AcDbPolyline
 90
        2
 70
     0
 43
0.0
 10
220.6835150272944
 20
66.0400688853997
 10
220.6835150272944
 20
127.9313815326873
  0
LWPOLYLINE
  5
3DD3
330
3E4E
100
AcDbEntity
  8
Layer 1
 62
     7
370
    13
100
AcDbPolyline
 90
        2
 70
     0
 43
0.0
 10
148.0819172806878
 20
129.9209241754191
 10
221.5303194975688
 20
129.9209241754191
  0
LWPOLYLINE
  5
3DD4
330
3E4E
100
AcDbEntity
  8
Layer 1
 62
     7
370
    13
100
AcDbPolyline
 90
        2
 70
     0
 43
0.0
 10
148.0819172806878
 20
64.0501817331194
 10
221.5303194975688
 20
64.0501817331194
  0
LWPOLYLINE
  5
3DD5
330
3E4E
100
AcDbEntity
  8
Layer 1
 62
     7
370
    13
100
AcDbPolyline
 90
        6
 70
     0
 43
0.0
 10
212.0053194999501
 20
99.82198619466259
 10
212.4710964095558
 20
100.2877631042683
 10
212.9365288096131
 20
100.2877631042683
 10
213.4023057192189
 20
99.82198619466259
 10
213.4023057192189
 20
98.89077688499954
 10
212.9365288096131
 20
98.42499997539377
  0
LWPOLYLINE
  5
3DD6
330
3E4E
100
AcDbEntity
  8
Layer 1
 62
     7
370
    13
100
AcDbPolyline
 90
        7
 70
     0
 43
0.0
 10
211.0317355158185
 20
98.42499997539377
 10
210.5659586062127
 20
98.89077688499954
 10
210.5659586062127
 20
99.82198619466259
 10
211.0317355158185
 20
100.2877631042683
 10
211.5395425903443
 20
100.2877631042683
 10
212.0053194999501
 20
99.82198619466259
 10
212.0053194999501
 20
99.35620928505681
  0
LWPOLYLINE
  5
3DD7
330
3E4E
100
AcDbEntity
  8
Layer 1
 62
     7
370
    13
100
AcDbPolyline
 90
        3
 70
     0
 43
0.0
 10
213.4023057192189
 20
96.98563908165638
 10
210.5659586062127
 20
96.98563908165638
 10
211.0317355158185
 20
96.5198621720506
  0
LWPOLYLINE
  5
3DD8
330
3E4E
100
AcDbEntity
  8
Layer 1
 62
     7
370
    13
100
AcDbPolyline
 90
        2
 70
     0
 43
0.0
 10
213.4023057192189
 20
96.5198621720506
 10
213.4023057192189
 20
97.45141599126215
  0
LWPOLYLINE
  5
3DD9
330
3E4E
100
AcDbEntity
  8
Layer 1
 62
     7
370
    13
100
AcDbPolyline
 90
        4
 70
     0
 43
0.0
 10
213.4023057192189
 20
95.08050127831319
 10
210.5659586062127
 20
95.08050127831319
 10
212.4710964095558
 20
93.6835150590444
 10
212.4710964095558
 20
95.58865286238756
  0
LWPOLYLINE
  5
3DDA
330
3E4E
100
AcDbEntity
  8
Layer 1
 62
     7
370
     0
100
AcDbPolyline
 90
        4
 70
     0
 43
0.0
 10
220.3872368155629
 20
66.0400688853997
 10
221.0221679134944
 20
66.0400688853997
 10
220.6835150272944
 20
64.0501817331194
 10
220.3872368155629
 20
66.0400688853997
  0
HATCH
  5
3DDB
330
3E4E
100
AcDbEntity
  8
Layer 1
 62
     7
100
AcDbHatch
 10
0.0
 20
0.0
 30
0.0
210
0.0
220
0.0
230
1.0
  2
SOLID
 70
     1
 71
     0
 91
        1
 92
        1
 93
        3
 72
     1
 10
220.3872368155629
 20
66.0400688853997
 11
221.0221679134944
 21
66.0400688853997
 72
     1
 10
221.0221679134944
 20
66.0400688853997
 11
220.6835150272944
 21
64.0501817331194
 72
     1
 10
220.6835150272944
 20
64.0501817331194
 11
220.3872368155629
 21
66.0400688853997
 97
        0
 75
     0
 76
     1
 98
        0
  0
LWPOLYLINE
  5
3DDC
330
3E4E
100
AcDbEntity
  8
Layer 1
 62
     7
370
     0
100
AcDbPolyline
 90
        4
 70
     0
 43
0.0
 10
220.3872368155629
 20
127.9313815326873
 10
221.0221679134944
 20
127.9313815326873
 10
220.6835150272944
 20
129.9209241754191
 10
220.3872368155629
 20
127.9313815326873
  0
HATCH
  5
3DDD
330
3E4E
100
AcDbEntity
  8
Layer 1
 62
     7
100
AcDbHatch
 10
0.0
 20
0.0
 30
0.0
210
0.0
220
0.0
230
1.0
  2
SOLID
 70
     1
 71
     0
 91
        1
 92
        1
 93
        3
 72
     1
 10
220.3872368155629
 20
127.9313815326873
 11
221.0221679134944
 21
127.9313815326873
 72
     1
 10
221.0221679134944
 20
127.9313815326873
 11
220.6835150272944
 21
129.9209241754191
 72
     1
 10
220.6835150272944
 20
129.9209241754191
 11
220.3872368155629
 21
127.9313815326873
 97
        0
 75
     0
 76
     1
 98
        0
  0
LWPOLYLINE
  5
3DDE
330
3E4E
100
AcDbEntity
  8
Layer 1
 62
     7
370
    13
100
AcDbPolyline
 90
        2
 70
     0
 43
0.0
 10
199.0514159658621
 20
55.54148490364934
 10
97.07038843059351
 20
55.54148490364934
  0
LWPOLYLINE
  5
3DDF
330
3E4E
100
AcDbEntity
  8
Layer 1
 62
     7
370
    13
100
AcDbPolyline
 90
        2
 70
     0
 43
0.0
 10
95.08067353308748
 20
96.98563908165638
 10
95.08067353308748
 20
54.69468043337494
  0
LWPOLYLINE
  5
3DE0
330
3E4E
100
AcDbEntity
  8
Layer 1
 62
     7
370
    13
100
AcDbPolyline
 90
        2
 70
     0
 43
0.0
 10
201.0409586085939
 20
96.98563908165638
 10
201.0409586085939
 20
54.69468043337494
  0
LWPOLYLINE
  5
3DE1
330
3E4E
100
AcDbEntity
  8
Layer 1
 62
     7
370
    13
100
AcDbPolyline
 90
        9
 70
     0
 43
0.0
 10
220.0062092548943
 20
98.89077688499954
 10
220.4719861645001
 20
99.35620928505681
 10
220.4719861645001
 20
100.2877631042683
 10
220.0062092548943
 20
100.7531955043256
 10
219.0749999452313
 20
100.7531955043256
 10
218.6092230356255
 20
100.2877631042683
 10
218.6092230356255
 20
98.89077688499954
 10
217.6356390514939
 20
98.89077688499954
 10
217.6356390514939
 20
100.7531955043256
  0
LWPOLYLINE
  5
3DE2
330
3E4E
100
AcDbEntity
  8
Layer 1
 62
     7
370
    13
100
AcDbPolyline
 90
       10
 70
     0
 43
0.0
 10
219.0749999452313
 20
96.05442977199336
 10
219.0749999452313
 20
97.45141599126215
 10
219.5407768548371
 20
97.9168483913194
 10
220.0062092548943
 20
97.9168483913194
 10
220.4719861645001
 20
97.45141599126215
 10
220.4719861645001
 20
96.5198621720506
 10
220.0062092548943
 20
96.05442977199336
 10
218.6092230356255
 20
96.05442977199336
 10
217.6356390514939
 20
96.98563908165638
 10
217.6356390514939
 20
97.45141599126215
  0
LWPOLYLINE
  5
3DE3
330
3E4E
100
AcDbEntity
  8
Layer 1
 62
     7
370
    13
100
AcDbPolyline
 90
        4
 70
     0
 43
0.0
 10
220.4719861645001
 20
94.61506887825596
 10
217.6356390514939
 20
94.61506887825596
 10
219.5407768548371
 20
93.21808265898715
 10
219.5407768548371
 20
95.08050127831319
  0
LWPOLYLINE
  5
3DE4
330
3E4E
100
AcDbEntity
  8
Layer 1
 62
     7
370
     0
100
AcDbPolyline
 90
        4
 70
     0
 43
0.0
 10
199.0514159658621
 20
55.8801377898494
 10
199.0514159658621
 20
55.20283201744931
 10
201.0409586085939
 20
55.54148490364934
 10
199.0514159658621
 20
55.8801377898494
  0
HATCH
  5
3DE5
330
3E4E
100
AcDbEntity
  8
Layer 1
 62
     7
100
AcDbHatch
 10
0.0
 20
0.0
 30
0.0
210
0.0
220
0.0
230
1.0
  2
SOLID
 70
     1
 71
     0
 91
        1
 92
        1
 93
        3
 72
     1
 10
199.0514159658621
 20
55.8801377898494
 11
199.0514159658621
 21
55.20283201744931
 72
     1
 10
199.0514159658621
 20
55.20283201744931
 11
201.0409586085939
 21
55.54148490364934
 72
     1
 10
201.0409586085939
 20
55.54148490364934
 11
199.0514159658621
 21
55.8801377898494
 97
        0
 75
     0
 76
     1
 98
        0
  0
LWPOLYLINE
  5
3DE6
330
3E4E
100
AcDbEntity
  8
Layer 1
 62
     7
370
     0
100
AcDbPolyline
 90
        4
 70
     0
 43
0.0
 10
97.07038843059351
 20
55.8801377898494
 10
97.07038843059351
 20
55.20283201744931
 10
95.08067353308748
 20
55.54148490364934
 10
97.07038843059351
 20
55.8801377898494
  0
HATCH
  5
3DE7
330
3E4E
100
AcDbEntity
  8
Layer 1
 62
     7
100
AcDbHatch
 10
0.0
 20
0.0
 30
0.0
210
0.0
220
0.0
230
1.0
  2
SOLID
 70
     1
 71
     0
 91
        1
 92
        1
 93
        3
 72
     1
 10
97.07038843059351
 20
55.8801377898494
 11
97.07038843059351
 21
55.20283201744931
 72
     1
 10
97.07038843059351
 20
55.20283201744931
 11
95.08067353308748
 21
55.54148490364934
 72
     1
 10
95.08067353308748
 20
55.54148490364934
 11
97.07038843059351
 21
55.8801377898494
 97
        0
 75
     0
 76
     1
 98
        0
  0
LWPOLYLINE
  5
3DE8
330
3E4E
100
AcDbEntity
  8
Layer 1
 62
     7
370
    13
100
AcDbPolyline
 90
        2
 70
     0
 43
0.0
 10
93.38740910208718
 20
50.29184840322565
 10
202.7342230395942
 20
50.29184840322565
  0
LWPOLYLINE
  5
3DE9
330
3E4E
100
AcDbEntity
  8
Layer 1
 62
     7
370
    13
100
AcDbPolyline
 90
        2
 70
     0
 43
0.0
 10
204.7241101918745
 20
96.98563908165638
 10
204.7241101918745
 20
49.44538844249977
  0
LWPOLYLINE
  5
3DEA
330
3E4E
100
AcDbEntity
  8
Layer 1
 62
     7
370
    13
100
AcDbPolyline
 90
        2
 70
     0
 43
0.0
 10
91.39769420458113
 20
96.98563908165638
 10
91.39769420458113
 20
49.44538844249977
  0
LWPOLYLINE
  5
3DEB
330
3E4E
100
AcDbEntity
  8
Layer 1
 62
     7
370
    13
100
AcDbPolyline
 90
        4
 70
     0
 43
0.0
 10
150.4104573191682
 20
57.14999998571251
 10
149.9446804095624
 20
56.68422307610672
 10
149.9446804095624
 20
56.21879067604947
 10
150.4104573191682
 20
55.75301376644368
  0
LWPOLYLINE
  5
3DEC
330
3E4E
100
AcDbEntity
  8
Layer 1
 62
     7
370
    13
100
AcDbPolyline
 90
       13
 70
     0
 43
0.0
 10
150.4104573191682
 20
55.75301376644368
 10
151.3840413032998
 20
55.75301376644368
 10
151.8498182129056
 20
56.21879067604947
 10
151.8498182129056
 20
56.68422307610672
 10
151.3840413032998
 20
57.14999998571251
 10
150.4104573191682
 20
57.14999998571251
 10
149.9446804095624
 20
57.61577689531828
 10
149.9446804095624
 20
58.12358396984411
 10
150.4104573191682
 20
58.58936087944988
 10
151.3840413032998
 20
58.58936087944988
 10
151.8498182129056
 20
58.12358396984411
 10
151.8498182129056
 20
57.61577689531828
 10
151.3840413032998
 20
57.14999998571251
  0
LWPOLYLINE
  5
3DED
330
3E4E
100
AcDbEntity
  8
Layer 1
 62
     7
370
    13
100
AcDbPolyline
 90
        4
 70
     0
 43
0.0
 10
148.5476941902936
 20
55.75301376644368
 10
148.5476941902936
 20
58.58936087944988
 10
147.1083332965562
 20
56.68422307610672
 10
149.0134710998994
 20
56.68422307610672
  0
LWPOLYLINE
  5
3DEE
330
3E4E
100
AcDbEntity
  8
Layer 1
 62
     7
370
    13
100
AcDbPolyline
 90
        3
 70
     0
 43
0.0
 10
144.2719861835501
 20
58.58936087944988
 10
146.1769517321189
 20
58.58936087944988
 10
144.7799655128501
 20
55.75301376644368
  0
LWPOLYLINE
  5
3DEF
330
3E4E
100
AcDbEntity
  8
Layer 1
 62
     7
370
     0
100
AcDbPolyline
 90
        4
 70
     0
 43
0.0
 10
93.38740910208718
 20
50.6305012894257
 10
93.38740910208718
 20
49.95319551702559
 10
91.39769420458113
 20
50.29184840322565
 10
93.38740910208718
 20
50.6305012894257
  0
HATCH
  5
3DF0
330
3E4E
100
AcDbEntity
  8
Layer 1
 62
     7
100
AcDbHatch
 10
0.0
 20
0.0
 30
0.0
210
0.0
220
0.0
230
1.0
  2
SOLID
 70
     1
 71
     0
 91
        1
 92
        1
 93
        3
 72
     1
 10
93.38740910208718
 20
50.6305012894257
 11
93.38740910208718
 21
49.95319551702559
 72
     1
 10
93.38740910208718
 20
49.95319551702559
 11
91.39769420458113
 21
50.29184840322565
 72
     1
 10
91.39769420458113
 20
50.29184840322565
 11
93.38740910208718
 21
50.6305012894257
 97
        0
 75
     0
 76
     1
 98
        0
  0
LWPOLYLINE
  5
3DF1
330
3E4E
100
AcDbEntity
  8
Layer 1
 62
     7
370
     0
100
AcDbPolyline
 90
        4
 70
     0
 43
0.0
 10
202.7342230395942
 20
50.6305012894257
 10
202.7342230395942
 20
49.95319551702559
 10
204.7241101918745
 20
50.29184840322565
 10
202.7342230395942
 20
50.6305012894257
  0
HATCH
  5
3DF2
330
3E4E
100
AcDbEntity
  8
Layer 1
 62
     7
100
AcDbHatch
 10
0.0
 20
0.0
 30
0.0
210
0.0
220
0.0
230
1.0
  2
SOLID
 70
     1
 71
     0
 91
        1
 92
        1
 93
        3
 72
     1
 10
202.7342230395942
 20
50.6305012894257
 11
202.7342230395942
 21
49.95319551702559
 72
     1
 10
202.7342230395942
 20
49.95319551702559
 11
204.7241101918745
 21
50.29184840322565
 72
     1
 10
204.7241101918745
 20
50.29184840322565
 11
202.7342230395942
 21
50.6305012894257
 97
        0
 75
     0
 76
     1
 98
        0
  0
LWPOLYLINE
  5
3DF3
330
3E4E
100
AcDbEntity
  8
Layer 1
 62
     7
370
    13
100
AcDbPolyline
 90
        2
 70
     0
 43
0.0
 10
186.859223043563
 20
112.056381536656
 10
195.3682643825814
 20
127.7620550895872
  0
LWPOLYLINE
  5
3DF4
330
3E4E
100
AcDbEntity
  8
Layer 1
 62
     7
370
    13
100
AcDbPolyline
 90
       10
 70
     0
 43
0.0
 10
211.7514159626872
 20
134.9163126290313
 10
213.1907768564246
 20
134.9163126290313
 10
213.6562092564818
 20
134.4507079741998
 10
213.6562092564818
 20
133.984931064594
 10
213.1907768564246
 20
133.5193264097625
 10
212.2168483627444
 20
133.5193264097625
 10
211.7514159626872
 20
133.984931064594
 10
211.7514159626872
 20
135.3819172838628
 10
212.7249999468188
 20
136.3556735227687
 10
213.1907768564246
 20
136.3556735227687
  0
LWPOLYLINE
  5
3DF5
330
3E4E
100
AcDbEntity
  8
Layer 1
 62
     7
370
    13
100
AcDbPolyline
 90
       10
 70
     0
 43
0.0
 10
208.915068849681
 20
135.8476941934686
 10
209.4228759242068
 20
136.3556735227687
 10
210.3544297434183
 20
136.3556735227687
 10
210.8198621434756
 20
135.8476941934686
 10
210.8198621434756
 20
135.3819172838628
 10
210.3544297434183
 20
134.9163126290313
 10
209.4228759242068
 20
134.9163126290313
 10
208.915068849681
 20
134.4507079741998
 10
208.915068849681
 20
133.5193264097625
 10
210.8198621434756
 20
133.5193264097625
  0
LWPOLYLINE
  5
3DF6
330
3E4E
100
AcDbEntity
  8
Layer 1
 62
     7
370
    13
100
AcDbPolyline
 90
        3
 70
     0
 43
0.0
 10
207.5180826304122
 20
133.5193264097625
 10
207.5180826304122
 20
136.3556735227687
 10
207.0523057208064
 20
135.8476941934686
  0
LWPOLYLINE
  5
3DF7
330
3E4E
100
AcDbEntity
  8
Layer 1
 62
     7
370
    13
100
AcDbPolyline
 90
        2
 70
     0
 43
0.0
 10
207.0523057208064
 20
133.5193264097625
 10
207.9835150304694
 20
133.5193264097625
  0
LWPOLYLINE
  5
3DF8
330
3E4E
100
AcDbEntity
  8
Layer 1
 62
     7
370
    13
100
AcDbPolyline
 90
        2
 70
     0
 43
0.0
 10
204.681735517406
 20
134.9163126290313
 10
206.0787217366748
 20
133.5193264097625
  0
LWPOLYLINE
  5
3DF9
330
3E4E
100
AcDbEntity
  8
Layer 1
 62
     7
370
    13
100
AcDbPolyline
 90
        7
 70
     0
 43
0.0
 10
204.2159586078002
 20
133.5193264097625
 10
204.2159586078002
 20
136.3556735227687
 10
205.612944827069
 20
136.3556735227687
 10
206.0787217366748
 20
135.8476941934686
 10
206.0787217366748
 20
135.3819172838628
 10
205.612944827069
 20
134.9163126290313
 10
204.2159586078002
 20
134.9163126290313
  0
LWPOLYLINE
  5
3DFA
330
3E4E
100
AcDbEntity
  8
Layer 1
 62
     7
370
    13
100
AcDbPolyline
 90
        2
 70
     0
 43
0.0
 10
201.379611494794
 20
134.9163126290313
 10
203.2847492981372
 20
134.9163126290313
  0
LWPOLYLINE
  5
3DFB
330
3E4E
100
AcDbEntity
  8
Layer 1
 62
     7
370
    13
100
AcDbPolyline
 90
        4
 70
     0
 43
0.0
 10
199.9402506010566
 20
133.5193264097625
 10
199.9402506010566
 20
136.3556735227687
 10
198.5432643817878
 20
134.4507079741998
 10
200.448402185131
 20
134.4507079741998
  0
LWPOLYLINE
  5
3DFC
330
3E4E
100
AcDbEntity
  8
Layer 1
 62
     7
370
    13
100
AcDbPolyline
 90
        3
 70
     0
 43
0.0
 10
213.6562092564818
 20
133.3076252921939
 10
198.3317355189934
 20
133.3076252921939
 10
196.2998182017931
 20
129.5400688695247
  0
LWPOLYLINE
  5
3DFD
330
3E4E
100
AcDbEntity
  8
Layer 1
 62
     7
370
    13
100
AcDbPolyline
 90
        9
 70
     0
 43
0.0
 10
150.4104573191682
 20
50.50372177556852
 10
150.918264393694
 20
50.50372177556852
 10
151.3840413032998
 20
50.96949868517429
 10
151.3840413032998
 20
52.87429197896893
 10
150.918264393694
 20
53.34006888857469
 10
150.4104573191682
 20
53.34006888857469
 10
149.9446804095624
 20
52.87429197896893
 10
149.9446804095624
 20
50.96949868517429
 10
150.4104573191682
 20
50.50372177556852
  0
LWPOLYLINE
  5
3DFE
330
3E4E
100
AcDbEntity
  8
Layer 1
 62
     7
370
    13
100
AcDbPolyline
 90
        9
 70
     0
 43
0.0
 10
148.0819172806878
 20
50.50372177556852
 10
148.5476941902936
 20
50.50372177556852
 10
149.0134710998994
 20
50.96949868517429
 10
149.0134710998994
 20
52.87429197896893
 10
148.5476941902936
 20
53.34006888857469
 10
148.0819172806878
 20
53.34006888857469
 10
147.5739379513877
 20
52.87429197896893
 10
147.5739379513877
 20
50.96949868517429
 10
148.0819172806878
 20
50.50372177556852
  0
LWPOLYLINE
  5
3DFF
330
3E4E
100
AcDbEntity
  8
Layer 1
 62
     7
370
    13
100
AcDbPolyline
 90
        4
 70
     0
 43
0.0
 10
145.2457424224559
 20
51.90070799483732
 10
144.7799655128501
 20
51.43493108523154
 10
144.7799655128501
 20
50.96949868517429
 10
145.2457424224559
 20
50.50372177556852
  0
LWPOLYLINE
  5
3E00
330
3E4E
100
AcDbEntity
  8
Layer 1
 62
     7
370
    13
100
AcDbPolyline
 90
       13
 70
     0
 43
0.0
 10
145.2457424224559
 20
50.50372177556852
 10
146.1769517321189
 20
50.50372177556852
 10
146.6427286417247
 20
50.96949868517429
 10
146.6427286417247
 20
51.43493108523154
 10
146.1769517321189
 20
51.90070799483732
 10
145.2457424224559
 20
51.90070799483732
 10
144.7799655128501
 20
52.36648490444309
 10
144.7799655128501
 20
52.87429197896893
 10
145.2457424224559
 20
53.34006888857469
 10
146.1769517321189
 20
53.34006888857469
 10
146.6427286417247
 20
52.87429197896893
 10
146.6427286417247
 20
52.36648490444309
 10
146.1769517321189
 20
51.90070799483732
  0
LWPOLYLINE
  5
3E01
330
3E4E
100
AcDbEntity
  8
Layer 1
 62
     7
370
     0
100
AcDbPolyline
 90
        4
 70
     0
 43
0.0
 10
196.003195480513
 20
129.6670206381562
 10
196.5960964135246
 20
129.3707424264247
 10
195.3682643825814
 20
127.7620550895872
 10
196.003195480513
 20
129.6670206381562
  0
HATCH
  5
3E02
330
3E4E
100
AcDbEntity
  8
Layer 1
 62
     7
100
AcDbHatch
 10
0.0
 20
0.0
 30
0.0
210
0.0
220
0.0
230
1.0
  2
SOLID
 70
     1
 71
     0
 91
        1
 92
        1
 93
        3
 72
     1
 10
196.003195480513
 20
129.6670206381562
 11
196.5960964135246
 21
129.3707424264247
 72
     1
 10
196.5960964135246
 20
129.3707424264247
 11
195.3682643825814
 21
127.7620550895872
 72
     1
 10
195.3682643825814
 20
127.7620550895872
 11
196.003195480513
 21
129.6670206381562
 97
        0
 75
     0
 76
     1
 98
        0
  0
LWPOLYLINE
  5
3E03
330
3E4E
100
AcDbEntity
  8
Layer 1
 62
     7
370
    13
100
AcDbPolyline
 90
        2
 70
     0
 43
0.0
 10
146.0499999634875
 20
87.24911022124329
 10
148.0819172806878
 20
109.3469861922813
  0
LWPOLYLINE
  5
3E04
330
3E4E
100
AcDbEntity
  8
Layer 1
 62
     7
370
    30
100
AcDbPolyline
 90
       41
 70
     0
 43
0.0
 10
156.5485839452378
 20
96.98563908165638
 10
156.4638345963006
 20
98.29787595198805
 10
156.1675563845692
 20
99.61045733186821
 10
155.6173746355748
 20
100.8379448532627
 10
154.9400688631747
 20
101.9810275352686
 10
154.0932643929003
 20
102.9969861938688
 10
153.0773057343001
 20
103.8437906641432
 10
151.9342230522942
 20
104.5634711110119
 10
150.7067355308997
 20
105.0712781855377
 10
149.394498660568
 20
105.3677286520435
 10
148.0819172806878
 20
105.4946804206749
 10
146.7273057358876
 20
105.3677286520435
 10
145.4572712852503
 20
105.0712781855377
 10
144.1874090893872
 20
104.5634711110119
 10
143.0867010818498
 20
103.8437906641432
 10
142.0707424232496
 20
102.9969861938688
 10
141.1817355332809
 20
101.9810275352686
 10
140.5042575061066
 20
100.8379448532627
 10
139.9962781768065
 20
99.61045733186821
 10
139.6576252906064
 20
98.29787595198805
 10
139.5730481964435
 20
96.98563908165638
 10
139.6576252906064
 20
95.67340221132472
 10
139.9962781768065
 20
94.36116534099303
 10
140.5042575061066
 20
93.13333331004999
 10
141.1817355332809
 20
91.99025062804413
 10
142.0707424232496
 20
90.97429196944391
 10
143.0867010818498
 20
90.12783200871806
 10
144.1874090893872
 20
89.40815156184935
 10
145.4572712852503
 20
88.89999997777502
 10
146.7273057358876
 20
88.6037217660435
 10
148.0819172806878
 20
88.4765977426378
 10
149.394498660568
 20
88.6037217660435
 10
150.7067355308997
 20
88.89999997777502
 10
151.9342230522942
 20
89.40815156184935
 10
153.0773057343001
 20
90.12783200871806
 10
154.0932643929003
 20
90.97429196944391
 10
154.9400688631747
 20
91.99025062804413
 10
155.6173746355748
 20
93.13333331004999
 10
156.1675563845692
 20
94.36116534099303
 10
156.4638345963006
 20
95.67340221132472
 10
156.5485839452378
 20
96.98563908165638
  0
LWPOLYLINE
  5
3E05
330
3E4E
100
AcDbEntity
  8
Layer 1
 62
     7
370
    30
100
AcDbPolyline
 90
       37
 70
     0
 43
0.0
 10
155.8712781728377
 20
96.98563908165638
 10
155.7444986589805
 20
98.34025062645658
 10
155.405501263232
 20
99.65283200633681
 10
154.812944839769
 20
100.8803195277313
 10
154.0508897184317
 20
101.9810275352686
 10
153.0773057343001
 20
102.9546115194002
 10
151.9765977267628
 20
103.7166666407375
 10
150.7491102053682
 20
104.3092230642004
 10
149.4365288254881
 20
104.6478759504005
 10
148.0819172806878
 20
104.7749999738062
 10
146.7273057358876
 20
104.6478759504005
 10
145.4150688655559
 20
104.3092230642004
 10
144.1874090893872
 20
103.7166666407375
 10
143.0443264073812
 20
102.9546115194002
 10
142.112944842944
 20
101.9810275352686
 10
141.3086873019124
 20
100.8803195277313
 10
140.7583332981437
 20
99.65283200633681
 10
140.3773057374751
 20
98.34025062645658
 10
140.2927286433122
 20
96.98563908165638
 10
140.3773057374751
 20
95.63102753685614
 10
140.7583332981437
 20
94.31879066652449
 10
141.3086873019124
 20
93.09095863558143
 10
142.112944842944
 20
91.99025062804413
 10
143.0443264073812
 20
91.01666664391251
 10
144.1874090893872
 20
90.25461152257523
 10
145.4150688655559
 20
89.66205509911226
 10
146.7273057358876
 20
89.32340221291218
 10
148.0819172806878
 20
89.19627818950649
 10
149.4365288254881
 20
89.32340221291218
 10
150.7491102053682
 20
89.66205509911226
 10
151.9765977267628
 20
90.25461152257523
 10
153.0773057343001
 20
91.01666664391251
 10
154.0508897184317
 20
91.99025062804413
 10
154.812944839769
 20
93.09095863558143
 10
155.405501263232
 20
94.31879066652449
 10
155.7444986589805
 20
95.63102753685614
 10
155.8712781728377
 20
96.98563908165638
  0
LWPOLYLINE
  5
3E06
330
3E4E
100
AcDbEntity
  8
Layer 1
 62
     7
370
    30
100
AcDbPolyline
 90
       37
 70
     0
 43
0.0
 10
154.4742919535689
 20
96.98563908165638
 10
154.3471679301632
 20
98.0863470891937
 10
154.0508897184317
 20
99.18705509673102
 10
153.5854573183744
 20
100.2030137553312
 10
152.9501817108944
 20
101.0918483905256
 10
152.1884710991056
 20
101.8962781863315
 10
151.256917279894
 20
102.531209284263
 10
150.2409586212939
 20
102.9969861938688
 10
149.1826252882252
 20
103.2932644056003
 10
148.0819172806878
 20
103.3780137545374
 10
146.9390068534562
 20
103.2932644056003
 10
145.8806735203875
 20
102.9969861938688
 10
144.8647148617873
 20
102.531209284263
 10
143.9757079718186
 20
101.8962781863315
 10
143.1712781760127
 20
101.0918483905256
 10
142.5363470780812
 20
100.2030137553312
 10
142.0707424232496
 20
99.18705509673102
 10
141.7742919567439
 20
98.0863470891937
 10
141.689714862581
 20
96.98563908165638
 10
141.7742919567439
 20
95.88493107411904
 10
142.0707424232496
 20
94.78422306658172
 10
142.5363470780812
 20
93.81063908245012
 10
143.1712781760127
 20
92.87942977278708
 10
143.9757079718186
 20
92.11737465144985
 10
144.8647148617873
 20
91.4400688790497
 10
145.8806735203875
 20
90.97429196944391
 10
146.9390068534562
 20
90.720388432181
 10
148.0819172806878
 20
90.5932644087753
 10
149.1826252882252
 20
90.720388432181
 10
150.2409586212939
 20
90.97429196944391
 10
151.256917279894
 20
91.4400688790497
 10
152.1884710991056
 20
92.11737465144985
 10
152.9501817108944
 20
92.87942977278708
 10
153.5854573183744
 20
93.81063908245012
 10
154.0508897184317
 20
94.78422306658172
 10
154.3471679301632
 20
95.88493107411904
 10
154.4742919535689
 20
96.98563908165638
  0
LWPOLYLINE
  5
3E07
330
3E4E
100
AcDbEntity
  8
Layer 1
 62
     7
370
    20
100
AcDbPolyline
 90
        2
 70
     0
 43
0.0
 10
204.7241101918745
 20
183.0492919464252
 10
204.7241101918745
 20
183.2186183895252
  0
LWPOLYLINE
  5
3E08
330
3E4E
100
AcDbEntity
  8
Layer 1
 62
     7
370
    20
100
AcDbPolyline
 90
        2
 70
     0
 43
0.0
 10
148.0819172806878
 20
150.7913126250626
 10
156.5485839452378
 20
150.7913126250626
  0
LWPOLYLINE
  5
3E09
330
3E4E
100
AcDbEntity
  8
Layer 1
 62
     7
370
    13
100
AcDbPolyline
 90
        2
 70
     0
 43
0.0
 10
148.0819172806878
 20
179.9590412961561
 10
148.0819172806878
 20
185.0813815183998
  0
LWPOLYLINE
  5
3E0A
330
3E4E
100
AcDbEntity
  8
Layer 1
 62
     7
370
    13
100
AcDbPolyline
 90
        2
 70
     0
 43
0.0
 10
148.0819172806878
 20
178.1810275162186
 10
148.0819172806878
 20
179.0700344061873
  0
LWPOLYLINE
  5
3E0B
330
3E4E
100
AcDbEntity
  8
Layer 1
 62
     7
370
    13
100
AcDbPolyline
 90
        2
 70
     0
 43
0.0
 10
148.0819172806878
 20
172.7624090822434
 10
148.0819172806878
 20
177.2496459517813
  0
LWPOLYLINE
  5
3E0C
330
3E4E
100
AcDbEntity
  8
Layer 1
 62
     7
370
    13
100
AcDbPolyline
 90
        2
 70
     0
 43
0.0
 10
148.0819172806878
 20
170.9843953023059
 10
148.0819172806878
 20
171.8734021922747
  0
LWPOLYLINE
  5
3E0D
330
3E4E
100
AcDbEntity
  8
Layer 1
 62
     7
370
    13
100
AcDbPolyline
 90
        2
 70
     0
 43
0.0
 10
148.0819172806878
 20
165.5656046135565
 10
148.0819172806878
 20
170.0953884123373
  0
LWPOLYLINE
  5
3E0E
330
3E4E
100
AcDbEntity
  8
Layer 1
 62
     7
370
    13
100
AcDbPolyline
 90
        2
 70
     0
 43
0.0
 10
148.0819172806878
 20
163.7875908336191
 10
148.0819172806878
 20
164.6765977235878
  0
LWPOLYLINE
  5
3E0F
330
3E4E
100
AcDbEntity
  8
Layer 1
 62
     7
370
    13
100
AcDbPolyline
 90
        2
 70
     0
 43
0.0
 10
148.0819172806878
 20
158.3689723996438
 10
148.0819172806878
 20
162.8985839436503
  0
LWPOLYLINE
  5
3E10
330
3E4E
100
AcDbEntity
  8
Layer 1
 62
     7
370
    13
100
AcDbPolyline
 90
        2
 70
     0
 43
0.0
 10
148.0819172806878
 20
156.5909586197064
 10
148.0819172806878
 20
157.4799655096752
  0
LWPOLYLINE
  5
3E11
330
3E4E
100
AcDbEntity
  8
Layer 1
 62
     7
370
    13
100
AcDbPolyline
 90
        2
 70
     0
 43
0.0
 10
148.0819172806878
 20
151.1723401857311
 10
148.0819172806878
 20
155.7019517297377
  0
LWPOLYLINE
  5
3E12
330
3E4E
100
AcDbEntity
  8
Layer 1
 62
     7
370
    13
100
AcDbPolyline
 90
        2
 70
     0
 43
0.0
 10
148.0819172806878
 20
149.3943264057937
 10
148.0819172806878
 20
150.2833332957625
  0
LWPOLYLINE
  5
3E13
330
3E4E
100
AcDbEntity
  8
Layer 1
 62
     7
370
    13
100
AcDbPolyline
 90
        2
 70
     0
 43
0.0
 10
148.0819172806878
 20
143.3829792935813
 10
148.0819172806878
 20
148.5053195158251
  0
LWPOLYLINE
  5
3E14
330
3E4E
100
AcDbEntity
  8
Layer 1
 62
     7
370
    20
100
AcDbPolyline
 90
        2
 70
     0
 43
0.0
 10
94.27641599205593
 20
183.2186183895252
 10
148.0819172806878
 20
183.2186183895252
  0
LWPOLYLINE
  5
3E15
330
3E4E
100
AcDbEntity
  8
Layer 1
 62
     7
370
    20
100
AcDbPolyline
 90
        3
 70
     0
 43
0.0
 10
94.95372176445602
 20
182.4143608484936
 10
94.74202064688737
 20
182.879965503325
 10
94.27641599205593
 20
183.0492919464252
  0
LWPOLYLINE
  5
3E16
330
3E4E
100
AcDbEntity
  8
Layer 1
 62
     7
370
    20
100
AcDbPolyline
 90
        3
 70
     0
 43
0.0
 10
95.12304820755606
 20
182.4143608484936
 10
94.86897241551885
 20
182.9647148522623
 10
94.27641599205593
 20
183.2186183895252
  0
LWPOLYLINE
  5
3E17
330
3E4E
100
AcDbEntity
  8
Layer 1
 62
     7
370
    20
100
AcDbPolyline
 90
        2
 70
     0
 43
0.0
 10
94.27641599205593
 20
183.0492919464252
 10
91.39769420458113
 20
183.0492919464252
  0
LWPOLYLINE
  5
3E18
330
3E4E
100
AcDbEntity
  8
Layer 1
 62
     7
370
    20
100
AcDbPolyline
 90
        2
 70
     0
 43
0.0
 10
94.95372176445602
 20
182.4143608484936
 10
95.96968042305617
 20
159.1310275209811
  0
LWPOLYLINE
  5
3E19
330
3E4E
100
AcDbEntity
  8
Layer 1
 62
     7
370
    20
100
AcDbPolyline
 90
        2
 70
     0
 43
0.0
 10
95.08067353308748
 20
183.2186183895252
 10
96.13900686615622
 20
159.1734021954497
  0
LWPOLYLINE
  5
3E1A
330
3E4E
100
AcDbEntity
  8
Layer 1
 62
     7
370
    20
100
AcDbPolyline
 90
        4
 70
     0
 43
0.0
 10
139.4882988475064
 20
150.6219861819625
 10
140.2079792943751
 20
150.0716321781939
 10
141.6473401881125
 20
149.6060275233624
 10
148.0819172806878
 20
149.6060275233624
  0
LWPOLYLINE
  5
3E1B
330
3E4E
100
AcDbEntity
  8
Layer 1
 62
     7
370
    20
100
AcDbPolyline
 90
        2
 70
     0
 43
0.0
 10
139.4882988475064
 20
150.6219861819625
 10
102.8700344252373
 20
152.2306735188
  0
LWPOLYLINE
  5
3E1C
330
3E4E
100
AcDbEntity
  8
Layer 1
 62
     7
370
    20
100
AcDbPolyline
 90
        3
 70
     0
 43
0.0
 10
139.5730481964435
 20
150.7913126250626
 10
140.2927286433122
 20
150.1985839468253
 10
141.689714862581
 20
149.7753539664624
  0
LWPOLYLINE
  5
3E1D
330
3E4E
100
AcDbEntity
  8
Layer 1
 62
     7
370
    20
100
AcDbPolyline
 90
        2
 70
     0
 43
0.0
 10
148.0819172806878
 20
149.7753539664624
 10
141.689714862581
 20
149.7753539664624
  0
LWPOLYLINE
  5
3E1E
330
3E4E
100
AcDbEntity
  8
Layer 1
 62
     7
370
    20
100
AcDbPolyline
 90
        2
 70
     0
 43
0.0
 10
148.0819172806878
 20
150.1985839468253
 10
140.2927286433122
 20
150.1985839468253
  0
LWPOLYLINE
  5
3E1F
330
3E4E
100
AcDbEntity
  8
Layer 1
 62
     7
370
    20
100
AcDbPolyline
 90
        2
 70
     0
 43
0.0
 10
139.5730481964435
 20
150.7913126250626
 10
102.9124090997059
 20
152.3999999619
  0
LWPOLYLINE
  5
3E20
330
3E4E
100
AcDbEntity
  8
Layer 1
 62
     7
370
    20
100
AcDbPolyline
 90
        2
 70
     0
 43
0.0
 10
141.689714862581
 20
149.6060275233624
 10
141.689714862581
 20
149.7753539664624
  0
LWPOLYLINE
  5
3E21
330
3E4E
100
AcDbEntity
  8
Layer 1
 62
     7
370
    20
100
AcDbPolyline
 90
        3
 70
     0
 43
0.0
 10
91.39769420458113
 20
183.0492919464252
 10
91.39769420458113
 20
183.2186183895252
 10
94.27641599205593
 20
183.2186183895252
  0
LWPOLYLINE
  5
3E22
330
3E4E
100
AcDbEntity
  8
Layer 1
 62
     7
370
    20
100
AcDbPolyline
 90
        2
 70
     0
 43
0.0
 10
148.0819172806878
 20
150.7913126250626
 10
139.5730481964435
 20
150.7913126250626
  0
LWPOLYLINE
  5
3E23
330
3E4E
100
AcDbEntity
  8
Layer 1
 62
     7
370
    20
100
AcDbPolyline
 90
        2
 70
     0
 43
0.0
 10
201.8453884043998
 20
183.2186183895252
 10
148.0819172806878
 20
183.2186183895252
  0
LWPOLYLINE
  5
3E24
330
3E4E
100
AcDbEntity
  8
Layer 1
 62
     7
370
    20
100
AcDbPolyline
 90
        3
 70
     0
 43
0.0
 10
201.8453884043998
 20
183.0492919464252
 10
201.379611494794
 20
182.879965503325
 10
201.1680826319997
 20
182.4143608484936
  0
LWPOLYLINE
  5
3E25
330
3E4E
100
AcDbEntity
  8
Layer 1
 62
     7
370
    20
100
AcDbPolyline
 90
        3
 70
     0
 43
0.0
 10
201.8453884043998
 20
183.2186183895252
 10
201.2528319809368
 20
182.9647148522623
 10
200.9985839341254
 20
182.4143608484936
  0
LWPOLYLINE
  5
3E26
330
3E4E
100
AcDbEntity
  8
Layer 1
 62
     7
370
    20
100
AcDbPolyline
 90
        2
 70
     0
 43
0.0
 10
201.8453884043998
 20
183.0492919464252
 10
204.7241101918745
 20
183.0492919464252
  0
LWPOLYLINE
  5
3E27
330
3E4E
100
AcDbEntity
  8
Layer 1
 62
     7
370
    20
100
AcDbPolyline
 90
        2
 70
     0
 43
0.0
 10
201.1680826319997
 20
182.4143608484936
 10
200.1521239733995
 20
159.1310275209811
  0
LWPOLYLINE
  5
3E28
330
3E4E
100
AcDbEntity
  8
Layer 1
 62
     7
370
    20
100
AcDbPolyline
 90
        2
 70
     0
 43
0.0
 10
201.0409586085939
 20
183.2186183895252
 10
199.9826252755252
 20
159.1734021954497
  0
LWPOLYLINE
  5
3E29
330
3E4E
100
AcDbEntity
  8
Layer 1
 62
     7
370
    20
100
AcDbPolyline
 90
        4
 70
     0
 43
0.0
 10
156.633333294175
 20
150.6219861819625
 10
155.9560275217749
 20
150.0716321781939
 10
154.4742919535689
 20
149.6060275233624
 10
148.0819172806878
 20
149.6060275233624
  0
LWPOLYLINE
  5
3E2A
330
3E4E
100
AcDbEntity
  8
Layer 1
 62
     7
370
    20
100
AcDbPolyline
 90
        2
 70
     0
 43
0.0
 10
156.633333294175
 20
150.6219861819625
 10
193.251597716444
 20
152.2306735188
  0
LWPOLYLINE
  5
3E2B
330
3E4E
100
AcDbEntity
  8
Layer 1
 62
     7
370
    20
100
AcDbPolyline
 90
        3
 70
     0
 43
0.0
 10
156.5485839452378
 20
150.7913126250626
 10
155.8712781728377
 20
150.1985839468253
 10
154.4742919535689
 20
149.7753539664624
  0
LWPOLYLINE
  5
3E2C
330
3E4E
100
AcDbEntity
  8
Layer 1
 62
     7
370
    20
100
AcDbPolyline
 90
        2
 70
     0
 43
0.0
 10
148.0819172806878
 20
149.7753539664624
 10
154.4742919535689
 20
149.7753539664624
  0
LWPOLYLINE
  5
3E2D
330
3E4E
100
AcDbEntity
  8
Layer 1
 62
     7
370
    20
100
AcDbPolyline
 90
        2
 70
     0
 43
0.0
 10
148.0819172806878
 20
150.1985839468253
 10
155.8712781728377
 20
150.1985839468253
  0
LWPOLYLINE
  5
3E2E
330
3E4E
100
AcDbEntity
  8
Layer 1
 62
     7
370
    20
100
AcDbPolyline
 90
        2
 70
     0
 43
0.0
 10
156.5485839452378
 20
150.7913126250626
 10
193.2092230419755
 20
152.3999999619
  0
LWPOLYLINE
  5
3E2F
330
3E4E
100
AcDbEntity
  8
Layer 1
 62
     7
370
    20
100
AcDbPolyline
 90
        2
 70
     0
 43
0.0
 10
154.4742919535689
 20
149.6060275233624
 10
154.4742919535689
 20
149.7753539664624
  0
LWPOLYLINE
  5
3E30
330
3E4E
100
AcDbEntity
  8
Layer 1
 62
     7
370
    20
100
AcDbPolyline
 90
        2
 70
     0
 43
0.0
 10
201.8453884043998
 20
183.2186183895252
 10
204.7241101918745
 20
183.2186183895252
  0
LWPOLYLINE
  5
3E31
330
3E4E
100
AcDbEntity
  8
Layer 1
 62
     7
370
    13
100
AcDbPolyline
 90
        2
 70
     0
 43
0.0
 10
88.01099308780628
 20
181.2289034920192
 10
88.01099308780628
 20
152.7810275225686
  0
LWPOLYLINE
  5
3E32
330
3E4E
100
AcDbEntity
  8
Layer 1
 62
     7
370
    13
100
AcDbPolyline
 90
        2
 70
     0
 43
0.0
 10
139.5730481964435
 20
150.7913126250626
 10
87.1643608723061
 20
150.7913126250626
  0
LWPOLYLINE
  5
3E33
330
3E4E
100
AcDbEntity
  8
Layer 1
 62
     7
370
    13
100
AcDbPolyline
 90
        2
 70
     0
 43
0.0
 10
91.39769420458113
 20
183.2186183895252
 10
87.1643608723061
 20
183.2186183895252
  0
LWPOLYLINE
  5
3E34
330
3E4E
100
AcDbEntity
  8
Layer 1
 62
     7
370
     0
100
AcDbPolyline
 90
        4
 70
     0
 43
0.0
 10
87.6723402016062
 20
181.2289034920192
 10
88.30727129953777
 20
181.2289034920192
 10
88.01099308780628
 20
183.2186183895252
 10
87.6723402016062
 20
181.2289034920192
  0
HATCH
  5
3E35
330
3E4E
100
AcDbEntity
  8
Layer 1
 62
     7
100
AcDbHatch
 10
0.0
 20
0.0
 30
0.0
210
0.0
220
0.0
230
1.0
  2
SOLID
 70
     1
 71
     0
 91
        1
 92
        1
 93
        3
 72
     1
 10
87.6723402016062
 20
181.2289034920192
 11
88.30727129953777
 21
181.2289034920192
 72
     1
 10
88.30727129953777
 20
181.2289034920192
 11
88.01099308780628
 21
183.2186183895252
 72
     1
 10
88.01099308780628
 20
183.2186183895252
 11
87.6723402016062
 21
181.2289034920192
 97
        0
 75
     0
 76
     1
 98
        0
  0
LWPOLYLINE
  5
3E36
330
3E4E
100
AcDbEntity
  8
Layer 1
 62
     7
370
     0
100
AcDbPolyline
 90
        4
 70
     0
 43
0.0
 10
87.6723402016062
 20
152.7810275225686
 10
88.30727129953777
 20
152.7810275225686
 10
88.01099308780628
 20
150.7913126250626
 10
87.6723402016062
 20
152.7810275225686
  0
HATCH
  5
3E37
330
3E4E
100
AcDbEntity
  8
Layer 1
 62
     7
100
AcDbHatch
 10
0.0
 20
0.0
 30
0.0
210
0.0
220
0.0
230
1.0
  2
SOLID
 70
     1
 71
     0
 91
        1
 92
        1
 93
        3
 72
     1
 10
87.6723402016062
 20
152.7810275225686
 11
88.30727129953777
 21
152.7810275225686
 72
     1
 10
88.30727129953777
 20
152.7810275225686
 11
88.01099308780628
 21
150.7913126250626
 72
     1
 10
88.01099308780628
 20
150.7913126250626
 11
87.6723402016062
 21
152.7810275225686
 97
        0
 75
     0
 76
     1
 98
        0
  0
LWPOLYLINE
  5
3E38
330
3E4E
100
AcDbEntity
  8
Layer 1
 62
     7
370
    13
100
AcDbPolyline
 90
       10
 70
     0
 43
0.0
 10
87.79929197023767
 20
169.3757079654686
 10
87.79929197023767
 20
169.8413126203001
 10
86.82570798610607
 20
170.7726941847374
 10
85.42872176683728
 20
170.7726941847374
 10
84.96294485723145
 20
170.3069172751316
 10
84.96294485723145
 20
169.3757079654686
 10
85.42872176683728
 20
168.9099310558628
 10
85.89432642166878
 20
168.9099310558628
 10
86.3599310765003
 20
169.3757079654686
 10
86.3599310765003
 20
170.7726941847374
  0
LWPOLYLINE
  5
3E39
330
3E4E
100
AcDbEntity
  8
Layer 1
 62
     7
370
    13
100
AcDbPolyline
 90
       10
 70
     0
 43
0.0
 10
85.42872176683728
 20
166.0735839428566
 10
84.96294485723145
 20
166.5393608524624
 10
84.96294485723145
 20
167.4707424168996
 10
85.42872176683728
 20
167.9363470717311
 10
85.89432642166878
 20
167.9363470717311
 10
86.3599310765003
 20
167.4707424168996
 10
86.3599310765003
 20
166.5393608524624
 10
86.82570798610607
 20
166.0735839428566
 10
87.79929197023767
 20
166.0735839428566
 10
87.79929197023767
 20
167.9363470717311
  0
LWPOLYLINE
  5
3E3A
330
3E4E
100
AcDbEntity
  8
Layer 1
 62
     7
370
    13
100
AcDbPolyline
 90
       10
 70
     0
 43
0.0
 10
85.42872176683728
 20
163.2374090846247
 10
84.96294485723145
 20
163.7030137394562
 10
84.96294485723145
 20
164.6343953038934
 10
85.42872176683728
 20
165.099999958725
 10
85.89432642166878
 20
165.099999958725
 10
86.3599310765003
 20
164.6343953038934
 10
86.3599310765003
 20
163.7030137394562
 10
86.82570798610607
 20
163.2374090846247
 10
87.79929197023767
 20
163.2374090846247
 10
87.79929197023767
 20
165.099999958725
  0
LWPOLYLINE
  5
3E3B
330
3E4E
100
AcDbEntity
  8
Layer 1
 62
     7
370
    20
100
AcDbPolyline
 90
        2
 70
     0
 43
0.0
 10
200.9985839341254
 20
182.4143608484936
 10
201.0409586085939
 20
183.2186183895252
  0
SPLINE
  5
3E3C
330
3E4E
100
AcDbEntity
  8
Layer 1
 62
     7
370
    13
100
AcDbSpline
210
0.0
220
0.0
230
1.0
 70
    27
 71
     3
 72
    11
 73
     7
 74
     0
 42
0.0000000001
 43
0.0000000001
 40
0.0
 40
0.0
 40
0.0
 40
0.0
 40
1.0
 40
1.0
 40
1.0
 40
2.0
 40
2.0
 40
2.0
 40
2.0
 10
156.5909586197064
 20
150.7913126250626
 30
0.0
 10
156.5909586197064
 20
150.7913126250626
 30
0.0
 10
156.5485839452378
 20
150.7913126250626
 30
0.0
 10
156.5485839452378
 20
150.7913126250626
 30
0.0
 10
156.5485839452378
 20
150.7913126250626
 30
0.0
 10
156.5909586197064
 20
150.7913126250626
 30
0.0
 10
156.5909586197064
 20
150.7913126250626
 30
0.0
  0
LWPOLYLINE
  5
3E3D
330
3E4E
100
AcDbEntity
  8
Layer 1
 62
     7
370
    13
100
AcDbPolyline
 90
        2
 70
     0
 43
0.0
 10
148.1242919551564
 20
150.7913126250626
 10
148.0819172806878
 20
150.7913126250626
  0
LWPOLYLINE
  5
3E3E
330
3E4E
100
AcDbEntity
  8
Layer 1
 62
     7
370
    13
100
AcDbPolyline
 90
        2
 70
     0
 43
0.0
 10
193.1248182025868
 20
152.3999999619
 10
193.0824435281183
 20
152.3999999619
  0
LWPOLYLINE
  5
3E3F
330
3E4E
100
AcDbEntity
  8
Layer 1
 62
     7
370
    13
100
AcDbPolyline
 90
        2
 70
     0
 43
0.0
 10
201.1680826319997
 20
182.4143608484936
 10
201.1680826319997
 20
181.3136528409563
  0
LWPOLYLINE
  5
3E40
330
3E4E
100
AcDbEntity
  8
Layer 1
 62
     7
370
    20
100
AcDbPolyline
 90
        9
 70
     0
 43
0.0
 10
193.2092230419755
 20
152.3999999619
 10
194.5218044218556
 20
152.569326405
 10
195.7492919432502
 20
152.9927286401372
 10
196.8923746252561
 20
153.6276597380688
 10
197.9083332838562
 20
154.4742919535689
 10
198.7551377541306
 20
155.4480481924748
 10
199.3900688520622
 20
156.5909586197064
 10
199.8134710871994
 20
157.8609930703438
 10
199.9826252755252
 20
159.1734021954497
  0
LWPOLYLINE
  5
3E41
330
3E4E
100
AcDbEntity
  8
Layer 1
 62
     7
370
    20
100
AcDbPolyline
 90
        9
 70
     0
 43
0.0
 10
193.251597716444
 20
152.2306735188
 10
194.5638345867757
 20
152.3999999619
 10
195.8340412921873
 20
152.8234021970372
 10
197.0194986486618
 20
153.4583332949686
 10
198.0354573072619
 20
154.3473401849374
 10
198.8819172679878
 20
155.3632988435376
 10
199.559223040388
 20
156.5063815255435
 10
199.9826252755252
 20
157.7764159761809
 10
200.1521239733995
 20
159.1310275209811
  0
LWPOLYLINE
  5
3E42
330
3E4E
100
AcDbEntity
  8
Layer 1
 62
     7
370
    20
100
AcDbPolyline
 90
        9
 70
     0
 43
0.0
 10
95.96968042305617
 20
159.1310275209811
 10
96.18138154062478
 20
157.7764159761809
 10
96.56240910129342
 20
156.5063815255435
 10
97.23971487369354
 20
155.3632988435376
 10
98.0863470891937
 20
154.3473401849374
 10
99.10230574779388
 20
153.4583332949686
 10
100.2875908494941
 20
152.8234021970372
 10
101.5576253001314
 20
152.3999999619
 10
102.8700344252373
 20
152.2306735188
  0
LWPOLYLINE
  5
3E43
330
3E4E
100
AcDbEntity
  8
Layer 1
 62
     7
370
    20
100
AcDbPolyline
 90
        9
 70
     0
 43
0.0
 10
96.13900686615622
 20
159.1734021954497
 10
96.30833330925623
 20
157.8609930703438
 10
96.73173554439344
 20
156.5909586197064
 10
97.36666664232501
 20
155.4480481924748
 10
98.21329885782517
 20
154.4742919535689
 10
99.22925751642535
 20
153.6276597380688
 10
100.3723401984312
 20
152.9927286401372
 10
101.5999999746
 20
152.569326405
 10
102.9124090997059
 20
152.3999999619
  0
LWPOLYLINE
  5
3E44
330
3E4E
100
AcDbEntity
  8
Layer 1
 62
     7
370
    13
100
AcDbPolyline
 90
        9
 70
     0
 43
0.0
 10
108.7966321885126
 20
81.83031953249381
 10
109.0083333060812
 20
82.25372176763102
 10
108.8390068629812
 20
82.88865286556257
 10
107.1879448516752
 20
83.81986217522559
 10
106.5530137537437
 20
83.65070798689982
 10
106.3413126361751
 20
83.22730575176263
 10
106.5106390792751
 20
82.59237465383106
 10
108.1193264161125
 20
81.66116534416804
 10
108.7966321885126
 20
81.83031953249381
  0
LWPOLYLINE
  5
3E45
330
3E4E
100
AcDbEntity
  8
Layer 1
 62
     7
370
    13
100
AcDbPolyline
 90
        9
 70
     0
 43
0.0
 10
107.6113470868124
 20
79.79840221529347
 10
107.823048204381
 20
80.17942977596209
 10
107.653721761281
 20
80.85673554836221
 10
106.0450344244436
 20
81.78794485802525
 10
105.3677286520435
 20
81.6187906696995
 10
105.1560275344749
 20
81.19538843456226
 10
105.3253539775749
 20
80.56045733663072
 10
106.9764159888809
 20
79.62890351741916
 10
107.6113470868124
 20
79.79840221529347
  0
LWPOLYLINE
  5
3E46
330
3E4E
100
AcDbEntity
  8
Layer 1
 62
     7
370
    13
100
AcDbPolyline
 90
        3
 70
     0
 43
0.0
 10
106.6799655223751
 20
78.1471679492132
 10
104.2246459700376
 20
79.54449867803055
 10
104.3939724131376
 20
78.90922307055048
  0
LWPOLYLINE
  5
3E47
330
3E4E
100
AcDbEntity
  8
Layer 1
 62
     7
370
    13
100
AcDbPolyline
 90
        2
 70
     0
 43
0.0
 10
106.4260619851122
 20
77.72411022362454
 10
106.8916666399437
 20
78.57057018435043
  0
LWPOLYLINE
  5
3E48
330
3E4E
100
AcDbEntity
  8
Layer 1
 62
     7
370
    13
100
AcDbPolyline
 90
        2
 70
     0
 43
0.0
 10
104.012944852469
 20
76.41152884374434
 10
105.9602850755064
 20
76.91968042781869
  0
LWPOLYLINE
  5
3E49
330
3E4E
100
AcDbEntity
  8
Layer 1
 62
     7
370
    13
100
AcDbPolyline
 90
        7
 70
     0
 43
0.0
 10
105.0290757658434
 20
75.26879067128698
 10
102.5735839587316
 20
76.70815156502435
 10
103.251061985906
 20
77.93563908641887
 10
103.9283677583061
 20
78.10513778429315
 10
104.3093953189747
 20
77.85088973748172
 10
104.4787217620747
 20
77.2159586395502
 10
103.8014159896746
 20
75.98847111815564
  0
LWPOLYLINE
  5
3E4A
330
3E4E
100
AcDbEntity
  8
Layer 1
 62
     7
370
    13
100
AcDbPolyline
 90
        2
 70
     0
 43
0.0
 10
109.5586873098499
 20
82.7194986772368
 10
103.420388429006
 20
72.09379067208073
  0
LWPOLYLINE
  5
3E4B
330
3E4E
100
AcDbEntity
  8
Layer 1
 62
     7
370
     0
100
AcDbPolyline
 90
        4
 70
     0
 43
0.0
 10
103.1239379625002
 20
72.26294486040647
 10
103.7166666407375
 20
71.966666648675
 10
102.4466321901001
 20
70.4001817315319
 10
103.1239379625002
 20
72.26294486040647
  0
HATCH
  5
3E4C
330
3E4E
100
AcDbEntity
  8
Layer 1
 62
     7
100
AcDbHatch
 10
0.0
 20
0.0
 30
0.0
210
0.0
220
0.0
230
1.0
  2
SOLID
 70
     1
 71
     0
 91
        1
 92
        1
 93
        3
 72
     1
 10
103.1239379625002
 20
72.26294486040647
 11
103.7166666407375
 21
71.966666648675
 72
     1
 10
103.7166666407375
 20
71.966666648675
 11
102.4466321901001
 21
70.4001817315319
 72
     1
 10
102.4466321901001
 20
70.4001817315319
 11
103.1239379625002
 21
72.26294486040647
 97
        0
 75
     0
 76
     1
 98
        0
  0
ENDBLK
  5
3E50
330
3E4E
100
AcDbEntity
  8
0
100
AcDbBlockEnd
  0
BLOCK
  5
541C
330
541B
100
AcDbEntity
  8
0
100
AcDbBlockBegin
  2
*D3
 70
     1
 10
0.0
 20
0.0
 30
0.0
  3
*D3
  1

  0
LINE
  5
541D
330
541B
100
AcDbEntity
  8
标注
 62
     0
370
    -2
100
AcDbLine
 10
1121.873547483094
 20
-561.6106788764957
 30
0.0
 11
1121.873547483094
 21
-596.2682622551653
 31
0.0
  0
LINE
  5
541E
330
541B
100
AcDbEntity
  8
标注
 62
     0
370
    -2
100
AcDbLine
 10
1128.223547483096
 20
-561.6106788764884
 30
0.0
 11
1128.223547483096
 21
-596.2682622551653
 31
0.0
  0
LINE
  5
541F
330
541B
100
AcDbEntity
  8
标注
 62
     0
370
     0
100
AcDbLine
 10
1133.223547483096
 20
-592.5182622551654
 30
0.0
 11
1138.223547483096
 21
-592.5182622551654
 31
0.0
  0
LINE
  5
5420
330
541B
100
AcDbEntity
  8
标注
 62
     0
370
     0
100
AcDbLine
 10
1116.873547483093
 20
-592.5182622551654
 30
0.0
 11
1048.774297824158
 21
-592.5182622551654
 31
0.0
  0
LINE
  5
5421
330
541B
100
AcDbEntity
  8
标注
 62
     0
370
     0
100
AcDbLine
 10
1128.223547483096
 20
-592.5182622551654
 30
0.0
 11
1121.873547483094
 21
-592.5182622551654
 31
0.0
  0
SOLID
  5
5422
330
541B
100
AcDbEntity
  8
标注
 62
     0
100
AcDbTrace
 10
1133.223547483096
 20
-591.6849289218321
 30
0.0
 11
1133.223547483096
 21
-593.3515955884986
 31
0.0
 12
1128.223547483096
 22
-592.5182622551654
 32
0.0
 13
1128.223547483096
 23
-592.5182622551654
 33
0.0
  0
SOLID
  5
5423
330
541B
100
AcDbEntity
  8
标注
 62
     0
100
AcDbTrace
 10
1116.873547483093
 20
-591.6849289218321
 30
0.0
 11
1116.873547483093
 21
-593.3515955884986
 31
0.0
 12
1121.873547483094
 22
-592.5182622551654
 32
0.0
 13
1121.873547483094
 23
-592.5182622551654
 33
0.0
  0
MTEXT
  5
5424
330
541B
100
AcDbEntity
  8
标注
 62
     0
100
AcDbMText
 10
1075.300218697284
 20
-584.0448652565296
 30
0.0
 40
10.0
 41
0.0
 71
     5
 72
     1
  1
{\fArial|b0|i0|c0|p34;6.4 [1/4]}
 73
     1
 44
1.0
1001
ACAD
1000
MTEXTBEGIN
1070
    73
1070
     1
1070
    44
1040
1.0
1070
    74
1070
     0
1000
MTEXTEND
  0
POINT
  5
5425
330
541B
100
AcDbEntity
  8
Defpoints
 62
     0
100
AcDbPoint
 10
1121.873547483094
 20
-561.6106788764957
 30
0.0
  0
POINT
  5
5426
330
541B
100
AcDbEntity
  8
Defpoints
 62
     0
100
AcDbPoint
 10
1128.223547483096
 20
-561.6106788764884
 30
0.0
  0
POINT
  5
5427
330
541B
100
AcDbEntity
  8
Defpoints
 62
     0
100
AcDbPoint
 10
1128.223547483096
 20
-592.5182622551654
 30
0.0
  0
ENDBLK
  5
5428
330
541B
100
AcDbEntity
  8
0
100
AcDbBlockEnd
  0
BLOCK
  5
542B
330
542A
100
AcDbEntity
  8
0
100
AcDbBlockBegin
  2
*D4
 70
     1
 10
0.0
 20
0.0
 30
0.0
  3
*D4
  1

  0
LINE
  5
542C
330
542A
100
AcDbEntity
  8
标注
 62
     0
370
    -2
100
AcDbLine
 10
1115.523547483091
 20
-561.6106788764884
 30
0.0
 11
1115.523547483091
 21
-574.7682622551653
 31
0.0
  0
LINE
  5
542D
330
542A
100
AcDbEntity
  8
标注
 62
     0
370
    -2
100
AcDbLine
 10
1121.873547483094
 20
-561.6106788764957
 30
0.0
 11
1121.873547483094
 21
-574.7682622551653
 31
0.0
  0
LINE
  5
542E
330
542A
100
AcDbEntity
  8
标注
 62
     0
370
     0
100
AcDbLine
 10
1126.873547483093
 20
-571.0182622551654
 30
0.0
 11
1131.873547483094
 21
-571.0182622551654
 31
0.0
  0
LINE
  5
542F
330
542A
100
AcDbEntity
  8
标注
 62
     0
370
     0
100
AcDbLine
 10
1110.523547483091
 20
-571.0182622551654
 30
0.0
 11
1042.424297824156
 21
-571.0182622551654
 31
0.0
  0
LINE
  5
5430
330
542A
100
AcDbEntity
  8
标注
 62
     0
370
     0
100
AcDbLine
 10
1121.873547483094
 20
-571.0182622551654
 30
0.0
 11
1115.523547483091
 21
-571.0182622551654
 31
0.0
  0
SOLID
  5
5431
330
542A
100
AcDbEntity
  8
标注
 62
     0
100
AcDbTrace
 10
1126.873547483093
 20
-570.1849289218321
 30
0.0
 11
1126.873547483093
 21
-571.8515955884986
 31
0.0
 12
1121.873547483094
 22
-571.0182622551654
 32
0.0
 13
1121.873547483094
 23
-571.0182622551654
 33
0.0
  0
SOLID
  5
5432
330
542A
100
AcDbEntity
  8
标注
 62
     0
100
AcDbTrace
 10
1110.523547483091
 20
-570.1849289218321
 30
0.0
 11
1110.523547483091
 21
-571.8515955884986
 31
0.0
 12
1115.523547483091
 22
-571.0182622551654
 32
0.0
 13
1115.523547483091
 23
-571.0182622551654
 33
0.0
  0
MTEXT
  5
5433
330
542A
100
AcDbEntity
  8
标注
 62
     0
100
AcDbMText
 10
1068.950218697282
 20
-562.5448652565296
 30
0.0
 40
10.0
 41
0.0
 71
     5
 72
     1
  1
{\fArial|b0|i0|c0|p34;6.4 [1/4]}
 73
     1
 44
1.0
1001
ACAD
1000
MTEXTBEGIN
1070
    73
1070
     1
1070
    44
1040
1.0
1070
    74
1070
     0
1000
MTEXTEND
  0
POINT
  5
5434
330
542A
100
AcDbEntity
  8
Defpoints
 62
     0
100
AcDbPoint
 10
1115.523547483091
 20
-561.6106788764884
 30
0.0
  0
POINT
  5
5435
330
542A
100
AcDbEntity
  8
Defpoints
 62
     0
100
AcDbPoint
 10
1121.873547483094
 20
-561.6106788764957
 30
0.0
  0
POINT
  5
5436
330
542A
100
AcDbEntity
  8
Defpoints
 62
     0
100
AcDbPoint
 10
1121.873547483094
 20
-571.0182622551654
 30
0.0
  0
ENDBLK
  5
5437
330
542A
100
AcDbEntity
  8
0
100
AcDbBlockEnd
  0
BLOCK
  5
54B9
330
54B8
100
AcDbEntity
  8
0
100
AcDbBlockBegin
  2
*D5
 70
     1
 10
0.0
 20
0.0
 30
0.0
  3
*D5
  1

  0
POINT
  5
54AF
330
54B8
100
AcDbEntity
  8
Defpoints
  6
ByBlock
100
AcDbPoint
 10
1121.873547483094
 20
-338.5603420877024
 30
0.0
  0
POINT
  5
54B0
330
54B8
100
AcDbEntity
  8
Defpoints
  6
ByBlock
100
AcDbPoint
 10
426.8735474830974
 20
-335.1856533593446
 30
0.0
  0
LINE
  5
54B1
330
54B8
100
AcDbEntity
  8
标注
  6
ByBlock
 62
     0
370
    -2
100
AcDbLine
 10
1121.873547483094
 20
-338.5603420877024
 30
0.0
 11
1121.873547483094
 21
-270.7794402574197
 31
0.0
  0
LINE
  5
54B2
330
54B8
100
AcDbEntity
  8
标注
  6
ByBlock
 62
     0
370
    -2
100
AcDbLine
 10
426.8735474830974
 20
-335.1856533593446
 30
0.0
 11
426.8735474830974
 21
-270.7794402574197
 31
0.0
  0
LINE
  5
54B3
330
54B8
100
AcDbEntity
  8
标注
  6
ByBlock
 62
     0
370
     0
100
AcDbLine
 10
1116.873547483094
 20
-274.5294402574197
 30
0.0
 11
431.8735474830973
 21
-274.5294402574197
 31
0.0
  0
SOLID
  5
54B4
330
54B8
100
AcDbEntity
  8
标注
  6
ByBlock
 62
     0
100
AcDbTrace
 10
1121.873547483094
 20
-274.5294402574197
 30
0.0
 11
1116.873547483094
 21
-273.6961069240862
 31
0.0
 12
1116.873547483094
 22
-275.3627735907532
 32
0.0
 13
1116.873547483094
 23
-275.3627735907532
 33
0.0
  0
SOLID
  5
54B5
330
54B8
100
AcDbEntity
  8
标注
  6
ByBlock
 62
     0
100
AcDbTrace
 10
426.8735474830974
 20
-274.5294402574197
 30
0.0
 11
431.8735474830973
 21
-273.6961069240862
 31
0.0
 12
431.8735474830973
 22
-275.3627735907532
 32
0.0
 13
431.8735474830973
 23
-275.3627735907532
 33
0.0
  0
MTEXT
  5
54B6
330
54B8
100
AcDbEntity
  8
标注
  6
ByBlock
 62
     0
100
AcDbMText
 10
774.3944271928703
 20
-265.9707772287703
 30
0.0
 40
10.0
 41
0.0
 71
     5
 72
     1
  1
\A0;{\fArial|b0|i0|c0|p34;695 [27 3/8]}
 73
     1
 44
1.0
1001
ACAD
1000
MTEXTBEGIN
1070
    73
1070
     1
1070
    44
1040
1.0
1070
    74
1070
     0
1000
MTEXTEND
  0
ENDBLK
  5
54BA
330
54B8
100
AcDbEntity
  8
0
100
AcDbBlockEnd
  0
BLOCK
  5
54C6
330
54C5
100
AcDbEntity
  8
0
100
AcDbBlockBegin
  2
*D6
 70
     1
 10
0.0
 20
0.0
 30
0.0
  3
*D6
  1

  0
POINT
  5
54BC
330
54C5
100
AcDbEntity
  8
Defpoints
  6
ByBlock
100
AcDbPoint
 10
1128.223547483095
 20
-337.3100361063801
 30
0.0
  0
POINT
  5
54BD
330
54C5
100
AcDbEntity
  8
Defpoints
  6
ByBlock
100
AcDbPoint
 10
420.5235474830974
 20
-335.9894214901948
 30
0.0
  0
LINE
  5
54BE
330
54C5
100
AcDbEntity
  8
标注
  6
ByBlock
 62
     0
370
    -2
100
AcDbLine
 10
1128.223547483095
 20
-337.3100361063801
 30
0.0
 11
1128.223547483095
 21
-248.7794402574197
 31
0.0
  0
LINE
  5
54BF
330
54C5
100
AcDbEntity
  8
标注
  6
ByBlock
 62
     0
370
    -2
100
AcDbLine
 10
420.5235474830974
 20
-335.9894214901948
 30
0.0
 11
420.5235474830974
 21
-248.7794402574197
 31
0.0
  0
LINE
  5
54C0
330
54C5
100
AcDbEntity
  8
标注
  6
ByBlock
 62
     0
370
     0
100
AcDbLine
 10
1123.223547483095
 20
-252.5294402574197
 30
0.0
 11
425.5235474830974
 21
-252.5294402574197
 31
0.0
  0
SOLID
  5
54C1
330
54C5
100
AcDbEntity
  8
标注
  6
ByBlock
 62
     0
100
AcDbTrace
 10
1128.223547483095
 20
-252.5294402574197
 30
0.0
 11
1123.223547483095
 21
-251.6961069240862
 31
0.0
 12
1123.223547483095
 22
-253.3627735907532
 32
0.0
 13
1123.223547483095
 23
-253.3627735907532
 33
0.0
  0
SOLID
  5
54C2
330
54C5
100
AcDbEntity
  8
标注
  6
ByBlock
 62
     0
100
AcDbTrace
 10
420.5235474830974
 20
-252.5294402574197
 30
0.0
 11
425.5235474830974
 21
-251.6961069240862
 31
0.0
 12
425.5235474830974
 22
-253.3627735907532
 32
0.0
 13
425.5235474830974
 23
-253.3627735907532
 33
0.0
  0
MTEXT
  5
54C3
330
54C5
100
AcDbEntity
  8
标注
  6
ByBlock
 62
     0
100
AcDbMText
 10
774.3735474830973
 20
-243.9707772287703
 30
0.0
 40
10.0
 41
0.0
 71
     5
 72
     1
  1
\A0;{\fArial|b0|i0|c0|p34;707.7 [27 7/8]}
 73
     1
 44
1.0
1001
ACAD
1000
MTEXTBEGIN
1070
    73
1070
     1
1070
    44
1040
1.0
1070
    74
1070
     0
1000
MTEXTEND
  0
ENDBLK
  5
54C7
330
54C5
100
AcDbEntity
  8
0
100
AcDbBlockEnd
  0
BLOCK
  5
54D3
330
54D2
100
AcDbEntity
  8
0
100
AcDbBlockBegin
  2
*D7
 70
     1
 10
0.0
 20
0.0
 30
0.0
  3
*D7
  1

  0
POINT
  5
54C9
330
54D2
100
AcDbEntity
  8
Defpoints
  6
ByBlock
100
AcDbPoint
 10
1115.523547483094
 20
-340.1678783494026
 30
0.0
  0
POINT
  5
54CA
330
54D2
100
AcDbEntity
  8
Defpoints
  6
ByBlock
100
AcDbPoint
 10
433.2235474830972
 20
-332.3278111163221
 30
0.0
  0
LINE
  5
54CB
330
54D2
100
AcDbEntity
  8
标注
  6
ByBlock
 62
     0
370
    -2
100
AcDbLine
 10
1115.523547483094
 20
-340.1678783494026
 30
0.0
 11
1115.523547483094
 21
-293.0106766265357
 31
0.0
  0
LINE
  5
54CC
330
54D2
100
AcDbEntity
  8
标注
  6
ByBlock
 62
     0
370
    -2
100
AcDbLine
 10
433.2235474830972
 20
-332.3278111163221
 30
0.0
 11
433.2235474830972
 21
-293.0106766265357
 31
0.0
  0
LINE
  5
54CD
330
54D2
100
AcDbEntity
  8
标注
  6
ByBlock
 62
     0
370
     0
100
AcDbLine
 10
1110.523547483095
 20
-296.7606766265357
 30
0.0
 11
438.2235474830972
 21
-296.7606766265357
 31
0.0
  0
SOLID
  5
54CE
330
54D2
100
AcDbEntity
  8
标注
  6
ByBlock
 62
     0
100
AcDbTrace
 10
1115.523547483094
 20
-296.7606766265357
 30
0.0
 11
1110.523547483095
 21
-295.9273432932022
 31
0.0
 12
1110.523547483095
 22
-297.5940099598692
 32
0.0
 13
1110.523547483095
 23
-297.5940099598692
 33
0.0
  0
SOLID
  5
54CF
330
54D2
100
AcDbEntity
  8
标注
  6
ByBlock
 62
     0
100
AcDbTrace
 10
433.2235474830972
 20
-296.7606766265357
 30
0.0
 11
438.2235474830972
 21
-295.9273432932022
 31
0.0
 12
438.2235474830972
 22
-297.5940099598692
 32
0.0
 13
438.2235474830972
 23
-297.5940099598692
 33
0.0
  0
MTEXT
  5
54D0
330
54D2
100
AcDbEntity
  8
标注
  6
ByBlock
 62
     0
100
AcDbMText
 10
774.3735474830973
 20
-288.2020135978863
 30
0.0
 40
10.0
 41
0.0
 71
     5
 72
     1
  1
\A0;{\fArial|b0|i0|c0|p34;682.3 [26 7/8]}
 73
     1
 44
1.0
1001
ACAD
1000
MTEXTBEGIN
1070
    73
1070
     1
1070
    44
1040
1.0
1070
    74
1070
     0
1000
MTEXTEND
  0
ENDBLK
  5
54D4
330
54D2
100
AcDbEntity
  8
0
100
AcDbBlockEnd
  0
BLOCK
  5
54E6
330
54E5
100
AcDbEntity
  8
0
100
AcDbBlockBegin
  2
*D8
 70
     1
 10
0.0
 20
0.0
 30
0.0
  3
*D8
  1

  0
POINT
  5
54DC
330
54E5
100
AcDbEntity
  8
Defpoints
  6
ByBlock
100
AcDbPoint
 10
401.61979799653
 20
-357.9606766265357
 30
0.0
  0
POINT
  5
54DD
330
54E5
100
AcDbEntity
  8
Defpoints
  6
ByBlock
100
AcDbPoint
 10
414.1505547625351
 20
-765.2606766265335
 30
0.0
  0
LINE
  5
54DE
330
54E5
100
AcDbEntity
  8
标注
  6
ByBlock
 62
     0
370
    -2
100
AcDbLine
 10
401.61979799653
 20
-357.9606766265357
 30
0.0
 11
366.773547483097
 21
-357.9606766265357
 31
0.0
  0
LINE
  5
54DF
330
54E5
100
AcDbEntity
  8
标注
  6
ByBlock
 62
     0
370
    -2
100
AcDbLine
 10
414.1505547625351
 20
-765.2606766265335
 30
0.0
 11
366.773547483097
 21
-765.2606766265335
 31
0.0
  0
LINE
  5
54E0
330
54E5
100
AcDbEntity
  8
标注
  6
ByBlock
 62
     0
370
     0
100
AcDbLine
 10
370.523547483097
 20
-362.9606766265358
 30
0.0
 11
370.523547483097
 21
-760.2606766265335
 31
0.0
  0
SOLID
  5
54E1
330
54E5
100
AcDbEntity
  8
标注
  6
ByBlock
 62
     0
100
AcDbTrace
 10
370.523547483097
 20
-357.9606766265357
 30
0.0
 11
369.6902141497635
 21
-362.9606766265358
 31
0.0
 12
371.3568808164305
 22
-362.9606766265358
 32
0.0
 13
371.3568808164305
 23
-362.9606766265358
 33
0.0
  0
SOLID
  5
54E2
330
54E5
100
AcDbEntity
  8
标注
  6
ByBlock
 62
     0
100
AcDbTrace
 10
370.523547483097
 20
-765.2606766265335
 30
0.0
 11
369.6902141497635
 21
-760.2606766265335
 31
0.0
 12
371.3568808164305
 22
-760.2606766265335
 32
0.0
 13
371.3568808164305
 23
-760.2606766265335
 33
0.0
  0
MTEXT
  5
54E3
330
54E5
100
AcDbEntity
  8
标注
  6
ByBlock
 62
     0
100
AcDbMText
 10
362.0944888200684
 20
-552.6106766265411
 30
0.0
 40
10.0
 41
0.0
 71
     5
 72
     1
  1
\A0;{\fArial|b0|i0|c0|p34;407.3 [16]}
 11
0.0000000000000001
 21
1.0
 31
0.0
 73
     1
 44
1.0
1001
ACAD
1000
MTEXTBEGIN
1070
    73
1070
     1
1070
    44
1040
1.0
1070
    74
1070
     0
1000
MTEXTEND
  0
ENDBLK
  5
54E7
330
54E5
100
AcDbEntity
  8
0
100
AcDbBlockEnd
  0
BLOCK
  5
5500
330
54FF
100
AcDbEntity
  8
0
100
AcDbBlockBegin
  2
*D9
 70
     1
 10
0.0
 20
0.0
 30
0.0
  3
*D9
  1

  0
POINT
  5
54F6
330
54FF
100
AcDbEntity
  8
Defpoints
  6
ByBlock
100
AcDbPoint
 10
401.3340412843581
 20
-351.6106766265358
 30
0.0
  0
POINT
  5
54F7
330
54FF
100
AcDbEntity
  8
Defpoints
  6
ByBlock
100
AcDbPoint
 10
412.4619758062131
 20
-771.6106766265347
 30
0.0
  0
LINE
  5
54F8
330
54FF
100
AcDbEntity
  8
标注
  6
ByBlock
 62
     0
370
    -2
100
AcDbLine
 10
401.3340412843581
 20
-351.6106766265358
 30
0.0
 11
343.50225847199
 21
-351.6106766265358
 31
0.0
  0
LINE
  5
54F9
330
54FF
100
AcDbEntity
  8
标注
  6
ByBlock
 62
     0
370
    -2
100
AcDbLine
 10
412.4619758062131
 20
-771.6106766265347
 30
0.0
 11
343.50225847199
 21
-771.6106766265347
 31
0.0
  0
LINE
  5
54FA
330
54FF
100
AcDbEntity
  8
标注
  6
ByBlock
 62
     0
370
     0
100
AcDbLine
 10
347.25225847199
 20
-356.6106766265357
 30
0.0
 11
347.25225847199
 21
-766.6106766265348
 31
0.0
  0
SOLID
  5
54FB
330
54FF
100
AcDbEntity
  8
标注
  6
ByBlock
 62
     0
100
AcDbTrace
 10
347.25225847199
 20
-351.6106766265358
 30
0.0
 11
346.4189251386565
 21
-356.6106766265357
 31
0.0
 12
348.0855918053235
 22
-356.6106766265357
 32
0.0
 13
348.0855918053235
 23
-356.6106766265357
 33
0.0
  0
SOLID
  5
54FC
330
54FF
100
AcDbEntity
  8
标注
  6
ByBlock
 62
     0
100
AcDbTrace
 10
347.25225847199
 20
-771.6106766265347
 30
0.0
 11
346.4189251386565
 21
-766.6106766265348
 31
0.0
 12
348.0855918053235
 22
-766.6106766265348
 32
0.0
 13
348.0855918053235
 23
-766.6106766265348
 33
0.0
  0
MTEXT
  5
54FD
330
54FF
100
AcDbEntity
  8
标注
  6
ByBlock
 62
     0
100
AcDbMText
 10
338.6935954433407
 20
-552.5070025283776
 30
0.0
 40
10.0
 41
0.0
 71
     5
 72
     1
  1
\A0;{\fArial|b0|i0|c0|p34;420 [16 1/2]}
 11
0.0000000000000001
 21
1.0
 31
0.0
 73
     1
 44
1.0
1001
ACAD
1000
MTEXTBEGIN
1070
    73
1070
     1
1070
    44
1040
1.0
1070
    74
1070
     0
1000
MTEXTEND
  0
ENDBLK
  5
5501
330
54FF
100
AcDbEntity
  8
0
100
AcDbBlockEnd
  0
BLOCK
  5
555E
330
555D
100
AcDbEntity
  8
0
100
AcDbBlockBegin
  2
*D10
 70
     1
 10
0.0
 20
0.0
 30
0.0
  3
*D10
  1

  0
POINT
  5
5554
330
555D
100
AcDbEntity
  8
Defpoints
  6
ByBlock
100
AcDbPoint
 10
401.7626763526159
 20
-345.2606766265357
 30
0.0
  0
POINT
  5
5555
330
555D
100
AcDbEntity
  8
Defpoints
  6
ByBlock
100
AcDbPoint
 10
413.1655503713473
 20
-777.9606766265351
 30
0.0
  0
LINE
  5
5556
330
555D
100
AcDbEntity
  8
标注
  6
ByBlock
 62
     0
370
    -2
100
AcDbLine
 10
401.7626763526159
 20
-345.2606766265357
 30
0.0
 11
316.25
 21
-345.2606766265357
 31
0.0
  0
LINE
  5
5557
330
555D
100
AcDbEntity
  8
标注
  6
ByBlock
 62
     0
370
    -2
100
AcDbLine
 10
413.1655503713473
 20
-777.9606766265351
 30
0.0
 11
316.25
 21
-777.9606766265351
 31
0.0
  0
LINE
  5
5558
330
555D
100
AcDbEntity
  8
标注
  6
ByBlock
 62
     0
370
     0
100
AcDbLine
 10
320.0
 20
-350.2606766265357
 30
0.0
 11
320.0
 21
-772.9606766265351
 31
0.0
  0
SOLID
  5
5559
330
555D
100
AcDbEntity
  8
标注
  6
ByBlock
 62
     0
100
AcDbTrace
 10
320.0
 20
-345.2606766265357
 30
0.0
 11
319.1666666666665
 21
-350.2606766265357
 31
0.0
 12
320.8333333333335
 22
-350.2606766265357
 32
0.0
 13
320.8333333333335
 23
-350.2606766265357
 33
0.0
  0
SOLID
  5
555A
330
555D
100
AcDbEntity
  8
标注
  6
ByBlock
 62
     0
100
AcDbTrace
 10
320.0
 20
-777.9606766265351
 30
0.0
 11
319.1666666666665
 21
-772.9606766265351
 31
0.0
 12
320.8333333333335
 22
-772.9606766265351
 32
0.0
 13
320.8333333333335
 23
-772.9606766265351
 33
0.0
  0
MTEXT
  5
555B
330
555D
100
AcDbEntity
  8
标注
  6
ByBlock
 62
     0
100
AcDbMText
 10
311.5709413369714
 20
-556.0
 30
0.0
 40
10.0
 41
0.0
 71
     5
 72
     1
  1
\A0;{\fArial|b0|i0|c0|p34;432.7 [17]}
 11
0.0000000000000001
 21
1.0
 31
0.0
 73
     1
 44
1.0
1001
ACAD
1000
MTEXTBEGIN
1070
    73
1070
     1
1070
    44
1040
1.0
1070
    74
1070
     0
1000
MTEXTEND
  0
ENDBLK
  5
555F
330
555D
100
AcDbEntity
  8
0
100
AcDbBlockEnd
  0
BLOCK
  5
55CA
330
55C9
100
AcDbEntity
  8
0
100
AcDbBlockBegin
  2
*D11
 70
     1
 10
0.0
 20
0.0
 30
0.0
  3
*D11
  1

  0
LINE
  5
55CB
330
55C9
100
AcDbEntity
  8
标注
 62
     0
370
    -2
100
AcDbLine
 10
2454.873547483094
 20
-561.6106788764957
 30
0.0
 11
2454.873547483094
 21
-596.2682622551653
 31
0.0
  0
LINE
  5
55CC
330
55C9
100
AcDbEntity
  8
标注
 62
     0
370
    -2
100
AcDbLine
 10
2461.223547483096
 20
-561.6106788764884
 30
0.0
 11
2461.223547483096
 21
-596.2682622551653
 31
0.0
  0
LINE
  5
55CD
330
55C9
100
AcDbEntity
  8
标注
 62
     0
370
     0
100
AcDbLine
 10
2466.223547483096
 20
-592.5182622551654
 30
0.0
 11
2471.223547483096
 21
-592.5182622551654
 31
0.0
  0
LINE
  5
55CE
330
55C9
100
AcDbEntity
  8
标注
 62
     0
370
     0
100
AcDbLine
 10
2449.873547483094
 20
-592.5182622551654
 30
0.0
 11
2381.774297824159
 21
-592.5182622551654
 31
0.0
  0
LINE
  5
55CF
330
55C9
100
AcDbEntity
  8
标注
 62
     0
370
     0
100
AcDbLine
 10
2461.223547483096
 20
-592.5182622551654
 30
0.0
 11
2454.873547483094
 21
-592.5182622551654
 31
0.0
  0
SOLID
  5
55D0
330
55C9
100
AcDbEntity
  8
标注
 62
     0
100
AcDbTrace
 10
2466.223547483096
 20
-591.6849289218321
 30
0.0
 11
2466.223547483096
 21
-593.3515955884986
 31
0.0
 12
2461.223547483096
 22
-592.5182622551654
 32
0.0
 13
2461.223547483096
 23
-592.5182622551654
 33
0.0
  0
SOLID
  5
55D1
330
55C9
100
AcDbEntity
  8
标注
 62
     0
100
AcDbTrace
 10
2449.873547483094
 20
-591.6849289218321
 30
0.0
 11
2449.873547483094
 21
-593.3515955884986
 31
0.0
 12
2454.873547483094
 22
-592.5182622551654
 32
0.0
 13
2454.873547483094
 23
-592.5182622551654
 33
0.0
  0
MTEXT
  5
55D2
330
55C9
100
AcDbEntity
  8
标注
 62
     0
100
AcDbMText
 10
2408.300218697285
 20
-584.0448652565296
 30
0.0
 40
10.0
 41
0.0
 71
     5
 72
     1
  1
{\fArial|b0|i0|c0|p34;6.4 [1/4]}
 73
     1
 44
1.0
1001
ACAD
1000
MTEXTBEGIN
1070
    73
1070
     1
1070
    44
1040
1.0
1070
    74
1070
     0
1000
MTEXTEND
  0
POINT
  5
55D3
330
55C9
100
AcDbEntity
  8
Defpoints
 62
     0
100
AcDbPoint
 10
2454.873547483094
 20
-561.6106788764957
 30
0.0
  0
POINT
  5
55D4
330
55C9
100
AcDbEntity
  8
Defpoints
 62
     0
100
AcDbPoint
 10
2461.223547483096
 20
-561.6106788764884
 30
0.0
  0
POINT
  5
55D5
330
55C9
100
AcDbEntity
  8
Defpoints
 62
     0
100
AcDbPoint
 10
2461.223547483096
 20
-592.5182622551654
 30
0.0
  0
ENDBLK
  5
55D6
330
55C9
100
AcDbEntity
  8
0
100
AcDbBlockEnd
  0
BLOCK
  5
55D9
330
55D8
100
AcDbEntity
  8
0
100
AcDbBlockBegin
  2
*D12
 70
     1
 10
0.0
 20
0.0
 30
0.0
  3
*D12
  1

  0
LINE
  5
55DA
330
55D8
100
AcDbEntity
  8
标注
 62
     0
370
    -2
100
AcDbLine
 10
2448.523547483091
 20
-561.6106788764884
 30
0.0
 11
2448.523547483091
 21
-574.7682622551653
 31
0.0
  0
LINE
  5
55DB
330
55D8
100
AcDbEntity
  8
标注
 62
     0
370
    -2
100
AcDbLine
 10
2454.873547483094
 20
-561.6106788764957
 30
0.0
 11
2454.873547483094
 21
-574.7682622551653
 31
0.0
  0
LINE
  5
55DC
330
55D8
100
AcDbEntity
  8
标注
 62
     0
370
     0
100
AcDbLine
 10
2459.873547483094
 20
-571.0182622551654
 30
0.0
 11
2464.873547483094
 21
-571.0182622551654
 31
0.0
  0
LINE
  5
55DD
330
55D8
100
AcDbEntity
  8
标注
 62
     0
370
     0
100
AcDbLine
 10
2443.523547483092
 20
-571.0182622551654
 30
0.0
 11
2375.424297824157
 21
-571.0182622551654
 31
0.0
  0
LINE
  5
55DE
330
55D8
100
AcDbEntity
  8
标注
 62
     0
370
     0
100
AcDbLine
 10
2454.873547483094
 20
-571.0182622551654
 30
0.0
 11
2448.523547483091
 21
-571.0182622551654
 31
0.0
  0
SOLID
  5
55DF
330
55D8
100
AcDbEntity
  8
标注
 62
     0
100
AcDbTrace
 10
2459.873547483094
 20
-570.1849289218321
 30
0.0
 11
2459.873547483094
 21
-571.8515955884986
 31
0.0
 12
2454.873547483094
 22
-571.0182622551654
 32
0.0
 13
2454.873547483094
 23
-571.0182622551654
 33
0.0
  0
SOLID
  5
55E0
330
55D8
100
AcDbEntity
  8
标注
 62
     0
100
AcDbTrace
 10
2443.523547483092
 20
-570.1849289218321
 30
0.0
 11
2443.523547483092
 21
-571.8515955884986
 31
0.0
 12
2448.523547483091
 22
-571.0182622551654
 32
0.0
 13
2448.523547483091
 23
-571.0182622551654
 33
0.0
  0
MTEXT
  5
55E1
330
55D8
100
AcDbEntity
  8
标注
 62
     0
100
AcDbMText
 10
2401.950218697282
 20
-562.5448652565296
 30
0.0
 40
10.0
 41
0.0
 71
     5
 72
     1
  1
{\fArial|b0|i0|c0|p34;6.4 [1/4]}
 73
     1
 44
1.0
1001
ACAD
1000
MTEXTBEGIN
1070
    73
1070
     1
1070
    44
1040
1.0
1070
    74
1070
     0
1000
MTEXTEND
  0
POINT
  5
55E2
330
55D8
100
AcDbEntity
  8
Defpoints
 62
     0
100
AcDbPoint
 10
2448.523547483091
 20
-561.6106788764884
 30
0.0
  0
POINT
  5
55E3
330
55D8
100
AcDbEntity
  8
Defpoints
 62
     0
100
AcDbPoint
 10
2454.873547483094
 20
-561.6106788764957
 30
0.0
  0
POINT
  5
55E4
330
55D8
100
AcDbEntity
  8
Defpoints
 62
     0
100
AcDbPoint
 10
2454.873547483094
 20
-571.0182622551654
 30
0.0
  0
ENDBLK
  5
55E5
330
55D8
100
AcDbEntity
  8
0
100
AcDbBlockEnd
  0
BLOCK
  5
55E8
330
55E7
100
AcDbEntity
  8
0
100
AcDbBlockBegin
  2
*D13
 70
     1
 10
0.0
 20
0.0
 30
0.0
  3
*D13
  1

  0
POINT
  5
55E9
330
55E7
100
AcDbEntity
  8
Defpoints
  6
ByBlock
100
AcDbPoint
 10
1734.61979799653
 20
-357.9606766265357
 30
0.0
  0
POINT
  5
55EA
330
55E7
100
AcDbEntity
  8
Defpoints
  6
ByBlock
100
AcDbPoint
 10
1747.150554762535
 20
-765.2606766265335
 30
0.0
  0
LINE
  5
55EB
330
55E7
100
AcDbEntity
  8
标注
  6
ByBlock
 62
     0
370
    -2
100
AcDbLine
 10
1734.61979799653
 20
-357.9606766265357
 30
0.0
 11
1699.773547483097
 21
-357.9606766265357
 31
0.0
  0
LINE
  5
55EC
330
55E7
100
AcDbEntity
  8
标注
  6
ByBlock
 62
     0
370
    -2
100
AcDbLine
 10
1747.150554762535
 20
-765.2606766265335
 30
0.0
 11
1699.773547483097
 21
-765.2606766265335
 31
0.0
  0
LINE
  5
55ED
330
55E7
100
AcDbEntity
  8
标注
  6
ByBlock
 62
     0
370
     0
100
AcDbLine
 10
1703.523547483097
 20
-362.9606766265358
 30
0.0
 11
1703.523547483097
 21
-760.2606766265335
 31
0.0
  0
SOLID
  5
55EE
330
55E7
100
AcDbEntity
  8
标注
  6
ByBlock
 62
     0
100
AcDbTrace
 10
1703.523547483097
 20
-357.9606766265357
 30
0.0
 11
1702.690214149764
 21
-362.9606766265358
 31
0.0
 12
1704.35688081643
 22
-362.9606766265358
 32
0.0
 13
1704.35688081643
 23
-362.9606766265358
 33
0.0
  0
SOLID
  5
55EF
330
55E7
100
AcDbEntity
  8
标注
  6
ByBlock
 62
     0
100
AcDbTrace
 10
1703.523547483097
 20
-765.2606766265335
 30
0.0
 11
1702.690214149764
 21
-760.2606766265335
 31
0.0
 12
1704.35688081643
 22
-760.2606766265335
 32
0.0
 13
1704.35688081643
 23
-760.2606766265335
 33
0.0
  0
MTEXT
  5
55F0
330
55E7
100
AcDbEntity
  8
标注
  6
ByBlock
 62
     0
100
AcDbMText
 10
1695.094488820068
 20
-552.6106766265411
 30
0.0
 40
10.0
 41
0.0
 71
     5
 72
     1
  1
\A0;{\fArial|b0|i0|c0|p34;407.3 [16]}
 11
0.0000000000000001
 21
1.0
 31
0.0
 73
     1
 44
1.0
1001
ACAD
1000
MTEXTBEGIN
1070
    73
1070
     1
1070
    44
1040
1.0
1070
    74
1070
     0
1000
MTEXTEND
  0
ENDBLK
  5
55F1
330
55E7
100
AcDbEntity
  8
0
100
AcDbBlockEnd
  0
BLOCK
  5
55F4
330
55F3
100
AcDbEntity
  8
0
100
AcDbBlockBegin
  2
*D14
 70
     1
 10
0.0
 20
0.0
 30
0.0
  3
*D14
  1

  0
POINT
  5
55F5
330
55F3
100
AcDbEntity
  8
Defpoints
  6
ByBlock
100
AcDbPoint
 10
1734.762676352616
 20
-345.2606766265357
 30
0.0
  0
POINT
  5
55F6
330
55F3
100
AcDbEntity
  8
Defpoints
  6
ByBlock
100
AcDbPoint
 10
1746.165550371347
 20
-777.9606766265351
 30
0.0
  0
LINE
  5
55F7
330
55F3
100
AcDbEntity
  8
标注
  6
ByBlock
 62
     0
370
    -2
100
AcDbLine
 10
1734.762676352616
 20
-345.2606766265357
 30
0.0
 11
1649.25
 21
-345.2606766265357
 31
0.0
  0
LINE
  5
55F8
330
55F3
100
AcDbEntity
  8
标注
  6
ByBlock
 62
     0
370
    -2
100
AcDbLine
 10
1746.165550371347
 20
-777.9606766265351
 30
0.0
 11
1649.25
 21
-777.9606766265351
 31
0.0
  0
LINE
  5
55F9
330
55F3
100
AcDbEntity
  8
标注
  6
ByBlock
 62
     0
370
     0
100
AcDbLine
 10
1653.0
 20
-350.2606766265357
 30
0.0
 11
1653.0
 21
-772.9606766265351
 31
0.0
  0
SOLID
  5
55FA
330
55F3
100
AcDbEntity
  8
标注
  6
ByBlock
 62
     0
100
AcDbTrace
 10
1653.0
 20
-345.2606766265357
 30
0.0
 11
1652.166666666666
 21
-350.2606766265357
 31
0.0
 12
1653.833333333333
 22
-350.2606766265357
 32
0.0
 13
1653.833333333333
 23
-350.2606766265357
 33
0.0
  0
SOLID
  5
55FB
330
55F3
100
AcDbEntity
  8
标注
  6
ByBlock
 62
     0
100
AcDbTrace
 10
1653.0
 20
-777.9606766265351
 30
0.0
 11
1652.166666666666
 21
-772.9606766265351
 31
0.0
 12
1653.833333333333
 22
-772.9606766265351
 32
0.0
 13
1653.833333333333
 23
-772.9606766265351
 33
0.0
  0
MTEXT
  5
55FC
330
55F3
100
AcDbEntity
  8
标注
  6
ByBlock
 62
     0
100
AcDbMText
 10
1644.570941336971
 20
-556.0
 30
0.0
 40
10.0
 41
0.0
 71
     5
 72
     1
  1
\A0;{\fArial|b0|i0|c0|p34;432.7 [17]}
 11
0.0000000000000001
 21
1.0
 31
0.0
 73
     1
 44
1.0
1001
ACAD
1000
MTEXTBEGIN
1070
    73
1070
     1
1070
    44
1040
1.0
1070
    74
1070
     0
1000
MTEXTEND
  0
ENDBLK
  5
55FD
330
55F3
100
AcDbEntity
  8
0
100
AcDbBlockEnd
  0
BLOCK
  5
5600
330
55FF
100
AcDbEntity
  8
0
100
AcDbBlockBegin
  2
*D15
 70
     1
 10
0.0
 20
0.0
 30
0.0
  3
*D15
  1

  0
POINT
  5
5601
330
55FF
100
AcDbEntity
  8
Defpoints
  6
ByBlock
100
AcDbPoint
 10
1734.334041284358
 20
-351.6106766265358
 30
0.0
  0
POINT
  5
5602
330
55FF
100
AcDbEntity
  8
Defpoints
  6
ByBlock
100
AcDbPoint
 10
1745.461975806213
 20
-771.6106766265347
 30
0.0
  0
LINE
  5
5603
330
55FF
100
AcDbEntity
  8
标注
  6
ByBlock
 62
     0
370
    -2
100
AcDbLine
 10
1734.334041284358
 20
-351.6106766265358
 30
0.0
 11
1676.50225847199
 21
-351.6106766265358
 31
0.0
  0
LINE
  5
5604
330
55FF
100
AcDbEntity
  8
标注
  6
ByBlock
 62
     0
370
    -2
100
AcDbLine
 10
1745.461975806213
 20
-771.6106766265347
 30
0.0
 11
1676.50225847199
 21
-771.6106766265347
 31
0.0
  0
LINE
  5
5605
330
55FF
100
AcDbEntity
  8
标注
  6
ByBlock
 62
     0
370
     0
100
AcDbLine
 10
1680.25225847199
 20
-356.6106766265357
 30
0.0
 11
1680.25225847199
 21
-766.6106766265348
 31
0.0
  0
SOLID
  5
5606
330
55FF
100
AcDbEntity
  8
标注
  6
ByBlock
 62
     0
100
AcDbTrace
 10
1680.25225847199
 20
-351.6106766265358
 30
0.0
 11
1679.418925138656
 21
-356.6106766265357
 31
0.0
 12
1681.085591805323
 22
-356.6106766265357
 32
0.0
 13
1681.085591805323
 23
-356.6106766265357
 33
0.0
  0
SOLID
  5
5607
330
55FF
100
AcDbEntity
  8
标注
  6
ByBlock
 62
     0
100
AcDbTrace
 10
1680.25225847199
 20
-771.6106766265347
 30
0.0
 11
1679.418925138656
 21
-766.6106766265348
 31
0.0
 12
1681.085591805323
 22
-766.6106766265348
 32
0.0
 13
1681.085591805323
 23
-766.6106766265348
 33
0.0
  0
MTEXT
  5
5608
330
55FF
100
AcDbEntity
  8
标注
  6
ByBlock
 62
     0
100
AcDbMText
 10
1671.69359544334
 20
-552.5070025283776
 30
0.0
 40
10.0
 41
0.0
 71
     5
 72
     1
  1
\A0;{\fArial|b0|i0|c0|p34;420 [16 1/2]}
 11
0.0000000000000001
 21
1.0
 31
0.0
 73
     1
 44
1.0
1001
ACAD
1000
MTEXTBEGIN
1070
    73
1070
     1
1070
    44
1040
1.0
1070
    74
1070
     0
1000
MTEXTEND
  0
ENDBLK
  5
5609
330
55FF
100
AcDbEntity
  8
0
100
AcDbBlockEnd
  0
BLOCK
  5
560C
330
560B
100
AcDbEntity
  8
0
100
AcDbBlockBegin
  2
*D16
 70
     1
 10
0.0
 20
0.0
 30
0.0
  3
*D16
  1

  0
POINT
  5
560D
330
560B
100
AcDbEntity
  8
Defpoints
  6
ByBlock
100
AcDbPoint
 10
2454.873547483095
 20
-338.5603420877024
 30
0.0
  0
POINT
  5
560E
330
560B
100
AcDbEntity
  8
Defpoints
  6
ByBlock
100
AcDbPoint
 10
1759.873547483097
 20
-335.1856533593446
 30
0.0
  0
LINE
  5
560F
330
560B
100
AcDbEntity
  8
标注
  6
ByBlock
 62
     0
370
    -2
100
AcDbLine
 10
2454.873547483095
 20
-338.5603420877024
 30
0.0
 11
2454.873547483095
 21
-270.7794402574197
 31
0.0
  0
LINE
  5
5610
330
560B
100
AcDbEntity
  8
标注
  6
ByBlock
 62
     0
370
    -2
100
AcDbLine
 10
1759.873547483097
 20
-335.1856533593446
 30
0.0
 11
1759.873547483097
 21
-270.7794402574197
 31
0.0
  0
LINE
  5
5611
330
560B
100
AcDbEntity
  8
标注
  6
ByBlock
 62
     0
370
     0
100
AcDbLine
 10
2449.873547483095
 20
-274.5294402574197
 30
0.0
 11
1764.873547483097
 21
-274.5294402574197
 31
0.0
  0
SOLID
  5
5612
330
560B
100
AcDbEntity
  8
标注
  6
ByBlock
 62
     0
100
AcDbTrace
 10
2454.873547483095
 20
-274.5294402574197
 30
0.0
 11
2449.873547483095
 21
-273.6961069240862
 31
0.0
 12
2449.873547483095
 22
-275.3627735907532
 32
0.0
 13
2449.873547483095
 23
-275.3627735907532
 33
0.0
  0
SOLID
  5
5613
330
560B
100
AcDbEntity
  8
标注
  6
ByBlock
 62
     0
100
AcDbTrace
 10
1759.873547483097
 20
-274.5294402574197
 30
0.0
 11
1764.873547483097
 21
-273.6961069240862
 31
0.0
 12
1764.873547483097
 22
-275.3627735907532
 32
0.0
 13
1764.873547483097
 23
-275.3627735907532
 33
0.0
  0
MTEXT
  5
5614
330
560B
100
AcDbEntity
  8
标注
  6
ByBlock
 62
     0
100
AcDbMText
 10
2107.39442719287
 20
-265.9707772287703
 30
0.0
 40
10.0
 41
0.0
 71
     5
 72
     1
  1
\A0;{\fArial|b0|i0|c0|p34;695 [27 3/8]}
 73
     1
 44
1.0
1001
ACAD
1000
MTEXTBEGIN
1070
    73
1070
     1
1070
    44
1040
1.0
1070
    74
1070
     0
1000
MTEXTEND
  0
ENDBLK
  5
5615
330
560B
100
AcDbEntity
  8
0
100
AcDbBlockEnd
  0
BLOCK
  5
5618
330
5617
100
AcDbEntity
  8
0
100
AcDbBlockBegin
  2
*D17
 70
     1
 10
0.0
 20
0.0
 30
0.0
  3
*D17
  1

  0
POINT
  5
5619
330
5617
100
AcDbEntity
  8
Defpoints
  6
ByBlock
100
AcDbPoint
 10
2461.223547483096
 20
-337.3100361063801
 30
0.0
  0
POINT
  5
561A
330
5617
100
AcDbEntity
  8
Defpoints
  6
ByBlock
100
AcDbPoint
 10
1753.523547483097
 20
-335.9894214901948
 30
0.0
  0
LINE
  5
561B
330
5617
100
AcDbEntity
  8
标注
  6
ByBlock
 62
     0
370
    -2
100
AcDbLine
 10
2461.223547483096
 20
-337.3100361063801
 30
0.0
 11
2461.223547483096
 21
-248.7794402574197
 31
0.0
  0
LINE
  5
561C
330
5617
100
AcDbEntity
  8
标注
  6
ByBlock
 62
     0
370
    -2
100
AcDbLine
 10
1753.523547483097
 20
-335.9894214901948
 30
0.0
 11
1753.523547483097
 21
-248.7794402574197
 31
0.0
  0
LINE
  5
561D
330
5617
100
AcDbEntity
  8
标注
  6
ByBlock
 62
     0
370
     0
100
AcDbLine
 10
2456.223547483096
 20
-252.5294402574197
 30
0.0
 11
1758.523547483097
 21
-252.5294402574197
 31
0.0
  0
SOLID
  5
561E
330
5617
100
AcDbEntity
  8
标注
  6
ByBlock
 62
     0
100
AcDbTrace
 10
2461.223547483096
 20
-252.5294402574197
 30
0.0
 11
2456.223547483096
 21
-251.6961069240862
 31
0.0
 12
2456.223547483096
 22
-253.3627735907532
 32
0.0
 13
2456.223547483096
 23
-253.3627735907532
 33
0.0
  0
SOLID
  5
561F
330
5617
100
AcDbEntity
  8
标注
  6
ByBlock
 62
     0
100
AcDbTrace
 10
1753.523547483097
 20
-252.5294402574197
 30
0.0
 11
1758.523547483097
 21
-251.6961069240862
 31
0.0
 12
1758.523547483097
 22
-253.3627735907532
 32
0.0
 13
1758.523547483097
 23
-253.3627735907532
 33
0.0
  0
MTEXT
  5
5620
330
5617
100
AcDbEntity
  8
标注
  6
ByBlock
 62
     0
100
AcDbMText
 10
2107.373547483097
 20
-243.9707772287703
 30
0.0
 40
10.0
 41
0.0
 71
     5
 72
     1
  1
\A0;{\fArial|b0|i0|c0|p34;707.7 [27 7/8]}
 73
     1
 44
1.0
1001
ACAD
1000
MTEXTBEGIN
1070
    73
1070
     1
1070
    44
1040
1.0
1070
    74
1070
     0
1000
MTEXTEND
  0
ENDBLK
  5
5621
330
5617
100
AcDbEntity
  8
0
100
AcDbBlockEnd
  0
BLOCK
  5
5624
330
5623
100
AcDbEntity
  8
0
100
AcDbBlockBegin
  2
*D18
 70
     1
 10
0.0
 20
0.0
 30
0.0
  3
*D18
  1

  0
POINT
  5
5625
330
5623
100
AcDbEntity
  8
Defpoints
  6
ByBlock
100
AcDbPoint
 10
2448.523547483095
 20
-340.1678783494026
 30
0.0
  0
POINT
  5
5626
330
5623
100
AcDbEntity
  8
Defpoints
  6
ByBlock
100
AcDbPoint
 10
1766.223547483097
 20
-332.3278111163221
 30
0.0
  0
LINE
  5
5627
330
5623
100
AcDbEntity
  8
标注
  6
ByBlock
 62
     0
370
    -2
100
AcDbLine
 10
2448.523547483095
 20
-340.1678783494026
 30
0.0
 11
2448.523547483095
 21
-293.0106766265357
 31
0.0
  0
LINE
  5
5628
330
5623
100
AcDbEntity
  8
标注
  6
ByBlock
 62
     0
370
    -2
100
AcDbLine
 10
1766.223547483097
 20
-332.3278111163221
 30
0.0
 11
1766.223547483097
 21
-293.0106766265357
 31
0.0
  0
LINE
  5
5629
330
5623
100
AcDbEntity
  8
标注
  6
ByBlock
 62
     0
370
     0
100
AcDbLine
 10
2443.523547483095
 20
-296.7606766265357
 30
0.0
 11
1771.223547483097
 21
-296.7606766265357
 31
0.0
  0
SOLID
  5
562A
330
5623
100
AcDbEntity
  8
标注
  6
ByBlock
 62
     0
100
AcDbTrace
 10
2448.523547483095
 20
-296.7606766265357
 30
0.0
 11
2443.523547483095
 21
-295.9273432932022
 31
0.0
 12
2443.523547483095
 22
-297.5940099598692
 32
0.0
 13
2443.523547483095
 23
-297.5940099598692
 33
0.0
  0
SOLID
  5
562B
330
5623
100
AcDbEntity
  8
标注
  6
ByBlock
 62
     0
100
AcDbTrace
 10
1766.223547483097
 20
-296.7606766265357
 30
0.0
 11
1771.223547483097
 21
-295.9273432932022
 31
0.0
 12
1771.223547483097
 22
-297.5940099598692
 32
0.0
 13
1771.223547483097
 23
-297.5940099598692
 33
0.0
  0
MTEXT
  5
562C
330
5623
100
AcDbEntity
  8
标注
  6
ByBlock
 62
     0
100
AcDbMText
 10
2107.373547483097
 20
-288.2020135978863
 30
0.0
 40
10.0
 41
0.0
 71
     5
 72
     1
  1
\A0;{\fArial|b0|i0|c0|p34;682.3 [26 7/8]}
 73
     1
 44
1.0
1001
ACAD
1000
MTEXTBEGIN
1070
    73
1070
     1
1070
    44
1040
1.0
1070
    74
1070
     0
1000
MTEXTEND
  0
ENDBLK
  5
562D
330
5623
100
AcDbEntity
  8
0
100
AcDbBlockEnd
  0
BLOCK
  5
5756
330
574A
100
AcDbEntity
  8
0
100
AcDbBlockBegin
  2
*D19
 70
     1
 10
0.0
 20
0.0
 30
0.0
  3
*D19
  1

  0
LINE
  5
57AE
330
574A
100
AcDbEntity
  8
标注
 62
     0
370
    -2
100
AcDbLine
 10
1121.873547483094
 20
-1679.110678876496
 30
0.0
 11
1121.873547483094
 21
-1713.768262255165
 31
0.0
  0
LINE
  5
57AF
330
574A
100
AcDbEntity
  8
标注
 62
     0
370
    -2
100
AcDbLine
 10
1128.223547483096
 20
-1679.110678876488
 30
0.0
 11
1128.223547483096
 21
-1713.768262255165
 31
0.0
  0
LINE
  5
57B0
330
574A
100
AcDbEntity
  8
标注
 62
     0
370
     0
100
AcDbLine
 10
1133.223547483096
 20
-1710.018262255165
 30
0.0
 11
1138.223547483096
 21
-1710.018262255165
 31
0.0
  0
LINE
  5
57B1
330
574A
100
AcDbEntity
  8
标注
 62
     0
370
     0
100
AcDbLine
 10
1116.873547483093
 20
-1710.018262255165
 30
0.0
 11
1048.77429782416
 21
-1710.018262255165
 31
0.0
  0
LINE
  5
57B2
330
574A
100
AcDbEntity
  8
标注
 62
     0
370
     0
100
AcDbLine
 10
1128.223547483096
 20
-1710.018262255165
 30
0.0
 11
1121.873547483094
 21
-1710.018262255165
 31
0.0
  0
SOLID
  5
57B3
330
574A
100
AcDbEntity
  8
标注
 62
     0
100
AcDbTrace
 10
1133.223547483096
 20
-1709.184928921832
 30
0.0
 11
1133.223547483096
 21
-1710.851595588498
 31
0.0
 12
1128.223547483096
 22
-1710.018262255165
 32
0.0
 13
1128.223547483096
 23
-1710.018262255165
 33
0.0
  0
SOLID
  5
57B4
330
574A
100
AcDbEntity
  8
标注
 62
     0
100
AcDbTrace
 10
1116.873547483093
 20
-1709.184928921832
 30
0.0
 11
1116.873547483093
 21
-1710.851595588498
 31
0.0
 12
1121.873547483094
 22
-1710.018262255165
 32
0.0
 13
1121.873547483094
 23
-1710.018262255165
 33
0.0
  0
MTEXT
  5
57B5
330
574A
100
AcDbEntity
  8
标注
 62
     0
100
AcDbMText
 10
1075.300218697284
 20
-1701.544865256529
 30
0.0
 40
10.0
 41
0.0
 71
     5
 72
     1
  1
{\fArial|b0|i0|c0|p34;6.4 [1/4]}
 73
     1
 44
1.0
1001
ACAD
1000
MTEXTBEGIN
1070
    73
1070
     1
1070
    44
1040
1.0
1070
    74
1070
     0
1000
MTEXTEND
  0
POINT
  5
57B6
330
574A
100
AcDbEntity
  8
Defpoints
 62
     0
100
AcDbPoint
 10
1121.873547483094
 20
-1679.110678876496
 30
0.0
  0
POINT
  5
57B7
330
574A
100
AcDbEntity
  8
Defpoints
 62
     0
100
AcDbPoint
 10
1128.223547483096
 20
-1679.110678876488
 30
0.0
  0
POINT
  5
57B8
330
574A
100
AcDbEntity
  8
Defpoints
 62
     0
100
AcDbPoint
 10
1128.223547483096
 20
-1710.018262255165
 30
0.0
  0
ENDBLK
  5
5757
330
574A
100
AcDbEntity
  8
0
100
AcDbBlockEnd
  0
BLOCK
  5
5764
330
5758
100
AcDbEntity
  8
0
100
AcDbBlockBegin
  2
*D20
 70
     1
 10
0.0
 20
0.0
 30
0.0
  3
*D20
  1

  0
LINE
  5
57B9
330
5758
100
AcDbEntity
  8
标注
 62
     0
370
    -2
100
AcDbLine
 10
1115.523547483091
 20
-1679.110678876488
 30
0.0
 11
1115.523547483091
 21
-1692.268262255165
 31
0.0
  0
LINE
  5
57BA
330
5758
100
AcDbEntity
  8
标注
 62
     0
370
    -2
100
AcDbLine
 10
1121.873547483094
 20
-1679.110678876496
 30
0.0
 11
1121.873547483094
 21
-1692.268262255165
 31
0.0
  0
LINE
  5
57BB
330
5758
100
AcDbEntity
  8
标注
 62
     0
370
     0
100
AcDbLine
 10
1126.873547483093
 20
-1688.518262255165
 30
0.0
 11
1131.873547483094
 21
-1688.518262255165
 31
0.0
  0
LINE
  5
57BC
330
5758
100
AcDbEntity
  8
标注
 62
     0
370
     0
100
AcDbLine
 10
1110.523547483091
 20
-1688.518262255165
 30
0.0
 11
1042.424297824158
 21
-1688.518262255165
 31
0.0
  0
LINE
  5
57BD
330
5758
100
AcDbEntity
  8
标注
 62
     0
370
     0
100
AcDbLine
 10
1121.873547483094
 20
-1688.518262255165
 30
0.0
 11
1115.523547483091
 21
-1688.518262255165
 31
0.0
  0
SOLID
  5
57BE
330
5758
100
AcDbEntity
  8
标注
 62
     0
100
AcDbTrace
 10
1126.873547483093
 20
-1687.684928921832
 30
0.0
 11
1126.873547483093
 21
-1689.351595588498
 31
0.0
 12
1121.873547483094
 22
-1688.518262255165
 32
0.0
 13
1121.873547483094
 23
-1688.518262255165
 33
0.0
  0
SOLID
  5
57BF
330
5758
100
AcDbEntity
  8
标注
 62
     0
100
AcDbTrace
 10
1110.523547483091
 20
-1687.684928921832
 30
0.0
 11
1110.523547483091
 21
-1689.351595588498
 31
0.0
 12
1115.523547483091
 22
-1688.518262255165
 32
0.0
 13
1115.523547483091
 23
-1688.518262255165
 33
0.0
  0
MTEXT
  5
57C0
330
5758
100
AcDbEntity
  8
标注
 62
     0
100
AcDbMText
 10
1068.950218697282
 20
-1680.04486525653
 30
0.0
 40
10.0
 41
0.0
 71
     5
 72
     1
  1
{\fArial|b0|i0|c0|p34;6.4 [1/4]}
 73
     1
 44
1.0
1001
ACAD
1000
MTEXTBEGIN
1070
    73
1070
     1
1070
    44
1040
1.0
1070
    74
1070
     0
1000
MTEXTEND
  0
POINT
  5
57C1
330
5758
100
AcDbEntity
  8
Defpoints
 62
     0
100
AcDbPoint
 10
1115.523547483091
 20
-1679.110678876488
 30
0.0
  0
POINT
  5
57C2
330
5758
100
AcDbEntity
  8
Defpoints
 62
     0
100
AcDbPoint
 10
1121.873547483094
 20
-1679.110678876496
 30
0.0
  0
POINT
  5
57C3
330
5758
100
AcDbEntity
  8
Defpoints
 62
     0
100
AcDbPoint
 10
1121.873547483094
 20
-1688.518262255165
 30
0.0
  0
ENDBLK
  5
5765
330
5758
100
AcDbEntity
  8
0
100
AcDbBlockEnd
  0
BLOCK
  5
5770
330
5766
100
AcDbEntity
  8
0
100
AcDbBlockBegin
  2
*D21
 70
     1
 10
0.0
 20
0.0
 30
0.0
  3
*D21
  1

  0
LINE
  5
57C4
330
5766
100
AcDbEntity
  8
标注
 62
     0
370
    -2
100
AcDbLine
 10
401.61979799653
 20
-1475.460676626536
 30
0.0
 11
366.7735474830968
 21
-1475.460676626536
 31
0.0
  0
LINE
  5
57C5
330
5766
100
AcDbEntity
  8
标注
 62
     0
370
    -2
100
AcDbLine
 10
414.1505547625351
 20
-1882.760676626533
 30
0.0
 11
366.7735474830967
 21
-1882.760676626533
 31
0.0
  0
LINE
  5
57C6
330
5766
100
AcDbEntity
  8
标注
 62
     0
370
     0
100
AcDbLine
 10
370.5235474830967
 20
-1480.460676626536
 30
0.0
 11
370.5235474830967
 21
-1877.760676626533
 31
0.0
  0
SOLID
  5
57C7
330
5766
100
AcDbEntity
  8
标注
 62
     0
100
AcDbTrace
 10
369.6902141497635
 20
-1480.460676626536
 30
0.0
 11
371.3568808164301
 21
-1480.460676626536
 31
0.0
 12
370.5235474830967
 22
-1475.460676626536
 32
0.0
 13
370.5235474830967
 23
-1475.460676626536
 33
0.0
  0
SOLID
  5
57C8
330
5766
100
AcDbEntity
  8
标注
 62
     0
100
AcDbTrace
 10
369.6902141497634
 20
-1877.760676626533
 30
0.0
 11
371.35688081643
 21
-1877.760676626533
 31
0.0
 12
370.5235474830967
 22
-1882.760676626533
 32
0.0
 13
370.5235474830967
 23
-1882.760676626533
 33
0.0
  0
MTEXT
  5
57C9
330
5766
100
AcDbEntity
  8
标注
 62
     0
100
AcDbMText
 10
362.1149526672716
 20
-1670.110676626541
 30
0.0
 40
10.0
 41
0.0
 71
     5
 72
     1
  1
{\fArial|b0|i0|c0|p34;407.3 [16]}
 11
0.0000000000000001
 21
1.0
 31
0.0
 73
     1
 44
1.0
1001
ACAD
1000
MTEXTBEGIN
1070
    73
1070
     1
1070
    44
1040
1.0
1070
    74
1070
     0
1000
MTEXTEND
  0
POINT
  5
57CA
330
5766
100
AcDbEntity
  8
Defpoints
 62
     0
100
AcDbPoint
 10
401.61979799653
 20
-1475.460676626536
 30
0.0
  0
POINT
  5
57CB
330
5766
100
AcDbEntity
  8
Defpoints
 62
     0
100
AcDbPoint
 10
414.1505547625351
 20
-1882.760676626533
 30
0.0
  0
POINT
  5
57CC
330
5766
100
AcDbEntity
  8
Defpoints
 62
     0
100
AcDbPoint
 10
370.5235474830967
 20
-1882.760676626533
 30
0.0
  0
ENDBLK
  5
5771
330
5766
100
AcDbEntity
  8
0
100
AcDbBlockEnd
  0
BLOCK
  5
577C
330
5772
100
AcDbEntity
  8
0
100
AcDbBlockBegin
  2
*D22
 70
     1
 10
0.0
 20
0.0
 30
0.0
  3
*D22
  1

  0
LINE
  5
57CD
330
5772
100
AcDbEntity
  8
标注
 62
     0
370
    -2
100
AcDbLine
 10
401.7626763526159
 20
-1462.760676626536
 30
0.0
 11
316.2499999999998
 21
-1462.760676626536
 31
0.0
  0
LINE
  5
57CE
330
5772
100
AcDbEntity
  8
标注
 62
     0
370
    -2
100
AcDbLine
 10
413.1655503713473
 20
-1895.460676626535
 30
0.0
 11
316.2499999999997
 21
-1895.460676626535
 31
0.0
  0
LINE
  5
57CF
330
5772
100
AcDbEntity
  8
标注
 62
     0
370
     0
100
AcDbLine
 10
319.9999999999998
 20
-1467.760676626536
 30
0.0
 11
319.9999999999997
 21
-1890.460676626535
 31
0.0
  0
SOLID
  5
57D0
330
5772
100
AcDbEntity
  8
标注
 62
     0
100
AcDbTrace
 10
319.1666666666665
 20
-1467.760676626536
 30
0.0
 11
320.8333333333331
 21
-1467.760676626536
 31
0.0
 12
319.9999999999998
 22
-1462.760676626536
 32
0.0
 13
319.9999999999998
 23
-1462.760676626536
 33
0.0
  0
SOLID
  5
57D1
330
5772
100
AcDbEntity
  8
标注
 62
     0
100
AcDbTrace
 10
319.1666666666664
 20
-1890.460676626535
 30
0.0
 11
320.833333333333
 21
-1890.460676626535
 31
0.0
 12
319.9999999999997
 22
-1895.460676626535
 32
0.0
 13
319.9999999999997
 23
-1895.460676626535
 33
0.0
  0
MTEXT
  5
57D2
330
5772
100
AcDbEntity
  8
标注
 62
     0
100
AcDbMText
 10
311.5914051841746
 20
-1673.5
 30
0.0
 40
10.0
 41
0.0
 71
     5
 72
     1
  1
{\fArial|b0|i0|c0|p34;432.7 [17]}
 11
0.0000000000000001
 21
1.0
 31
0.0
 73
     1
 44
1.0
1001
ACAD
1000
MTEXTBEGIN
1070
    73
1070
     1
1070
    44
1040
1.0
1070
    74
1070
     0
1000
MTEXTEND
  0
POINT
  5
57D3
330
5772
100
AcDbEntity
  8
Defpoints
 62
     0
100
AcDbPoint
 10
401.7626763526159
 20
-1462.760676626536
 30
0.0
  0
POINT
  5
57D4
330
5772
100
AcDbEntity
  8
Defpoints
 62
     0
100
AcDbPoint
 10
413.1655503713473
 20
-1895.460676626535
 30
0.0
  0
POINT
  5
57D5
330
5772
100
AcDbEntity
  8
Defpoints
 62
     0
100
AcDbPoint
 10
319.9999999999997
 20
-1895.460676626535
 30
0.0
  0
ENDBLK
  5
577D
330
5772
100
AcDbEntity
  8
0
100
AcDbBlockEnd
  0
BLOCK
  5
5788
330
577E
100
AcDbEntity
  8
0
100
AcDbBlockBegin
  2
*D23
 70
     1
 10
0.0
 20
0.0
 30
0.0
  3
*D23
  1

  0
LINE
  5
57D6
330
577E
100
AcDbEntity
  8
标注
 62
     0
370
    -2
100
AcDbLine
 10
401.3340412843581
 20
-1469.110676626536
 30
0.0
 11
343.5022584719898
 21
-1469.110676626536
 31
0.0
  0
LINE
  5
57D7
330
577E
100
AcDbEntity
  8
标注
 62
     0
370
    -2
100
AcDbLine
 10
412.4619758062131
 20
-1889.110676626535
 30
0.0
 11
343.5022584719897
 21
-1889.110676626535
 31
0.0
  0
LINE
  5
57D8
330
577E
100
AcDbEntity
  8
标注
 62
     0
370
     0
100
AcDbLine
 10
347.2522584719897
 20
-1474.110676626535
 30
0.0
 11
347.2522584719897
 21
-1884.110676626535
 31
0.0
  0
SOLID
  5
57D9
330
577E
100
AcDbEntity
  8
标注
 62
     0
100
AcDbTrace
 10
346.4189251386565
 20
-1474.110676626535
 30
0.0
 11
348.0855918053231
 21
-1474.110676626535
 31
0.0
 12
347.2522584719897
 22
-1469.110676626536
 32
0.0
 13
347.2522584719897
 23
-1469.110676626536
 33
0.0
  0
SOLID
  5
57DA
330
577E
100
AcDbEntity
  8
标注
 62
     0
100
AcDbTrace
 10
346.4189251386564
 20
-1884.110676626535
 30
0.0
 11
348.085591805323
 21
-1884.110676626535
 31
0.0
 12
347.2522584719897
 22
-1889.110676626535
 32
0.0
 13
347.2522584719897
 23
-1889.110676626535
 33
0.0
  0
MTEXT
  5
57DB
330
577E
100
AcDbEntity
  8
标注
 62
     0
100
AcDbMText
 10
338.7788614733543
 20
-1670.007002528377
 30
0.0
 40
10.0
 41
0.0
 71
     5
 72
     1
  1
{\fArial|b0|i0|c0|p34;420 [16 1/2]}
 11
0.0000000000000001
 21
1.0
 31
0.0
 73
     1
 44
1.0
1001
ACAD
1000
MTEXTBEGIN
1070
    73
1070
     1
1070
    44
1040
1.0
1070
    74
1070
     0
1000
MTEXTEND
  0
POINT
  5
57DC
330
577E
100
AcDbEntity
  8
Defpoints
 62
     0
100
AcDbPoint
 10
401.3340412843581
 20
-1469.110676626536
 30
0.0
  0
POINT
  5
57DD
330
577E
100
AcDbEntity
  8
Defpoints
 62
     0
100
AcDbPoint
 10
412.4619758062131
 20
-1889.110676626535
 30
0.0
  0
POINT
  5
57DE
330
577E
100
AcDbEntity
  8
Defpoints
 62
     0
100
AcDbPoint
 10
347.2522584719897
 20
-1889.110676626535
 30
0.0
  0
ENDBLK
  5
5789
330
577E
100
AcDbEntity
  8
0
100
AcDbBlockEnd
  0
BLOCK
  5
5794
330
578A
100
AcDbEntity
  8
0
100
AcDbBlockBegin
  2
*D24
 70
     1
 10
0.0
 20
0.0
 30
0.0
  3
*D24
  1

  0
LINE
  5
57DF
330
578A
100
AcDbEntity
  8
标注
 62
     0
370
    -2
100
AcDbLine
 10
1121.873547483094
 20
-1456.060342087702
 30
0.0
 11
1121.873547483094
 21
-1379.72077722877
 31
0.0
  0
LINE
  5
57E0
330
578A
100
AcDbEntity
  8
标注
 62
     0
370
    -2
100
AcDbLine
 10
426.8735474830974
 20
-1452.685653359344
 30
0.0
 11
426.8735474830974
 21
-1379.72077722877
 31
0.0
  0
LINE
  5
57E1
330
578A
100
AcDbEntity
  8
标注
 62
     0
370
     0
100
AcDbLine
 10
1116.873547483094
 20
-1383.47077722877
 30
0.0
 11
431.8735474830973
 21
-1383.47077722877
 31
0.0
  0
SOLID
  5
57E2
330
578A
100
AcDbEntity
  8
标注
 62
     0
100
AcDbTrace
 10
1116.873547483094
 20
-1382.637443895437
 30
0.0
 11
1116.873547483094
 21
-1384.304110562103
 31
0.0
 12
1121.873547483094
 22
-1383.47077722877
 32
0.0
 13
1121.873547483094
 23
-1383.47077722877
 33
0.0
  0
SOLID
  5
57E3
330
578A
100
AcDbEntity
  8
标注
 62
     0
100
AcDbTrace
 10
431.8735474830973
 20
-1382.637443895437
 30
0.0
 11
431.8735474830973
 21
-1384.304110562103
 31
0.0
 12
426.8735474830974
 22
-1383.47077722877
 32
0.0
 13
426.8735474830974
 23
-1383.47077722877
 33
0.0
  0
MTEXT
  5
57E4
330
578A
100
AcDbEntity
  8
标注
 62
     0
100
AcDbMText
 10
774.3944271928703
 20
-1374.997380230134
 30
0.0
 40
10.0
 41
0.0
 71
     5
 72
     1
  1
{\fArial|b0|i0|c0|p34;695 [27 3/8]}
 73
     1
 44
1.0
1001
ACAD
1000
MTEXTBEGIN
1070
    73
1070
     1
1070
    44
1040
1.0
1070
    74
1070
     0
1000
MTEXTEND
  0
POINT
  5
57E5
330
578A
100
AcDbEntity
  8
Defpoints
 62
     0
100
AcDbPoint
 10
1121.873547483094
 20
-1456.060342087702
 30
0.0
  0
POINT
  5
57E6
330
578A
100
AcDbEntity
  8
Defpoints
 62
     0
100
AcDbPoint
 10
426.8735474830974
 20
-1452.685653359344
 30
0.0
  0
POINT
  5
57E7
330
578A
100
AcDbEntity
  8
Defpoints
 62
     0
100
AcDbPoint
 10
426.8735474830974
 20
-1383.47077722877
 30
0.0
  0
ENDBLK
  5
5795
330
578A
100
AcDbEntity
  8
0
100
AcDbBlockEnd
  0
BLOCK
  5
57A0
330
5796
100
AcDbEntity
  8
0
100
AcDbBlockBegin
  2
*D25
 70
     1
 10
0.0
 20
0.0
 30
0.0
  3
*D25
  1

  0
LINE
  5
57E8
330
5796
100
AcDbEntity
  8
标注
 62
     0
370
    -2
100
AcDbLine
 10
1128.223547483095
 20
-1454.81003610638
 30
0.0
 11
1128.223547483095
 21
-1357.72077722877
 31
0.0
  0
LINE
  5
57E9
330
5796
100
AcDbEntity
  8
标注
 62
     0
370
    -2
100
AcDbLine
 10
420.5235474830974
 20
-1453.489421490194
 30
0.0
 11
420.5235474830974
 21
-1357.72077722877
 31
0.0
  0
LINE
  5
57EA
330
5796
100
AcDbEntity
  8
标注
 62
     0
370
     0
100
AcDbLine
 10
1123.223547483095
 20
-1361.47077722877
 30
0.0
 11
425.5235474830974
 21
-1361.47077722877
 31
0.0
  0
SOLID
  5
57EB
330
5796
100
AcDbEntity
  8
标注
 62
     0
100
AcDbTrace
 10
1123.223547483095
 20
-1360.637443895437
 30
0.0
 11
1123.223547483095
 21
-1362.304110562103
 31
0.0
 12
1128.223547483095
 22
-1361.47077722877
 32
0.0
 13
1128.223547483095
 23
-1361.47077722877
 33
0.0
  0
SOLID
  5
57EC
330
5796
100
AcDbEntity
  8
标注
 62
     0
100
AcDbTrace
 10
425.5235474830974
 20
-1360.637443895437
 30
0.0
 11
425.5235474830974
 21
-1362.304110562103
 31
0.0
 12
420.5235474830974
 22
-1361.47077722877
 32
0.0
 13
420.5235474830974
 23
-1361.47077722877
 33
0.0
  0
MTEXT
  5
57ED
330
5796
100
AcDbEntity
  8
标注
 62
     0
100
AcDbMText
 10
774.3735474830973
 20
-1352.997380230134
 30
0.0
 40
10.0
 41
0.0
 71
     5
 72
     1
  1
{\fArial|b0|i0|c0|p34;707.7 [27 7/8]}
 73
     1
 44
1.0
1001
ACAD
1000
MTEXTBEGIN
1070
    73
1070
     1
1070
    44
1040
1.0
1070
    74
1070
     0
1000
MTEXTEND
  0
POINT
  5
57EE
330
5796
100
AcDbEntity
  8
Defpoints
 62
     0
100
AcDbPoint
 10
1128.223547483095
 20
-1454.81003610638
 30
0.0
  0
POINT
  5
57EF
330
5796
100
AcDbEntity
  8
Defpoints
 62
     0
100
AcDbPoint
 10
420.5235474830974
 20
-1453.489421490194
 30
0.0
  0
POINT
  5
57F0
330
5796
100
AcDbEntity
  8
Defpoints
 62
     0
100
AcDbPoint
 10
420.5235474830974
 20
-1361.47077722877
 30
0.0
  0
ENDBLK
  5
57A1
330
5796
100
AcDbEntity
  8
0
100
AcDbBlockEnd
  0
BLOCK
  5
57AC
330
57A2
100
AcDbEntity
  8
0
100
AcDbBlockBegin
  2
*D26
 70
     1
 10
0.0
 20
0.0
 30
0.0
  3
*D26
  1

  0
LINE
  5
57F1
330
57A2
100
AcDbEntity
  8
标注
 62
     0
370
    -2
100
AcDbLine
 10
1115.523547483094
 20
-1457.667878349402
 30
0.0
 11
1115.523547483094
 21
-1401.952013597886
 31
0.0
  0
LINE
  5
57F2
330
57A2
100
AcDbEntity
  8
标注
 62
     0
370
    -2
100
AcDbLine
 10
433.2235474830972
 20
-1449.827811116322
 30
0.0
 11
433.2235474830972
 21
-1401.952013597886
 31
0.0
  0
LINE
  5
57F3
330
57A2
100
AcDbEntity
  8
标注
 62
     0
370
     0
100
AcDbLine
 10
1110.523547483095
 20
-1405.702013597886
 30
0.0
 11
438.2235474830972
 21
-1405.702013597886
 31
0.0
  0
SOLID
  5
57F4
330
57A2
100
AcDbEntity
  8
标注
 62
     0
100
AcDbTrace
 10
1110.523547483095
 20
-1404.868680264553
 30
0.0
 11
1110.523547483095
 21
-1406.53534693122
 31
0.0
 12
1115.523547483094
 22
-1405.702013597886
 32
0.0
 13
1115.523547483094
 23
-1405.702013597886
 33
0.0
  0
SOLID
  5
57F5
330
57A2
100
AcDbEntity
  8
标注
 62
     0
100
AcDbTrace
 10
438.2235474830972
 20
-1404.868680264553
 30
0.0
 11
438.2235474830972
 21
-1406.53534693122
 31
0.0
 12
433.2235474830972
 22
-1405.702013597886
 32
0.0
 13
433.2235474830972
 23
-1405.702013597886
 33
0.0
  0
MTEXT
  5
57F6
330
57A2
100
AcDbEntity
  8
标注
 62
     0
100
AcDbMText
 10
774.3735474830973
 20
-1397.228616599251
 30
0.0
 40
10.0
 41
0.0
 71
     5
 72
     1
  1
{\fArial|b0|i0|c0|p34;682.3 [26 7/8]}
 73
     1
 44
1.0
1001
ACAD
1000
MTEXTBEGIN
1070
    73
1070
     1
1070
    44
1040
1.0
1070
    74
1070
     0
1000
MTEXTEND
  0
POINT
  5
57F7
330
57A2
100
AcDbEntity
  8
Defpoints
 62
     0
100
AcDbPoint
 10
1115.523547483094
 20
-1457.667878349402
 30
0.0
  0
POINT
  5
57F8
330
57A2
100
AcDbEntity
  8
Defpoints
 62
     0
100
AcDbPoint
 10
433.2235474830972
 20
-1449.827811116322
 30
0.0
  0
POINT
  5
57F9
330
57A2
100
AcDbEntity
  8
Defpoints
 62
     0
100
AcDbPoint
 10
433.2235474830972
 20
-1405.702013597886
 30
0.0
  0
ENDBLK
  5
57AD
330
57A2
100
AcDbEntity
  8
0
100
AcDbBlockEnd
  0
BLOCK
  5
58D6
330
58CA
100
AcDbEntity
  8
0
100
AcDbBlockBegin
  2
*D27
 70
     1
 10
0.0
 20
0.0
 30
0.0
  3
*D27
  1

  0
LINE
  5
592E
330
58CA
100
AcDbEntity
  8
标注
 62
     0
370
    -2
100
AcDbLine
 10
-403.6264525169062
 20
-561.6106788764957
 30
0.0
 11
-403.6264525169062
 21
-596.2682622551653
 31
0.0
  0
LINE
  5
592F
330
58CA
100
AcDbEntity
  8
标注
 62
     0
370
    -2
100
AcDbLine
 10
-397.2764525169041
 20
-561.6106788764884
 30
0.0
 11
-397.2764525169041
 21
-596.2682622551653
 31
0.0
  0
LINE
  5
5930
330
58CA
100
AcDbEntity
  8
标注
 62
     0
370
     0
100
AcDbLine
 10
-392.2764525169041
 20
-592.5182622551654
 30
0.0
 11
-387.2764525169041
 21
-592.5182622551654
 31
0.0
  0
LINE
  5
5931
330
58CA
100
AcDbEntity
  8
标注
 62
     0
370
     0
100
AcDbLine
 10
-408.6264525169062
 20
-592.5182622551654
 30
0.0
 11
-476.7257021758397
 21
-592.5182622551654
 31
0.0
  0
LINE
  5
5932
330
58CA
100
AcDbEntity
  8
标注
 62
     0
370
     0
100
AcDbLine
 10
-397.2764525169041
 20
-592.5182622551654
 30
0.0
 11
-403.6264525169062
 21
-592.5182622551654
 31
0.0
  0
SOLID
  5
5933
330
58CA
100
AcDbEntity
  8
标注
 62
     0
100
AcDbTrace
 10
-392.2764525169041
 20
-591.684928921832
 30
0.0
 11
-392.2764525169041
 21
-593.3515955884987
 31
0.0
 12
-397.2764525169041
 22
-592.5182622551654
 32
0.0
 13
-397.2764525169041
 23
-592.5182622551654
 33
0.0
  0
SOLID
  5
5934
330
58CA
100
AcDbEntity
  8
标注
 62
     0
100
AcDbTrace
 10
-408.6264525169062
 20
-591.684928921832
 30
0.0
 11
-408.6264525169062
 21
-593.3515955884987
 31
0.0
 12
-403.6264525169062
 22
-592.5182622551654
 32
0.0
 13
-403.6264525169062
 23
-592.5182622551654
 33
0.0
  0
MTEXT
  5
5935
330
58CA
100
AcDbEntity
  8
标注
 62
     0
100
AcDbMText
 10
-450.1997813027156
 20
-584.0448652565296
 30
0.0
 40
10.0
 41
0.0
 71
     5
 72
     1
  1
{\fArial|b0|i0|c0|p34;6.4 [1/4]}
 73
     1
 44
1.0
1001
ACAD
1000
MTEXTBEGIN
1070
    73
1070
     1
1070
    44
1040
1.0
1070
    74
1070
     0
1000
MTEXTEND
  0
POINT
  5
5936
330
58CA
100
AcDbEntity
  8
Defpoints
 62
     0
100
AcDbPoint
 10
-403.6264525169062
 20
-561.6106788764957
 30
0.0
  0
POINT
  5
5937
330
58CA
100
AcDbEntity
  8
Defpoints
 62
     0
100
AcDbPoint
 10
-397.2764525169041
 20
-561.6106788764884
 30
0.0
  0
POINT
  5
5938
330
58CA
100
AcDbEntity
  8
Defpoints
 62
     0
100
AcDbPoint
 10
-397.2764525169041
 20
-592.5182622551654
 30
0.0
  0
ENDBLK
  5
58D7
330
58CA
100
AcDbEntity
  8
0
100
AcDbBlockEnd
  0
BLOCK
  5
58E4
330
58D8
100
AcDbEntity
  8
0
100
AcDbBlockBegin
  2
*D28
 70
     1
 10
0.0
 20
0.0
 30
0.0
  3
*D28
  1

  0
LINE
  5
5939
330
58D8
100
AcDbEntity
  8
标注
 62
     0
370
    -2
100
AcDbLine
 10
-409.9764525169084
 20
-561.6106788764884
 30
0.0
 11
-409.9764525169084
 21
-574.7682622551653
 31
0.0
  0
LINE
  5
593A
330
58D8
100
AcDbEntity
  8
标注
 62
     0
370
    -2
100
AcDbLine
 10
-403.6264525169062
 20
-561.6106788764957
 30
0.0
 11
-403.6264525169062
 21
-574.7682622551653
 31
0.0
  0
LINE
  5
593B
330
58D8
100
AcDbEntity
  8
标注
 62
     0
370
     0
100
AcDbLine
 10
-398.6264525169063
 20
-571.0182622551654
 30
0.0
 11
-393.6264525169063
 21
-571.0182622551654
 31
0.0
  0
LINE
  5
593C
330
58D8
100
AcDbEntity
  8
标注
 62
     0
370
     0
100
AcDbLine
 10
-414.9764525169084
 20
-571.0182622551654
 30
0.0
 11
-483.0757021758419
 21
-571.0182622551654
 31
0.0
  0
LINE
  5
593D
330
58D8
100
AcDbEntity
  8
标注
 62
     0
370
     0
100
AcDbLine
 10
-403.6264525169062
 20
-571.0182622551654
 30
0.0
 11
-409.9764525169084
 21
-571.0182622551654
 31
0.0
  0
SOLID
  5
593E
330
58D8
100
AcDbEntity
  8
标注
 62
     0
100
AcDbTrace
 10
-398.6264525169063
 20
-570.184928921832
 30
0.0
 11
-398.6264525169063
 21
-571.8515955884988
 31
0.0
 12
-403.6264525169062
 22
-571.0182622551654
 32
0.0
 13
-403.6264525169062
 23
-571.0182622551654
 33
0.0
  0
SOLID
  5
593F
330
58D8
100
AcDbEntity
  8
标注
 62
     0
100
AcDbTrace
 10
-414.9764525169084
 20
-570.184928921832
 30
0.0
 11
-414.9764525169084
 21
-571.8515955884988
 31
0.0
 12
-409.9764525169084
 22
-571.0182622551654
 32
0.0
 13
-409.9764525169084
 23
-571.0182622551654
 33
0.0
  0
MTEXT
  5
5940
330
58D8
100
AcDbEntity
  8
标注
 62
     0
100
AcDbMText
 10
-456.5497813027177
 20
-562.5448652565296
 30
0.0
 40
10.0
 41
0.0
 71
     5
 72
     1
  1
{\fArial|b0|i0|c0|p34;6.4 [1/4]}
 73
     1
 44
1.0
1001
ACAD
1000
MTEXTBEGIN
1070
    73
1070
     1
1070
    44
1040
1.0
1070
    74
1070
     0
1000
MTEXTEND
  0
POINT
  5
5941
330
58D8
100
AcDbEntity
  8
Defpoints
 62
     0
100
AcDbPoint
 10
-409.9764525169084
 20
-561.6106788764884
 30
0.0
  0
POINT
  5
5942
330
58D8
100
AcDbEntity
  8
Defpoints
 62
     0
100
AcDbPoint
 10
-403.6264525169062
 20
-561.6106788764957
 30
0.0
  0
POINT
  5
5943
330
58D8
100
AcDbEntity
  8
Defpoints
 62
     0
100
AcDbPoint
 10
-403.6264525169062
 20
-571.0182622551654
 30
0.0
  0
ENDBLK
  5
58E5
330
58D8
100
AcDbEntity
  8
0
100
AcDbBlockEnd
  0
BLOCK
  5
58F0
330
58E6
100
AcDbEntity
  8
0
100
AcDbBlockBegin
  2
*D29
 70
     1
 10
0.0
 20
0.0
 30
0.0
  3
*D29
  1

  0
LINE
  5
5944
330
58E6
100
AcDbEntity
  8
标注
 62
     0
370
    -2
100
AcDbLine
 10
-1123.88020200347
 20
-357.9606766265357
 30
0.0
 11
-1158.726452516903
 21
-357.9606766265357
 31
0.0
  0
LINE
  5
5945
330
58E6
100
AcDbEntity
  8
标注
 62
     0
370
    -2
100
AcDbLine
 10
-1111.349445237465
 20
-765.2606766265335
 30
0.0
 11
-1158.726452516903
 21
-765.2606766265335
 31
0.0
  0
LINE
  5
5946
330
58E6
100
AcDbEntity
  8
标注
 62
     0
370
     0
100
AcDbLine
 10
-1154.976452516903
 20
-362.9606766265357
 30
0.0
 11
-1154.976452516903
 21
-760.2606766265335
 31
0.0
  0
SOLID
  5
5947
330
58E6
100
AcDbEntity
  8
标注
 62
     0
100
AcDbTrace
 10
-1155.809785850236
 20
-362.9606766265357
 30
0.0
 11
-1154.14311918357
 21
-362.9606766265357
 31
0.0
 12
-1154.976452516903
 22
-357.9606766265357
 32
0.0
 13
-1154.976452516903
 23
-357.9606766265357
 33
0.0
  0
SOLID
  5
5948
330
58E6
100
AcDbEntity
  8
标注
 62
     0
100
AcDbTrace
 10
-1155.809785850236
 20
-760.2606766265335
 30
0.0
 11
-1154.14311918357
 21
-760.2606766265335
 31
0.0
 12
-1154.976452516903
 22
-765.2606766265335
 32
0.0
 13
-1154.976452516903
 23
-765.2606766265335
 33
0.0
  0
MTEXT
  5
5949
330
58E6
100
AcDbEntity
  8
标注
 62
     0
100
AcDbMText
 10
-1163.385047332728
 20
-552.6106766265411
 30
0.0
 40
10.0
 41
0.0
 71
     5
 72
     1
  1
{\fArial|b0|i0|c0|p34;407.3 [16]}
 11
0.0000000000000001
 21
1.0
 31
0.0
 73
     1
 44
1.0
1001
ACAD
1000
MTEXTBEGIN
1070
    73
1070
     1
1070
    44
1040
1.0
1070
    74
1070
     0
1000
MTEXTEND
  0
POINT
  5
594A
330
58E6
100
AcDbEntity
  8
Defpoints
 62
     0
100
AcDbPoint
 10
-1123.88020200347
 20
-357.9606766265357
 30
0.0
  0
POINT
  5
594B
330
58E6
100
AcDbEntity
  8
Defpoints
 62
     0
100
AcDbPoint
 10
-1111.349445237465
 20
-765.2606766265335
 30
0.0
  0
POINT
  5
594C
330
58E6
100
AcDbEntity
  8
Defpoints
 62
     0
100
AcDbPoint
 10
-1154.976452516903
 20
-765.2606766265335
 30
0.0
  0
ENDBLK
  5
58F1
330
58E6
100
AcDbEntity
  8
0
100
AcDbBlockEnd
  0
BLOCK
  5
58FC
330
58F2
100
AcDbEntity
  8
0
100
AcDbBlockBegin
  2
*D30
 70
     1
 10
0.0
 20
0.0
 30
0.0
  3
*D30
  1

  0
LINE
  5
594D
330
58F2
100
AcDbEntity
  8
标注
 62
     0
370
    -2
100
AcDbLine
 10
-1123.737323647384
 20
-345.2606766265357
 30
0.0
 11
-1209.25
 21
-345.2606766265357
 31
0.0
  0
LINE
  5
594E
330
58F2
100
AcDbEntity
  8
标注
 62
     0
370
    -2
100
AcDbLine
 10
-1112.334449628653
 20
-777.9606766265351
 30
0.0
 11
-1209.25
 21
-777.9606766265351
 31
0.0
  0
LINE
  5
594F
330
58F2
100
AcDbEntity
  8
标注
 62
     0
370
     0
100
AcDbLine
 10
-1205.5
 20
-350.2606766265357
 30
0.0
 11
-1205.5
 21
-772.9606766265351
 31
0.0
  0
SOLID
  5
5950
330
58F2
100
AcDbEntity
  8
标注
 62
     0
100
AcDbTrace
 10
-1206.333333333333
 20
-350.2606766265357
 30
0.0
 11
-1204.666666666666
 21
-350.2606766265357
 31
0.0
 12
-1205.5
 22
-345.2606766265357
 32
0.0
 13
-1205.5
 23
-345.2606766265357
 33
0.0
  0
SOLID
  5
5951
330
58F2
100
AcDbEntity
  8
标注
 62
     0
100
AcDbTrace
 10
-1206.333333333333
 20
-772.9606766265351
 30
0.0
 11
-1204.666666666667
 21
-772.9606766265351
 31
0.0
 12
-1205.5
 22
-777.9606766265351
 32
0.0
 13
-1205.5
 23
-777.9606766265351
 33
0.0
  0
MTEXT
  5
5952
330
58F2
100
AcDbEntity
  8
标注
 62
     0
100
AcDbMText
 10
-1213.908594815825
 20
-556.0
 30
0.0
 40
10.0
 41
0.0
 71
     5
 72
     1
  1
{\fArial|b0|i0|c0|p34;432.7 [17]}
 11
0.0000000000000001
 21
1.0
 31
0.0
 73
     1
 44
1.0
1001
ACAD
1000
MTEXTBEGIN
1070
    73
1070
     1
1070
    44
1040
1.0
1070
    74
1070
     0
1000
MTEXTEND
  0
POINT
  5
5953
330
58F2
100
AcDbEntity
  8
Defpoints
 62
     0
100
AcDbPoint
 10
-1123.737323647384
 20
-345.2606766265357
 30
0.0
  0
POINT
  5
5954
330
58F2
100
AcDbEntity
  8
Defpoints
 62
     0
100
AcDbPoint
 10
-1112.334449628653
 20
-777.9606766265351
 30
0.0
  0
POINT
  5
5955
330
58F2
100
AcDbEntity
  8
Defpoints
 62
     0
100
AcDbPoint
 10
-1205.5
 20
-777.9606766265351
 30
0.0
  0
ENDBLK
  5
58FD
330
58F2
100
AcDbEntity
  8
0
100
AcDbBlockEnd
  0
BLOCK
  5
5908
330
58FE
100
AcDbEntity
  8
0
100
AcDbBlockBegin
  2
*D31
 70
     1
 10
0.0
 20
0.0
 30
0.0
  3
*D31
  1

  0
LINE
  5
5956
330
58FE
100
AcDbEntity
  8
标注
 62
     0
370
    -2
100
AcDbLine
 10
-1124.165958715642
 20
-351.6106766265358
 30
0.0
 11
-1181.99774152801
 21
-351.6106766265357
 31
0.0
  0
LINE
  5
5957
330
58FE
100
AcDbEntity
  8
标注
 62
     0
370
    -2
100
AcDbLine
 10
-1113.038024193787
 20
-771.6106766265347
 30
0.0
 11
-1181.99774152801
 21
-771.6106766265347
 31
0.0
  0
LINE
  5
5958
330
58FE
100
AcDbEntity
  8
标注
 62
     0
370
     0
100
AcDbLine
 10
-1178.24774152801
 20
-356.6106766265357
 30
0.0
 11
-1178.24774152801
 21
-766.6106766265348
 31
0.0
  0
SOLID
  5
5959
330
58FE
100
AcDbEntity
  8
标注
 62
     0
100
AcDbTrace
 10
-1179.081074861343
 20
-356.6106766265357
 30
0.0
 11
-1177.414408194676
 21
-356.6106766265357
 31
0.0
 12
-1178.24774152801
 22
-351.6106766265357
 32
0.0
 13
-1178.24774152801
 23
-351.6106766265357
 33
0.0
  0
SOLID
  5
595A
330
58FE
100
AcDbEntity
  8
标注
 62
     0
100
AcDbTrace
 10
-1179.081074861343
 20
-766.6106766265348
 30
0.0
 11
-1177.414408194677
 21
-766.6106766265348
 31
0.0
 12
-1178.24774152801
 22
-771.6106766265347
 32
0.0
 13
-1178.24774152801
 23
-771.6106766265347
 33
0.0
  0
MTEXT
  5
595B
330
58FE
100
AcDbEntity
  8
标注
 62
     0
100
AcDbMText
 10
-1186.721138526646
 20
-552.5070025283776
 30
0.0
 40
10.0
 41
0.0
 71
     5
 72
     1
  1
{\fArial|b0|i0|c0|p34;420 [16 1/2]}
 11
0.0000000000000001
 21
1.0
 31
0.0
 73
     1
 44
1.0
1001
ACAD
1000
MTEXTBEGIN
1070
    73
1070
     1
1070
    44
1040
1.0
1070
    74
1070
     0
1000
MTEXTEND
  0
POINT
  5
595C
330
58FE
100
AcDbEntity
  8
Defpoints
 62
     0
100
AcDbPoint
 10
-1124.165958715642
 20
-351.6106766265358
 30
0.0
  0
POINT
  5
595D
330
58FE
100
AcDbEntity
  8
Defpoints
 62
     0
100
AcDbPoint
 10
-1113.038024193787
 20
-771.6106766265347
 30
0.0
  0
POINT
  5
595E
330
58FE
100
AcDbEntity
  8
Defpoints
 62
     0
100
AcDbPoint
 10
-1178.24774152801
 20
-771.6106766265347
 30
0.0
  0
ENDBLK
  5
5909
330
58FE
100
AcDbEntity
  8
0
100
AcDbBlockEnd
  0
BLOCK
  5
5914
330
590A
100
AcDbEntity
  8
0
100
AcDbBlockBegin
  2
*D32
 70
     1
 10
0.0
 20
0.0
 30
0.0
  3
*D32
  1

  0
LINE
  5
595F
330
590A
100
AcDbEntity
  8
标注
 62
     0
370
    -2
100
AcDbLine
 10
-403.6264525169054
 20
-338.5603420877024
 30
0.0
 11
-403.6264525169054
 21
-262.2207772287703
 31
0.0
  0
LINE
  5
5960
330
590A
100
AcDbEntity
  8
标注
 62
     0
370
    -2
100
AcDbLine
 10
-1098.626452516902
 20
-335.1856533593446
 30
0.0
 11
-1098.626452516902
 21
-262.2207772287703
 31
0.0
  0
LINE
  5
5961
330
590A
100
AcDbEntity
  8
标注
 62
     0
370
     0
100
AcDbLine
 10
-408.6264525169053
 20
-265.9707772287703
 30
0.0
 11
-1093.626452516902
 21
-265.9707772287703
 31
0.0
  0
SOLID
  5
5962
330
590A
100
AcDbEntity
  8
标注
 62
     0
100
AcDbTrace
 10
-408.6264525169053
 20
-265.137443895437
 30
0.0
 11
-408.6264525169053
 21
-266.8041105621036
 31
0.0
 12
-403.6264525169054
 22
-265.9707772287703
 32
0.0
 13
-403.6264525169054
 23
-265.9707772287703
 33
0.0
  0
SOLID
  5
5963
330
590A
100
AcDbEntity
  8
标注
 62
     0
100
AcDbTrace
 10
-1093.626452516902
 20
-265.137443895437
 30
0.0
 11
-1093.626452516902
 21
-266.8041105621036
 31
0.0
 12
-1098.626452516902
 22
-265.9707772287703
 32
0.0
 13
-1098.626452516902
 23
-265.9707772287703
 33
0.0
  0
MTEXT
  5
5964
330
590A
100
AcDbEntity
  8
标注
 62
     0
100
AcDbMText
 10
-751.1055728071296
 20
-257.4973802301346
 30
0.0
 40
10.0
 41
0.0
 71
     5
 72
     1
  1
{\fArial|b0|i0|c0|p34;695 [27 3/8]}
 73
     1
 44
1.0
1001
ACAD
1000
MTEXTBEGIN
1070
    73
1070
     1
1070
    44
1040
1.0
1070
    74
1070
     0
1000
MTEXTEND
  0
POINT
  5
5965
330
590A
100
AcDbEntity
  8
Defpoints
 62
     0
100
AcDbPoint
 10
-403.6264525169054
 20
-338.5603420877024
 30
0.0
  0
POINT
  5
5966
330
590A
100
AcDbEntity
  8
Defpoints
 62
     0
100
AcDbPoint
 10
-1098.626452516902
 20
-335.1856533593446
 30
0.0
  0
POINT
  5
5967
330
590A
100
AcDbEntity
  8
Defpoints
 62
     0
100
AcDbPoint
 10
-1098.626452516902
 20
-265.9707772287703
 30
0.0
  0
ENDBLK
  5
5915
330
590A
100
AcDbEntity
  8
0
100
AcDbBlockEnd
  0
BLOCK
  5
5920
330
5916
100
AcDbEntity
  8
0
100
AcDbBlockBegin
  2
*D33
 70
     1
 10
0.0
 20
0.0
 30
0.0
  3
*D33
  1

  0
LINE
  5
5968
330
5916
100
AcDbEntity
  8
标注
 62
     0
370
    -2
100
AcDbLine
 10
-397.2764525169046
 20
-337.3100361063801
 30
0.0
 11
-397.2764525169046
 21
-240.2207772287703
 31
0.0
  0
LINE
  5
5969
330
5916
100
AcDbEntity
  8
标注
 62
     0
370
    -2
100
AcDbLine
 10
-1104.976452516902
 20
-335.9894214901948
 30
0.0
 11
-1104.976452516902
 21
-240.2207772287703
 31
0.0
  0
LINE
  5
596A
330
5916
100
AcDbEntity
  8
标注
 62
     0
370
     0
100
AcDbLine
 10
-402.2764525169045
 20
-243.9707772287703
 30
0.0
 11
-1099.976452516902
 21
-243.9707772287703
 31
0.0
  0
SOLID
  5
596B
330
5916
100
AcDbEntity
  8
标注
 62
     0
100
AcDbTrace
 10
-402.2764525169045
 20
-243.137443895437
 30
0.0
 11
-402.2764525169045
 21
-244.8041105621037
 31
0.0
 12
-397.2764525169046
 22
-243.9707772287703
 32
0.0
 13
-397.2764525169046
 23
-243.9707772287703
 33
0.0
  0
SOLID
  5
596C
330
5916
100
AcDbEntity
  8
标注
 62
     0
100
AcDbTrace
 10
-1099.976452516902
 20
-243.137443895437
 30
0.0
 11
-1099.976452516902
 21
-244.8041105621037
 31
0.0
 12
-1104.976452516902
 22
-243.9707772287703
 32
0.0
 13
-1104.976452516902
 23
-243.9707772287703
 33
0.0
  0
MTEXT
  5
596D
330
5916
100
AcDbEntity
  8
标注
 62
     0
100
AcDbMText
 10
-751.1264525169026
 20
-235.4973802301346
 30
0.0
 40
10.0
 41
0.0
 71
     5
 72
     1
  1
{\fArial|b0|i0|c0|p34;707.7 [27 7/8]}
 73
     1
 44
1.0
1001
ACAD
1000
MTEXTBEGIN
1070
    73
1070
     1
1070
    44
1040
1.0
1070
    74
1070
     0
1000
MTEXTEND
  0
POINT
  5
596E
330
5916
100
AcDbEntity
  8
Defpoints
 62
     0
100
AcDbPoint
 10
-397.2764525169046
 20
-337.3100361063801
 30
0.0
  0
POINT
  5
596F
330
5916
100
AcDbEntity
  8
Defpoints
 62
     0
100
AcDbPoint
 10
-1104.976452516902
 20
-335.9894214901948
 30
0.0
  0
POINT
  5
5970
330
5916
100
AcDbEntity
  8
Defpoints
 62
     0
100
AcDbPoint
 10
-1104.976452516902
 20
-243.9707772287703
 30
0.0
  0
ENDBLK
  5
5921
330
5916
100
AcDbEntity
  8
0
100
AcDbBlockEnd
  0
BLOCK
  5
592C
330
5922
100
AcDbEntity
  8
0
100
AcDbBlockBegin
  2
*D34
 70
     1
 10
0.0
 20
0.0
 30
0.0
  3
*D34
  1

  0
LINE
  5
5971
330
5922
100
AcDbEntity
  8
标注
 62
     0
370
    -2
100
AcDbLine
 10
-409.9764525169052
 20
-340.1678783494026
 30
0.0
 11
-409.9764525169052
 21
-284.4520135978863
 31
0.0
  0
LINE
  5
5972
330
5922
100
AcDbEntity
  8
标注
 62
     0
370
    -2
100
AcDbLine
 10
-1092.276452516903
 20
-332.3278111163221
 30
0.0
 11
-1092.276452516903
 21
-284.4520135978863
 31
0.0
  0
LINE
  5
5973
330
5922
100
AcDbEntity
  8
标注
 62
     0
370
     0
100
AcDbLine
 10
-414.9764525169052
 20
-288.2020135978863
 30
0.0
 11
-1087.276452516903
 21
-288.2020135978863
 31
0.0
  0
SOLID
  5
5974
330
5922
100
AcDbEntity
  8
标注
 62
     0
100
AcDbTrace
 10
-414.9764525169052
 20
-287.368680264553
 30
0.0
 11
-414.9764525169052
 21
-289.0353469312196
 31
0.0
 12
-409.9764525169052
 22
-288.2020135978863
 32
0.0
 13
-409.9764525169052
 23
-288.2020135978863
 33
0.0
  0
SOLID
  5
5975
330
5922
100
AcDbEntity
  8
标注
 62
     0
100
AcDbTrace
 10
-1087.276452516903
 20
-287.368680264553
 30
0.0
 11
-1087.276452516903
 21
-289.0353469312196
 31
0.0
 12
-1092.276452516903
 22
-288.2020135978863
 32
0.0
 13
-1092.276452516903
 23
-288.2020135978863
 33
0.0
  0
MTEXT
  5
5976
330
5922
100
AcDbEntity
  8
标注
 62
     0
100
AcDbMText
 10
-751.1264525169026
 20
-279.7286165992506
 30
0.0
 40
10.0
 41
0.0
 71
     5
 72
     1
  1
{\fArial|b0|i0|c0|p34;682.3 [26 7/8]}
 73
     1
 44
1.0
1001
ACAD
1000
MTEXTBEGIN
1070
    73
1070
     1
1070
    44
1040
1.0
1070
    74
1070
     0
1000
MTEXTEND
  0
POINT
  5
5977
330
5922
100
AcDbEntity
  8
Defpoints
 62
     0
100
AcDbPoint
 10
-409.9764525169052
 20
-340.1678783494026
 30
0.0
  0
POINT
  5
5978
330
5922
100
AcDbEntity
  8
Defpoints
 62
     0
100
AcDbPoint
 10
-1092.276452516903
 20
-332.3278111163221
 30
0.0
  0
POINT
  5
5979
330
5922
100
AcDbEntity
  8
Defpoints
 62
     0
100
AcDbPoint
 10
-1092.276452516903
 20
-288.2020135978863
 30
0.0
  0
ENDBLK
  5
592D
330
5922
100
AcDbEntity
  8
0
100
AcDbBlockEnd
  0
ENDSEC
  0
SECTION
  2
ENTITIES
  0
LINE
  5
49AC
330
1F
100
AcDbEntity
  8
粗实线
100
AcDbLine
 10
1307.442325674637
 20
-966.8110090233277
 30
0.0
 11
809.7770718352455
 21
-966.8110090233277
 31
0.0
  0
LINE
  5
49AD
330
1F
100
AcDbEntity
  8
图框线
100
AcDbLine
 10
1141.553907728163
 20
-839.629888597701
 30
0.0
 11
1141.553907728163
 21
-966.8110090233277
 31
0.0
  0
LINE
  5
49AE
330
1F
100
AcDbEntity
  8
图框线
100
AcDbLine
 10
975.6654897816936
 20
-839.629888597701
 30
0.0
 11
975.6654897816936
 21
-966.8110090233277
 31
0.0
  0
LINE
  5
49AF
330
1F
100
AcDbEntity
  8
图框线
100
AcDbLine
 10
996.4015420250305
 20
-917.0444836393883
 30
0.0
 11
996.4015420250305
 21
-947.4573602628963
 31
0.0
  0
LINE
  5
49B0
330
1F
100
AcDbEntity
  8
图框线
100
AcDbLine
 10
1017.137594268321
 20
-917.0444836393883
 30
0.0
 11
1017.137594268321
 21
-947.4573602628963
 31
0.0
  0
LINE
  5
49B1
330
1F
100
AcDbEntity
  8
图框线
100
AcDbLine
 10
1058.609698754918
 20
-947.4573602628963
 30
0.0
 11
1058.609698754918
 21
-966.8110090233277
 31
0.0
  0
LINE
  5
49B2
330
1F
100
AcDbEntity
  8
图框线
100
AcDbLine
 10
1037.873646511615
 20
-900.4556418447295
 30
0.0
 11
1037.873646511615
 21
-947.4573602628963
 31
0.0
  0
LINE
  5
49B3
330
1F
100
AcDbEntity
  8
图框线
100
AcDbLine
 10
1071.051330100916
 20
-900.4556418447295
 30
0.0
 11
1071.051330100916
 21
-947.4573602628963
 31
0.0
  0
LINE
  5
49B4
330
1F
100
AcDbEntity
  8
图框线
100
AcDbLine
 10
1108.376224138866
 20
-900.4556418447295
 30
0.0
 11
1108.376224138866
 21
-947.4573602628963
 31
0.0
  0
LINE
  5
49B5
330
1F
100
AcDbEntity
  8
粗实线
100
AcDbLine
 10
1307.442325674637
 20
-966.8110090233277
 30
0.0
 11
809.7770718352455
 21
-966.8110090233277
 31
0.0
  0
LINE
  5
49B6
330
1F
100
AcDbEntity
  8
粗实线
100
AcDbLine
 10
1307.442325674637
 20
-839.629888597701
 30
0.0
 11
809.7770718352455
 21
-839.629888597701
 31
0.0
  0
LINE
  5
49B7
330
1F
100
AcDbEntity
  8
图框线
100
AcDbLine
 10
1141.553907728163
 20
-900.4556418447295
 30
0.0
 11
809.7770718352455
 21
-900.4556418447295
 31
0.0
  0
LINE
  5
49B8
330
1F
100
AcDbEntity
  8
图框线
100
AcDbLine
 10
975.6654897816936
 20
-888.2904911953268
 30
0.0
 11
809.7770718352455
 21
-888.2904911953268
 31
0.0
  0
LINE
  5
49B9
330
1F
100
AcDbEntity
  8
图框线
100
AcDbLine
 10
975.6654897816936
 20
-876.1253405459273
 30
0.0
 11
809.7770718352455
 21
-876.1253405459273
 31
0.0
  0
LINE
  5
49BA
330
1F
100
AcDbEntity
  8
图框线
100
AcDbLine
 10
975.6654897816936
 20
-863.960189896516
 30
0.0
 11
809.7770718352455
 21
-863.960189896516
 31
0.0
  0
LINE
  5
49BB
330
1F
100
AcDbEntity
  8
图框线
100
AcDbLine
 10
975.6654897816936
 20
-851.7950392471037
 30
0.0
 11
809.7770718352455
 21
-851.7950392471037
 31
0.0
  0
LINE
  5
49BC
330
1F
100
AcDbEntity
  8
图框线
100
AcDbLine
 10
1141.553907728163
 20
-917.0444836393883
 30
0.0
 11
809.7770718352455
 21
-917.0444836393883
 31
0.0
  0
LINE
  5
49BD
330
1F
100
AcDbEntity
  8
图框线
100
AcDbLine
 10
1141.553907728163
 20
-933.6333254340377
 30
0.0
 11
809.7770718352455
 21
-933.6333254340377
 31
0.0
  0
LINE
  5
49BE
330
1F
100
AcDbEntity
  8
图框线
100
AcDbLine
 10
975.6654897816936
 20
-950.2221672286827
 30
0.0
 11
809.7770718352455
 21
-950.2221672286827
 31
0.0
  0
LINE
  5
49BF
330
1F
100
AcDbEntity
  8
图框线
100
AcDbLine
 10
1141.553907728163
 20
-917.0444836393883
 30
0.0
 11
975.6654897816936
 21
-917.0444836393883
 31
0.0
  0
LINE
  5
49C0
330
1F
100
AcDbEntity
  8
图框线
100
AcDbLine
 10
1141.553907728163
 20
-933.6333254340377
 30
0.0
 11
975.6654897816936
 21
-933.6333254340377
 31
0.0
  0
LINE
  5
49C1
330
1F
100
AcDbEntity
  8
图框线
100
AcDbLine
 10
1141.553907728163
 20
-947.4573602628963
 30
0.0
 11
975.6654897816936
 21
-947.4573602628963
 31
0.0
  0
LINE
  5
49C2
330
1F
100
AcDbEntity
  8
图框线
100
AcDbLine
 10
1307.442325674637
 20
-883.8668000500931
 30
0.0
 11
1141.553907728163
 21
-883.8668000500931
 31
0.0
  0
LINE
  5
49C3
330
1F
100
AcDbEntity
  8
图框线
100
AcDbLine
 10
1307.442325674637
 20
-925.3389045367264
 30
0.0
 11
1141.553907728163
 21
-925.3389045367264
 31
0.0
  0
LINE
  5
49C4
330
1F
100
AcDbEntity
  8
图框线
100
AcDbLine
 10
831.8955275614259
 20
-900.4556418447519
 30
0.0
 11
831.8955275614259
 21
-839.629888597701
 31
0.0
  0
LINE
  5
49C5
330
1F
100
AcDbEntity
  8
图框线
100
AcDbLine
 10
854.0139832876198
 20
-900.4556418447519
 30
0.0
 11
854.0139832876198
 21
-839.629888597701
 31
0.0
  0
LINE
  5
49C6
330
1F
100
AcDbEntity
  8
图框线
100
AcDbLine
 10
901.0157017058041
 20
-900.4556418447295
 30
0.0
 11
901.0157017058041
 21
-839.629888597701
 31
0.0
  0
LINE
  5
49C7
330
1F
100
AcDbEntity
  8
图框线
100
AcDbLine
 10
942.4878061924058
 20
-900.4556418447295
 30
0.0
 11
942.4878061924058
 21
-839.629888597701
 31
0.0
  0
LINE
  5
49C8
330
1F
100
AcDbEntity
  8
图框线
100
AcDbLine
 10
842.954755424529
 20
-966.8110090233277
 30
0.0
 11
842.954755424529
 21
-900.4556418447519
 31
0.0
  0
LINE
  5
49C9
330
1F
100
AcDbEntity
  8
图框线
100
AcDbLine
 10
892.7212808084737
 20
-966.8110090233277
 30
0.0
 11
892.7212808084737
 21
-900.4556418447295
 31
0.0
  0
LINE
  5
49CA
330
1F
100
AcDbEntity
  8
图框线
100
AcDbLine
 10
925.8989643977578
 20
-966.8110090233277
 30
0.0
 11
925.8989643977578
 21
-900.4556418447295
 31
0.0
  0
MTEXT
  5
49CB
330
1F
100
AcDbEntity
  8
文字
100
AcDbMText
 10
814.0038989165216
 20
-890.9423358739942
 30
0.0
 40
5.612495776045443
 41
36.06729174373005
 71
     1
 72
     5
  1
{\fSimSun|b0|i0|c134|p2;标记}
 73
     1
 44
1.0
1001
ACAD
1000
MTEXTBEGIN
1070
    73
1070
     1
1070
    44
1040
1.0
1070
    74
1070
     0
1000
MTEXTEND
  0
MTEXT
  5
49CC
330
1F
100
AcDbEntity
  8
文字
100
AcDbMText
 10
835.6519669267699
 20
-891.0080652363143
 30
0.0
 40
5.612495776045443
 41
36.06729174373005
 71
     1
 72
     5
  1
{\fSimSun|b0|i0|c134|p2;处数}
 73
     1
 44
1.0
1001
ACAD
1000
MTEXTBEGIN
1070
    73
1070
     1
1070
    44
1040
1.0
1070
    74
1070
     0
1000
MTEXTEND
  0
MTEXT
  5
49CD
330
1F
100
AcDbEntity
  8
文字
100
AcDbMText
 10
862.486232965818
 20
-891.7106460483712
 30
0.0
 40
4.489996620836355
 41
76.69329488191575
 71
     1
 72
     5
  1
{\fSimSun|b0|i0|c134|p2;\C1;更改文件号}
 73
     1
 44
1.0
1001
ACAD
1000
MTEXTBEGIN
1070
    73
1070
     1
1070
    44
1040
1.0
1070
    74
1070
     0
1000
MTEXTEND
  0
MTEXT
  5
49CE
330
1F
100
AcDbEntity
  8
文字
100
AcDbMText
 10
913.0836797110633
 20
-890.5970019808082
 30
0.0
 40
5.612495776045443
 41
36.06729174373005
 71
     1
 72
     5
  1
{\fSimSun|b0|i0|c134|p2;签名}
 73
     1
 44
1.0
1001
ACAD
1000
MTEXTBEGIN
1070
    73
1070
     1
1070
    44
1040
1.0
1070
    74
1070
     0
1000
MTEXTEND
  0
MTEXT
  5
49CF
330
1F
100
AcDbEntity
  8
文字
100
AcDbMText
 10
952.8425743632837
 20
-890.9274696779705
 30
0.0
 40
5.612495776045443
 41
36.06729174373005
 71
     1
 72
     5
  1
{\fSimSun|b0|i0|c134|p2;日期}
 73
     1
 44
1.0
1001
ACAD
1000
MTEXTBEGIN
1070
    73
1070
     1
1070
    44
1040
1.0
1070
    74
1070
     0
1000
MTEXTEND
  0
MTEXT
  5
49D0
330
1F
100
AcDbEntity
  8
文字
100
AcDbMText
 10
816.9487109306965
 20
-904.7770136476479
 30
0.0
 40
7.015619720056802
 41
45.08411467966257
 71
     1
 72
     5
  1
{\fSimSun|b0|i0|c134|p2;设计}
 73
     1
 44
1.0
1001
ACAD
1000
MTEXTBEGIN
1070
    73
1070
     1
1070
    44
1040
1.0
1070
    74
1070
     0
1000
MTEXTEND
  0
MTEXT
  5
49D1
330
1F
100
AcDbEntity
  8
文字
100
AcDbMText
 10
816.9487109306965
 20
-921.4786889642375
 30
0.0
 40
7.015619720056802
 41
45.08411467966257
 71
     1
 72
     5
  1
{\fSimSun|b0|i0|c134|p2;校对}
 73
     1
 44
1.0
1001
ACAD
1000
MTEXTBEGIN
1070
    73
1070
     1
1070
    44
1040
1.0
1070
    74
1070
     0
1000
MTEXTEND
  0
MTEXT
  5
49D2
330
1F
100
AcDbEntity
  8
文字
100
AcDbMText
 10
816.9487109306965
 20
-938.0166224794576
 30
0.0
 40
7.015619720056802
 41
45.08411467966257
 71
     1
 72
     5
  1
{\fSimSun|b0|i0|c134|p2;会签}
 73
     1
 44
1.0
1001
ACAD
1000
MTEXTBEGIN
1070
    73
1070
     1
1070
    44
1040
1.0
1070
    74
1070
     0
1000
MTEXTEND
  0
MTEXT
  5
49D3
330
1F
100
AcDbEntity
  8
文字
100
AcDbMText
 10
816.9487109306965
 20
-954.3750266332853
 30
0.0
 40
7.015619720056802
 41
45.08411467966257
 71
     1
 72
     5
  1
{\fSimSun|b0|i0|c134|p2;工艺}
 73
     1
 44
1.0
1001
ACAD
1000
MTEXTBEGIN
1070
    73
1070
     1
1070
    44
1040
1.0
1070
    74
1070
     0
1000
MTEXTEND
  0
MTEXT
  5
49D4
330
1F
100
AcDbEntity
  8
文字
100
AcDbMText
 10
899.7790398357821
 20
-922.465733425394
 30
0.0
 40
7.015619720056802
 41
45.08411467966257
 71
     1
 72
     5
  1
{\fSimSun|b0|i0|c134|p2;批准}
 73
     1
 44
1.0
1001
ACAD
1000
MTEXTBEGIN
1070
    73
1070
     1
1070
    44
1040
1.0
1070
    74
1070
     0
1000
MTEXTEND
  0
MTEXT
  5
49D5
330
1F
100
AcDbEntity
  8
文字
100
AcDbMText
 10
901.274204049603
 20
-955.362058278127
 30
0.0
 40
7.015619720056802
 41
45.08411467966257
 71
     1
 72
     5
  1
{\fSimSun|b0|i0|c134|p2;日期}
 73
     1
 44
1.0
1001
ACAD
1000
MTEXTBEGIN
1070
    73
1070
     1
1070
    44
1040
1.0
1070
    74
1070
     0
1000
MTEXTEND
  0
MTEXT
  5
49D6
330
1F
100
AcDbEntity
  8
文字
100
AcDbMText
 10
987.7892069312997
 20
-904.6403272736784
 30
0.0
 40
7.015619720056802
 41
45.08411467966257
 71
     1
 72
     5
  1
{\fSimSun|b0|i0|c134|p2;图样标记}
 73
     1
 44
1.0
1001
ACAD
1000
MTEXTBEGIN
1070
    73
1070
     1
1070
    44
1040
1.0
1070
    74
1070
     0
1000
MTEXTEND
  0
MTEXT
  5
49D7
330
1F
100
AcDbEntity
  8
文字
100
AcDbMText
 10
998.823262806021
 20
-953.7758081251354
 30
0.0
 40
7.015619720056802
 41
45.08411467966257
 71
     1
 72
     5
  1
{\fSimSun|b0|i0|c134|p2;共  页}
 73
     1
 44
1.0
1001
ACAD
1000
MTEXTBEGIN
1070
    73
1070
     1
1070
    44
1040
1.0
1070
    74
1070
     0
1000
MTEXTEND
  0
MTEXT
  5
49D8
330
1F
100
AcDbEntity
  8
文字
100
AcDbMText
 10
1046.476012570231
 20
-904.7033387982624
 30
0.0
 40
7.015619720056802
 41
45.08411467966257
 71
     1
 72
     5
  1
{\fSimSun|b0|i0|c134|p2;数量}
 73
     1
 44
1.0
1001
ACAD
1000
MTEXTBEGIN
1070
    73
1070
     1
1070
    44
1040
1.0
1070
    74
1070
     0
1000
MTEXTEND
  0
MTEXT
  5
49D9
330
1F
100
AcDbEntity
  8
文字
100
AcDbMText
 10
1075.952360548939
 20
-905.1596508689701
 30
0.0
 40
7.015619720056802
 41
45.08411467966257
 71
     1
 72
     5
  1
{\fSimSun|b0|i0|c134|p2;重量}
 73
     1
 44
1.0
1001
ACAD
1000
MTEXTBEGIN
1070
    73
1070
     1
1070
    44
1040
1.0
1070
    74
1070
     0
1000
MTEXTEND
  0
MTEXT
  5
49DA
330
1F
100
AcDbEntity
  8
文字
100
AcDbMText
 10
1116.279823614729
 20
-904.7946037756643
 30
0.0
 40
7.015619720056802
 41
45.08411467966257
 71
     1
 72
     5
  1
{\fSimSun|b0|i0|c134|p2;比例}
 73
     1
 44
1.0
1001
ACAD
1000
MTEXTBEGIN
1070
    73
1070
     1
1070
    44
1040
1.0
1070
    74
1070
     0
1000
MTEXTEND
  0
MTEXT
  5
49DB
330
1F
100
AcDbEntity
  8
文字
100
AcDbMText
 10
1097.336685489034
 20
-905.8876574407939
 30
0.0
 40
8.153747518904653
 41
161.8966631643785
 71
     1
 72
     5
  1
{\fArial|b0|i0|c0|p34;kg}
  7
样式 8
 73
     1
 44
1.0
1001
ACAD
1000
MTEXTBEGIN
1070
    73
1070
     1
1070
    44
1040
1.0
1070
    74
1070
     0
1000
MTEXTEND
  0
MTEXT
  5
49DC
330
1F
100
AcDbEntity
  8
文字
100
AcDbMText
 10
1082.399269351788
 20
-953.7758081251354
 30
0.0
 40
7.015619720056802
 41
45.08411467966257
 71
     1
 72
     5
  1
{\fSimSun|b0|i0|c134|p2;第  页}
 73
     1
 44
1.0
1001
ACAD
1000
MTEXTBEGIN
1070
    73
1070
     1
1070
    44
1040
1.0
1070
    74
1070
     0
1000
MTEXTEND
  0
MTEXT
  5
49DD
330
1F
100
AcDbEntity
  8
文字
100
AcDbMText
 10
1149.658776726909
 20
-858.8607152040113
 30
0.0
 40
10.19218439863081
 41
202.3708289554732
 71
     1
 72
     5
  1
{\fSimSun|b0|i0|c134|p2;\C1;泰捷不锈钢制品（泰国）有限公司}
  7
样式 8
 73
     1
 44
1.0
1001
ACAD
1000
MTEXTBEGIN
1070
    73
1070
     1
1070
    44
1040
1.0
1070
    74
1070
     0
1000
MTEXTEND
  0
MTEXT
  5
49DE
330
1F
100
AcDbEntity
  8
文字
100
AcDbMText
 10
1172.309835128441
 20
-894.8247698499196
 30
0.0
 40
12.74023049828852
 41
252.9635361943414
 71
     1
 72
     5
  1
\fSimSun|b0|i0|c134|p2;\C1;开孔纸板FD2018
  7
样式 8
 73
     1
 44
1.0
1001
ACAD
1000
MTEXTBEGIN
1070
    73
1070
     1
1070
    44
1040
1.0
1070
    74
1070
     0
1000
MTEXTEND
  0
LINE
  5
49DF
330
1F
100
AcDbEntity
  8
不可见
100
AcDbLine
 10
1321.266360503508
 20
-159.4873750171948
 30
0.0
 11
1321.266360503508
 21
-980.6350438521992
 31
0.0
  0
LINE
  5
49E0
330
1F
100
AcDbEntity
  8
粗实线
100
AcDbLine
 10
1307.442325674637
 20
-173.3114098460514
 30
0.0
 11
1307.442325674637
 21
-966.8110090233277
 31
0.0
  0
LINE
  5
49E1
330
1F
100
AcDbEntity
  8
不可见
100
AcDbLine
 10
1321.266360503508
 20
-980.6350438521992
 30
0.0
 11
160.0474348782521
 21
-980.6350438521992
 31
0.0
  0
LINE
  5
49E2
330
1F
100
AcDbEntity
  8
粗实线
100
AcDbLine
 10
1307.442325674637
 20
-966.8110090233277
 30
0.0
 11
229.1676090226006
 21
-966.8110090233277
 31
0.0
  0
LINE
  5
49E3
330
1F
100
AcDbEntity
  8
粗实线
100
AcDbLine
 10
1307.442325674637
 20
-966.8110090233277
 30
0.0
 11
229.1676090226006
 21
-966.8110090233277
 31
0.0
  0
MTEXT
  5
49E4
330
1F
100
AcDbEntity
  8
文字
100
AcDbMText
 10
1021.375696472157
 20
-867.0227806114372
 30
0.0
 40
13.27107343571721
 41
263.5036835357723
 71
     1
 72
     5
  1
{\fSimSun|b0|i0|c0|p2;\C1;0.3\fSimSun|b0|i0|c134|p2;mm厚白纸板}
  7
样式 8
 73
     1
 44
1.0
1001
ACAD
1000
MTEXTBEGIN
1070
    73
1070
     1
1070
    44
1040
1.0
1070
    74
1070
     0
1000
MTEXTEND
  0
MTEXT
  5
49E5
330
1F
100
AcDbEntity
  8
文字
100
AcDbMText
 10
982.9205145080397
 20
-846.3695063592988
 30
0.0
 40
13.27107343571721
 41
263.5036835357723
 71
     1
 72
     5
  1
{\fSimSun|b0|i0|c134|p2;材料:}
  7
样式 8
 73
     1
 44
1.0
1001
ACAD
1000
MTEXTBEGIN
1070
    73
1070
     1
1070
    44
1040
1.0
1070
    74
1070
     0
1000
MTEXTEND
  0
MTEXT
  5
49E6
330
1F
100
AcDbEntity
  8
文字
100
AcDbMText
 10
899.7790398357821
 20
-905.8336306770879
 30
0.0
 40
7.015619720056802
 41
45.08411467966257
 71
     1
 72
     5
  1
{\fSimSun|b0|i0|c134|p2;审核}
 73
     1
 44
1.0
1001
ACAD
1000
MTEXTBEGIN
1070
    73
1070
     1
1070
    44
1040
1.0
1070
    74
1070
     0
1000
MTEXTEND
  0
LINE
  5
49E7
330
1F
100
AcDbEntity
  8
不可见
100
AcDbLine
 10
160.0474348782521
 20
-159.4873750171948
 30
0.0
 11
1321.266360503508
 21
-159.4873750171948
 31
0.0
  0
LINE
  5
49E8
330
1F
100
AcDbEntity
  8
粗实线
100
AcDbLine
 10
229.1676090226006
 20
-173.3114098460695
 30
0.0
 11
1307.442325674637
 21
-173.3114098460695
 31
0.0
  0
LINE
  5
49E9
330
1F
100
AcDbEntity
  8
不可见
100
AcDbLine
 10
160.0474348782521
 20
-980.6350438521992
 30
0.0
 11
160.0474348782521
 21
-159.4873750171948
 31
0.0
  0
LINE
  5
49EA
330
1F
100
AcDbEntity
  8
粗实线
100
AcDbLine
 10
229.1676090226006
 20
-966.8110090233277
 30
0.0
 11
229.1676090226006
 21
-173.3114098460695
 31
0.0
  0
LINE
  5
49EB
330
1F
100
AcDbEntity
  8
粗实线
100
AcDbLine
 10
229.1676090226006
 20
-201.9832308478155
 30
0.0
 11
365.4822828195871
 21
-201.9832308478155
 31
0.0
  0
LINE
  5
49EC
330
1F
100
AcDbEntity
  8
粗实线
100
AcDbLine
 10
365.4822828195871
 20
-201.9832308478155
 30
0.0
 11
365.4822828195871
 21
-173.3114098460695
 31
0.0
  0
LINE
  5
49ED
330
1F
100
AcDbEntity
  8
图框线
100
AcDbLine
 10
229.1676090226006
 20
-944.6925532971365
 30
0.0
 11
160.0474348782521
 21
-944.6925532971365
 31
0.0
  0
LINE
  5
49EE
330
1F
100
AcDbEntity
  8
图框线
100
AcDbLine
 10
229.1676090226006
 20
-928.1037115024776
 30
0.0
 11
160.0474348782521
 21
-928.1037115024776
 31
0.0
  0
LINE
  5
49EF
330
1F
100
AcDbEntity
  8
图框线
100
AcDbLine
 10
229.1676090226006
 20
-905.9852557762949
 30
0.0
 11
160.0474348782521
 21
-905.9852557762949
 31
0.0
  0
LINE
  5
49F0
330
1F
100
AcDbEntity
  8
图框线
100
AcDbLine
 10
229.1676090226006
 20
-889.3964139816457
 30
0.0
 11
160.0474348782521
 21
-889.3964139816457
 31
0.0
  0
LINE
  5
49F1
330
1F
100
AcDbEntity
  8
图框线
100
AcDbLine
 10
229.1676090226006
 20
-867.2779582554523
 30
0.0
 11
160.0474348782521
 21
-867.2779582554523
 31
0.0
  0
LINE
  5
49F2
330
1F
100
AcDbEntity
  8
图框线
100
AcDbLine
 10
229.1676090226006
 20
-850.6891164608115
 30
0.0
 11
160.0474348782521
 21
-850.6891164608115
 31
0.0
  0
LINE
  5
49F3
330
1F
100
AcDbEntity
  8
图框线
100
AcDbLine
 10
229.1676090226006
 20
-828.5706607346023
 30
0.0
 11
160.0474348782521
 21
-828.5706607346023
 31
0.0
  0
LINE
  5
49F4
330
1F
100
AcDbEntity
  8
图框线
100
AcDbLine
 10
229.1676090226006
 20
-811.9818189399625
 30
0.0
 11
160.0474348782521
 21
-811.9818189399625
 31
0.0
  0
LINE
  5
49F5
330
1F
100
AcDbEntity
  8
图框线
100
AcDbLine
 10
229.1676090226006
 20
-789.8633632137521
 30
0.0
 11
160.0474348782521
 21
-789.8633632137521
 31
0.0
  0
LINE
  5
49F6
330
1F
100
AcDbEntity
  8
图框线
100
AcDbLine
 10
229.1676090226006
 20
-773.2745214190986
 30
0.0
 11
160.0474348782521
 21
-773.2745214190986
 31
0.0
  0
LINE
  5
49F7
330
1F
100
AcDbEntity
  8
图框线
100
AcDbLine
 10
229.1676090226006
 20
-751.1560656929297
 30
0.0
 11
160.0474348782521
 21
-751.1560656929297
 31
0.0
  0
LINE
  5
49F8
330
1F
100
AcDbEntity
  8
图框线
100
AcDbLine
 10
229.1676090226006
 20
-734.5672238982793
 30
0.0
 11
160.0474348782521
 21
-734.5672238982793
 31
0.0
  0
LINE
  5
49F9
330
1F
100
AcDbEntity
  8
图框线
100
AcDbLine
 10
229.1676090226006
 20
-717.9783821036385
 30
0.0
 11
160.0474348782521
 21
-717.9783821036385
 31
0.0
  0
LINE
  5
49FA
330
1F
100
AcDbEntity
  8
图框线
100
AcDbLine
 10
229.1676090226006
 20
-966.8110090233277
 30
0.0
 11
160.0474348782521
 21
-966.8110090233277
 31
0.0
  0
MTEXT
  5
49FB
102
{ACAD_XDICTIONARY
360
5C96
102
}
330
1F
100
AcDbEntity
  8
文字
100
AcDbMText
 10
167.4558145080423
 20
-932.6764923803173
 30
0.0
 40
5.757710506225226
 41
146.2724721090166
 71
     1
 72
     5
  1
\U+65E5   
 73
     1
 44
1.0
1001
ACAD
1000
MTEXTBEGIN
1070
    73
1070
     1
1070
    44
1040
1.0
1070
    74
1070
     0
1000
MTEXTEND
  0
MTEXT
  5
49FC
102
{ACAD_XDICTIONARY
360
5C98
102
}
330
1F
100
AcDbEntity
  8
文字
100
AcDbMText
 10
167.4558145080423
 20
-893.9903941892969
 30
0.0
 40
5.757710506225226
 41
146.2724721090166
 71
     1
 72
     5
  1
\U+7B7E   
 73
     1
 44
1.0
1001
ACAD
1000
MTEXTBEGIN
1070
    73
1070
     1
1070
    44
1040
1.0
1070
    74
1070
     0
1000
MTEXTEND
  0
MTEXT
  5
49FD
102
{ACAD_XDICTIONARY
360
5C9A
102
}
330
1F
100
AcDbEntity
  8
文字
100
AcDbMText
 10
167.4558145080423
 20
-854.2228785709427
 30
0.0
 40
5.757710506225226
 41
146.2724721090166
 71
     1
 72
     5
  1
\U+5E95
 73
     1
 44
1.0
1001
ACAD
1000
MTEXTBEGIN
1070
    73
1070
     1
1070
    44
1040
1.0
1070
    74
1070
     0
1000
MTEXTEND
  0
MTEXT
  5
49FE
102
{ACAD_XDICTIONARY
360
5C9C
102
}
330
1F
100
AcDbEntity
  8
文字
100
AcDbMText
 10
167.4558145080423
 20
-816.6395510169291
 30
0.0
 40
5.757710506225226
 41
146.2724721090166
 71
     1
 72
     5
  1
\U+65E7
 73
     1
 44
1.0
1001
ACAD
1000
MTEXTBEGIN
1070
    73
1070
     1
1070
    44
1040
1.0
1070
    74
1070
     0
1000
MTEXTEND
  0
MTEXT
  5
49FF
102
{ACAD_XDICTIONARY
360
5C9E
102
}
330
1F
100
AcDbEntity
  8
文字
100
AcDbMText
 10
166.415779262371
 20
-737.3003365677728
 30
0.0
 40
5.757710506225226
 41
146.2724721090166
 71
     1
 72
     5
  1
\U+63CF   
 73
     1
 44
1.0
1001
ACAD
1000
MTEXTBEGIN
1070
    73
1070
     1
1070
    44
1040
1.0
1070
    74
1070
     0
1000
MTEXTEND
  0
MTEXT
  5
4A00
102
{ACAD_XDICTIONARY
360
5CA0
102
}
330
1F
100
AcDbEntity
  8
文字
100
AcDbMText
 10
163.6414658173147
 20
-720.4291977517134
 30
0.0
 40
5.757710506225226
 41
146.2724721090166
 71
     1
 72
     5
  1
\ftxt.shx,gbcbig.shx;\H1x;\C1;\U+501F\U+FF08\U+901A\U+FF09\U+7528\U+4EF6\U+767B\U+8BB0
 73
     1
 44
1.0
1001
ACAD
1000
MTEXTBEGIN
1070
    73
1070
     1
1070
    44
1040
1.0
1070
    74
1070
     0
1000
MTEXTEND
  0
MTEXT
  5
4A01
102
{ACAD_XDICTIONARY
360
5CA2
102
}
330
1F
100
AcDbEntity
  8
文字
100
AcDbMText
 10
215.495262165219
 20
-737.3003365677728
 30
0.0
 40
5.757710506225226
 41
146.2724721090166
 71
     1
 72
     5
  1
\U+56FE   
 73
     1
 44
1.0
1001
ACAD
1000
MTEXTBEGIN
1070
    73
1070
     1
1070
    44
1040
1.0
1070
    74
1070
     0
1000
MTEXTEND
  0
MTEXT
  5
4A02
102
{ACAD_XDICTIONARY
360
5CA4
102
}
330
1F
100
AcDbEntity
  8
文字
100
AcDbMText
 10
166.415779262371
 20
-776.3362004816881
 30
0.0
 40
5.757710506225226
 41
146.2724721090166
 71
     1
 72
     5
  1
\U+63CF   
 73
     1
 44
1.0
1001
ACAD
1000
MTEXTBEGIN
1070
    73
1070
     1
1070
    44
1040
1.0
1070
    74
1070
     0
1000
MTEXTEND
  0
MTEXT
  5
4A03
102
{ACAD_XDICTIONARY
360
5CA6
102
}
330
1F
100
AcDbEntity
  8
文字
100
AcDbMText
 10
215.495262165219
 20
-776.3362004816881
 30
0.0
 40
5.757710506225226
 41
146.2724721090166
 71
     1
 72
     5
  1
\U+6821   
 73
     1
 44
1.0
1001
ACAD
1000
MTEXTBEGIN
1070
    73
1070
     1
1070
    44
1040
1.0
1070
    74
1070
     0
1000
MTEXTEND
  0
MTEXT
  5
4A04
102
{ACAD_XDICTIONARY
360
5CA8
102
}
330
1F
100
AcDbEntity
  8
文字
100
AcDbMText
 10
178.1313384564979
 20
-816.5207790987551
 30
0.0
 40
5.757710506225226
 41
146.2724721090166
 71
     1
 72
     5
  1
\U+5E95
 73
     1
 44
1.0
1001
ACAD
1000
MTEXTBEGIN
1070
    73
1070
     1
1070
    44
1040
1.0
1070
    74
1070
     0
1000
MTEXTEND
  0
MTEXT
  5
4A05
102
{ACAD_XDICTIONARY
360
5CAA
102
}
330
1F
100
AcDbEntity
  8
文字
100
AcDbMText
 10
191.6437068956002
 20
-816.6395510169291
 30
0.0
 40
5.757710506225226
 41
146.2724721090166
 71
     1
 72
     5
  1
\U+56FE
 73
     1
 44
1.0
1001
ACAD
1000
MTEXTBEGIN
1070
    73
1070
     1
1070
    44
1040
1.0
1070
    74
1070
     0
1000
MTEXTEND
  0
MTEXT
  5
4A06
102
{ACAD_XDICTIONARY
360
5CAC
102
}
330
1F
100
AcDbEntity
  8
文字
100
AcDbMText
 10
204.2194373273265
 20
-816.6395510169291
 30
0.0
 40
5.757710506225226
 41
146.2724721090166
 71
     1
 72
     5
  1
\U+603B
 73
     1
 44
1.0
1001
ACAD
1000
MTEXTBEGIN
1070
    73
1070
     1
1070
    44
1040
1.0
1070
    74
1070
     0
1000
MTEXTEND
  0
MTEXT
  5
4A07
102
{ACAD_XDICTIONARY
360
5CAE
102
}
330
1F
100
AcDbEntity
  8
文字
100
AcDbMText
 10
216.7596777380282
 20
-816.6395510169291
 30
0.0
 40
5.757710506225226
 41
146.2724721090166
 71
     1
 72
     5
  1
\U+53F7
 73
     1
 44
1.0
1001
ACAD
1000
MTEXTBEGIN
1070
    73
1070
     1
1070
    44
1040
1.0
1070
    74
1070
     0
1000
MTEXTEND
  0
MTEXT
  5
4A08
102
{ACAD_XDICTIONARY
360
5CB0
102
}
330
1F
100
AcDbEntity
  8
文字
100
AcDbMText
 10
183.1625272092436
 20
-854.2228785709427
 30
0.0
 40
5.757710506225226
 41
146.2724721090166
 71
     1
 72
     5
  1
\U+56FE
 73
     1
 44
1.0
1001
ACAD
1000
MTEXTBEGIN
1070
    73
1070
     1
1070
    44
1040
1.0
1070
    74
1070
     0
1000
MTEXTEND
  0
MTEXT
  5
4A09
102
{ACAD_XDICTIONARY
360
5CB2
102
}
330
1F
100
AcDbEntity
  8
文字
100
AcDbMText
 10
198.593841505029
 20
-854.2228785709427
 30
0.0
 40
5.757710506225226
 41
146.2724721090166
 71
     1
 72
     5
  1
\U+603B
 73
     1
 44
1.0
1001
ACAD
1000
MTEXTBEGIN
1070
    73
1070
     1
1070
    44
1040
1.0
1070
    74
1070
     0
1000
MTEXTEND
  0
MTEXT
  5
4A0A
102
{ACAD_XDICTIONARY
360
5CB4
102
}
330
1F
100
AcDbEntity
  8
文字
100
AcDbMText
 10
215.2354538497797
 20
-854.2228785709427
 30
0.0
 40
5.757710506225226
 41
146.2724721090166
 71
     1
 72
     5
  1
\U+53F7
 73
     1
 44
1.0
1001
ACAD
1000
MTEXTBEGIN
1070
    73
1070
     1
1070
    44
1040
1.0
1070
    74
1070
     0
1000
MTEXTEND
  0
MTEXT
  5
4A0B
102
{ACAD_XDICTIONARY
360
5CB6
102
}
330
1F
100
AcDbEntity
  8
文字
100
AcDbMText
 10
215.3589721603238
 20
-893.9903941892969
 30
0.0
 40
5.757710506225226
 41
146.2724721090166
 71
     1
 72
     5
  1
\U+5B57  
 73
     1
 44
1.0
1001
ACAD
1000
MTEXTBEGIN
1070
    73
1070
     1
1070
    44
1040
1.0
1070
    74
1070
     0
1000
MTEXTEND
  0
MTEXT
  5
4A0C
102
{ACAD_XDICTIONARY
360
5CB8
102
}
330
1F
100
AcDbEntity
  8
文字
100
AcDbMText
 10
214.3633289817044
 20
-932.6764923803173
 30
0.0
 40
5.757710506225226
 41
146.2724721090166
 71
     1
 72
     5
  1
\U+671F  
 73
     1
 44
1.0
1001
ACAD
1000
MTEXTBEGIN
1070
    73
1070
     1
1070
    44
1040
1.0
1070
    74
1070
     0
1000
MTEXTEND
  0
MTEXT
  5
4A0D
330
1F
100
AcDbEntity
  8
文字
100
AcDbMText
 10
1207.70854520151
 20
-941.9682607677753
 30
0.0
 40
13.27107343571721
 41
263.5036835357723
 71
     1
 72
     5
  1
\fNSimSun|b0|i0|c134|p49;\H1x;\C1;1b57
  7
样式 8
 73
     1
 44
1.0
1001
ACAD
1000
MTEXTBEGIN
1070
    73
1070
     1
1070
    44
1040
1.0
1070
    74
1070
     0
1000
MTEXTEND
  0
LINE
  5
4A0E
330
1F
100
AcDbEntity
  8
粗实线
100
AcDbLine
 10
809.7770718352455
 20
-839.629888597701
 30
0.0
 11
809.7770718352455
 21
-966.8110090233277
 31
0.0
  0
MTEXT
  5
4A0F
330
1F
100
AcDbEntity
  8
文字
100
AcDbMText
 10
1103.623771472157
 20
-800.8349806114372
 30
0.0
 40
13.27107343571721
 41
263.5036835357723
 71
     1
 72
     5
  1
{\fSimSun|b0|i0|c134|p2;\C1;注：图纸上标注尺寸不用印刷}
  7
样式 8
 73
     1
 44
1.0
1001
ACAD
1000
MTEXTBEGIN
1070
    73
1070
     1
1070
    44
1040
1.0
1070
    74
1070
     0
1000
MTEXTEND
  0
LWPOLYLINE
  5
5415
330
1F
100
AcDbEntity
  8
虚线
 48
2.0
100
AcDbPolyline
 90
       12
 70
     1
 43
0.0
 10
956.8735474831219
 20
-771.6106766265352
 42
0.009436818587244
 10
1032.347930002672
 20
-770.186073648946
 42
0.3889571306792639
 10
1118.842463775827
 20
-684.6807016850362
 42
0.0246289354847146
 10
1118.842463775826
 20
-438.540651568026
 42
0.3889571306792612
 10
1032.347930002684
 20
-353.035279604125
 42
0.0094368185872475
 10
956.8735474830972
 20
-351.6106766265357
 10
591.8735474830957
 20
-351.6106766265357
 42
0.009436818587246
 10
516.3991649635217
 20
-353.0352796041238
 42
0.3889571306792671
 10
429.9046311903639
 20
-438.5406515680279
 42
0.0246289354847163
 10
429.9046311903643
 20
-684.6807016850434
 42
0.3889571306792728
 10
516.3991649635233
 20
-770.1860736489465
 42
0.0094368185872492
 10
591.8735474830951
 20
-771.6106766265352
  0
LWPOLYLINE
  5
5417
330
1F
100
AcDbEntity
  8
图层1
  6
ByBlock
100
AcDbPolyline
 90
       12
 70
     1
 43
0.0
 10
956.8735474831219
 20
-777.9606766265351
 42
0.009436818587244
 10
1032.587561167172
 20
-776.5315505344922
 42
0.3889571566611387
 10
1125.184765251376
 20
-684.9932908616515
 42
0.0246289346166341
 10
1125.18476482321
 20
-438.2280537043778
 42
0.3889571465690682
 10
1032.587555851772
 20
-346.6898025178472
 42
0.0094368179243927
 10
956.8735474830972
 20
-345.2606766265357
 10
591.8735474830957
 20
-345.2606766265358
 42
0.009436818587246
 10
516.1595337990219
 20
-346.6898027185777
 42
0.388957157220694
 10
423.5623297055949
 20
-438.2280625784985
 42
0.0246289345979406
 10
423.5623301429809
 20
-684.9932995486921
 42
0.3889571306792728
 10
516.1595337990235
 20
-776.5315505344929
 42
0.0094368185872492
 10
591.8735474830951
 20
-777.9606766265352
  0
LWPOLYLINE
  5
5419
330
1F
100
AcDbEntity
  8
虚线
 48
2.0
100
AcDbPolyline
 90
       12
 70
     1
 43
0.0
 10
956.8735474831219
 20
-765.2606766265352
 42
0.009436818587244
 10
1032.108298838172
 20
-763.8405967634
 42
0.3889571306792639
 10
1112.500162728444
 20
-684.3681038213876
 42
0.0246289354847146
 10
1112.500162728443
 20
-438.8532494316741
 42
0.3889571493271231
 10
1032.108293422396
 20
-359.3807562851489
 42
0.0094368179075731
 10
956.8735474830972
 20
-357.9606766265357
 10
591.8735474830957
 20
-357.9606766265358
 42
0.009436818587246
 10
516.6387961280213
 20
-359.38075648967
 42
0.3889571306792671
 10
436.2469322377473
 20
-438.8532494316765
 42
0.0246289354847163
 10
436.2469322377481
 20
-684.3681038213949
 42
0.3889571306792728
 10
516.6387961280231
 20
-763.8405967634005
 42
0.0094368185872492
 10
591.8735474830951
 20
-765.2606766265352
  0
DIMENSION
  5
541A
330
1F
100
AcDbEntity
  8
标注
100
AcDbDimension
  2
*D3
 10
1128.223547483096
 20
-592.5182622551654
 30
0.0
 11
1075.300218697284
 21
-592.5182622551654
 31
0.0
 70
   160
  1
{\fArial|b0|i0|c0|p34;<>}
 71
     5
 42
-1.0
  3
英寸
100
AcDbAlignedDimension
 13
1121.873547483094
 23
-561.6106788764957
 33
0.0
 14
1128.223547483096
 24
-561.6106788764884
 34
0.0
100
AcDbRotatedDimension
1001
ACAD
1000
DSTYLE
1002
{
1070
    41
1040
5.0
1070
   140
1040
10.0
1070
   371
1070
     0
1002
}
  0
DIMENSION
  5
5429
330
1F
100
AcDbEntity
  8
标注
100
AcDbDimension
  2
*D4
 10
1121.873547483094
 20
-571.0182622551654
 30
0.0
 11
1068.950218697282
 21
-571.0182622551654
 31
0.0
 70
   160
  1
{\fArial|b0|i0|c0|p34;<>}
 71
     5
 42
-1.0
  3
英寸
100
AcDbAlignedDimension
 13
1115.523547483091
 23
-561.6106788764884
 33
0.0
 14
1121.873547483094
 24
-561.6106788764957
 34
0.0
100
AcDbRotatedDimension
1001
ACAD
1000
DSTYLE
1002
{
1070
   140
1040
10.0
1070
   371
1070
     0
1070
    41
1040
5.0
1002
}
  0
DIMENSION
  5
5438
330
1F
100
AcDbEntity
  8
标注
100
AcDbDimension
  2
*D8
 10
370.523547483097
 20
-765.2606766265335
 30
0.0
 11
370.523547483097
 21
-552.6106766265411
 31
0.0
 70
   160
  1
{\fArial|b0|i0|c0|p34;<>}
 71
     5
 42
407.2999999999977
  3
英寸
100
AcDbAlignedDimension
 13
401.61979799653
 23
-357.9606766265357
 33
0.0
 14
414.1505547625351
 24
-765.2606766265335
 34
0.0
 50
90.0
100
AcDbRotatedDimension
1001
ACAD
1000
DSTYLE
1002
{
1070
    41
1040
5.0
1070
   140
1040
10.0
1070
   371
1070
     0
1002
}
  0
DIMENSION
  5
5444
330
1F
100
AcDbEntity
  8
标注
100
AcDbDimension
  2
*D10
 10
320.0
 20
-777.9606766265351
 30
0.0
 11
320.0
 21
-556.0
 31
0.0
 70
   160
  1
{\fArial|b0|i0|c0|p34;<>}
 71
     5
 42
432.6999999999994
  3
英寸
100
AcDbAlignedDimension
 13
401.7626763526159
 23
-345.2606766265357
 33
0.0
 14
413.1655503713473
 24
-777.9606766265351
 34
0.0
 50
90.0
100
AcDbRotatedDimension
1001
ACAD
1000
DSTYLE
1002
{
1070
    41
1040
5.0
1070
   140
1040
10.0
1070
   371
1070
     0
1002
}
  0
DIMENSION
  5
5450
330
1F
100
AcDbEntity
  8
标注
100
AcDbDimension
  2
*D9
 10
347.25225847199
 20
-771.6106766265347
 30
0.0
 11
347.25225847199
 21
-552.5070025283776
 31
0.0
 70
   160
  1
{\fArial|b0|i0|c0|p34;<>}
 71
     5
 42
419.999999999999
  3
英寸
100
AcDbAlignedDimension
 13
401.3340412843581
 23
-351.6106766265358
 33
0.0
 14
412.4619758062131
 24
-771.6106766265347
 34
0.0
 50
90.0
100
AcDbRotatedDimension
1001
ACAD
1000
DSTYLE
1002
{
1070
   271
1070
     0
1070
    41
1040
5.0
1070
   140
1040
10.0
1070
   371
1070
     0
1002
}
  0
DIMENSION
  5
545C
330
1F
100
AcDbEntity
  8
标注
100
AcDbDimension
  2
*D5
 10
426.8735474830974
 20
-274.5294402574197
 30
0.0
 11
774.3944271928703
 21
-265.9707772287703
 31
0.0
 70
   160
  1
{\fArial|b0|i0|c0|p34;<>}
 71
     5
 42
694.9999999999972
  3
英寸
100
AcDbAlignedDimension
 13
1121.873547483094
 23
-338.5603420877024
 33
0.0
 14
426.8735474830974
 24
-335.1856533593446
 34
0.0
100
AcDbRotatedDimension
1001
ACAD
1000
DSTYLE
1002
{
1070
    41
1040
5.0
1070
   271
1070
     0
1070
   371
1070
     0
1070
   140
1040
10.0
1002
}
  0
DIMENSION
  5
5468
330
1F
100
AcDbEntity
  8
标注
100
AcDbDimension
  2
*D6
 10
420.5235474830974
 20
-252.5294402574197
 30
0.0
 11
774.3735474830973
 21
-243.9707772287703
 31
0.0
 70
   160
  1
{\fArial|b0|i0|c0|p34;<>}
 71
     5
 42
707.699999999998
  3
英寸
100
AcDbAlignedDimension
 13
1128.223547483095
 23
-337.3100361063801
 33
0.0
 14
420.5235474830974
 24
-335.9894214901948
 34
0.0
100
AcDbRotatedDimension
1001
ACAD
1000
DSTYLE
1002
{
1070
    41
1040
5.0
1070
   140
1040
10.0
1070
   371
1070
     0
1002
}
  0
DIMENSION
  5
5474
330
1F
100
AcDbEntity
  8
标注
100
AcDbDimension
  2
*D7
 10
433.2235474830972
 20
-296.7606766265357
 30
0.0
 11
774.3735474830973
 21
-288.2020135978863
 31
0.0
 70
   160
  1
{\fArial|b0|i0|c0|p34;<>}
 71
     5
 42
682.2999999999974
  3
英寸
100
AcDbAlignedDimension
 13
1115.523547483094
 23
-340.1678783494026
 33
0.0
 14
433.2235474830972
 24
-332.3278111163221
 34
0.0
100
AcDbRotatedDimension
1001
ACAD
1000
DSTYLE
1002
{
1070
    41
1040
5.0
1070
   140
1040
10.0
1070
   371
1070
     0
1002
}
  0
ENDSEC
  0
SECTION
  2
OBJECTS
  0
DICTIONARY
  5
C
330
0
100
AcDbDictionary
281
     1
  3
ACAD_2007HEADERVARS_RT
350
5C86
  3
ACAD_COLOR
350
3513
  3
ACAD_GROUP
350
D
  3
ACAD_LAYOUT
350
1A
  3
ACAD_MATERIAL
350
350F
  3
ACAD_MLINESTYLE
350
17
  3
ACAD_PLOTSETTINGS
350
19
  3
ACAD_PLOTSTYLENAME
350
E
  3
ACAD_TABLESTYLE
350
E9
  3
ACAD_VISUALSTYLE
350
28
  3
AcDbVariableDictionary
350
366A
  3
DWGPROPS
350
5C85
  0
DICTIONARY
  5
36E2
330
2
100
AcDbDictionary
280
     1
281
     1
  3
ACAD_LAYERSTATES
360
36E3
  0
DICTIONARY
  5
5BDE
330
1F
100
AcDbDictionary
280
     1
281
     1
  3
ACAD_SORTENTS
360
5BDF
  0
DICTIONARY
  5
5C96
330
49FB
100
AcDbDictionary
280
     1
281
     1
  3
ACAD_MTEXT_RT
360
5C97
  0
DICTIONARY
  5
5C98
330
49FC
100
AcDbDictionary
280
     1
281
     1
  3
ACAD_MTEXT_RT
360
5C99
  0
DICTIONARY
  5
5C9A
330
49FD
100
AcDbDictionary
280
     1
281
     1
  3
ACAD_MTEXT_RT
360
5C9B
  0
DICTIONARY
  5
5C9C
330
49FE
100
AcDbDictionary
280
     1
281
     1
  3
ACAD_MTEXT_RT
360
5C9D
  0
DICTIONARY
  5
5C9E
330
49FF
100
AcDbDictionary
280
     1
281
     1
  3
ACAD_MTEXT_RT
360
5C9F
  0
DICTIONARY
  5
5CA0
330
4A00
100
AcDbDictionary
280
     1
281
     1
  3
ACAD_MTEXT_RT
360
5CA1
  0
DICTIONARY
  5
5CA2
330
4A01
100
AcDbDictionary
280
     1
281
     1
  3
ACAD_MTEXT_RT
360
5CA3
  0
DICTIONARY
  5
5CA4
330
4A02
100
AcDbDictionary
280
     1
281
     1
  3
ACAD_MTEXT_RT
360
5CA5
  0
DICTIONARY
  5
5CA6
330
4A03
100
AcDbDictionary
280
     1
281
     1
  3
ACAD_MTEXT_RT
360
5CA7
  0
DICTIONARY
  5
5CA8
330
4A04
100
AcDbDictionary
280
     1
281
     1
  3
ACAD_MTEXT_RT
360
5CA9
  0
DICTIONARY
  5
5CAA
330
4A05
100
AcDbDictionary
280
     1
281
     1
  3
ACAD_MTEXT_RT
360
5CAB
  0
DICTIONARY
  5
5CAC
330
4A06
100
AcDbDictionary
280
     1
281
     1
  3
ACAD_MTEXT_RT
360
5CAD
  0
DICTIONARY
  5
5CAE
330
4A07
100
AcDbDictionary
280
     1
281
     1
  3
ACAD_MTEXT_RT
360
5CAF
  0
DICTIONARY
  5
5CB0
330
4A08
100
AcDbDictionary
280
     1
281
     1
  3
ACAD_MTEXT_RT
360
5CB1
  0
DICTIONARY
  5
5CB2
330
4A09
100
AcDbDictionary
280
     1
281
     1
  3
ACAD_MTEXT_RT
360
5CB3
  0
DICTIONARY
  5
5CB4
330
4A0A
100
AcDbDictionary
280
     1
281
     1
  3
ACAD_MTEXT_RT
360
5CB5
  0
DICTIONARY
  5
5CB6
330
4A0B
100
AcDbDictionary
280
     1
281
     1
  3
ACAD_MTEXT_RT
360
5CB7
  0
DICTIONARY
  5
5CB8
330
4A0C
100
AcDbDictionary
280
     1
281
     1
  3
ACAD_MTEXT_RT
360
5CB9
  0
DICTIONARY
  5
5C86
102
{ACAD_REACTORS
330
C
102
}
330
C
100
AcDbDictionary
281
     1
  3
INTERFERECOLOR
350
5C87
  0
DICTIONARY
  5
3513
102
{ACAD_REACTORS
330
C
102
}
330
C
100
AcDbDictionary
281
     1
  0
DICTIONARY
  5
D
102
{ACAD_REACTORS
330
C
102
}
330
C
100
AcDbDictionary
281
     1
  0
DICTIONARY
  5
1A
102
{ACAD_REACTORS
330
C
102
}
330
C
100
AcDbDictionary
281
     1
  3
Layout1
350
1E
  3
Layout2
350
24
  3
Model
350
22
  0
DICTIONARY
  5
350F
102
{ACAD_REACTORS
330
C
102
}
330
C
100
AcDbDictionary
281
     1
  3
ByBlock
350
3511
  3
ByLayer
350
3510
  3
Global
350
3512
  0
DICTIONARY
  5
17
102
{ACAD_REACTORS
330
C
102
}
330
C
100
AcDbDictionary
281
     1
  3
Standard
350
18
  0
DICTIONARY
  5
19
102
{ACAD_REACTORS
330
C
102
}
330
C
100
AcDbDictionary
281
     1
  0
ACDBDICTIONARYWDFLT
  5
E
102
{ACAD_REACTORS
330
C
102
}
330
C
100
AcDbDictionary
281
     1
  3
Normal
350
F
100
AcDbDictionaryWithDefault
340
F
  0
DICTIONARY
  5
E9
102
{ACAD_REACTORS
330
C
102
}
330
C
100
AcDbDictionary
281
     1
  3
Standard
350
3514
  0
DICTIONARY
  5
28
102
{ACAD_REACTORS
330
C
102
}
330
C
100
AcDbDictionary
281
     1
  3
2dWireframe
350
2D
  3
3D Hidden
350
2F
  3
3dWireframe
350
2E
  3
Basic
350
30
  3
Brighten
350
34
  3
ColorChange
350
38
  3
Conceptual
350
32
  3
Dim
350
33
  3
Facepattern
350
37
  3
Flat
350
29
  3
FlatWithEdges
350
2A
  3
Gouraud
350
2B
  3
GouraudWithEdges
350
2C
  3
Linepattern
350
36
  3
Realistic
350
31
  3
Thicken
350
35
  0
DICTIONARY
  5
366A
102
{ACAD_REACTORS
330
C
102
}
330
C
100
AcDbDictionary
281
     1
  3
CTABLESTYLE
350
366B
  3
DGNFRAME
350
5C16
  3
DIMASSOC
350
5C15
  3
HIDETEXT
350
5C14
  3
INDEXCTL
350
5C13
  3
SORTENTS
350
5C12
  0
XRECORD
  5
5C85
102
{ACAD_REACTORS
330
C
102
}
330
C
100
AcDbXrecord
280
     1
  1
DWGPROPS COOKIE
  2

  3

  4

  6

  7

  8
Administrator
  9

300
=
301
=
302
=
303
=
304
=
305
=
306
=
307
=
308
=
309
=
 40
0.0349347222222222
 41
2455841.60680022
 42
2459756.664102894
  1

 90
        0
  0
DICTIONARY
  5
36E3
102
{ACAD_REACTORS
330
36E2
102
}
330
36E2
100
AcDbDictionary
281
     1
  0
SORTENTSTABLE
  5
5BDF
102
{ACAD_REACTORS
330
5BDE
102
}
330
5BDE
100
AcDbSortentsTable
330
1F
331
49C3
  5
49C3
331
49CB
  5
49CB
331
49D3
  5
49D3
331
49DB
  5
49DB
331
49FA
  5
49FA
331
4A02
  5
4A02
331
4A0A
  5
4A0A
331
49E3
  5
49E3
331
49EB
  5
49EB
331
49AC
  5
49AC
331
49F3
  5
49F3
331
49B4
  5
49B4
331
49BC
  5
49BC
331
541A
  5
541A
331
49C4
  5
49C4
331
49CC
  5
49CC
331
49D4
  5
49D4
331
49DC
  5
49DC
331
49FB
  5
49FB
331
4A03
  5
4A03
331
4A0B
  5
4A0B
331
49E4
  5
49E4
331
49AD
  5
49AD
331
49EC
  5
49EC
331
49B5
  5
49B5
331
49F4
  5
49F4
331
49BD
  5
49BD
331
49C5
  5
49C5
331
49CD
  5
49CD
331
49D5
  5
49D5
331
49DD
  5
49DD
331
49FC
  5
49FC
331
4A04
  5
4A04
331
4A0C
  5
4A0C
331
49E5
  5
49E5
331
49ED
  5
49ED
331
49AE
  5
49AE
331
49F5
  5
49F5
331
49B6
  5
49B6
331
49BE
  5
49BE
331
49C6
  5
49C6
331
49CE
  5
49CE
331
49D6
  5
49D6
331
49DE
  5
49DE
331
49FD
  5
49FD
331
4A05
  5
4A05
331
4A0D
  5
4A0D
331
5444
  5
5444
331
49E6
  5
49E6
331
49AF
  5
49AF
331
49EE
  5
49EE
331
49F6
  5
49F6
331
49B7
  5
49B7
331
49BF
  5
49BF
331
545C
  5
545C
331
5415
  5
5415
331
5474
  5
5474
331
49C7
  5
49C7
331
49CF
  5
49CF
331
49D7
  5
49D7
331
49DF
  5
49DF
331
49FE
  5
49FE
331
4A06
  5
4A06
331
4A0E
  5
4A0E
331
49E7
  5
49E7
331
49EF
  5
49EF
331
49B0
  5
49B0
331
49F7
  5
49F7
331
49B8
  5
49B8
331
49C0
  5
49C0
331
49C8
  5
49C8
331
49D0
  5
49D0
331
49D8
  5
49D8
331
49FF
  5
49FF
331
4A07
  5
4A07
331
4A0F
  5
4A0F
331
49E0
  5
49E0
331
49E8
  5
49E8
331
49B1
  5
49B1
331
49F0
  5
49F0
331
49B9
  5
49B9
331
5417
  5
5417
331
49C1
  5
49C1
331
49C9
  5
49C9
331
49D1
  5
49D1
331
49D9
  5
49D9
331
49F8
  5
49F8
331
4A00
  5
4A00
331
4A08
  5
4A08
331
49E1
  5
49E1
331
49E9
  5
49E9
331
49F1
  5
49F1
331
49B2
  5
49B2
331
49BA
  5
49BA
331
49C2
  5
49C2
331
49CA
  5
49CA
331
49D2
  5
49D2
331
49DA
  5
49DA
331
49F9
  5
49F9
331
5438
  5
5438
331
4A01
  5
4A01
331
4A09
  5
4A09
331
5450
  5
5450
331
49E2
  5
49E2
331
49EA
  5
49EA
331
49B3
  5
49B3
331
49F2
  5
49F2
331
49BB
  5
49BB
331
5468
  5
5468
331
5419
  5
5419
331
5429
  5
5429
  0
XRECORD
  5
5C97
102
{ACAD_REACTORS
330
5C96
102
}
330
5C96
100
AcDbXrecord
280
     1
 40
2521.0
  1
日   
  0
XRECORD
  5
5C99
102
{ACAD_REACTORS
330
5C98
102
}
330
5C98
100
AcDbXrecord
280
     1
 40
2618.0
  1
签   
  0
XRECORD
  5
5C9B
102
{ACAD_REACTORS
330
5C9A
102
}
330
5C9A
100
AcDbXrecord
280
     1
 40
1661.0
  1
底
  0
XRECORD
  5
5C9D
102
{ACAD_REACTORS
330
5C9C
102
}
330
5C9C
100
AcDbXrecord
280
     1
 40
1671.0
  1
旧
  0
XRECORD
  5
5C9F
102
{ACAD_REACTORS
330
5C9E
102
}
330
5C9E
100
AcDbXrecord
280
     1
 40
2618.0
  1
描   
  0
XRECORD
  5
5CA1
102
{ACAD_REACTORS
330
5CA0
102
}
330
5CA0
100
AcDbXrecord
280
     1
 40
249260.0
  1
\ftxt.shx,gbcbig.shx;\H1x;\C1;借（通）用件登记
  0
XRECORD
  5
5CA3
102
{ACAD_REACTORS
330
5CA2
102
}
330
5CA2
100
AcDbXrecord
280
     1
 40
2640.0
  1
图   
  0
XRECORD
  5
5CA5
102
{ACAD_REACTORS
330
5CA4
102
}
330
5CA4
100
AcDbXrecord
280
     1
 40
2618.0
  1
描   
  0
XRECORD
  5
5CA7
102
{ACAD_REACTORS
330
5CA6
102
}
330
5CA6
100
AcDbXrecord
280
     1
 40
2394.0
  1
校   
  0
XRECORD
  5
5CA9
102
{ACAD_REACTORS
330
5CA8
102
}
330
5CA8
100
AcDbXrecord
280
     1
 40
1661.0
  1
底
  0
XRECORD
  5
5CAB
102
{ACAD_REACTORS
330
5CAA
102
}
330
5CAA
100
AcDbXrecord
280
     1
 40
1776.0
  1
图
  0
XRECORD
  5
5CAD
102
{ACAD_REACTORS
330
5CAC
102
}
330
5CAC
100
AcDbXrecord
280
     1
 40
1615.0
  1
总
  0
XRECORD
  5
5CAF
102
{ACAD_REACTORS
330
5CAE
102
}
330
5CAE
100
AcDbXrecord
280
     1
 40
1663.0
  1
号
  0
XRECORD
  5
5CB1
102
{ACAD_REACTORS
330
5CB0
102
}
330
5CB0
100
AcDbXrecord
280
     1
 40
1776.0
  1
图
  0
XRECORD
  5
5CB3
102
{ACAD_REACTORS
330
5CB2
102
}
330
5CB2
100
AcDbXrecord
280
     1
 40
1615.0
  1
总
  0
XRECORD
  5
5CB5
102
{ACAD_REACTORS
330
5CB4
102
}
330
5CB4
100
AcDbXrecord
280
     1
 40
1663.0
  1
号
  0
XRECORD
  5
5CB7
102
{ACAD_REACTORS
330
5CB6
102
}
330
5CB6
100
AcDbXrecord
280
     1
 40
2180.0
  1
字  
  0
XRECORD
  5
5CB9
102
{ACAD_REACTORS
330
5CB8
102
}
330
5CB8
100
AcDbXrecord
280
     1
 40
2210.0
  1
期  
  0
XRECORD
  5
5C87
102
{ACAD_REACTORS
330
5C86
102
}
330
5C86
100
AcDbXrecord
280
     1
1004
1800000001000000000000C0000000000000000000000000
  0
LAYOUT
  5
1E
102
{ACAD_XDICTIONARY
360
5C88
102
}
102
{ACAD_REACTORS
330
1A
102
}
330
1A
100
AcDbPlotSettings
  1

  2
none_device
  4

  6

 40
0.0
 41
0.0
 42
0.0
 43
0.0
 44
0.0
 45
0.0
 46
0.0
 47
0.0
 48
0.0
 49
0.0
140
0.0
141
0.0
142
1.0
143
1.0
 70
   688
 72
     0
 73
     0
 74
     5
  7

 75
    16
147
1.0
148
0.0
149
0.0
100
AcDbLayout
  1
Layout1
 70
     1
 71
     1
 10
0.0
 20
0.0
 11
12.0
 21
9.0
 12
0.0
 22
0.0
 32
0.0
 14
1.000000000000000E+20
 24
1.000000000000000E+20
 34
1.000000000000000E+20
 15
-1.000000000000000E+20
 25
-1.000000000000000E+20
 35
-1.000000000000000E+20
146
0.0
 13
0.0
 23
0.0
 33
0.0
 16
1.0
 26
0.0
 36
0.0
 17
0.0
 27
1.0
 37
0.0
 76
     0
330
1B
  0
LAYOUT
  5
24
102
{ACAD_XDICTIONARY
360
5C8C
102
}
102
{ACAD_REACTORS
330
1A
102
}
330
1A
100
AcDbPlotSettings
  1

  2
none_device
  4

  6

 40
0.0
 41
0.0
 42
0.0
 43
0.0
 44
0.0
 45
0.0
 46
0.0
 47
0.0
 48
0.0
 49
0.0
140
0.0
141
0.0
142
1.0
143
1.0
 70
   688
 72
     0
 73
     0
 74
     5
  7

 75
    16
147
1.0
148
0.0
149
0.0
100
AcDbLayout
  1
Layout2
 70
     1
 71
     2
 10
0.0
 20
0.0
 11
0.0
 21
0.0
 12
0.0
 22
0.0
 32
0.0
 14
0.0
 24
0.0
 34
0.0
 15
0.0
 25
0.0
 35
0.0
146
0.0
 13
0.0
 23
0.0
 33
0.0
 16
1.0
 26
0.0
 36
0.0
 17
0.0
 27
1.0
 37
0.0
 76
     0
330
23
  0
LAYOUT
  5
22
102
{ACAD_XDICTIONARY
360
5C8A
102
}
102
{ACAD_REACTORS
330
1A
102
}
330
1A
100
AcDbPlotSettings
  1

  2
pdfFactory Pro
  4
A4
  6

 40
6.349999999999999
 41
6.350000000000009
 42
6.350000000000017
 43
6.349999999999999
 44
210.0
 45
297.0
 46
0.0000000000000052
 47
2.64494949494977
 48
160.0474348782521
 49
-980.6350438521992
140
1321.266360503508
141
-159.4873750171948
142
1.0
143
4.161924322529165
 70
  1716
 72
     1
 73
     1
 74
     4
  7
Monochrome.ctb
 75
     0
147
0.2402734702759584
148
0.0
149
0.0
100
AcDbLayout
  1
Model
 70
     1
 71
     0
 10
0.0
 20
0.0
 11
12.0
 21
9.0
 12
0.0
 22
0.0
 32
0.0
 14
160.0474348782521
 24
-980.6350438521992
 34
0.0
 15
2654.266360503509
 25
26.15421719922033
 35
0.0
146
0.0
 13
0.0
 23
0.0
 33
0.0
 16
1.0
 26
0.0
 36
0.0
 17
0.0
 27
1.0
 37
0.0
 76
     0
330
1F
331
27
  0
MATERIAL
  5
3511
102
{ACAD_XDICTIONARY
360
5C90
102
}
102
{ACAD_REACTORS
330
350F
102
}
330
350F
100
AcDbMaterial
  1
ByBlock
  0
MATERIAL
  5
3510
102
{ACAD_XDICTIONARY
360
5C8E
102
}
102
{ACAD_REACTORS
330
350F
102
}
330
350F
100
AcDbMaterial
  1
ByLayer
  0
MATERIAL
  5
3512
102
{ACAD_XDICTIONARY
360
5C92
102
}
102
{ACAD_REACTORS
330
350F
102
}
330
350F
100
AcDbMaterial
  1
Global
  0
MLINESTYLE
  5
18
102
{ACAD_REACTORS
330
17
102
}
330
17
100
AcDbMlineStyle
  2
STANDARD
 70
     0
  3

 62
   256
 51
90.0
 52
90.0
 71
     2
 49
0.5
 62
   256
  6
BYLAYER
 49
-0.5
 62
   256
  6
BYLAYER
  0
ACDBPLACEHOLDER
  5
F
102
{ACAD_REACTORS
330
E
102
}
330
E
  0
TABLESTYLE
  5
3514
102
{ACAD_XDICTIONARY
360
5C94
102
}
102
{ACAD_REACTORS
330
E9
102
}
330
E9
100
AcDbTableStyle
  3
Standard
 70
     0
 71
     0
 40
0.06
 41
0.06
280
     0
281
     0
  7
Standard
140
0.18
170
     2
 62
     0
 63
     7
283
     0
274
    -2
284
     1
 64
     0
275
    -2
285
     1
 65
     0
276
    -2
286
     1
 66
     0
277
    -2
287
     1
 67
     0
278
    -2
288
     1
 68
     0
279
    -2
289
     1
 69
     0
  7
Standard
140
0.25
170
     5
 62
     0
 63
     7
283
     0
274
    -2
284
     1
 64
     0
275
    -2
285
     1
 65
     0
276
    -2
286
     1
 66
     0
277
    -2
287
     1
 67
     0
278
    -2
288
     1
 68
     0
279
    -2
289
     1
 69
     0
  7
Standard
140
0.18
170
     5
 62
     0
 63
     7
283
     0
274
    -2
284
     1
 64
     0
275
    -2
285
     1
 65
     0
276
    -2
286
     1
 66
     0
277
    -2
287
     1
 67
     0
278
    -2
288
     1
 68
     0
279
    -2
289
     1
 69
     0
  0
VISUALSTYLE
  5
2D
102
{ACAD_REACTORS
330
28
102
}
330
28
100
AcDbVisualStyle
  2
2dWireframe
 70
     4
 71
     0
 72
     2
 73
     0
 90
        0
 40
-0.6
 41
-30.0
 62
     5
 63
     7
 74
     1
 91
        4
 64
     7
 65
   257
 75
     1
175
     1
 42
1.0
 92
        0
 66
   257
 43
1.0
 76
     1
 77
     6
 78
     2
 67
     7
 79
     5
170
     0
171
     0
290
     0
174
     0
 93
        1
 44
0.0
173
     0
291
     0
 45
0.0
1001
ACAD
1000
AcDbSavedByObjectVersion
1070
     0
  0
VISUALSTYLE
  5
2F
102
{ACAD_REACTORS
330
28
102
}
330
28
100
AcDbVisualStyle
  2
3D Hidden
 70
     6
 71
     1
 72
     2
 73
     2
 90
        0
 40
-0.6
 41
-30.0
 62
     5
 63
     7
 74
     2
 91
        2
 64
     7
 65
   257
 75
     2
175
     1
 42
40.0
 92
        0
 66
   257
 43
1.0
 76
     1
 77
     6
 78
     2
 67
     7
 79
     3
170
     0
171
     0
290
     0
174
     0
 93
        1
 44
0.0
173
     0
291
     0
 45
0.0
1001
ACAD
1000
AcDbSavedByObjectVersion
1070
     0
  0
VISUALSTYLE
  5
2E
102
{ACAD_REACTORS
330
28
102
}
330
28
100
AcDbVisualStyle
  2
3dWireframe
 70
     5
 71
     0
 72
     2
 73
     0
 90
        0
 40
-0.6
 41
-30.0
 62
     5
 63
     7
 74
     1
 91
        4
 64
     7
 65
   257
 75
     1
175
     1
 42
1.0
 92
        0
 66
   257
 43
1.0
 76
     1
 77
     6
 78
     2
 67
     7
 79
     5
170
     0
171
     0
290
     0
174
     0
 93
        1
 44
0.0
173
     0
291
     0
 45
0.0
1001
ACAD
1000
AcDbSavedByObjectVersion
1070
     0
  0
VISUALSTYLE
  5
30
102
{ACAD_REACTORS
330
28
102
}
330
28
100
AcDbVisualStyle
  2
Basic
 70
     7
 71
     1
 72
     0
 73
     1
 90
        0
 40
-0.6
 41
-30.0
 62
     5
 63
     7
 74
     0
 91
        4
 64
     7
 65
   257
 75
     1
175
     1
 42
1.0
 92
        8
 66
     7
 43
1.0
 76
     1
 77
     6
 78
     2
 67
     7
 79
     5
170
     0
171
     0
290
     0
174
     0
 93
        1
 44
0.0
173
     0
291
     1
 45
0.0
1001
ACAD
1000
AcDbSavedByObjectVersion
1070
     0
  0
VISUALSTYLE
  5
34
102
{ACAD_REACTORS
330
28
102
}
330
28
100
AcDbVisualStyle
  2
Brighten
 70
    12
 71
     2
 72
     2
 73
     0
 90
        0
 40
-0.6
 41
-30.0
 62
     5
 63
     7
 74
     1
 91
        4
 64
     7
 65
   257
 75
     1
175
     1
 42
1.0
 92
        8
 66
     7
 43
1.0
 76
     1
 77
     6
 78
     2
 67
     7
 79
     5
170
     0
171
     0
290
     0
174
     0
 93
        1
 44
50.0
173
     0
291
     1
 45
0.0
1001
ACAD
1000
AcDbSavedByObjectVersion
1070
     0
  0
VISUALSTYLE
  5
38
102
{ACAD_REACTORS
330
28
102
}
330
28
100
AcDbVisualStyle
  2
ColorChange
 70
    16
 71
     2
 72
     2
 73
     3
 90
        0
 40
-0.6
 41
-30.0
 62
     5
 63
     8
 74
     1
 91
        4
 64
     7
 65
   257
 75
     1
175
     1
 42
1.0
 92
        8
 66
     8
 43
1.0
 76
     1
 77
     6
 78
     2
 67
     7
 79
     5
170
     0
171
     0
290
     0
174
     0
 93
        1
 44
0.0
173
     0
291
     1
 45
0.0
1001
ACAD
1000
AcDbSavedByObjectVersion
1070
     0
  0
VISUALSTYLE
  5
32
102
{ACAD_REACTORS
330
28
102
}
330
28
100
AcDbVisualStyle
  2
Conceptual
 70
     9
 71
     3
 72
     2
 73
     0
 90
        0
 40
-0.6
 41
-30.0
 62
     5
 63
     7
 74
     2
 91
        2
 64
     7
 65
   257
 75
     1
175
     1
 42
40.0
 92
        8
 66
     7
 43
1.0
 76
     1
 77
     6
 78
     2
 67
     7
 79
     3
170
     0
171
     0
290
     0
174
     0
 93
        1
 44
0.0
173
     0
291
     0
 45
0.0
1001
ACAD
1000
AcDbSavedByObjectVersion
1070
     0
  0
VISUALSTYLE
  5
33
102
{ACAD_REACTORS
330
28
102
}
330
28
100
AcDbVisualStyle
  2
Dim
 70
    11
 71
     2
 72
     2
 73
     0
 90
        0
 40
-0.6
 41
-30.0
 62
     5
 63
     7
 74
     1
 91
        4
 64
     7
 65
   257
 75
     1
175
     1
 42
1.0
 92
        8
 66
     7
 43
1.0
 76
     1
 77
     6
 78
     2
 67
     7
 79
     5
170
     0
171
     0
290
     0
174
     0
 93
        1
 44
-50.0
173
     0
291
     1
 45
0.0
1001
ACAD
1000
AcDbSavedByObjectVersion
1070
     0
  0
VISUALSTYLE
  5
37
102
{ACAD_REACTORS
330
28
102
}
330
28
100
AcDbVisualStyle
  2
Facepattern
 70
    15
 71
     2
 72
     2
 73
     0
 90
        0
 40
-0.6
 41
-30.0
 62
     5
 63
     7
 74
     1
 91
        4
 64
     7
 65
   257
 75
     1
175
     1
 42
1.0
 92
        8
 66
     7
 43
1.0
 76
     1
 77
     6
 78
     2
 67
     7
 79
     5
170
     0
171
     0
290
     0
174
     0
 93
        1
 44
0.0
173
     0
291
     1
 45
0.0
1001
ACAD
1000
AcDbSavedByObjectVersion
1070
     0
  0
VISUALSTYLE
  5
29
102
{ACAD_REACTORS
330
28
102
}
330
28
100
AcDbVisualStyle
  2
Flat
 70
     0
 71
     2
 72
     1
 73
     1
 90
        2
 40
-0.6
 41
30.0
 62
     5
 63
     7
 74
     0
 91
        4
 64
     7
 65
   257
 75
     1
175
     1
 42
1.0
 92
        8
 66
     7
 43
1.0
 76
     1
 77
     6
 78
     2
 67
     7
 79
     5
170
     0
171
     0
290
     0
174
     0
 93
       13
 44
0.0
173
     0
291
     1
 45
0.0
1001
ACAD
1000
AcDbSavedByObjectVersion
1070
     0
  0
VISUALSTYLE
  5
2A
102
{ACAD_REACTORS
330
28
102
}
330
28
100
AcDbVisualStyle
  2
FlatWithEdges
 70
     1
 71
     2
 72
     1
 73
     1
 90
        2
 40
-0.6
 41
30.0
 62
     5
 63
     7
 74
     1
 91
        4
 64
     7
 65
   257
 75
     1
175
     1
 42
1.0
 92
        0
 66
   257
 43
1.0
 76
     1
 77
     6
 78
     2
 67
     7
 79
     5
170
     0
171
     0
290
     0
174
     0
 93
       13
 44
0.0
173
     0
291
     1
 45
0.0
1001
ACAD
1000
AcDbSavedByObjectVersion
1070
     0
  0
VISUALSTYLE
  5
2B
102
{ACAD_REACTORS
330
28
102
}
330
28
100
AcDbVisualStyle
  2
Gouraud
 70
     2
 71
     2
 72
     2
 73
     1
 90
        2
 40
-0.6
 41
30.0
 62
     5
 63
     7
 74
     0
 91
        4
 64
     7
 65
   257
 75
     1
175
     1
 42
1.0
 92
        0
 66
     7
 43
1.0
 76
     1
 77
     6
 78
     2
 67
     7
 79
     5
170
     0
171
     0
290
     0
174
     0
 93
       13
 44
0.0
173
     0
291
     1
 45
0.0
1001
ACAD
1000
AcDbSavedByObjectVersion
1070
     0
  0
VISUALSTYLE
  5
2C
102
{ACAD_REACTORS
330
28
102
}
330
28
100
AcDbVisualStyle
  2
GouraudWithEdges
 70
     3
 71
     2
 72
     2
 73
     1
 90
        2
 40
-0.6
 41
30.0
 62
     5
 63
     7
 74
     1
 91
        4
 64
     7
 65
   257
 75
     1
175
     1
 42
1.0
 92
        0
 66
   257
 43
1.0
 76
     1
 77
     6
 78
     2
 67
     7
 79
     5
170
     0
171
     0
290
     0
174
     0
 93
       13
 44
0.0
173
     0
291
     1
 45
0.0
1001
ACAD
1000
AcDbSavedByObjectVersion
1070
     0
  0
VISUALSTYLE
  5
36
102
{ACAD_REACTORS
330
28
102
}
330
28
100
AcDbVisualStyle
  2
Linepattern
 70
    14
 71
     2
 72
     2
 73
     0
 90
        0
 40
-0.6
 41
-30.0
 62
     5
 63
     7
 74
     1
 91
        4
 64
     7
 65
   257
 75
     7
175
     7
 42
1.0
 92
        8
 66
     7
 43
1.0
 76
     1
 77
     6
 78
     2
 67
     7
 79
     5
170
     0
171
     0
290
     0
174
     0
 93
        1
 44
0.0
173
     0
291
     1
 45
0.0
1001
ACAD
1000
AcDbSavedByObjectVersion
1070
     0
  0
VISUALSTYLE
  5
31
102
{ACAD_REACTORS
330
28
102
}
330
28
100
AcDbVisualStyle
  2
Realistic
 70
     8
 71
     2
 72
     2
 73
     0
 90
        0
 40
-0.6
 41
-30.0
 62
     5
 63
     7
 74
     1
 91
        0
 64
     7
 65
   257
 75
     1
175
     1
 42
1.0
 92
        8
 66
     8
 43
1.0
 76
     1
 77
     6
 78
     2
 67
     7
 79
     5
170
     0
171
     0
290
     0
174
     0
 93
       13
 44
0.0
173
     0
291
     0
 45
0.0
1001
ACAD
1000
AcDbSavedByObjectVersion
1070
     0
  0
VISUALSTYLE
  5
35
102
{ACAD_REACTORS
330
28
102
}
330
28
100
AcDbVisualStyle
  2
Thicken
 70
    13
 71
     2
 72
     2
 73
     0
 90
        0
 40
-0.6
 41
-30.0
 62
     5
 63
     7
 74
     1
 91
        4
 64
     7
 65
   257
 75
     1
175
     1
 42
1.0
 92
       12
 66
     7
 43
1.0
 76
     1
 77
     6
 78
     2
 67
     7
 79
     5
170
     0
171
     0
290
     0
174
     0
 93
        1
 44
0.0
173
     0
291
     1
 45
0.0
1001
ACAD
1000
AcDbSavedByObjectVersion
1070
     0
  0
DICTIONARYVAR
  5
366B
102
{ACAD_REACTORS
330
366A
102
}
330
366A
100
DictionaryVariables
280
     0
  1
STANDARD
  0
DICTIONARYVAR
  5
5C16
102
{ACAD_REACTORS
330
366A
102
}
330
366A
100
DictionaryVariables
280
     0
  1
2
  0
DICTIONARYVAR
  5
5C15
102
{ACAD_REACTORS
330
366A
102
}
330
366A
100
DictionaryVariables
280
     0
  1
2
  0
DICTIONARYVAR
  5
5C14
102
{ACAD_REACTORS
330
366A
102
}
330
366A
100
DictionaryVariables
280
     0
  1
1
  0
DICTIONARYVAR
  5
5C13
102
{ACAD_REACTORS
330
366A
102
}
330
366A
100
DictionaryVariables
280
     0
  1
0
  0
DICTIONARYVAR
  5
5C12
102
{ACAD_REACTORS
330
366A
102
}
330
366A
100
DictionaryVariables
280
     0
  1
127
  0
DICTIONARY
  5
5C88
330
1E
100
AcDbDictionary
280
     1
281
     1
  3
ACAD_XREC_ROUNDTRIP
360
5C89
  0
DICTIONARY
  5
5C8C
330
24
100
AcDbDictionary
280
     1
281
     1
  3
ACAD_XREC_ROUNDTRIP
360
5C8D
  0
DICTIONARY
  5
5C8A
330
22
100
AcDbDictionary
280
     1
281
     1
  3
ACAD_XREC_ROUNDTRIP
360
5C8B
  0
DICTIONARY
  5
5C90
330
3511
100
AcDbDictionary
280
     1
281
     1
  3
ACAD_XREC_ROUNDTRIP
360
5C91
  0
DICTIONARY
  5
5C8E
330
3510
100
AcDbDictionary
280
     1
281
     1
  3
ACAD_XREC_ROUNDTRIP
360
5C8F
  0
DICTIONARY
  5
5C92
330
3512
100
AcDbDictionary
280
     1
281
     1
  3
ACAD_XREC_ROUNDTRIP
360
5C93
  0
DICTIONARY
  5
5C94
330
3514
100
AcDbDictionary
280
     1
281
     1
  3
ACAD_XREC_ROUNDTRIP
360
5C95
  0
XRECORD
  5
5C89
102
{ACAD_REACTORS
330
5C88
102
}
330
5C88
100
AcDbXrecord
280
     1
102
SHADEPLOT
 70
     0
102
SHADEPLOTRESLEVEL
 70
     2
102
SHADEPLOTCUSTOMDPI
 70
   300
  0
XRECORD
  5
5C8D
102
{ACAD_REACTORS
330
5C8C
102
}
330
5C8C
100
AcDbXrecord
280
     1
102
SHADEPLOT
 70
     0
102
SHADEPLOTRESLEVEL
 70
     2
102
SHADEPLOTCUSTOMDPI
 70
   300
  0
XRECORD
  5
5C8B
102
{ACAD_REACTORS
330
5C8A
102
}
330
5C8A
100
AcDbXrecord
280
     1
102
SHADEPLOT
 70
     0
102
SHADEPLOTRESLEVEL
 70
     2
102
SHADEPLOTCUSTOMDPI
 70
   300
  0
XRECORD
  5
5C91
102
{ACAD_REACTORS
330
5C90
102
}
330
5C90
100
AcDbXrecord
280
     1
102
MATERIAL
148
0.0
149
0.0
149
0.0
 93
        0
 94
       63
282
     0
 72
     1
 77
     1
171
     1
175
     1
179
     1
273
     0
  0
XRECORD
  5
5C8F
102
{ACAD_REACTORS
330
5C8E
102
}
330
5C8E
100
AcDbXrecord
280
     1
102
MATERIAL
148
0.0
149
0.0
149
0.0
 93
        0
 94
       63
282
     0
 72
     1
 77
     1
171
     1
175
     1
179
     1
273
     0
  0
XRECORD
  5
5C93
102
{ACAD_REACTORS
330
5C92
102
}
330
5C92
100
AcDbXrecord
280
     1
102
MATERIAL
148
0.0
149
0.0
149
0.0
 93
        0
 94
       63
282
     0
 72
     1
 77
     1
171
     1
175
     1
179
     1
273
     0
  0
XRECORD
  5
5C95
102
{ACAD_REACTORS
330
5C94
102
}
330
5C94
100
AcDbXrecord
280
     1
102
ACAD_ROUNDTRIP_PRE2007_TABLESTYLE
 90
      512
 91
        0
  1

 92
      512
 93
        0
  2

 94
      512
 95
        0
  3

  0
ENDSEC
  0
EOF
