  0
SECTION
  2
HEADER
  9
$ACADVER
  1
AC1015
  9
$ACADMAINTVER
 70
    20
  9
$DWGCODEPAGE
  3
ANSI_936
  9
$INSBASE
 10
0.0
 20
0.0
 30
0.0
  9
$EXTMIN
 10
190.7800712908306
 20
88.96077027561265
 30
0.0
  9
$EXTMAX
 10
2258.612981580133
 20
1000.0816233519
 30
0.0
  9
$LIMMIN
 10
0.0
 20
0.0
  9
$LIMMAX
 10
12.0
 20
9.0
  9
$ORTHOMODE
 70
     1
  9
$REGENMODE
 70
     1
  9
$FILLMODE
 70
     1
  9
$QTEXTMODE
 70
     0
  9
$MIRRTEXT
 70
     1
  9
$LTSCALE
 40
1.0
  9
$ATTMODE
 70
     1
  9
$TEXTSIZE
 40
0.2
  9
$TRACEWID
 40
0.05
  9
$TEXTSTYLE
  7
Standard
  9
$CLAYER
  8
0
  9
$CELTYPE
  6
ByLayer
  9
$CECOLOR
 62
   256
  9
$CELTSCALE
 40
1.0
  9
$DISPSILH
 70
     0
  9
$DIMSCALE
 40
1.0
  9
$DIMASZ
 40
0.18
  9
$DIMEXO
 40
0.0625
  9
$DIMDLI
 40
0.38
  9
$DIMRND
 40
0.0
  9
$DIMDLE
 40
0.0
  9
$DIMEXE
 40
0.18
  9
$DIMTP
 40
0.0
  9
$DIMTM
 40
0.0
  9
$DIMTXT
 40
0.18
  9
$DIMCEN
 40
0.09
  9
$DIMTSZ
 40
0.0
  9
$DIMTOL
 70
     0
  9
$DIMLIM
 70
     0
  9
$DIMTIH
 70
     1
  9
$DIMTOH
 70
     1
  9
$DIMSE1
 70
     0
  9
$DIMSE2
 70
     0
  9
$DIMTAD
 70
     0
  9
$DIMZIN
 70
     0
  9
$DIMBLK
  1

  9
$DIMASO
 70
     1
  9
$DIMSHO
 70
     1
  9
$DIMPOST
  1

  9
$DIMAPOST
  1

  9
$DIMALT
 70
     0
  9
$DIMALTD
 70
     2
  9
$DIMALTF
 40
25.4
  9
$DIMLFAC
 40
1.0
  9
$DIMTOFL
 70
     0
  9
$DIMTVP
 40
0.0
  9
$DIMTIX
 70
     0
  9
$DIMSOXD
 70
     0
  9
$DIMSAH
 70
     0
  9
$DIMBLK1
  1

  9
$DIMBLK2
  1

  9
$DIMSTYLE
  2
Standard
  9
$DIMCLRD
 70
     0
  9
$DIMCLRE
 70
     0
  9
$DIMCLRT
 70
     0
  9
$DIMTFAC
 40
1.0
  9
$DIMGAP
 40
0.09
  9
$DIMJUST
 70
     0
  9
$DIMSD1
 70
     0
  9
$DIMSD2
 70
     0
  9
$DIMTOLJ
 70
     1
  9
$DIMTZIN
 70
     0
  9
$DIMALTZ
 70
     0
  9
$DIMALTTZ
 70
     0
  9
$DIMUPT
 70
     0
  9
$DIMDEC
 70
     4
  9
$DIMTDEC
 70
     4
  9
$DIMALTU
 70
     2
  9
$DIMALTTD
 70
     2
  9
$DIMTXSTY
  7
Standard
  9
$DIMAUNIT
 70
     0
  9
$DIMADEC
 70
     0
  9
$DIMALTRND
 40
0.0
  9
$DIMAZIN
 70
     0
  9
$DIMDSEP
 70
    46
  9
$DIMATFIT
 70
     3
  9
$DIMFRAC
 70
     0
  9
$DIMLDRBLK
  1

  9
$DIMLUNIT
 70
     2
  9
$DIMLWD
 70
    -2
  9
$DIMLWE
 70
    -2
  9
$DIMTMOVE
 70
     0
  9
$LUNITS
 70
     2
  9
$LUPREC
 70
     4
  9
$SKETCHINC
 40
0.1
  9
$FILLETRAD
 40
0.0
  9
$AUNITS
 70
     0
  9
$AUPREC
 70
     0
  9
$MENU
  1
.
  9
$ELEVATION
 40
0.0
  9
$PELEVATION
 40
0.0
  9
$THICKNESS
 40
0.0
  9
$LIMCHECK
 70
     0
  9
$CHAMFERA
 40
0.5
  9
$CHAMFERB
 40
0.5
  9
$CHAMFERC
 40
1.0
  9
$CHAMFERD
 40
0.0
  9
$SKPOLY
 70
     0
  9
$TDCREATE
 40
2455841.606800220
  9
$TDUCREATE
 40
2455841.273466887
  9
$TDUPDATE
 40
2459542.030112952
  9
$TDUUPDATE
 40
2459541.696779618
  9
$TDINDWG
 40
0.0561170949
  9
$TDUSRTIMER
 40
0.0561170949
  9
$USRTIMER
 70
     1
  9
$ANGBASE
 50
0.0
  9
$ANGDIR
 70
     0
  9
$PDMODE
 70
     0
  9
$PDSIZE
 40
0.0
  9
$PLINEWID
 40
0.0
  9
$SPLFRAME
 70
     0
  9
$SPLINETYPE
 70
     6
  9
$SPLINESEGS
 70
     8
  9
$HANDSEED
  5
61A3
  9
$SURFTAB1
 70
     6
  9
$SURFTAB2
 70
     6
  9
$SURFTYPE
 70
     6
  9
$SURFU
 70
     6
  9
$SURFV
 70
     6
  9
$UCSBASE
  2

  9
$UCSNAME
  2

  9
$UCSORG
 10
0.0
 20
0.0
 30
0.0
  9
$UCSXDIR
 10
1.0
 20
0.0
 30
0.0
  9
$UCSYDIR
 10
0.0
 20
1.0
 30
0.0
  9
$UCSORTHOREF
  2

  9
$UCSORTHOVIEW
 70
     0
  9
$UCSORGTOP
 10
0.0
 20
0.0
 30
0.0
  9
$UCSORGBOTTOM
 10
0.0
 20
0.0
 30
0.0
  9
$UCSORGLEFT
 10
0.0
 20
0.0
 30
0.0
  9
$UCSORGRIGHT
 10
0.0
 20
0.0
 30
0.0
  9
$UCSORGFRONT
 10
0.0
 20
0.0
 30
0.0
  9
$UCSORGBACK
 10
0.0
 20
0.0
 30
0.0
  9
$PUCSBASE
  2

  9
$PUCSNAME
  2

  9
$PUCSORG
 10
0.0
 20
0.0
 30
0.0
  9
$PUCSXDIR
 10
1.0
 20
0.0
 30
0.0
  9
$PUCSYDIR
 10
0.0
 20
1.0
 30
0.0
  9
$PUCSORTHOREF
  2

  9
$PUCSORTHOVIEW
 70
     0
  9
$PUCSORGTOP
 10
0.0
 20
0.0
 30
0.0
  9
$PUCSORGBOTTOM
 10
0.0
 20
0.0
 30
0.0
  9
$PUCSORGLEFT
 10
0.0
 20
0.0
 30
0.0
  9
$PUCSORGRIGHT
 10
0.0
 20
0.0
 30
0.0
  9
$PUCSORGFRONT
 10
0.0
 20
0.0
 30
0.0
  9
$PUCSORGBACK
 10
0.0
 20
0.0
 30
0.0
  9
$USERI1
 70
     0
  9
$USERI2
 70
     0
  9
$USERI3
 70
     0
  9
$USERI4
 70
     0
  9
$USERI5
 70
     0
  9
$USERR1
 40
0.0
  9
$USERR2
 40
0.0
  9
$USERR3
 40
0.0
  9
$USERR4
 40
0.0
  9
$USERR5
 40
0.0
  9
$WORLDVIEW
 70
     1
  9
$SHADEDGE
 70
     3
  9
$SHADEDIF
 70
    70
  9
$TILEMODE
 70
     1
  9
$MAXACTVP
 70
    64
  9
$PINSBASE
 10
0.0
 20
0.0
 30
0.0
  9
$PLIMCHECK
 70
     0
  9
$PEXTMIN
 10
1.000000000000000E+20
 20
1.000000000000000E+20
 30
1.000000000000000E+20
  9
$PEXTMAX
 10
-1.000000000000000E+20
 20
-1.000000000000000E+20
 30
-1.000000000000000E+20
  9
$PLIMMIN
 10
0.0
 20
0.0
  9
$PLIMMAX
 10
12.0
 20
9.0
  9
$UNITMODE
 70
     0
  9
$VISRETAIN
 70
     1
  9
$PLINEGEN
 70
     0
  9
$PSLTSCALE
 70
     1
  9
$TREEDEPTH
 70
  3020
  9
$CMLSTYLE
  2
Standard
  9
$CMLJUST
 70
     0
  9
$CMLSCALE
 40
1.0
  9
$PROXYGRAPHICS
 70
     1
  9
$MEASUREMENT
 70
     0
  9
$CELWEIGHT
370
    -1
  9
$ENDCAPS
280
     0
  9
$JOINSTYLE
280
     0
  9
$LWDISPLAY
290
     0
  9
$INSUNITS
 70
     1
  9
$HYPERLINKBASE
  1

  9
$STYLESHEET
  1
Monochrome.ctb
  9
$XEDIT
290
     1
  9
$CEPSNTYPE
380
     0
  9
$PSTYLEMODE
290
     1
  9
$FINGERPRINTGUID
  2
{168A8766-4015-4ABD-915A-AD1ECBE2E3C2}
  9
$VERSIONGUID
  2
{A4DDB284-FB10-45FF-87D9-A45E0D11A4A6}
  9
$EXTNAMES
290
     1
  9
$PSVPSCALE
 40
0.0
  9
$OLESTARTUP
290
     0
  0
ENDSEC
  0
SECTION
  2
CLASSES
  0
CLASS
  1
ACDBDICTIONARYWDFLT
  2
AcDbDictionaryWithDefault
  3
ObjectDBX Classes
 90
        0
280
     0
281
     0
  0
CLASS
  1
VISUALSTYLE
  2
AcDbVisualStyle
  3
ObjectDBX Classes
 90
     4095
280
     0
281
     0
  0
CLASS
  1
DIMASSOC
  2
AcDbDimAssoc
  3
"AcDbDimAssoc|Product Desc:     AcDim ARX App For Dimension|Company:          Autodesk, Inc.|WEB Address:      www.autodesk.com"
 90
        0
280
     0
281
     0
  0
CLASS
  1
MATERIAL
  2
AcDbMaterial
  3
ObjectDBX Classes
 90
     1024
280
     0
281
     0
  0
CLASS
  1
TABLESTYLE
  2
AcDbTableStyle
  3
ObjectDBX Classes
 90
     4095
280
     0
281
     0
  0
CLASS
  1
DICTIONARYVAR
  2
AcDbDictionaryVar
  3
ObjectDBX Classes
 90
        0
280
     0
281
     0
  0
CLASS
  1
SORTENTSTABLE
  2
AcDbSortentsTable
  3
ObjectDBX Classes
 90
        0
280
     0
281
     0
  0
CLASS
  1
IMAGEDEF_REACTOR
  2
AcDbRasterImageDefReactor
  3
ISM
 90
        1
280
     0
281
     0
  0
CLASS
  1
IMAGEDEF
  2
AcDbRasterImageDef
  3
ISM
 90
        0
280
     0
281
     0
  0
CLASS
  1
IMAGE
  2
AcDbRasterImage
  3
ISM
 90
     2175
280
     0
281
     1
  0
CLASS
  1
RASTERVARIABLES
  2
AcDbRasterVariables
  3
ISM
 90
        0
280
     0
281
     0
  0
CLASS
  1
ACDBPLACEHOLDER
  2
AcDbPlaceHolder
  3
ObjectDBX Classes
 90
        0
280
     0
281
     0
  0
CLASS
  1
LAYOUT
  2
AcDbLayout
  3
ObjectDBX Classes
 90
        0
280
     0
281
     0
  0
ENDSEC
  0
SECTION
  2
TABLES
  0
TABLE
  2
VPORT
  5
8
330
0
100
AcDbSymbolTable
 70
     1
  0
VPORT
  5
27
330
8
100
AcDbSymbolTableRecord
100
AcDbViewportTableRecord
  2
*Active
 70
     0
 10
0.0
 20
0.0
 11
1.0
 21
1.0
 12
144.6148593610451
 22
938.7797614018095
 13
0.0
 23
0.0
 14
0.5
 24
0.5
 15
0.5
 25
0.5
 16
0.0
 26
0.0
 36
1.0
 17
0.0
 27
0.0
 37
0.0
 40
3860.31480860129
 41
2.365508365508365
 42
50.0
 43
0.0
 44
0.0
 50
0.0
 51
0.0
 71
     0
 72
   100
 73
     1
 74
     3
 75
     1
 76
     0
 77
     0
 78
     0
281
     0
 65
     1
110
0.0
120
0.0
130
0.0
111
1.0
121
0.0
131
0.0
112
0.0
122
1.0
132
0.0
 79
     0
146
0.0
  0
ENDTAB
  0
TABLE
  2
LTYPE
  5
5
330
0
100
AcDbSymbolTable
 70
     7
  0
LTYPE
  5
14
330
5
100
AcDbSymbolTableRecord
100
AcDbLinetypeTableRecord
  2
ByBlock
 70
     0
  3

 72
    65
 73
     0
 40
0.0
  0
LTYPE
  5
15
330
5
100
AcDbSymbolTableRecord
100
AcDbLinetypeTableRecord
  2
ByLayer
 70
     0
  3

 72
    65
 73
     0
 40
0.0
  0
LTYPE
  5
16
330
5
100
AcDbSymbolTableRecord
100
AcDbLinetypeTableRecord
  2
Continuous
 70
     0
  3
Solid line
 72
    65
 73
     0
 40
0.0
  0
LTYPE
  5
5B
330
5
100
AcDbSymbolTableRecord
100
AcDbLinetypeTableRecord
  2
CENTERX2
 70
     0
  3
Center (2x) ________  __  ________  __  _____
 72
    65
 73
     4
 40
101.6
 49
63.5
 74
     4
 75
     0
340
0
 46
1.0
 50
0.0
 44
0.0
 45
0.0
 49
-12.7
 74
     4
 75
     0
340
0
 46
1.0
 50
0.0
 44
0.0
 45
0.0
 49
12.7
 74
     4
 75
     0
340
0
 46
1.0
 50
0.0
 44
0.0
 45
0.0
 49
-12.7
 74
     4
 75
     0
340
0
 46
1.0
 50
0.0
 44
0.0
 45
0.0
  0
LTYPE
  5
192
330
5
100
AcDbSymbolTableRecord
100
AcDbLinetypeTableRecord
  2
CENTER
 70
     0
  3
Center ____ _ ____ _ ____ _ ____ _ ____ _ ____
 72
    65
 73
     4
 40
50.8
 49
31.75
 74
     4
 75
     0
340
0
 46
1.0
 50
0.0
 44
0.0
 45
0.0
 49
-6.349999999999999
 74
     4
 75
     0
340
0
 46
1.0
 50
0.0
 44
0.0
 45
0.0
 49
6.349999999999999
 74
     4
 75
     0
340
0
 46
1.0
 50
0.0
 44
0.0
 45
0.0
 49
-6.349999999999999
 74
     4
 75
     0
340
0
 46
1.0
 50
0.0
 44
0.0
 45
0.0
  0
LTYPE
  5
112E
330
5
100
AcDbSymbolTableRecord
100
AcDbLinetypeTableRecord
  2
DASHED
 70
     0
  3
Dashed __ __ __ __ __ __ __ __ __ __ __ __ __ _
 72
    65
 73
     2
 40
19.05
 49
12.7
 74
     4
 75
     0
340
0
 46
1.0
 50
0.0
 44
0.0
 45
0.0
 49
-6.349999999999999
 74
     4
 75
     0
340
0
 46
1.0
 50
0.0
 44
0.0
 45
0.0
  0
LTYPE
  5
121B
330
5
100
AcDbSymbolTableRecord
100
AcDbLinetypeTableRecord
  2
ACAD_ISO02W100
 70
     0
  3
ISO dash __ __ __ __ __ __ __ __ __ __ __ __ __
 72
    65
 73
     2
 40
15.0
 49
12.0
 74
     4
 75
     0
340
0
 46
1.0
 50
0.0
 44
0.0
 45
0.0
 49
-3.0
 74
     4
 75
     0
340
0
 46
1.0
 50
0.0
 44
0.0
 45
0.0
  0
LTYPE
  5
121C
330
5
100
AcDbSymbolTableRecord
100
AcDbLinetypeTableRecord
  2
DIVIDE
 70
     0
  3
Divide ____ . . ____ . . ____ . . ____ . . ____
 72
    65
 73
     6
 40
31.75
 49
12.7
 74
     4
 75
     0
340
0
 46
1.0
 50
0.0
 44
0.0
 45
0.0
 49
-6.349999999999999
 74
     4
 75
     0
340
0
 46
1.0
 50
0.0
 44
0.0
 45
0.0
 49
0.0
 74
     4
 75
     0
340
0
 46
1.0
 50
0.0
 44
0.0
 45
0.0
 49
-6.349999999999999
 74
     4
 75
     0
340
0
 46
1.0
 50
0.0
 44
0.0
 45
0.0
 49
0.0
 74
     4
 75
     0
340
0
 46
1.0
 50
0.0
 44
0.0
 45
0.0
 49
-6.349999999999999
 74
     4
 75
     0
340
0
 46
1.0
 50
0.0
 44
0.0
 45
0.0
  0
LTYPE
  5
56D6
330
5
100
AcDbSymbolTableRecord
100
AcDbLinetypeTableRecord
  2
DASHED2
 70
     0
  3
_ _ _ _ _ _ _ _ _ _ _ _ _ _ _ _ _ _ _ _ _ _ _ _
 72
    65
 73
     2
 40
0.375
 49
0.25
 74
     0
 49
-0.125
 74
     0
  0
ENDTAB
  0
TABLE
  2
LAYER
  5
2
102
{ACAD_XDICTIONARY
360
36E2
102
}
330
0
100
AcDbSymbolTable
 70
    22
  0
LAYER
  5
10
330
2
100
AcDbSymbolTableRecord
100
AcDbLayerTableRecord
  2
0
 70
     0
 62
     7
  6
Continuous
370
    -3
390
F
  0
LAYER
  5
5C
330
2
100
AcDbSymbolTableRecord
100
AcDbLayerTableRecord
  2
粗实线
 70
     0
 62
     7
  6
Continuous
370
    30
390
F
1001
AcAecLayerStandard
1000

1000

  0
LAYER
  5
5D
330
2
100
AcDbSymbolTableRecord
100
AcDbLayerTableRecord
  2
中心线
 70
     0
 62
     1
  6
CENTERX2
370
    15
390
F
1001
AcAecLayerStandard
1000

1000

  0
LAYER
  5
5E
330
2
100
AcDbSymbolTableRecord
100
AcDbLayerTableRecord
  2
标注
 70
     0
 62
     4
  6
Continuous
370
    15
390
F
1001
AcAecLayerStandard
1000

1000

  0
LAYER
  5
5F
330
2
100
AcDbSymbolTableRecord
100
AcDbLayerTableRecord
  2
Defpoints
 70
     0
 62
     7
  6
Continuous
290
     0
370
    -3
390
F
  0
LAYER
  5
118
330
2
100
AcDbSymbolTableRecord
100
AcDbLayerTableRecord
  2
图层1粗线
 70
     0
 62
     7
  6
Continuous
370
    -3
390
F
1001
AcAecLayerStandard
1000

1000

  0
LAYER
  5
193
330
2
100
AcDbSymbolTableRecord
100
AcDbLayerTableRecord
  2
细实线
 70
     0
 62
     3
  6
Continuous
370
    15
390
F
1001
AcAecLayerStandard
1000

1000

  0
LAYER
  5
357
330
2
100
AcDbSymbolTableRecord
100
AcDbLayerTableRecord
  2
图层2
 70
     0
 62
     7
  6
Continuous
370
    30
390
F
1001
AcAecLayerStandard
1000

1000

  0
LAYER
  5
358
330
2
100
AcDbSymbolTableRecord
100
AcDbLayerTableRecord
  2
图层3
 70
     0
 62
     7
  6
Continuous
370
    18
390
F
1001
AcAecLayerStandard
1000

1000

  0
LAYER
  5
4E7
330
2
100
AcDbSymbolTableRecord
100
AcDbLayerTableRecord
  2
文字
 70
     0
 62
     1
  6
Continuous
370
    15
390
F
1001
AcAecLayerStandard
1000

1000

  0
LAYER
  5
4E8
330
2
100
AcDbSymbolTableRecord
100
AcDbLayerTableRecord
  2
不可见
 70
     0
 62
     2
  6
Continuous
290
     0
370
    15
390
F
1001
AcAecLayerStandard
1000

1000

  0
LAYER
  5
4E9
330
2
100
AcDbSymbolTableRecord
100
AcDbLayerTableRecord
  2
图层2细线
 70
     0
 62
     3
  6
Continuous
370
    -3
390
F
1001
AcAecLayerStandard
1000

1000

  0
LAYER
  5
4EA
330
2
100
AcDbSymbolTableRecord
100
AcDbLayerTableRecord
  2
图框线
 70
     0
 62
     7
  6
Continuous
370
    13
390
F
1001
AcAecLayerStandard
1000

1000

  0
LAYER
  5
4EB
330
2
100
AcDbSymbolTableRecord
100
AcDbLayerTableRecord
  2
图层 1
 70
     0
 62
     7
  6
Continuous
370
    -3
390
F
  0
LAYER
  5
112F
330
2
100
AcDbSymbolTableRecord
100
AcDbLayerTableRecord
  2
图层1
 70
     0
 62
     7
  6
DASHED
370
    25
390
F
1001
AcAecLayerStandard
1000

1000

  0
LAYER
  5
121D
330
2
100
AcDbSymbolTableRecord
100
AcDbLayerTableRecord
  2
虚线
 70
     0
 62
     2
  6
ACAD_ISO02W100
370
    15
390
F
1001
AcAecLayerStandard
1000

1000

  0
LAYER
  5
121E
330
2
100
AcDbSymbolTableRecord
100
AcDbLayerTableRecord
  2
剖切线
 70
     0
 62
   241
  6
Continuous
370
    15
390
F
1001
AcAecLayerStandard
1000

1000

  0
LAYER
  5
4915
330
2
100
AcDbSymbolTableRecord
100
AcDbLayerTableRecord
  2
Layer 1
 70
     0
 62
     7
  6
Continuous
370
    -3
390
F
  0
LAYER
  5
56D7
330
2
100
AcDbSymbolTableRecord
100
AcDbLayerTableRecord
  2
Dim
 70
     0
 62
     4
  6
Continuous
370
    18
390
F
1001
AcAecLayerStandard
1000

1000

  0
LAYER
  5
56D8
330
2
100
AcDbSymbolTableRecord
100
AcDbLayerTableRecord
  2
center
 70
     0
 62
     1
  6
CENTER
370
     9
390
F
1001
AcAecLayerStandard
1000

1000

  0
LAYER
  5
56D9
102
{ACAD_XDICTIONARY
360
56DA
102
}
330
2
100
AcDbSymbolTableRecord
100
AcDbLayerTableRecord
  2
DRAW
 70
     0
 62
     5
  6
Continuous
370
    -3
390
F
  0
LAYER
  5
56DC
330
2
100
AcDbSymbolTableRecord
100
AcDbLayerTableRecord
  2
DESHED
 70
     0
 62
   190
  6
DASHED2
370
    -3
390
F
  0
ENDTAB
  0
TABLE
  2
STYLE
  5
3
330
0
100
AcDbSymbolTable
 70
     5
  0
STYLE
  5
11
330
3
100
AcDbSymbolTableRecord
100
AcDbTextStyleTableRecord
  2
Standard
 70
     0
 40
0.0
 41
1.0
 50
0.0
 71
     0
 42
0.2
  3
txt
  4

  0
STYLE
  5
5A
330
3
100
AcDbSymbolTableRecord
100
AcDbTextStyleTableRecord
  2
样式 8
 70
     0
 40
10.0
 41
0.7
 50
0.0
 71
     0
 42
10.0
  3
txt.shx
  4
gbcbig.shx
  0
STYLE
  5
117
330
3
100
AcDbSymbolTableRecord
100
AcDbTextStyleTableRecord
  2
样式 1
 70
     0
 40
5.0
 41
1.0
 50
0.0
 71
     0
 42
5.0
  3
txt.shx
  4
gbcbig.shx
  0
STYLE
  5
356
330
3
100
AcDbSymbolTableRecord
100
AcDbTextStyleTableRecord
  2
样式 2
 70
     0
 40
0.0
 41
0.35
 50
0.0
 71
     0
 42
2.5
  3
txt.shx
  4
gbcbig.shx
  0
STYLE
  5
4E6
330
3
100
AcDbSymbolTableRecord
100
AcDbTextStyleTableRecord
  2
样式 3
 70
     0
 40
3.5
 41
0.7
 50
0.0
 71
     0
 42
5.0
  3
txt.shx
  4
gbcbig.shx
  0
ENDTAB
  0
TABLE
  2
VIEW
  5
6
330
0
100
AcDbSymbolTable
 70
     0
  0
ENDTAB
  0
TABLE
  2
UCS
  5
7
330
0
100
AcDbSymbolTable
 70
     0
  0
ENDTAB
  0
TABLE
  2
APPID
  5
9
330
0
100
AcDbSymbolTable
 70
    56
  0
APPID
  5
12
330
9
100
AcDbSymbolTableRecord
100
AcDbRegAppTableRecord
  2
ACAD
 70
     0
  0
APPID
  5
3B
330
9
100
AcDbSymbolTableRecord
100
AcDbRegAppTableRecord
  2
ACAD_PSEXT
 70
     0
  0
APPID
  5
3C
330
9
100
AcDbSymbolTableRecord
100
AcDbRegAppTableRecord
  2
AcAecLayerStandard
 70
     0
  0
APPID
  5
3D
330
9
100
AcDbSymbolTableRecord
100
AcDbRegAppTableRecord
  2
ACAD_DSTYLE_DIMTEXT_FILL
 70
     0
  0
APPID
  5
3E
330
9
100
AcDbSymbolTableRecord
100
AcDbRegAppTableRecord
  2
DCO15
 70
     0
  0
APPID
  5
3F
330
9
100
AcDbSymbolTableRecord
100
AcDbRegAppTableRecord
  2
ACAD_DSTYLE_DIMEXT_LENGTH
 70
     0
  0
APPID
  5
40
330
9
100
AcDbSymbolTableRecord
100
AcDbRegAppTableRecord
  2
ACAD_DSTYLE_DIMEXT_ENABLED
 70
     0
  0
APPID
  5
41
330
9
100
AcDbSymbolTableRecord
100
AcDbRegAppTableRecord
  2
ACAD_DSTYLE_DIM_LINETYPE
 70
     0
  0
APPID
  5
42
330
9
100
AcDbSymbolTableRecord
100
AcDbRegAppTableRecord
  2
ACAD_DSTYLE_DIM_EXT1_LINETYPE
 70
     0
  0
APPID
  5
43
330
9
100
AcDbSymbolTableRecord
100
AcDbRegAppTableRecord
  2
ACAD_DSTYLE_DIM_EXT2_LINETYPE
 70
     0
  0
APPID
  5
44
330
9
100
AcDbSymbolTableRecord
100
AcDbRegAppTableRecord
  2
ACAD_EXEMPT_FROM_CAD_STANDARDS
 70
     0
  0
APPID
  5
45
330
9
100
AcDbSymbolTableRecord
100
AcDbRegAppTableRecord
  2
AcadAnnoPO
 70
     0
  0
APPID
  5
46
330
9
100
AcDbSymbolTableRecord
100
AcDbRegAppTableRecord
  2
AcadAnnotative
 70
     0
  0
APPID
  5
47
330
9
100
AcDbSymbolTableRecord
100
AcDbRegAppTableRecord
  2
ACAD_DSTYLE_DIMJAG
 70
     0
  0
APPID
  5
48
330
9
100
AcDbSymbolTableRecord
100
AcDbRegAppTableRecord
  2
ACAD_DSTYLE_DIMTALN
 70
     0
  0
APPID
  5
49
330
9
100
AcDbSymbolTableRecord
100
AcDbRegAppTableRecord
  2
ACAD_MLEADERVER
 70
     0
  0
APPID
  5
4A
330
9
100
AcDbSymbolTableRecord
100
AcDbRegAppTableRecord
  2
ACAD_DSTYLE_DIMRADIAL_EXTENSION
 70
     0
  0
APPID
  5
4B
330
9
100
AcDbSymbolTableRecord
100
AcDbRegAppTableRecord
  2
ACAD_DSTYLE_DIMBREAK
 70
     0
  0
APPID
  5
4C
330
9
100
AcDbSymbolTableRecord
100
AcDbRegAppTableRecord
  2
ACAD_DSTYLE_DIMARC_LENGTH_SYMBOL
 70
     0
  0
APPID
  5
4D
330
9
100
AcDbSymbolTableRecord
100
AcDbRegAppTableRecord
  2
ACAD_DSTYLE_DIMJOGGED_JOGANGLE_SYMBOL
 70
     0
  0
APPID
  5
4E
330
9
100
AcDbSymbolTableRecord
100
AcDbRegAppTableRecord
  2
MCAD_NO_VIS
 70
     0
  0
APPID
  5
4F
330
9
100
AcDbSymbolTableRecord
100
AcDbRegAppTableRecord
  2
ACAD_TEMP_GRAPHIC
 70
     0
  0
APPID
  5
50
330
9
100
AcDbSymbolTableRecord
100
AcDbRegAppTableRecord
  2
AD_DRAW
 70
     0
  0
APPID
  5
51
330
9
100
AcDbSymbolTableRecord
100
AcDbRegAppTableRecord
  2
ACATTRIBSERVICES
 70
     0
  0
APPID
  5
52
330
9
100
AcDbSymbolTableRecord
100
AcDbRegAppTableRecord
  2
DESIGNERASSEMBLIES
 70
     0
  0
APPID
  5
53
330
9
100
AcDbSymbolTableRecord
100
AcDbRegAppTableRecord
  2
ACADM_DIM_EDIT
 70
     0
  0
APPID
  5
54
330
9
100
AcDbSymbolTableRecord
100
AcDbRegAppTableRecord
  2
AMDT_DM_ADJ
 70
     0
  0
APPID
  5
55
330
9
100
AcDbSymbolTableRecord
100
AcDbRegAppTableRecord
  2
GENIUS_GENODEF_13
 70
     0
  0
APPID
  5
56
330
9
100
AcDbSymbolTableRecord
100
AcDbRegAppTableRecord
  2
GENIUS_GENOBJ-N-FIL_13
 70
     0
  0
APPID
  5
57
330
9
100
AcDbSymbolTableRecord
100
AcDbRegAppTableRecord
  2
ACAD_DIMASSOC_CALC_DIMLFAC
 70
     0
  0
APPID
  5
58
330
9
100
AcDbSymbolTableRecord
100
AcDbRegAppTableRecord
  2
ACAD_DIMASSOC_DIMLFAC
 70
     0
  0
APPID
  5
59
330
9
100
AcDbSymbolTableRecord
100
AcDbRegAppTableRecord
  2
ACAD_DIMASSOC_OVERRIDDEN_DIMLFAC
 70
     0
  0
APPID
  5
4E5
330
9
100
AcDbSymbolTableRecord
100
AcDbRegAppTableRecord
  2
CAXA
 70
     0
  0
APPID
  5
1BF7
330
9
100
AcDbSymbolTableRecord
100
AcDbRegAppTableRecord
  2
AVE_RENDER
 70
     0
  0
APPID
  5
1BF8
330
9
100
AcDbSymbolTableRecord
100
AcDbRegAppTableRecord
  2
AVE_ENTITY_MATERIAL
 70
     0
  0
APPID
  5
1BF9
330
9
100
AcDbSymbolTableRecord
100
AcDbRegAppTableRecord
  2
AVE_FINISH
 70
     0
  0
APPID
  5
1BFA
330
9
100
AcDbSymbolTableRecord
100
AcDbRegAppTableRecord
  2
AVE_MATERIAL
 70
     0
  0
APPID
  5
1BFB
330
9
100
AcDbSymbolTableRecord
100
AcDbRegAppTableRecord
  2
AVE_GLOBAL
 70
     0
  0
APPID
  5
1BFC
330
9
100
AcDbSymbolTableRecord
100
AcDbRegAppTableRecord
  2
GENIUS_GENBLLY_14
 70
     0
  0
APPID
  5
1BFD
330
9
100
AcDbSymbolTableRecord
100
AcDbRegAppTableRecord
  2
ODA
 70
     0
  0
APPID
  5
1BFE
330
9
100
AcDbSymbolTableRecord
100
AcDbRegAppTableRecord
  2
RAK
 70
     0
  0
APPID
  5
1BFF
330
9
100
AcDbSymbolTableRecord
100
AcDbRegAppTableRecord
  2
AcDbDynamicBlockGUID
 70
     0
  0
APPID
  5
1C00
330
9
100
AcDbSymbolTableRecord
100
AcDbRegAppTableRecord
  2
AcDbBlockRepETag
 70
     0
  0
APPID
  5
1C01
330
9
100
AcDbSymbolTableRecord
100
AcDbRegAppTableRecord
  2
ACAUTHENVIRON
 70
     0
  0
APPID
  5
1C02
330
9
100
AcDbSymbolTableRecord
100
AcDbRegAppTableRecord
  2
AcDbDynamicBlockTrueName
 70
     0
  0
APPID
  5
4E1E
330
9
100
AcDbSymbolTableRecord
100
AcDbRegAppTableRecord
  2
AcDbAttr
 70
     0
  0
APPID
  5
4E1F
330
9
100
AcDbSymbolTableRecord
100
AcDbRegAppTableRecord
  2
AcDbBlockRepBTag
 70
     0
  0
APPID
  5
4E37
330
9
100
AcDbSymbolTableRecord
100
AcDbRegAppTableRecord
  2
AcadStringInfo
 70
     0
  0
APPID
  5
52C1
330
9
100
AcDbSymbolTableRecord
100
AcDbRegAppTableRecord
  2
ACAD_NAV_VCDISPLAY
 70
     0
  0
APPID
  5
546A
330
9
100
AcDbSymbolTableRecord
100
AcDbRegAppTableRecord
  2
ACAD_DSTYLE_DIMANGULAR_EXT
 70
     0
  0
APPID
  5
546B
330
9
100
AcDbSymbolTableRecord
100
AcDbRegAppTableRecord
  2
ACAD_DSTYLE_DIMFLIPARROW_W
 70
     0
  0
APPID
  5
546C
330
9
100
AcDbSymbolTableRecord
100
AcDbRegAppTableRecord
  2
ACAD_DSTYLE_DIMJOGGED_JOGA
 70
     0
  0
APPID
  5
546D
330
9
100
AcDbSymbolTableRecord
100
AcDbRegAppTableRecord
  2
ACAD_DSTYLE_DIMINSPECT
 70
     0
  0
APPID
  5
546E
330
9
100
AcDbSymbolTableRecord
100
AcDbRegAppTableRecord
  2
GENIUS_GENOREF_13
 70
     0
  0
APPID
  5
546F
330
9
100
AcDbSymbolTableRecord
100
AcDbRegAppTableRecord
  2
ACADANNOMONITORALERTICONDI
 70
     0
  0
APPID
  5
56DE
330
9
100
AcDbSymbolTableRecord
100
AcDbRegAppTableRecord
  2
ACAD_OBJECT_CHANGE_GUID
 70
     0
  0
ENDTAB
  0
TABLE
  2
DIMSTYLE
  5
A
330
0
100
AcDbSymbolTable
 70
     8
100
AcDbDimStyleTable
 71
     2
340
4EC
340
25
  0
DIMSTYLE
105
25
330
A
100
AcDbSymbolTableRecord
100
AcDbDimStyleTableRecord
  2
Standard
 70
     0
340
11
  0
DIMSTYLE
105
60
330
A
100
AcDbSymbolTableRecord
100
AcDbDimStyleTableRecord
  2
副本 (3) ISO-25 4
 70
     0
 41
14.0
 42
0.0
 43
10.0
 44
6.0
 73
     0
 74
     0
 77
     1
 78
     8
140
20.0
141
7.5
143
0.03937007874016
147
1.5
171
     3
172
     1
271
     1
272
     1
274
     3
283
     0
284
     8
340
11
  0
DIMSTYLE
105
119
330
A
100
AcDbSymbolTableRecord
100
AcDbDimStyleTableRecord
  2
副本 ISO-25
 70
     0
 41
12.0
 42
0.0
 43
10.0
 44
5.0
 73
     0
 74
     0
 77
     1
 78
     8
140
18.0
141
1.5
143
0.03937007874016
147
1.5
171
     3
172
     1
271
     1
272
     1
274
     3
278
    44
283
     0
284
     8
340
11
  0
DIMSTYLE
105
359
330
A
100
AcDbSymbolTableRecord
100
AcDbDimStyleTableRecord
  2
ISO-25
 70
     0
 41
17.0
 42
3.0
 43
3.75
 44
1.25
 73
     0
 77
     1
 78
     8
140
19.0
141
80.0
143
0.03937007874016
147
7.0
170
     1
171
     3
172
     1
271
     2
272
     2
273
     7
274
     3
283
     0
284
     8
340
11
  0
DIMSTYLE
105
4EC
102
{ACAD_REACTORS
330
5E09
330
5E6B
330
5EBB
330
5F1E
330
5F6E
330
5F88
330
601F
330
6005
330
5D40
102
}
330
A
100
AcDbSymbolTableRecord
100
AcDbDimStyleTableRecord
  2
英寸
 70
     0
 41
12.0
 42
0.0
 43
10.0
 44
3.75
 73
     0
 74
     0
 77
     1
 78
     8
140
16.0
141
7.5
143
0.03937007874016
147
2.0
170
     1
171
     3
172
     1
179
     1
271
     1
272
     1
273
     7
274
     3
283
     0
284
     8
340
11
  0
DIMSTYLE
105
472D
330
A
100
AcDbSymbolTableRecord
100
AcDbDimStyleTableRecord
  2
LXF
 70
     0
 41
18.0
 42
0.0
 43
10.0
 44
2.5
 73
     0
 74
     0
 77
     1
 78
     8
140
20.0
141
0.0
143
0.03937007874016
147
3.0
171
     3
172
     1
178
     6
179
     1
271
     1
272
     1
274
     3
283
     0
284
     8
340
11
  0
DIMSTYLE
105
4E38
330
A
100
AcDbSymbolTableRecord
100
AcDbDimStyleTableRecord
  2
R
 70
     0
 41
13.0
 42
0.0
 43
10.0
 44
5.0
 77
     1
 78
     8
140
18.0
141
5.0
143
0.03937007874016
147
3.0
171
     3
172
     1
176
   256
178
   256
271
     0
272
     0
274
     3
278
    44
283
     0
284
     8
340
11
371
    -1
  0
DIMSTYLE
105
56DD
330
A
100
AcDbSymbolTableRecord
100
AcDbDimStyleTableRecord
  2
B
 70
     0
 40
7.62
 41
1.5
 42
0.3125
 43
0.7
 44
1.0
 73
     0
 74
     0
 77
     1
140
1.5
141
0.045
147
0.3
271
     1
289
     2
340
11
  0
ENDTAB
  0
TABLE
  2
BLOCK_RECORD
  5
1
330
0
100
AcDbSymbolTable
 70
   115
  0
BLOCK_RECORD
  5
1F
102
{ACAD_XDICTIONARY
360
5967
102
}
330
1
100
AcDbSymbolTableRecord
100
AcDbBlockTableRecord
  2
*Model_Space
340
22
  0
BLOCK_RECORD
  5
1B
330
1
100
AcDbSymbolTableRecord
100
AcDbBlockTableRecord
  2
*Paper_Space
340
1E
  0
BLOCK_RECORD
  5
23
330
1
100
AcDbSymbolTableRecord
100
AcDbBlockTableRecord
  2
*Paper_Space0
340
24
  0
BLOCK_RECORD
  5
4999
330
1
100
AcDbSymbolTableRecord
100
AcDbBlockTableRecord
  2
WMF0
340
0
  0
BLOCK_RECORD
  5
4A47
330
1
100
AcDbSymbolTableRecord
100
AcDbBlockTableRecord
  2
AN-3205 drawing
340
0
  0
BLOCK_RECORD
  5
5D43
330
1
100
AcDbSymbolTableRecord
100
AcDbBlockTableRecord
  2
*D104
340
0
  0
BLOCK_RECORD
  5
5E0A
330
1
100
AcDbSymbolTableRecord
100
AcDbBlockTableRecord
  2
*D107
340
0
  0
BLOCK_RECORD
  5
5E6C
330
1
100
AcDbSymbolTableRecord
100
AcDbBlockTableRecord
  2
*D108
340
0
  0
BLOCK_RECORD
  5
5EBC
330
1
100
AcDbSymbolTableRecord
100
AcDbBlockTableRecord
  2
*D109
340
0
  0
BLOCK_RECORD
  5
5F1F
330
1
100
AcDbSymbolTableRecord
100
AcDbBlockTableRecord
  2
*D110
340
0
  0
BLOCK_RECORD
  5
5F6F
330
1
100
AcDbSymbolTableRecord
100
AcDbBlockTableRecord
  2
*D111
340
0
  0
BLOCK_RECORD
  5
5F89
330
1
100
AcDbSymbolTableRecord
100
AcDbBlockTableRecord
  2
*D112
340
0
  0
BLOCK_RECORD
  5
6006
330
1
100
AcDbSymbolTableRecord
100
AcDbBlockTableRecord
  2
*D113
340
0
  0
BLOCK_RECORD
  5
6020
330
1
100
AcDbSymbolTableRecord
100
AcDbBlockTableRecord
  2
*D114
340
0
  0
ENDTAB
  0
ENDSEC
  0
SECTION
  2
BLOCKS
  0
BLOCK
  5
20
330
1F
100
AcDbEntity
  8
0
100
AcDbBlockBegin
  2
*Model_Space
 70
     0
 10
0.0
 20
0.0
 30
0.0
  3
*Model_Space
  1

  0
ENDBLK
  5
21
330
1F
100
AcDbEntity
  8
0
100
AcDbBlockEnd
  0
BLOCK
  5
1C
330
1B
100
AcDbEntity
 67
     1
  8
0
100
AcDbBlockBegin
  2
*Paper_Space
 70
     0
 10
0.0
 20
0.0
 30
0.0
  3
*Paper_Space
  1

  0
ENDBLK
  5
1D
330
1B
100
AcDbEntity
 67
     1
  8
0
100
AcDbBlockEnd
  0
BLOCK
  5
39
330
23
100
AcDbEntity
 67
     1
  8
0
100
AcDbBlockBegin
  2
*Paper_Space0
 70
     0
 10
0.0
 20
0.0
 30
0.0
  3
*Paper_Space0
  1

  0
ENDBLK
  5
3A
330
23
100
AcDbEntity
 67
     1
  8
0
100
AcDbBlockEnd
  0
BLOCK
  5
499A
330
4999
100
AcDbEntity
  8
0
100
AcDbBlockBegin
  2
WMF0
 70
     0
 10
0.0
 20
0.0
 30
0.0
  3
WMF0
  1

  0
LWPOLYLINE
  5
498B
330
4999
100
AcDbEntity
  8
0
 62
     7
370
     0
100
AcDbPolyline
 90
       75
 70
     1
 43
0.0
 10
443.938630618862
 20
2020.315222057084
 10
453.9792458509528
 20
2020.315222057084
 10
459.7167402692901
 20
2005.97148601124
 10
459.7167402692901
 20
2005.97148601124
 10
486.9698387563933
 20
1944.293421014112
 10
503.4651352091136
 20
1907.716894097211
 10
509.9198164297432
 20
1894.807531655951
 10
513.5057504412039
 20
1886.918476830737
 10
513.5057504412039
 20
1886.918476830737
 10
515.6573108480805
 20
1884.766916423861
 10
517.8088712549572
 20
1883.332542819276
 10
519.9604316618338
 20
1881.898169214692
 10
522.8291788710023
 20
1881.898169214692
 10
522.8291788710023
 20
1881.898169214692
 10
524.980739277879
 20
1881.1809824124
 10
527.1322996847556
 20
1881.1809824124
 10
527.8494864870475
 20
1880.463795610108
 10
527.8494864870475
 20
1879.029422005523
 10
527.8494864870475
 20
1876.160674796355
 10
527.8494864870475
 20
1876.160674796355
 10
527.8494864870475
 20
1874.72630119177
 10
527.1322996847556
 20
1874.009114389478
 10
524.980739277879
 20
1873.291927587186
 10
468.3229818967965
 20
1873.291927587186
 10
468.3229818967965
 20
1873.291927587186
 10
467.6057950945041
 20
1874.009114389478
 10
466.1714214899197
 20
1876.160674796355
 10
466.8886082922121
 20
1879.746608807815
 10
466.8886082922121
 20
1879.746608807815
 10
467.6057950945041
 20
1881.1809824124
 10
468.3229818967965
 20
1881.898169214692
 10
474.777663117426
 20
1881.898169214692
 10
474.777663117426
 20
1881.898169214692
 10
479.0807839311792
 20
1881.898169214692
 10
482.6667179426401
 20
1883.332542819276
 10
484.8182783495166
 20
1885.484103226153
 10
485.5354651518085
 20
1889.070037237614
 10
485.5354651518085
 20
1889.070037237614
 10
484.8182783495166
 20
1892.655971249075
 10
482.6667179426401
 20
1898.393465667412
 10
474.0604763151337
 20
1919.909069736178
 10
410.9480377134216
 20
1919.909069736178
 10
400.9074224813311
 20
1894.807531655951
 10
400.9074224813311
 20
1894.807531655951
 10
400.1902356790387
 20
1891.938784446782
 10
399.4730488767467
 20
1889.070037237614
 10
399.4730488767467
 20
1889.070037237614
 10
400.1902356790387
 20
1886.201290028445
 10
402.3417960859155
 20
1883.332542819276
 10
405.2105432950843
 20
1881.898169214692
 10
409.513664108837
 20
1881.898169214692
 10
415.2511585271748
 20
1881.898169214692
 10
415.2511585271748
 20
1881.898169214692
 10
416.6855321317592
 20
1881.1809824124
 10
417.402718934051
 20
1879.029422005523
 10
417.402718934051
 20
1875.443487994061
 10
417.402718934051
 20
1875.443487994061
 10
416.6855321317592
 20
1874.009114389478
 10
415.968345329467
 20
1873.291927587186
 10
368.6340163781828
 20
1873.291927587186
 10
368.6340163781828
 20
1873.291927587186
 10
367.1996427735985
 20
1874.009114389478
 10
366.4824559713063
 20
1876.160674796355
 10
366.4824559713063
 20
1879.746608807815
 10
366.4824559713063
 20
1879.746608807815
 10
367.1996427735985
 20
1881.1809824124
 10
368.6340163781828
 20
1881.898169214692
 10
368.6340163781828
 20
1881.898169214692
 10
373.6543239942282
 20
1881.898169214692
 10
375.8058844011046
 20
1882.615356016984
 10
377.9574448079813
 20
1884.049729621569
 10
380.1090052148578
 20
1886.201290028445
 10
382.2605656217344
 20
1889.787224039906
 10
388.715246842364
 20
1901.262212876581
 10
443.938630618862
 20
2020.315222057084
  0
LWPOLYLINE
  5
498C
330
4999
100
AcDbEntity
  8
0
 62
     7
370
     0
100
AcDbPolyline
 90
        4
 70
     1
 43
0.0
 10
443.22144381657
 20
1993.062123569981
 10
414.5339717248825
 20
1928.515311363684
 10
470.474542303673
 20
1928.515311363684
 10
443.22144381657
 20
1993.062123569981
  0
LWPOLYLINE
  5
498D
330
4999
100
AcDbEntity
  8
0
 62
     7
370
     0
100
AcDbPolyline
 90
      104
 70
     1
 43
0.0
 10
703.5602530486328
 20
2011.708980429578
 10
703.5602530486328
 20
2011.708980429578
 10
702.8430662463407
 20
2010.274606824993
 10
702.1258794440488
 20
2010.274606824993
 10
697.8227586302955
 20
2009.557420022701
 10
697.8227586302955
 20
2009.557420022701
 10
692.8024510142502
 20
2009.557420022701
 10
688.499330200497
 20
2009.557420022701
 10
685.6305829913281
 20
2008.123046418117
 10
683.4790225844519
 20
2006.688672813532
 10
682.7618357821595
 20
2003.819925604364
 10
682.0446489798674
 20
1999.51680479061
 10
682.0446489798674
 20
1985.173068744767
 10
682.0446489798674
 20
1874.009114389478
 10
682.0446489798674
 20
1874.009114389478
 10
681.327462177575
 20
1872.574740784894
 10
679.8930885729909
 20
1871.857553982601
 10
671.2868469454847
 20
1871.857553982601
 10
655.5087372950564
 20
1894.090344853659
 10
592.3962986933442
 20
1975.849640314968
 10
592.3962986933442
 20
1975.849640314968
 10
583.7900570658381
 20
1986.607442349351
 10
575.1838154383317
 20
1995.213683976857
 10
575.1838154383317
 20
1912.020014910964
 10
575.1838154383317
 20
1912.020014910964
 10
575.9010022406243
 20
1894.807531655951
 10
576.6181890429162
 20
1889.787224039906
 10
578.0525626475007
 20
1885.484103226153
 10
580.204123054377
 20
1883.332542819276
 10
583.0728702635457
 20
1881.898169214692
 10
587.375991077299
 20
1881.1809824124
 10
593.1134854956366
 20
1881.1809824124
 10
593.1134854956366
 20
1881.1809824124
 10
598.1337931116819
 20
1881.1809824124
 10
598.850979913974
 20
1880.463795610108
 10
598.850979913974
 20
1879.029422005523
 10
598.850979913974
 20
1874.72630119177
 10
598.850979913974
 20
1874.72630119177
 10
598.850979913974
 20
1874.009114389478
 10
597.4166063093897
 20
1873.291927587186
 10
542.9104093351837
 20
1873.291927587186
 10
542.9104093351837
 20
1873.291927587186
 10
541.4760357305993
 20
1873.291927587186
 10
541.4760357305993
 20
1874.009114389478
 10
540.7588489283069
 20
1875.443487994061
 10
540.7588489283069
 20
1875.443487994061
 10
540.7588489283069
 20
1879.029422005523
 10
541.4760357305993
 20
1880.463795610108
 10
542.1932225328913
 20
1881.1809824124
 10
544.344782939768
 20
1881.1809824124
 10
544.344782939768
 20
1881.1809824124
 10
550.0822773581054
 20
1881.1809824124
 10
554.3853981718585
 20
1881.898169214692
 10
557.9713321833194
 20
1882.615356016984
 10
560.1228925901961
 20
1884.049729621569
 10
562.2744529970724
 20
1886.918476830737
 10
562.9916397993647
 20
1890.504410842198
 10
563.708826601657
 20
1895.524718458243
 10
563.708826601657
 20
1901.979399678873
 10
563.708826601657
 20
1985.173068744767
 10
563.708826601657
 20
1985.173068744767
 10
563.708826601657
 20
1998.799617988318
 10
562.9916397993647
 20
2003.102738802072
 10
561.5572661947805
 20
2005.97148601124
 10
559.4057057879039
 20
2008.123046418117
 10
556.5369585787351
 20
2008.840233220409
 10
552.2338377649821
 20
2009.557420022701
 10
546.4963433466444
 20
2009.557420022701
 10
546.4963433466444
 20
2009.557420022701
 10
542.1932225328913
 20
2010.274606824993
 10
541.4760357305993
 20
2010.991793627285
 10
540.7588489283069
 20
2011.708980429578
 10
540.7588489283069
 20
2011.708980429578
 10
541.4760357305993
 20
2016.729288045623
 10
541.4760357305993
 20
2017.446474847915
 10
542.1932225328913
 20
2017.446474847915
 10
587.375991077299
 20
2017.446474847915
 10
587.375991077299
 20
2017.446474847915
 10
600.2853535185582
 20
1999.51680479061
 10
651.9228032835957
 20
1932.101245375145
 10
651.9228032835957
 20
1932.101245375145
 10
669.8524733409002
 20
1909.868454504087
 10
669.8524733409002
 20
1985.173068744767
 10
669.8524733409002
 20
1985.173068744767
 10
669.8524733409002
 20
1999.51680479061
 10
668.4180997363157
 20
2003.819925604364
 10
666.9837261317316
 20
2006.688672813532
 10
664.8321657248549
 20
2008.123046418117
 10
661.2462317133941
 20
2009.557420022701
 10
656.943110899641
 20
2009.557420022701
 10
651.2056164813035
 20
2009.557420022701
 10
651.2056164813035
 20
2009.557420022701
 10
646.185308865258
 20
2010.274606824993
 10
645.468122062966
 20
2010.991793627285
 10
645.468122062966
 20
2011.708980429578
 10
645.468122062966
 20
2016.01210124333
 10
645.468122062966
 20
2016.01210124333
 10
646.185308865258
 20
2017.446474847915
 10
648.3368692721348
 20
2017.446474847915
 10
701.4086926417563
 20
2017.446474847915
 10
701.4086926417563
 20
2017.446474847915
 10
702.8430662463407
 20
2016.729288045623
 10
703.5602530486328
 20
2016.01210124333
 10
703.5602530486328
 20
2011.708980429578
  0
LWPOLYLINE
  5
498E
330
4999
100
AcDbEntity
  8
0
 62
     7
370
     0
100
AcDbPolyline
 90
      122
 70
     1
 43
0.0
 10
831.2195038566416
 20
1971.546519501215
 10
831.2195038566416
 20
1971.546519501215
 10
829.7851302520575
 20
1972.263706303508
 10
829.0679434497651
 20
1972.980893105799
 10
828.350756647473
 20
1976.566827117261
 10
828.350756647473
 20
1976.566827117261
 10
826.9163830428889
 20
1983.738695140182
 10
824.04763583372
 20
1990.910563163104
 10
820.461701822259
 20
1996.648057581441
 10
815.4413942062134
 20
2001.668365197487
 10
809.7038997878765
 20
2005.97148601124
 10
803.9664053695387
 20
2009.557420022701
 10
797.5117241489091
 20
2010.991793627285
 10
790.3398561259872
 20
2011.708980429578
 10
790.3398561259872
 20
2011.708980429578
 10
785.319548509942
 20
2011.708980429578
 10
780.2992408938968
 20
2010.991793627285
 10
775.9961200801434
 20
2009.557420022701
 10
770.9758124640982
 20
2007.405859615825
 10
766.6726916503453
 20
2005.254299208948
 10
763.0867576388842
 20
2001.668365197487
 10
759.5008236274233
 20
1998.799617988318
 10
755.9148896159626
 20
1994.496497174565
 10
753.0461424067937
 20
1990.193376360812
 10
750.1773951976248
 20
1985.173068744767
 10
748.0258347907485
 20
1980.152761128722
 10
745.8742743838719
 20
1975.132453512676
 10
744.4399007792875
 20
1969.394959094339
 10
743.7227139769952
 20
1962.940277873709
 10
743.005527174703
 20
1956.485596653079
 10
742.2883403724107
 20
1950.030915432449
 10
742.2883403724107
 20
1950.030915432449
 10
743.005527174703
 20
1942.859047409528
 10
743.7227139769952
 20
1936.404366188898
 10
744.4399007792875
 20
1929.949684968268
 10
746.5914611861641
 20
1924.212190549931
 10
748.7430215930403
 20
1917.757509329301
 10
750.8945819999171
 20
1912.737201713255
 10
753.7633292090859
 20
1907.716894097211
 10
756.6320764182546
 20
1902.696586481164
 10
760.2180104297156
 20
1899.110652469704
 10
763.8039444411766
 20
1894.807531655951
 10
768.1070652549292
 20
1891.938784446782
 10
772.4101860686827
 20
1889.070037237614
 10
777.4304936847279
 20
1886.918476830737
 10
781.7336144984807
 20
1885.484103226153
 10
787.4711089168187
 20
1884.049729621569
 10
792.4914165328639
 20
1884.049729621569
 10
792.4914165328639
 20
1884.049729621569
 10
797.5117241489091
 20
1884.049729621569
 10
802.5320317649542
 20
1885.484103226153
 10
806.8351525787074
 20
1886.918476830737
 10
811.8554601947527
 20
1888.352850435322
 10
816.1585810085059
 20
1890.504410842198
 10
820.461701822259
 20
1893.373158051367
 10
824.04763583372
 20
1896.959092062828
 10
827.6335698451806
 20
1900.545026074289
 10
827.6335698451806
 20
1900.545026074289
 10
829.7851302520575
 20
1903.413773283457
 10
831.2195038566416
 20
1904.13096008575
 10
831.936690658934
 20
1903.413773283457
 10
836.2398114726872
 20
1900.545026074289
 10
836.2398114726872
 20
1900.545026074289
 10
836.9569982749792
 20
1900.545026074289
 10
836.9569982749792
 20
1899.110652469704
 10
836.9569982749792
 20
1899.110652469704
 10
836.2398114726872
 20
1896.959092062828
 10
834.0882510658106
 20
1893.373158051367
 10
829.7851302520575
 20
1888.352850435322
 10
824.7648226360123
 20
1883.332542819276
 10
816.8757678107981
 20
1879.029422005523
 10
812.572646997045
 20
1876.877861598647
 10
808.269526183292
 20
1874.72630119177
 10
802.5320317649542
 20
1872.574740784894
 10
796.7945373466168
 20
1871.857553982601
 10
790.3398561259872
 20
1871.140367180309
 10
783.8851749053576
 20
1870.423180378017
 10
783.8851749053576
 20
1870.423180378017
 10
776.7133068824358
 20
1871.140367180309
 10
770.2586256618062
 20
1871.857553982601
 10
763.8039444411766
 20
1873.291927587186
 10
757.3492632205467
 20
1876.160674796355
 10
751.6117688022093
 20
1879.029422005523
 10
746.5914611861641
 20
1882.615356016984
 10
741.5711535701185
 20
1886.201290028445
 10
736.5508459540732
 20
1891.221597644491
 10
732.2477251403204
 20
1896.241905260536
 10
728.6617911288592
 20
1901.262212876581
 10
725.7930439196907
 20
1907.716894097211
 10
722.924296710522
 20
1914.17157531784
 10
720.7727363036451
 20
1920.62625653847
 10
719.3383626990611
 20
1927.798124561392
 10
718.6211758967687
 20
1935.687179386606
 10
717.9039890944767
 20
1942.859047409528
 10
717.9039890944767
 20
1942.859047409528
 10
718.6211758967687
 20
1951.465289037034
 10
720.0555495013531
 20
1960.07153066454
 10
721.4899231059376
 20
1967.960585489754
 10
723.6414835128141
 20
1975.132453512676
 10
727.2274175242751
 20
1981.587134733306
 10
730.8133515357359
 20
1988.041815953935
 10
735.1164723494887
 20
1994.496497174565
 10
740.1367799655344
 20
1999.51680479061
 10
745.8742743838719
 20
2004.537112406656
 10
751.6117688022093
 20
2008.840233220409
 10
758.066450022839
 20
2012.42616723187
 10
765.2383180457608
 20
2015.294914441039
 10
773.1273728709749
 20
2017.446474847915
 10
781.0164276961886
 20
2019.598035254792
 10
789.622669323695
 20
2020.315222057084
 10
798.2289109512013
 20
2021.032408859376
 10
798.2289109512013
 20
2021.032408859376
 10
807.5523393809998
 20
2020.315222057084
 10
816.1585810085059
 20
2018.8808484525
 10
825.4820094383044
 20
2016.729288045623
 10
835.5226246703947
 20
2013.143354034162
 10
836.9569982749792
 20
1980.869947931014
 10
836.9569982749792
 20
1980.869947931014
 10
836.9569982749792
 20
1972.980893105799
 10
836.2398114726872
 20
1972.263706303508
 10
835.5226246703947
 20
1971.546519501215
 10
831.2195038566416
 20
1971.546519501215
  0
LWPOLYLINE
  5
498F
330
4999
100
AcDbEntity
  8
0
 62
     7
370
     0
100
AcDbPolyline
 90
       70
 70
     1
 43
0.0
 10
998.3240287907207
 20
1946.444981420989
 10
998.3240287907207
 20
1946.444981420989
 10
997.6068419884287
 20
1938.555926595775
 10
996.8896551861362
 20
1930.66687177056
 10
994.7380947792597
 20
1922.777816945347
 10
992.5865343723835
 20
1916.323135724717
 10
989.7177871632147
 20
1909.151267701795
 10
986.1318531517538
 20
1902.696586481164
 10
981.8287323380003
 20
1896.959092062828
 10
977.5256115242475
 20
1891.938784446782
 10
972.5053039082022
 20
1886.918476830737
 10
966.7678094898647
 20
1882.615356016984
 10
961.0303150715273
 20
1879.029422005523
 10
954.5756338508978
 20
1876.160674796355
 10
947.4037658279755
 20
1874.009114389478
 10
940.2318978050541
 20
1871.857553982601
 10
933.060029782132
 20
1871.140367180309
 10
925.170974956918
 20
1870.423180378017
 10
925.170974956918
 20
1870.423180378017
 10
917.2819201317039
 20
1871.140367180309
 10
910.8272389110743
 20
1871.857553982601
 10
903.6553708881523
 20
1873.291927587186
 10
897.2006896675226
 20
1876.160674796355
 10
891.4631952491854
 20
1879.029422005523
 10
885.7257008308479
 20
1881.898169214692
 10
879.98820641251
 20
1886.201290028445
 10
875.6850855987572
 20
1890.504410842198
 10
871.3819647850042
 20
1895.524718458243
 10
867.0788439712511
 20
1901.262212876581
 10
864.2100967620821
 20
1906.999707294918
 10
861.3413495529135
 20
1913.454388515548
 10
859.1897891460366
 20
1919.909069736178
 10
857.7554155414526
 20
1927.0809377591
 10
856.3210419368683
 20
1934.969992584314
 10
856.3210419368683
 20
1942.141860607236
 10
856.3210419368683
 20
1942.141860607236
 10
856.3210419368683
 20
1950.748102234742
 10
857.7554155414526
 20
1958.637157059956
 10
859.1897891460366
 20
1966.52621188517
 10
861.3413495529135
 20
1973.698079908092
 10
864.2100967620821
 20
1980.869947931014
 10
867.7960307735432
 20
1987.324629151643
 10
872.0991515872963
 20
1993.062123569981
 10
877.1194592033417
 20
1998.799617988318
 10
882.1397668193869
 20
2003.819925604364
 10
887.8772612377243
 20
2008.123046418117
 10
893.6147556560619
 20
2011.708980429578
 10
900.0694368766916
 20
2014.577727638746
 10
907.2413048996134
 20
2017.446474847915
 10
914.4131729225353
 20
2018.8808484525
 10
922.302227747749
 20
2020.315222057084
 10
930.1912825729631
 20
2020.315222057084
 10
930.1912825729631
 20
2020.315222057084
 10
937.3631505958853
 20
2020.315222057084
 10
944.535018618807
 20
2018.8808484525
 10
951.7068866417288
 20
2017.446474847915
 10
958.1615678623585
 20
2015.294914441039
 10
963.8990622806959
 20
2012.42616723187
 10
969.6365566990337
 20
2008.840233220409
 10
974.6568643150787
 20
2004.537112406656
 10
979.6771719311239
 20
2000.233991592903
 10
983.980292744877
 20
1995.213683976857
 10
987.5662267563381
 20
1989.476189558519
 10
990.4349739655067
 20
1983.738695140182
 10
993.3037211746755
 20
1976.566827117261
 10
995.4552815815517
 20
1970.112145896631
 10
996.8896551861362
 20
1962.223091071417
 10
997.6068419884287
 20
1954.334036246203
 10
998.3240287907207
 20
1946.444981420989
 10
998.3240287907207
 20
1946.444981420989
  0
LWPOLYLINE
  5
4990
330
4999
100
AcDbEntity
  8
0
 62
     7
370
     0
100
AcDbPolyline
 90
       68
 70
     1
 43
0.0
 10
881.4225800170945
 20
1945.727794618697
 10
881.4225800170945
 20
1945.727794618697
 10
881.4225800170945
 20
1938.555926595775
 10
882.1397668193869
 20
1931.384058572852
 10
883.5741404239714
 20
1924.929377352223
 10
885.0085140285557
 20
1918.474696131594
 10
886.44288763314
 20
1912.737201713255
 10
888.5944480400167
 20
1906.999707294918
 10
891.4631952491854
 20
1901.979399678873
 10
894.331942458354
 20
1896.959092062828
 10
897.2006896675226
 20
1893.373158051367
 10
900.7866236789835
 20
1889.787224039906
 10
905.0897444927368
 20
1886.201290028445
 10
908.6756785041977
 20
1883.332542819276
 10
912.9787993179505
 20
1881.898169214692
 10
917.999106933996
 20
1879.746608807815
 10
922.302227747749
 20
1879.029422005523
 10
927.3225353637942
 20
1879.029422005523
 10
927.3225353637942
 20
1879.029422005523
 10
932.3428429798395
 20
1879.029422005523
 10
937.3631505958853
 20
1879.746608807815
 10
941.6662714096382
 20
1881.1809824124
 10
945.9693922233913
 20
1883.332542819276
 10
950.2725130371443
 20
1886.201290028445
 10
953.8584470486052
 20
1889.070037237614
 10
957.4443810600664
 20
1892.655971249075
 10
960.3131282692347
 20
1896.959092062828
 10
963.1818754784037
 20
1901.262212876581
 10
966.0506226875723
 20
1906.282520492626
 10
968.202183094449
 20
1912.020014910964
 10
969.6365566990337
 20
1917.757509329301
 10
971.0709303036175
 20
1924.212190549931
 10
971.7881171059101
 20
1930.66687177056
 10
972.5053039082022
 20
1945.010607816404
 10
972.5053039082022
 20
1945.010607816404
 10
971.7881171059101
 20
1959.354343862248
 10
971.0709303036175
 20
1965.809025082878
 10
969.6365566990337
 20
1972.263706303508
 10
967.4849962921566
 20
1978.001200721845
 10
966.0506226875723
 20
1983.738695140182
 10
963.1818754784037
 20
1988.759002756227
 10
960.3131282692347
 20
1993.779310372273
 10
957.4443810600664
 20
1998.082431186026
 10
953.8584470486052
 20
2001.668365197487
 10
950.2725130371443
 20
2004.537112406656
 10
946.6865790256836
 20
2007.405859615825
 10
942.3834582119303
 20
2009.557420022701
 10
938.0803373981771
 20
2010.991793627285
 10
933.060029782132
 20
2012.42616723187
 10
928.0397221660866
 20
2012.42616723187
 10
928.0397221660866
 20
2012.42616723187
 10
923.0194145500414
 20
2012.42616723187
 10
917.999106933996
 20
2010.991793627285
 10
912.9787993179505
 20
2009.557420022701
 10
908.6756785041977
 20
2008.123046418117
 10
904.3725576904446
 20
2005.254299208948
 10
900.7866236789835
 20
2002.385551999779
 10
897.2006896675226
 20
1998.799617988318
 10
894.331942458354
 20
1994.496497174565
 10
891.4631952491854
 20
1990.193376360812
 10
888.5944480400167
 20
1985.173068744767
 10
886.44288763314
 20
1979.435574326429
 10
885.0085140285557
 20
1973.698079908092
 10
883.5741404239714
 20
1967.243398687462
 10
882.1397668193869
 20
1960.07153066454
 10
881.4225800170945
 20
1952.899662641618
 10
881.4225800170945
 20
1945.727794618697
 10
881.4225800170945
 20
1945.727794618697
  0
LWPOLYLINE
  5
4991
330
4999
100
AcDbEntity
  8
0
 62
     7
370
     0
100
AcDbPolyline
 90
      104
 70
     1
 43
0.0
 10
1176.903542561475
 20
2011.708980429578
 10
1176.903542561475
 20
2011.708980429578
 10
1176.186355759182
 20
2010.274606824993
 10
1175.46916895689
 20
2010.274606824993
 10
1171.166048143137
 20
2009.557420022701
 10
1171.166048143137
 20
2009.557420022701
 10
1166.145740527092
 20
2009.557420022701
 10
1161.842619713339
 20
2009.557420022701
 10
1158.97387250417
 20
2008.123046418117
 10
1156.822312097293
 20
2006.688672813532
 10
1156.105125295001
 20
2003.819925604364
 10
1155.387938492709
 20
1999.51680479061
 10
1155.387938492709
 20
1985.173068744767
 10
1155.387938492709
 20
1874.009114389478
 10
1155.387938492709
 20
1874.009114389478
 10
1154.670751690417
 20
1872.574740784894
 10
1153.236378085833
 20
1871.857553982601
 10
1144.630136458326
 20
1871.857553982601
 10
1128.852026807898
 20
1894.090344853659
 10
1065.739588206186
 20
1975.849640314968
 10
1065.739588206186
 20
1975.849640314968
 10
1057.13334657868
 20
1986.607442349351
 10
1048.527104951173
 20
1995.213683976857
 10
1048.527104951173
 20
1912.020014910964
 10
1048.527104951173
 20
1912.020014910964
 10
1049.244291753466
 20
1894.807531655951
 10
1049.961478555758
 20
1889.787224039906
 10
1051.395852160342
 20
1885.484103226153
 10
1053.547412567219
 20
1883.332542819276
 10
1056.416159776388
 20
1881.898169214692
 10
1060.719280590141
 20
1881.1809824124
 10
1066.456775008478
 20
1881.1809824124
 10
1066.456775008478
 20
1881.1809824124
 10
1071.477082624523
 20
1881.1809824124
 10
1072.194269426816
 20
1880.463795610108
 10
1072.194269426816
 20
1879.029422005523
 10
1072.194269426816
 20
1874.72630119177
 10
1072.194269426816
 20
1874.72630119177
 10
1072.194269426816
 20
1874.009114389478
 10
1070.759895822231
 20
1873.291927587186
 10
1016.253698848025
 20
1873.291927587186
 10
1016.253698848025
 20
1873.291927587186
 10
1015.536512045733
 20
1873.291927587186
 10
1014.819325243441
 20
1874.009114389478
 10
1014.102138441149
 20
1875.443487994061
 10
1014.102138441149
 20
1875.443487994061
 10
1014.102138441149
 20
1879.029422005523
 10
1014.819325243441
 20
1880.463795610108
 10
1015.536512045733
 20
1881.1809824124
 10
1017.68807245261
 20
1881.1809824124
 10
1017.68807245261
 20
1881.1809824124
 10
1023.425566870947
 20
1881.1809824124
 10
1027.7286876847
 20
1881.898169214692
 10
1031.314621696161
 20
1882.615356016984
 10
1033.466182103038
 20
1884.049729621569
 10
1035.617742509914
 20
1886.918476830737
 10
1036.334929312206
 20
1890.504410842198
 10
1037.052116114499
 20
1895.524718458243
 10
1037.052116114499
 20
1901.979399678873
 10
1037.052116114499
 20
1985.173068744767
 10
1037.052116114499
 20
1985.173068744767
 10
1037.052116114499
 20
1998.799617988318
 10
1036.334929312206
 20
2003.102738802072
 10
1034.900555707622
 20
2005.97148601124
 10
1032.748995300746
 20
2008.123046418117
 10
1029.880248091577
 20
2008.840233220409
 10
1025.577127277824
 20
2009.557420022701
 10
1019.839632859486
 20
2009.557420022701
 10
1019.839632859486
 20
2009.557420022701
 10
1015.536512045733
 20
2010.274606824993
 10
1014.819325243441
 20
2010.991793627285
 10
1014.102138441149
 20
2011.708980429578
 10
1014.102138441149
 20
2011.708980429578
 10
1014.819325243441
 20
2016.729288045623
 10
1014.819325243441
 20
2017.446474847915
 10
1015.536512045733
 20
2017.446474847915
 10
1060.719280590141
 20
2017.446474847915
 10
1060.719280590141
 20
2017.446474847915
 10
1073.6286430314
 20
1999.51680479061
 10
1125.266092796437
 20
1932.101245375145
 10
1125.266092796437
 20
1932.101245375145
 10
1143.195762853742
 20
1909.868454504087
 10
1143.195762853742
 20
1985.173068744767
 10
1143.195762853742
 20
1985.173068744767
 10
1143.195762853742
 20
1999.51680479061
 10
1141.761389249158
 20
2003.819925604364
 10
1140.327015644573
 20
2006.688672813532
 10
1138.175455237697
 20
2008.123046418117
 10
1134.589521226236
 20
2009.557420022701
 10
1130.286400412483
 20
2009.557420022701
 10
1124.548905994145
 20
2009.557420022701
 10
1124.548905994145
 20
2009.557420022701
 10
1119.5285983781
 20
2010.274606824993
 10
1118.811411575808
 20
2010.991793627285
 10
1118.811411575808
 20
2011.708980429578
 10
1118.811411575808
 20
2016.01210124333
 10
1118.811411575808
 20
2016.01210124333
 10
1119.5285983781
 20
2017.446474847915
 10
1121.680158784976
 20
2017.446474847915
 10
1174.751982154598
 20
2017.446474847915
 10
1174.751982154598
 20
2017.446474847915
 10
1176.186355759182
 20
2016.729288045623
 10
1176.903542561475
 20
2016.01210124333
 10
1176.903542561475
 20
2011.708980429578
  0
LWPOLYLINE
  5
4992
330
4999
100
AcDbEntity
  8
0
 62
     7
370
     0
100
AcDbPolyline
 90
       75
 70
     1
 43
0.0
 10
1255.794090813615
 20
2020.315222057084
 10
1265.117519243413
 20
2020.315222057084
 10
1271.572200464043
 20
2005.97148601124
 10
1271.572200464043
 20
2005.97148601124
 10
1298.825298951146
 20
1944.293421014112
 10
1315.320595403866
 20
1907.716894097211
 10
1321.775276624496
 20
1894.807531655951
 10
1325.361210635957
 20
1886.918476830737
 10
1325.361210635957
 20
1886.918476830737
 10
1327.512771042833
 20
1884.766916423861
 10
1329.66433144971
 20
1883.332542819276
 10
1331.815891856586
 20
1881.898169214692
 10
1333.967452263463
 20
1881.898169214692
 10
1333.967452263463
 20
1881.898169214692
 10
1336.836199472632
 20
1881.1809824124
 10
1338.987759879508
 20
1881.1809824124
 10
1339.7049466818
 20
1880.463795610108
 10
1339.7049466818
 20
1879.029422005523
 10
1339.7049466818
 20
1876.160674796355
 10
1339.7049466818
 20
1876.160674796355
 10
1339.7049466818
 20
1874.72630119177
 10
1338.987759879508
 20
1874.009114389478
 10
1336.836199472632
 20
1873.291927587186
 10
1280.178442091549
 20
1873.291927587186
 10
1280.178442091549
 20
1873.291927587186
 10
1278.744068486965
 20
1874.009114389478
 10
1278.026881684673
 20
1876.160674796355
 10
1278.744068486965
 20
1879.746608807815
 10
1278.744068486965
 20
1879.746608807815
 10
1278.744068486965
 20
1881.1809824124
 10
1280.178442091549
 20
1881.898169214692
 10
1285.915936509887
 20
1881.898169214692
 10
1285.915936509887
 20
1881.898169214692
 10
1290.936244125932
 20
1881.898169214692
 10
1294.522178137393
 20
1883.332542819276
 10
1295.956551741977
 20
1885.484103226153
 10
1296.673738544269
 20
1889.070037237614
 10
1296.673738544269
 20
1889.070037237614
 10
1296.673738544269
 20
1892.655971249075
 10
1294.522178137393
 20
1898.393465667412
 10
1285.915936509887
 20
1919.909069736178
 10
1222.803497908174
 20
1919.909069736178
 10
1212.762882676084
 20
1894.807531655951
 10
1212.762882676084
 20
1894.807531655951
 10
1212.045695873792
 20
1891.938784446782
 10
1211.328509071499
 20
1889.070037237614
 10
1211.328509071499
 20
1889.070037237614
 10
1212.045695873792
 20
1886.201290028445
 10
1214.197256280668
 20
1883.332542819276
 10
1217.066003489837
 20
1881.898169214692
 10
1221.36912430359
 20
1881.898169214692
 10
1227.106618721928
 20
1881.898169214692
 10
1227.106618721928
 20
1881.898169214692
 10
1228.540992326512
 20
1881.1809824124
 10
1229.258179128804
 20
1879.029422005523
 10
1229.258179128804
 20
1875.443487994061
 10
1229.258179128804
 20
1875.443487994061
 10
1228.540992326512
 20
1874.009114389478
 10
1227.82380552422
 20
1873.291927587186
 10
1179.772289770643
 20
1873.291927587186
 10
1179.772289770643
 20
1873.291927587186
 10
1179.055102968351
 20
1874.009114389478
 10
1178.337916166059
 20
1876.160674796355
 10
1178.337916166059
 20
1879.746608807815
 10
1178.337916166059
 20
1879.746608807815
 10
1179.055102968351
 20
1881.1809824124
 10
1180.489476572935
 20
1881.898169214692
 10
1180.489476572935
 20
1881.898169214692
 10
1185.509784188981
 20
1881.898169214692
 10
1187.661344595857
 20
1882.615356016984
 10
1189.812905002734
 20
1884.049729621569
 10
1191.96446540961
 20
1886.201290028445
 10
1194.116025816487
 20
1889.787224039906
 10
1200.570707037116
 20
1901.262212876581
 10
1255.794090813615
 20
2020.315222057084
  0
LWPOLYLINE
  5
4993
330
4999
100
AcDbEntity
  8
0
 62
     7
370
     0
100
AcDbPolyline
 90
        4
 70
     1
 43
0.0
 10
1255.076904011323
 20
1993.062123569981
 10
1226.389431919636
 20
1928.515311363684
 10
1282.330002498426
 20
1928.515311363684
 10
1255.076904011323
 20
1993.062123569981
  0
LWPOLYLINE
  5
4994
330
4999
100
AcDbEntity
  8
0
 62
     7
370
     0
100
AcDbPolyline
 90
       46
 70
     1
 43
2.868747209168737
 10
908.6756785041977
 20
1802.29043416026
 10
908.6756785041977
 20
1802.29043416026
 10
908.6756785041977
 20
1802.29043416026
 10
908.6756785041977
 20
1802.29043416026
 10
900.7866236789835
 20
1802.29043416026
 10
892.1803820514774
 20
1803.007620962552
 10
882.8569536216789
 20
1805.159181369428
 10
872.8163383895886
 20
1807.310741776305
 10
849.8663607162384
 20
1814.482609799227
 10
824.7648226360123
 20
1823.806038229025
 10
798.2289109512013
 20
1834.563840263408
 10
769.5414388595137
 20
1846.756015902375
 10
709.2977474669702
 20
1873.291927587186
 10
709.2977474669702
 20
1873.291927587186
 10
650.4884296790112
 20
1899.827839271997
 10
622.518144389616
 20
1911.302828108672
 10
595.2650459025131
 20
1922.060630143054
 10
570.1635078222866
 20
1931.384058572852
 10
547.9307169512289
 20
1938.555926595775
 10
537.8901017191384
 20
1940.707487002651
 10
528.5666732893401
 20
1942.859047409528
 10
519.9604316618338
 20
1944.293421014112
 10
512.0713768366197
 20
1944.293421014112
 10
512.0713768366197
 20
1946.444981420989
 10
512.0713768366197
 20
1946.444981420989
 10
519.9604316618338
 20
1946.444981420989
 10
528.5666732893401
 20
1945.010607816404
 10
537.8901017191384
 20
1942.859047409528
 10
547.9307169512289
 20
1940.707487002651
 10
570.8806946245788
 20
1933.535618979729
 10
595.9822327048052
 20
1924.212190549931
 10
623.2353311919084
 20
1913.454388515548
 10
651.2056164813035
 20
1901.262212876581
 10
710.7321210715547
 20
1875.443487994061
 10
710.7321210715547
 20
1875.443487994061
 10
770.2586256618062
 20
1848.907576309252
 10
798.9460977534935
 20
1836.715400670284
 10
825.4820094383044
 20
1825.957598635902
 10
850.5835475185309
 20
1816.634170206103
 10
872.8163383895886
 20
1809.462302183181
 10
882.8569536216789
 20
1807.310741776305
 10
892.1803820514774
 20
1805.87636817172
 10
900.7866236789835
 20
1804.441994567136
 10
907.9584917019056
 20
1804.441994567136
 10
908.6756785041977
 20
1804.441994567136
 10
908.6756785041977
 20
1802.29043416026
  0
LWPOLYLINE
  5
4995
330
4999
100
AcDbEntity
  8
0
 62
     7
370
     0
100
AcDbPolyline
 90
      134
 70
     1
 43
2.868747209168737
 10
953.8584470486052
 20
1830.260719449655
 10
953.8584470486052
 20
1830.260719449655
 10
953.8584470486052
 20
1830.260719449655
 10
945.9693922233913
 20
1831.695093054239
 10
938.0803373981771
 20
1833.129466658824
 10
938.0803373981771
 20
1833.129466658824
 10
930.9084693752556
 20
1835.2810270657
 10
923.7366013523336
 20
1837.432587472576
 10
923.7366013523336
 20
1837.432587472576
 10
915.1303597248274
 20
1841.73570828633
 10
906.5241180973213
 20
1846.038829100083
 10
898.6350632721071
 20
1851.77632351842
 10
890.7460084468931
 20
1857.513817936758
 10
883.5741404239714
 20
1863.968499157387
 10
877.1194592033417
 20
1871.140367180309
 10
870.664777982712
 20
1879.029422005523
 10
865.6444703666666
 20
1887.635663633029
 10
865.6444703666666
 20
1887.635663633029
 10
865.6444703666666
 20
1887.635663633029
 10
865.6444703666666
 20
1887.635663633029
 10
865.6444703666666
 20
1887.635663633029
 10
859.1897891460366
 20
1899.827839271997
 10
854.886668332284
 20
1912.020014910964
 10
854.886668332284
 20
1912.020014910964
 10
852.0179211231152
 20
1924.212190549931
 10
849.8663607162384
 20
1936.404366188898
 10
849.8663607162384
 20
1936.404366188898
 10
849.8663607162384
 20
1945.010607816404
 10
849.8663607162384
 20
1952.899662641618
 10
850.5835475185309
 20
1960.788717466832
 10
852.0179211231152
 20
1968.677772292046
 10
854.1694815299917
 20
1976.566827117261
 10
856.3210419368683
 20
1984.455881942475
 10
859.1897891460366
 20
1991.627749965396
 10
862.775723157498
 20
1998.799617988318
 10
866.3616571689589
 20
2005.97148601124
 10
870.664777982712
 20
2013.143354034162
 10
875.6850855987572
 20
2019.598035254792
 10
881.4225800170945
 20
2025.335529673129
 10
887.1600744354322
 20
2031.790210893759
 10
893.6147556560619
 20
2036.810518509804
 10
900.0694368766916
 20
2041.830826125849
 10
907.2413048996134
 20
2046.851133741895
 10
907.2413048996134
 20
2046.851133741895
 10
907.2413048996134
 20
2046.851133741895
 10
907.2413048996134
 20
2046.851133741895
 10
907.2413048996134
 20
2046.851133741895
 10
917.999106933996
 20
2051.87144135794
 10
928.756908968379
 20
2056.174562171694
 10
928.756908968379
 20
2056.174562171694
 10
939.5147110027616
 20
2059.043309380862
 10
950.2725130371443
 20
2061.194869787739
 10
950.2725130371443
 20
2061.194869787739
 10
957.4443810600664
 20
2061.91205659003
 10
964.616249082988
 20
2062.629243392323
 10
971.7881171059101
 20
2061.91205659003
 10
978.9599851288318
 20
2061.91205659003
 10
985.4146663494615
 20
2060.477682985446
 10
992.5865343723835
 20
2059.043309380862
 10
999.7584023953052
 20
2057.608935776277
 10
1006.213083615935
 20
2055.457375369401
 10
1012.667764836564
 20
2052.588628160232
 10
1019.122446057194
 20
2049.002694148772
 10
1025.577127277824
 20
2046.133946939603
 10
1031.314621696161
 20
2041.830826125849
 10
1037.769302916791
 20
2037.527705312097
 10
1042.789610532836
 20
2033.224584498343
 10
1048.527104951173
 20
2028.204276882298
 10
1053.547412567219
 20
2022.46678246396
 10
1052.113038962634
 20
2021.032408859376
 10
1052.113038962634
 20
2021.032408859376
 10
1047.092731346589
 20
2026.769903277713
 10
1041.355236928252
 20
2031.790210893759
 10
1036.334929312206
 20
2036.093331707512
 10
1030.597434893869
 20
2040.396452521265
 10
1024.142753673239
 20
2043.982386532726
 10
1018.405259254902
 20
2047.568320544187
 10
1011.950578034272
 20
2050.437067753356
 10
1005.495896813642
 20
2053.305814962524
 10
991.8693475700912
 20
2056.891748973985
 10
978.2427983265396
 20
2059.043309380862
 10
964.616249082988
 20
2059.760496183154
 10
950.9896998394363
 20
2059.043309380862
 10
950.9896998394363
 20
2059.043309380862
 10
940.2318978050541
 20
2056.891748973985
 10
929.4740957706713
 20
2054.023001764816
 10
929.4740957706713
 20
2054.023001764816
 10
918.7162937362883
 20
2049.719880951063
 10
908.6756785041977
 20
2044.699573335018
 10
908.6756785041977
 20
2044.699573335018
 10
908.6756785041977
 20
2044.699573335018
 10
908.6756785041977
 20
2044.699573335018
 10
908.6756785041977
 20
2044.699573335018
 10
901.5038104812758
 20
2040.396452521265
 10
895.0491292606461
 20
2035.37614490522
 10
888.5944480400167
 20
2029.638650486882
 10
882.8569536216789
 20
2023.901156068545
 10
877.8366460056338
 20
2018.163661650207
 10
872.8163383895886
 20
2011.708980429578
 10
868.5132175758353
 20
2005.254299208948
 10
864.9272835643746
 20
1998.082431186026
 10
861.3413495529135
 20
1990.910563163104
 10
858.4726023437449
 20
1983.738695140182
 10
856.3210419368683
 20
1975.849640314968
 10
854.1694815299917
 20
1968.677772292046
 10
852.7351079254074
 20
1960.788717466832
 10
852.0179211231152
 20
1952.899662641618
 10
852.0179211231152
 20
1945.010607816404
 10
852.0179211231152
 20
1937.12155299119
 10
852.0179211231152
 20
1937.12155299119
 10
854.1694815299917
 20
1924.929377352223
 10
857.0382287391604
 20
1912.737201713255
 10
857.0382287391604
 20
1912.737201713255
 10
861.3413495529135
 20
1900.545026074289
 10
867.0788439712511
 20
1889.070037237614
 10
867.0788439712511
 20
1889.070037237614
 10
867.0788439712511
 20
1889.070037237614
 10
867.0788439712511
 20
1889.070037237614
 10
867.0788439712511
 20
1889.070037237614
 10
872.8163383895886
 20
1880.463795610108
 10
878.553832807926
 20
1872.574740784894
 10
885.0085140285557
 20
1865.402872761972
 10
892.1803820514774
 20
1858.948191541342
 10
899.3522500743994
 20
1853.210697123005
 10
907.2413048996134
 20
1848.190389506959
 10
915.8475465271195
 20
1843.170081890914
 10
924.4537881546259
 20
1839.584147879453
 10
924.4537881546259
 20
1839.584147879453
 10
931.6256561775476
 20
1837.432587472576
 10
938.7975242004696
 20
1835.2810270657
 10
938.7975242004696
 20
1835.2810270657
 10
953.8584470486052
 20
1832.412279856531
 10
953.8584470486052
 20
1832.412279856531
 10
953.8584470486052
 20
1830.260719449655
  0
LWPOLYLINE
  5
4996
330
4999
100
AcDbEntity
  8
0
 62
     7
370
     0
100
AcDbPolyline
 90
      164
 70
     1
 43
2.868747209168737
 10
973.9396775127866
 20
1833.129466658824
 10
973.9396775127866
 20
1833.129466658824
 10
966.7678094898647
 20
1837.432587472576
 10
961.0303150715273
 20
1841.73570828633
 10
961.0303150715273
 20
1841.73570828633
 10
956.727194257774
 20
1846.756015902375
 10
953.1412602463133
 20
1851.77632351842
 10
951.7068866417288
 20
1857.513817936758
 10
950.9896998394363
 20
1863.251312355094
 10
950.9896998394363
 20
1863.251312355094
 10
950.2725130371443
 20
1868.271619971141
 10
950.9896998394363
 20
1873.291927587186
 10
952.424073444021
 20
1878.312235203231
 10
953.8584470486052
 20
1882.615356016984
 10
953.8584470486052
 20
1882.615356016984
 10
956.727194257774
 20
1887.635663633029
 10
960.3131282692347
 20
1891.938784446782
 10
960.3131282692347
 20
1891.938784446782
 10
963.8990622806959
 20
1895.524718458243
 10
968.202183094449
 20
1899.110652469704
 10
972.5053039082022
 20
1901.979399678873
 10
976.0912379196632
 20
1904.13096008575
 10
980.3943587334163
 20
1905.565333690334
 10
984.6974795471693
 20
1906.999707294918
 10
989.0006003609224
 20
1907.716894097211
 10
993.3037211746755
 20
1907.716894097211
 10
993.3037211746755
 20
1907.716894097211
 10
1000.475589197597
 20
1906.999707294918
 10
1006.930270418227
 20
1904.848146888042
 10
1006.930270418227
 20
1904.848146888042
 10
1010.516204429688
 20
1903.413773283457
 10
1013.384951638856
 20
1901.262212876581
 10
1019.122446057194
 20
1896.959092062828
 10
1019.122446057194
 20
1896.959092062828
 10
1022.708380068655
 20
1894.090344853659
 10
1025.577127277824
 20
1890.504410842198
 10
1027.7286876847
 20
1886.918476830737
 10
1029.880248091577
 20
1882.615356016984
 10
1031.314621696161
 20
1878.312235203231
 10
1032.748995300746
 20
1874.009114389478
 10
1033.466182103038
 20
1869.705993575725
 10
1033.466182103038
 20
1864.685685959679
 10
1033.466182103038
 20
1864.685685959679
 10
1033.466182103038
 20
1864.685685959679
 10
1033.466182103038
 20
1864.685685959679
 10
1032.748995300746
 20
1855.362257529881
 10
1031.314621696161
 20
1846.038829100083
 10
1031.314621696161
 20
1846.038829100083
 10
1029.880248091577
 20
1841.018521484037
 10
1027.7286876847
 20
1835.998213867992
 10
1027.7286876847
 20
1835.998213867992
 10
1024.142753673239
 20
1830.260719449655
 10
1019.839632859486
 20
1824.523225031317
 10
1014.102138441149
 20
1819.502917415272
 10
1008.364644022811
 20
1815.199796601518
 10
1001.192775999889
 20
1810.896675787766
 10
992.5865343723835
 20
1808.027928578597
 10
983.263105942585
 20
1805.159181369428
 10
973.2224907104944
 20
1803.007620962552
 10
973.2224907104944
 20
1803.007620962552
 10
973.2224907104944
 20
1803.007620962552
 10
963.8990622806959
 20
1802.29043416026
 10
953.1412602463133
 20
1802.29043416026
 10
941.6662714096382
 20
1804.441994567136
 10
929.4740957706713
 20
1806.593554974013
 10
915.8475465271195
 20
1810.179488985474
 10
902.220997283568
 20
1815.199796601518
 10
887.1600744354322
 20
1820.220104217564
 10
871.3819647850042
 20
1826.674785438194
 10
838.3913718795637
 20
1841.018521484037
 10
803.9664053695387
 20
1857.513817936758
 10
768.1070652549292
 20
1875.443487994061
 10
731.5305383380282
 20
1893.373158051367
 10
731.5305383380282
 20
1893.373158051367
 10
669.8524733409002
 20
1924.212190549931
 10
639.7306276446286
 20
1938.555926595775
 10
610.325968750649
 20
1952.182475839325
 10
582.3556834612539
 20
1963.657464676001
 10
555.8197717764428
 20
1973.698079908092
 10
543.6275961374758
 20
1978.001200721845
 10
532.1526073008008
 20
1981.587134733306
 10
520.677618464126
 20
1984.455881942475
 10
509.9198164297432
 20
1986.607442349351
 10
510.6370032320354
 20
1988.041815953935
 10
510.6370032320354
 20
1988.041815953935
 10
521.394805266418
 20
1986.607442349351
 10
532.1526073008008
 20
1983.738695140182
 10
544.344782939768
 20
1980.152761128722
 10
556.5369585787351
 20
1975.849640314968
 10
583.0728702635457
 20
1965.809025082878
 10
611.0431555529412
 20
1954.334036246203
 10
640.4478144469208
 20
1940.707487002651
 10
670.5696601431925
 20
1926.363750956807
 10
732.2477251403204
 20
1895.524718458243
 10
732.2477251403204
 20
1895.524718458243
 10
804.683592171831
 20
1859.665378343634
 10
839.1085586818558
 20
1843.170081890914
 10
872.0991515872963
 20
1828.826345845071
 10
887.1600744354322
 20
1823.088851426733
 10
902.220997283568
 20
1817.351357008395
 10
916.5647333294119
 20
1812.33104939235
 10
929.4740957706713
 20
1808.745115380889
 10
941.6662714096382
 20
1806.593554974013
 10
953.1412602463133
 20
1804.441994567136
 10
963.8990622806959
 20
1804.441994567136
 10
972.5053039082022
 20
1805.159181369428
 10
972.5053039082022
 20
1805.159181369428
 10
972.5053039082022
 20
1805.159181369428
 10
982.5459191402925
 20
1807.310741776305
 10
991.8693475700912
 20
1809.462302183181
 10
999.7584023953052
 20
1813.048236194642
 10
1006.930270418227
 20
1816.634170206103
 10
1012.667764836564
 20
1820.937291019856
 10
1017.68807245261
 20
1825.957598635902
 10
1021.991193266363
 20
1831.695093054239
 10
1024.859940475531
 20
1836.715400670284
 10
1024.859940475531
 20
1836.715400670284
 10
1027.011500882408
 20
1841.73570828633
 10
1029.163061289285
 20
1846.756015902375
 10
1029.163061289285
 20
1846.756015902375
 10
1030.597434893869
 20
1855.362257529881
 10
1031.314621696161
 20
1864.685685959679
 10
1031.314621696161
 20
1864.685685959679
 10
1031.314621696161
 20
1864.685685959679
 10
1031.314621696161
 20
1864.685685959679
 10
1031.314621696161
 20
1868.988806773432
 10
1030.597434893869
 20
1873.291927587186
 10
1029.163061289285
 20
1877.595048400939
 10
1027.7286876847
 20
1881.898169214692
 10
1025.577127277824
 20
1885.484103226153
 10
1023.425566870947
 20
1889.070037237614
 10
1017.68807245261
 20
1895.524718458243
 10
1017.68807245261
 20
1895.524718458243
 10
1012.667764836564
 20
1899.827839271997
 10
1006.213083615935
 20
1902.696586481164
 10
1006.213083615935
 20
1902.696586481164
 10
999.7584023953052
 20
1904.848146888042
 10
993.3037211746755
 20
1905.565333690334
 10
993.3037211746755
 20
1905.565333690334
 10
989.0006003609224
 20
1905.565333690334
 10
985.4146663494615
 20
1904.848146888042
 10
981.111545535708
 20
1903.413773283457
 10
977.5256115242475
 20
1901.979399678873
 10
973.2224907104944
 20
1899.827839271997
 10
969.6365566990337
 20
1896.959092062828
 10
965.3334358852802
 20
1894.090344853659
 10
961.7475018738195
 20
1889.787224039906
 10
961.7475018738195
 20
1889.787224039906
 10
958.8787546646507
 20
1886.201290028445
 10
956.727194257774
 20
1881.898169214692
 10
956.727194257774
 20
1881.898169214692
 10
954.5756338508978
 20
1877.595048400939
 10
953.1412602463133
 20
1872.574740784894
 10
953.1412602463133
 20
1868.271619971141
 10
953.1412602463133
 20
1863.251312355094
 10
953.1412602463133
 20
1863.251312355094
 10
953.8584470486052
 20
1858.23100473905
 10
955.2928206531897
 20
1853.210697123005
 10
958.1615678623585
 20
1848.190389506959
 10
962.4646886761116
 20
1843.170081890914
 10
962.4646886761116
 20
1843.170081890914
 10
968.202183094449
 20
1839.584147879453
 10
974.6568643150787
 20
1835.998213867992
 10
973.9396775127866
 20
1833.129466658824
  0
LWPOLYLINE
  5
4997
330
4999
100
AcDbEntity
  8
0
 62
     7
370
     0
100
AcDbPolyline
 90
       84
 70
     1
 43
2.868747209168737
 10
808.269526183292
 20
1934.969992584314
 10
809.7038997878765
 20
1934.252805782022
 10
809.7038997878765
 20
1934.252805782022
 10
809.7038997878765
 20
1934.252805782022
 10
824.7648226360123
 20
1919.909069736178
 10
839.8257454841481
 20
1904.848146888042
 10
839.8257454841481
 20
1904.848146888042
 10
852.7351079254074
 20
1891.221597644491
 10
866.3616571689589
 20
1878.312235203231
 10
879.98820641251
 20
1866.120059564264
 10
894.331942458354
 20
1855.362257529881
 10
901.5038104812758
 20
1850.341949913836
 10
909.3928653064898
 20
1845.32164229779
 10
917.2819201317039
 20
1841.73570828633
 10
924.4537881546259
 20
1838.149774274869
 10
933.060029782132
 20
1835.2810270657
 10
940.9490846073461
 20
1833.846653461116
 10
949.555326234852
 20
1832.412279856531
 10
958.1615678623585
 20
1831.695093054239
 10
958.1615678623585
 20
1831.695093054239
 10
970.3537435013256
 20
1832.412279856531
 10
979.6771719311239
 20
1833.846653461116
 10
979.6771719311239
 20
1833.846653461116
 10
983.263105942585
 20
1834.563840263408
 10
986.1318531517538
 20
1836.715400670284
 10
992.5865343723835
 20
1840.301334681745
 10
992.5865343723835
 20
1840.301334681745
 10
995.4552815815517
 20
1843.887268693206
 10
997.6068419884287
 20
1847.473202704667
 10
998.3240287907207
 20
1851.77632351842
 10
997.6068419884287
 20
1855.362257529881
 10
997.6068419884287
 20
1855.362257529881
 10
996.8896551861362
 20
1858.23100473905
 10
995.4552815815517
 20
1860.382565145927
 10
995.4552815815517
 20
1860.382565145927
 10
993.3037211746755
 20
1861.816938750511
 10
991.8693475700912
 20
1863.251312355094
 10
991.8693475700912
 20
1863.251312355094
 10
989.7177871632147
 20
1863.251312355094
 10
987.5662267563381
 20
1863.251312355094
 10
985.4146663494615
 20
1862.534125552803
 10
983.980292744877
 20
1860.382565145927
 10
981.8287323380003
 20
1861.816938750511
 10
981.8287323380003
 20
1861.816938750511
 10
984.6974795471693
 20
1863.968499157387
 10
987.5662267563381
 20
1865.402872761972
 10
990.4349739655067
 20
1865.402872761972
 10
992.5865343723835
 20
1864.685685959679
 10
992.5865343723835
 20
1864.685685959679
 10
995.4552815815517
 20
1863.251312355094
 10
996.8896551861362
 20
1861.099751948219
 10
996.8896551861362
 20
1861.099751948219
 10
999.041215593013
 20
1858.948191541342
 10
999.7584023953052
 20
1856.079444332173
 10
999.7584023953052
 20
1856.079444332173
 10
1000.475589197597
 20
1851.77632351842
 10
999.7584023953052
 20
1847.473202704667
 10
997.6068419884287
 20
1842.452895088622
 10
994.0209079769676
 20
1838.866961077161
 10
994.0209079769676
 20
1838.866961077161
 10
987.5662267563381
 20
1834.563840263408
 10
980.3943587334163
 20
1831.695093054239
 10
980.3943587334163
 20
1831.695093054239
 10
971.0709303036175
 20
1830.260719449655
 10
958.1615678623585
 20
1829.543532647363
 10
958.1615678623585
 20
1829.543532647363
 10
948.83813943256
 20
1830.260719449655
 10
940.9490846073461
 20
1831.695093054239
 10
932.3428429798395
 20
1833.846653461116
 10
924.4537881546259
 20
1836.715400670284
 10
915.8475465271195
 20
1839.584147879453
 10
908.6756785041977
 20
1843.887268693206
 10
900.7866236789835
 20
1848.190389506959
 10
893.6147556560619
 20
1853.210697123005
 10
879.2710196102182
 20
1864.685685959679
 10
864.9272835643746
 20
1876.877861598647
 10
851.3007343208229
 20
1889.787224039906
 10
838.3913718795637
 20
1903.413773283457
 10
838.3913718795637
 20
1903.413773283457
 10
823.3304490314278
 20
1918.474696131594
 10
808.269526183292
 20
1932.818432177437
 10
808.269526183292
 20
1932.818432177437
 10
806.8351525787074
 20
1933.535618979729
 10
808.269526183292
 20
1934.969992584314
  0
ENDBLK
  5
499B
330
4999
100
AcDbEntity
  8
0
100
AcDbBlockEnd
  0
BLOCK
  5
4A48
330
4A47
100
AcDbEntity
  8
0
100
AcDbBlockBegin
  2
AN-3205 drawing
 70
     0
 10
0.0
 20
0.0
 30
0.0
  3
AN-3205 drawing
  1

  0
LWPOLYLINE
  5
499D
330
4A47
100
AcDbEntity
  8
Layer 1
 62
     7
370
    13
100
AcDbPolyline
 90
        2
 70
     0
 43
0.0
 10
140.6313815295123
 20
52.57801376723744
 10
140.6313815295123
 20
48.85283201903678
  0
LWPOLYLINE
  5
499E
330
4A47
100
AcDbEntity
  8
Layer 1
 62
     7
370
    13
100
AcDbPolyline
 90
        2
 70
     0
 43
0.0
 10
140.6313815295123
 20
54.5675564099692
 10
140.6313815295123
 20
53.59397242583762
  0
LWPOLYLINE
  5
499F
330
4A47
100
AcDbEntity
  8
Layer 1
 62
     7
370
    13
100
AcDbPolyline
 90
        2
 70
     0
 43
0.0
 10
140.6313815295123
 20
60.57890352218167
 10
140.6313815295123
 20
55.5835150685694
  0
LWPOLYLINE
  5
49A0
330
4A47
100
AcDbEntity
  8
Layer 1
 62
     7
370
    13
100
AcDbPolyline
 90
        2
 70
     0
 43
0.0
 10
140.6313815295123
 20
62.56879067446195
 10
140.6313815295123
 20
61.59486218078185
  0
LWPOLYLINE
  5
49A1
330
4A47
100
AcDbEntity
  8
Layer 1
 62
     7
370
    13
100
AcDbPolyline
 90
        2
 70
     0
 43
0.0
 10
140.6313815295123
 20
68.5801377866744
 10
140.6313815295123
 20
63.58474933306215
  0
LWPOLYLINE
  5
49A2
330
4A47
100
AcDbEntity
  8
Layer 1
 62
     7
370
    13
100
AcDbPolyline
 90
        2
 70
     0
 43
0.0
 10
140.6313815295123
 20
70.56968042940619
 10
140.6313815295123
 20
69.55372177080602
  0
LWPOLYLINE
  5
49A3
330
4A47
100
AcDbEntity
  8
Layer 1
 62
     7
370
    13
100
AcDbPolyline
 90
        2
 70
     0
 43
0.0
 10
140.6313815295123
 20
76.58102754161864
 10
140.6313815295123
 20
71.58563908800637
  0
LWPOLYLINE
  5
49A4
330
4A47
100
AcDbEntity
  8
Layer 1
 62
     7
370
    13
100
AcDbPolyline
 90
        2
 70
     0
 43
0.0
 10
140.6313815295123
 20
78.57057018435043
 10
140.6313815295123
 20
77.55461152575023
  0
LWPOLYLINE
  5
49A5
330
4A47
100
AcDbEntity
  8
Layer 1
 62
     7
370
    13
100
AcDbPolyline
 90
        2
 70
     0
 43
0.0
 10
140.6313815295123
 20
84.58191729656286
 10
140.6313815295123
 20
79.58652884295059
  0
LWPOLYLINE
  5
49A6
330
4A47
100
AcDbEntity
  8
Layer 1
 62
     7
370
    13
100
AcDbPolyline
 90
        2
 70
     0
 43
0.0
 10
140.6313815295123
 20
86.57180444884316
 10
140.6313815295123
 20
85.55550128069446
  0
LWPOLYLINE
  5
49A7
330
4A47
100
AcDbEntity
  8
Layer 1
 62
     7
370
    13
100
AcDbPolyline
 90
        2
 70
     0
 43
0.0
 10
140.6313815295123
 20
92.54077688658702
 10
140.6313815295123
 20
87.54538843297476
  0
LWPOLYLINE
  5
49A8
330
4A47
100
AcDbEntity
  8
Layer 1
 62
     7
370
    13
100
AcDbPolyline
 90
        2
 70
     0
 43
0.0
 10
140.6313815295123
 20
94.57269420378741
 10
140.6313815295123
 20
93.55673554518721
  0
LWPOLYLINE
  5
49A9
330
4A47
100
AcDbEntity
  8
Layer 1
 62
     7
370
    13
100
AcDbPolyline
 90
        2
 70
     0
 43
0.0
 10
140.6313815295123
 20
100.5416666415312
 10
140.6313815295123
 20
95.54627818791898
  0
LWPOLYLINE
  5
49AA
330
4A47
100
AcDbEntity
  8
Layer 1
 62
     7
370
    13
100
AcDbPolyline
 90
        2
 70
     0
 43
0.0
 10
140.6313815295123
 20
102.531209284263
 10
140.6313815295123
 20
101.5576253001314
  0
LWPOLYLINE
  5
49AB
330
4A47
100
AcDbEntity
  8
Layer 1
 62
     7
370
    13
100
AcDbPolyline
 90
        2
 70
     0
 43
0.0
 10
140.6313815295123
 20
108.5427286512497
 10
140.6313815295123
 20
103.5471679428632
  0
LWPOLYLINE
  5
49AC
330
4A47
100
AcDbEntity
  8
Layer 1
 62
     7
370
    13
100
AcDbPolyline
 90
        2
 70
     0
 43
0.0
 10
140.6313815295123
 20
110.5322712939815
 10
140.6313815295123
 20
109.5586873098499
  0
LWPOLYLINE
  5
49AD
330
4A47
100
AcDbEntity
  8
Layer 1
 62
     7
370
    13
100
AcDbPolyline
 90
        2
 70
     0
 43
0.0
 10
140.6313815295123
 20
116.5436184061939
 10
140.6313815295123
 20
111.5484022073559
  0
LWPOLYLINE
  5
49AE
330
4A47
100
AcDbEntity
  8
Layer 1
 62
     7
370
    13
100
AcDbPolyline
 90
        2
 70
     0
 43
0.0
 10
140.6313815295123
 20
118.5333333037
 10
140.6313815295123
 20
117.5597493195684
  0
LWPOLYLINE
  5
49AF
330
4A47
100
AcDbEntity
  8
Layer 1
 62
     7
370
    13
100
AcDbPolyline
 90
        2
 70
     0
 43
0.0
 10
140.6313815295123
 20
123.2746459652751
 10
140.6313815295123
 20
119.5492919623002
  0
LWPOLYLINE
  5
49B0
330
4A47
100
AcDbEntity
  8
Layer 1
 62
     7
370
    13
100
AcDbPolyline
 90
        2
 70
     0
 43
0.0
 10
182.0757079622936
 20
86.06365286476881
 10
188.3833332862375
 20
86.06365286476881
  0
LWPOLYLINE
  5
49B1
330
4A47
100
AcDbEntity
  8
Layer 1
 62
     7
370
    13
100
AcDbPolyline
 90
        2
 70
     0
 43
0.0
 10
180.0861653195618
 20
86.06365286476881
 10
181.102123978162
 20
86.06365286476881
  0
LWPOLYLINE
  5
49B2
330
4A47
100
AcDbEntity
  8
Layer 1
 62
     7
370
    13
100
AcDbPolyline
 90
        2
 70
     0
 43
0.0
 10
174.0748182073493
 20
86.06365286476881
 10
179.069862151413
 20
86.06365286476881
  0
LWPOLYLINE
  5
49B3
330
4A47
100
AcDbEntity
  8
Layer 1
 62
     7
370
    13
100
AcDbPolyline
 90
        2
 70
     0
 43
0.0
 10
172.084931055069
 20
86.06365286476881
 10
173.1008897136692
 20
86.06365286476881
  0
LWPOLYLINE
  5
49B4
330
4A47
100
AcDbEntity
  8
Layer 1
 62
     7
370
    13
100
AcDbPolyline
 90
        2
 70
     0
 43
0.0
 10
166.1159586173252
 20
86.06365286476881
 10
171.1113470709374
 20
86.06365286476881
  0
LWPOLYLINE
  5
49B5
330
4A47
100
AcDbEntity
  8
Layer 1
 62
     7
370
    13
100
AcDbPolyline
 90
        2
 70
     0
 43
0.0
 10
164.0840413001248
 20
86.06365286476881
 10
165.099999958725
 20
86.06365286476881
  0
LWPOLYLINE
  5
49B6
330
4A47
100
AcDbEntity
  8
Layer 1
 62
     7
370
    13
100
AcDbPolyline
 90
        2
 70
     0
 43
0.0
 10
158.1150688623809
 20
86.06365286476881
 10
163.1104573159932
 20
86.06365286476881
  0
LWPOLYLINE
  5
49B7
330
4A47
100
AcDbEntity
  8
Layer 1
 62
     7
370
    13
100
AcDbPolyline
 90
        2
 70
     0
 43
0.0
 10
156.1251817101006
 20
86.06365286476881
 10
157.0991102037807
 20
86.06365286476881
  0
LWPOLYLINE
  5
49B8
330
4A47
100
AcDbEntity
  8
Layer 1
 62
     7
370
    13
100
AcDbPolyline
 90
        2
 70
     0
 43
0.0
 10
150.1138345978882
 20
86.06365286476881
 10
155.1092230515005
 20
86.06365286476881
  0
LWPOLYLINE
  5
49B9
330
4A47
100
AcDbEntity
  8
Layer 1
 62
     7
370
    13
100
AcDbPolyline
 90
        2
 70
     0
 43
0.0
 10
148.1242919551564
 20
86.06365286476881
 10
149.097875939288
 20
86.06365286476881
  0
LWPOLYLINE
  5
49BA
330
4A47
100
AcDbEntity
  8
Layer 1
 62
     7
370
    13
100
AcDbPolyline
 90
        2
 70
     0
 43
0.0
 10
142.112944842944
 20
86.06365286476881
 10
147.1083332965562
 20
86.06365286476881
  0
LWPOLYLINE
  5
49BB
330
4A47
100
AcDbEntity
  8
Layer 1
 62
     7
370
    13
100
AcDbPolyline
 90
        2
 70
     0
 43
0.0
 10
140.1234022002122
 20
86.06365286476881
 10
141.0969861843438
 20
86.06365286476881
  0
LWPOLYLINE
  5
49BC
330
4A47
100
AcDbEntity
  8
Layer 1
 62
     7
370
    13
100
AcDbPolyline
 90
        2
 70
     0
 43
0.0
 10
134.1120550879997
 20
86.06365286476881
 10
139.1072712868377
 20
86.06365286476881
  0
LWPOLYLINE
  5
49BD
330
4A47
100
AcDbEntity
  8
Layer 1
 62
     7
370
    13
100
AcDbPolyline
 90
        2
 70
     0
 43
0.0
 10
132.1223401904937
 20
86.06365286476881
 10
133.1382988490939
 20
86.06365286476881
  0
LWPOLYLINE
  5
49BE
330
4A47
100
AcDbEntity
  8
Layer 1
 62
     7
370
    13
100
AcDbPolyline
 90
        2
 70
     0
 43
0.0
 10
126.1109930782813
 20
86.06365286476881
 10
131.1063815318935
 20
86.06365286476881
  0
LWPOLYLINE
  5
49BF
330
4A47
100
AcDbEntity
  8
Layer 1
 62
     7
370
    13
100
AcDbPolyline
 90
        2
 70
     0
 43
0.0
 10
124.1212781807752
 20
86.06365286476881
 10
125.1374090941496
 20
86.06365286476881
  0
LWPOLYLINE
  5
49C0
330
4A47
100
AcDbEntity
  8
Layer 1
 62
     7
370
    13
100
AcDbPolyline
 90
        2
 70
     0
 43
0.0
 10
118.1523057430313
 20
86.06365286476881
 10
123.1476941966436
 20
86.06365286476881
  0
LWPOLYLINE
  5
49C1
330
4A47
100
AcDbEntity
  8
Layer 1
 62
     7
370
    13
100
AcDbPolyline
 90
        2
 70
     0
 43
0.0
 10
116.120388425831
 20
86.06365286476881
 10
117.1363470844312
 20
86.06365286476881
  0
LWPOLYLINE
  5
49C2
330
4A47
100
AcDbEntity
  8
Layer 1
 62
     7
370
    13
100
AcDbPolyline
 90
        2
 70
     0
 43
0.0
 10
110.1514159880871
 20
86.06365286476881
 10
115.1466321869251
 20
86.06365286476881
  0
LWPOLYLINE
  5
49C3
330
4A47
100
AcDbEntity
  8
Layer 1
 62
     7
370
    13
100
AcDbPolyline
 90
        2
 70
     0
 43
0.0
 10
108.1617010905811
 20
86.06365286476881
 10
109.1352850747127
 20
86.06365286476881
  0
LWPOLYLINE
  5
49C4
330
4A47
100
AcDbEntity
  8
Layer 1
 62
     7
370
    13
100
AcDbPolyline
 90
        2
 70
     0
 43
0.0
 10
102.1503539783686
 20
86.06365286476881
 10
107.1457424319809
 20
86.06365286476881
  0
LWPOLYLINE
  5
49C5
330
4A47
100
AcDbEntity
  8
Layer 1
 62
     7
370
    13
100
AcDbPolyline
 90
        2
 70
     0
 43
0.0
 10
100.1606390808626
 20
86.06365286476881
 10
101.1343953197685
 20
86.06365286476881
  0
LWPOLYLINE
  5
49C6
330
4A47
100
AcDbEntity
  8
Layer 1
 62
     7
370
    13
100
AcDbPolyline
 90
        2
 70
     0
 43
0.0
 10
92.83705509831852
 20
86.06365286476881
 10
99.14468042226246
 20
86.06365286476881
  0
LWPOLYLINE
  5
49C7
330
4A47
100
AcDbEntity
  8
Layer 1
 62
     7
370
    30
100
AcDbPolyline
 90
       65
 70
     0
 43
0.0
 10
94.5303195293188
 20
70.35815156661185
 10
94.65727129795029
 20
68.15673555153721
 10
95.0382988586189
 20
65.99769421093113
 10
95.67340221132472
 20
63.92340221926221
 10
96.52003442682485
 20
61.89148490206186
 10
97.5783677598936
 20
59.94397242425011
 10
98.84840221053096
 20
58.16595864431267
 10
100.2875908494941
 20
56.55744356224952
 10
101.9386528608
 20
55.07570799404359
 10
103.7166666407375
 20
53.80550128863196
 10
105.6216321893064
 20
52.70513779064316
 10
107.6113470868124
 20
51.85833332036875
 10
109.7280137529499
 20
51.22340222243721
 10
111.887055093556
 20
50.79999998729999
 10
114.0459241793878
 20
50.67287596389427
 10
140.6313815295123
 20
50.41897242663136
 10
167.1742919503939
 20
50.67287596389427
 10
169.3757079654686
 20
50.79999998729999
 10
171.5347493060746
 20
51.22340222243721
 10
173.6090412977435
 20
51.85833332036875
 10
175.6409586149439
 20
52.70513779064316
 10
177.5460964182871
 20
53.80550128863196
 10
179.3241101982244
 20
55.07570799404359
 10
180.9326252802877
 20
56.55744356224952
 10
182.4143608484936
 20
58.16595864431267
 10
183.6842230443567
 20
59.94397242425011
 10
184.7425563774254
 20
61.89148490206186
 10
185.5893608476998
 20
63.92340221926221
 10
186.1819172711628
 20
65.99769421093113
 10
186.5629448318315
 20
68.15673555153721
 10
186.7324435297058
 20
70.35815156661185
 10
186.8168483690944
 20
86.06365286476881
 10
186.7324435297058
 20
101.7694986724743
 10
186.5629448318315
 20
103.9705701780004
 10
186.1819172711628
 20
106.1296115186065
 10
185.5893608476998
 20
108.2040757650497
 10
184.7425563774254
 20
110.23599308225
 10
183.6842230443567
 20
112.1409586308189
 10
182.4143608484936
 20
113.9613470852249
 10
180.9326252802877
 20
115.5700344220623
 10
179.3241101982244
 20
117.051597735494
 10
177.5460964182871
 20
118.3216321861314
 10
175.6409586149439
 20
119.4223401936687
 10
173.6090412977435
 20
120.2689724091688
 10
171.5347493060746
 20
120.9040757618746
 10
169.3757079654686
 20
121.284931067769
 10
167.1742919503939
 20
121.4542575108691
 10
140.6313815295123
 20
121.7083333029062
 10
114.0459241793878
 20
121.4542575108691
 10
111.887055093556
 20
121.284931067769
 10
109.7280137529499
 20
120.9040757618746
 10
107.6113470868124
 20
120.2689724091688
 10
105.6216321893064
 20
119.4223401936687
 10
103.7166666407375
 20
118.3216321861314
 10
101.9386528608
 20
117.051597735494
 10
100.2875908494941
 20
115.5700344220623
 10
98.84840221053096
 20
113.9613470852249
 10
97.5783677598936
 20
112.1409586308189
 10
96.52003442682485
 20
110.23599308225
 10
95.67340221132472
 20
108.2040757650497
 10
95.0382988586189
 20
106.1296115186065
 10
94.65727129795029
 20
103.9705701780004
 10
94.5303195293188
 20
101.7694986724743
 10
94.44574243515594
 20
86.06365286476881
 10
94.5303195293188
 20
70.35815156661185
  0
LWPOLYLINE
  5
49C8
330
4A47
100
AcDbEntity
  8
Layer 1
 62
     7
370
    30
100
AcDbPolyline
 90
       57
 70
     0
 43
0.0
 10
98.67907576743093
 20
70.4001817315319
 10
98.84840221053096
 20
68.36826441433155
 10
99.22925751642535
 20
66.42109644606835
 10
99.90673554359972
 20
64.47358396825659
 10
100.7957424335684
 20
62.69557018831917
 10
101.9386528608
 20
61.00230575731885
 10
103.251061985906
 20
59.47819551464434
 10
104.7749999738062
 20
58.12358396984411
 10
106.4260619851122
 20
57.02287596230679
 10
108.246278184744
 20
56.09166665264375
 10
110.1514159880871
 20
55.41436088024362
 10
112.1409586308189
 20
54.99095864510643
 10
114.1306735283249
 20
54.82180445678064
 10
140.6313815295123
 20
54.6099310844378
 10
167.0895426014568
 20
54.82180445678064
 10
169.1218044282057
 20
54.99095864510643
 10
171.0689723964688
 20
55.41436088024362
 10
172.974110199812
 20
56.09166665264375
 10
174.794498654218
 20
57.02287596230679
 10
176.4877630852183
 20
58.12358396984411
 10
177.9694986534243
 20
59.47819551464434
 10
179.3241101982244
 20
61.00230575731885
 10
180.4248182057618
 20
62.69557018831917
 10
181.3136528409563
 20
64.47358396825659
 10
181.9909586133564
 20
66.42109644606835
 10
182.4143608484936
 20
68.36826441433155
 10
182.5414848718994
 20
70.4001817315319
 10
182.625889711288
 20
86.06365286476881
 10
182.5414848718994
 20
101.7271239980057
 10
182.4143608484936
 20
103.7590413152061
 10
181.9909586133564
 20
105.7063815382435
 10
181.3136528409563
 20
107.653721761281
 10
180.4248182057618
 20
109.4317355412184
 10
179.3241101982244
 20
111.1249999722187
 10
177.9694986534243
 20
112.648937960119
 10
176.4877630852183
 20
114.0037217596935
 10
174.794498654218
 20
115.1042575124566
 10
172.974110199812
 20
116.0356390768938
 10
171.0689723964688
 20
116.712944849294
 10
169.1218044282057
 20
117.1363470844312
 10
167.0895426014568
 20
117.3056735275312
 10
140.6313815295123
 20
117.5173746450998
 10
114.1306735283249
 20
117.3056735275312
 10
112.1409586308189
 20
117.1363470844312
 10
110.1514159880871
 20
116.712944849294
 10
108.246278184744
 20
116.0356390768938
 10
106.4260619851122
 20
115.1042575124566
 10
104.7749999738062
 20
114.0037217596935
 10
103.251061985906
 20
112.648937960119
 10
101.9386528608
 20
111.1249999722187
 10
100.7957424335684
 20
109.4317355412184
 10
99.90673554359972
 20
107.653721761281
 10
99.22925751642535
 20
105.7063815382435
 10
98.84840221053096
 20
103.7590413152061
 10
98.67907576743093
 20
101.7271239980057
 10
98.59432641849378
 20
86.06365286476881
 10
98.67907576743093
 20
70.4001817315319
  0
LWPOLYLINE
  5
49C9
330
4A47
100
AcDbEntity
  8
Layer 1
 62
     7
370
    13
100
AcDbPolyline
 90
        2
 70
     0
 43
0.0
 10
179.7895425982818
 20
126.7037217565185
 10
101.4306735314999
 20
126.7037217565185
  0
LWPOLYLINE
  5
49CA
330
4A47
100
AcDbEntity
  8
Layer 1
 62
     7
370
    13
100
AcDbPolyline
 90
        2
 70
     0
 43
0.0
 10
98.59432641849378
 20
86.06365286476881
 10
98.59432641849378
 20
127.1269517368814
  0
LWPOLYLINE
  5
49CB
330
4A47
100
AcDbEntity
  8
Layer 1
 62
     7
370
    13
100
AcDbPolyline
 90
        2
 70
     0
 43
0.0
 10
182.625889711288
 20
86.06365286476881
 10
182.625889711288
 20
127.1269517368814
  0
LWPOLYLINE
  5
49CC
330
4A47
100
AcDbEntity
  8
Layer 1
 62
     7
370
     0
100
AcDbPolyline
 90
        4
 70
     0
 43
0.0
 10
179.7895425982818
 20
127.2117010858186
 10
179.7895425982818
 20
126.2379448469127
 10
182.625889711288
 20
126.7037217565185
 10
179.7895425982818
 20
127.2117010858186
  0
HATCH
  5
49CD
330
4A47
100
AcDbEntity
  8
Layer 1
 62
     7
100
AcDbHatch
 10
0.0
 20
0.0
 30
0.0
210
0.0
220
0.0
230
1.0
  2
SOLID
 70
     1
 71
     0
 91
        1
 92
        1
 93
        3
 72
     1
 10
179.7895425982818
 20
127.2117010858186
 11
179.7895425982818
 21
126.2379448469127
 72
     1
 10
179.7895425982818
 20
126.2379448469127
 11
182.625889711288
 21
126.7037217565185
 72
     1
 10
182.625889711288
 20
126.7037217565185
 11
179.7895425982818
 21
127.2117010858186
 97
        0
 75
     0
 76
     1
 98
        0
  0
LWPOLYLINE
  5
49CE
330
4A47
100
AcDbEntity
  8
Layer 1
 62
     7
370
     0
100
AcDbPolyline
 90
        4
 70
     0
 43
0.0
 10
101.4306735314999
 20
127.2117010858186
 10
101.4306735314999
 20
126.2379448469127
 10
98.59432641849378
 20
126.7037217565185
 10
101.4306735314999
 20
127.2117010858186
  0
HATCH
  5
49CF
330
4A47
100
AcDbEntity
  8
Layer 1
 62
     7
100
AcDbHatch
 10
0.0
 20
0.0
 30
0.0
210
0.0
220
0.0
230
1.0
  2
SOLID
 70
     1
 71
     0
 91
        1
 92
        1
 93
        3
 72
     1
 10
101.4306735314999
 20
127.2117010858186
 11
101.4306735314999
 21
126.2379448469127
 72
     1
 10
101.4306735314999
 20
126.2379448469127
 11
98.59432641849378
 21
126.7037217565185
 72
     1
 10
98.59432641849378
 20
126.7037217565185
 11
101.4306735314999
 21
127.2117010858186
 97
        0
 75
     0
 76
     1
 98
        0
  0
LWPOLYLINE
  5
49D0
330
4A47
100
AcDbEntity
  8
Layer 1
 62
     7
370
    13
100
AcDbPolyline
 90
        2
 70
     0
 43
0.0
 10
183.9805012560882
 20
132.8420206373624
 10
97.28191729338789
 20
132.8420206373624
  0
LWPOLYLINE
  5
49D1
330
4A47
100
AcDbEntity
  8
Layer 1
 62
     7
370
    13
100
AcDbPolyline
 90
        2
 70
     0
 43
0.0
 10
94.44574243515594
 20
86.06365286476881
 10
94.44574243515594
 20
133.223048198031
  0
LWPOLYLINE
  5
49D2
330
4A47
100
AcDbEntity
  8
Layer 1
 62
     7
370
    13
100
AcDbPolyline
 90
        2
 70
     0
 43
0.0
 10
186.8168483690944
 20
86.06365286476881
 10
186.8168483690944
 20
133.223048198031
  0
LWPOLYLINE
  5
49D3
330
4A47
100
AcDbEntity
  8
Layer 1
 62
     7
370
    13
100
AcDbPolyline
 90
        4
 70
     0
 43
0.0
 10
144.2719861835501
 20
127.2117010858186
 10
144.2719861835501
 20
130.3443264105563
 10
142.7056735211811
 20
128.2276597444188
 10
144.8223401873187
 20
128.2276597444188
  0
LWPOLYLINE
  5
49D4
330
4A47
100
AcDbEntity
  8
Layer 1
 62
     7
370
    13
100
AcDbPolyline
 90
        6
 70
     0
 43
0.0
 10
141.1393608588124
 20
128.7780137481874
 10
141.6473401881125
 20
128.2276597444188
 10
141.6473401881125
 20
127.7196804151187
 10
141.1393608588124
 20
127.2117010858186
 10
140.0810275257436
 20
127.2117010858186
 10
139.5730481964435
 20
127.7196804151187
  0
LWPOLYLINE
  5
49D5
330
4A47
100
AcDbEntity
  8
Layer 1
 62
     7
370
    13
100
AcDbPolyline
 90
        7
 70
     0
 43
0.0
 10
139.5730481964435
 20
129.7939724067876
 10
140.0810275257436
 20
130.3443264105563
 10
141.1393608588124
 20
130.3443264105563
 10
141.6473401881125
 20
129.7939724067876
 10
141.6473401881125
 20
129.2859930774875
 10
141.1393608588124
 20
128.7780137481874
 10
140.6313815295123
 20
128.7780137481874
  0
LWPOLYLINE
  5
49D6
330
4A47
100
AcDbEntity
  8
Layer 1
 62
     7
370
    13
100
AcDbPolyline
 90
        9
 70
     0
 43
0.0
 10
136.4402506169316
 20
127.7196804151187
 10
136.9484022010059
 20
127.2117010858186
 10
138.0067355340747
 20
127.2117010858186
 10
138.5147148633748
 20
127.7196804151187
 10
138.5147148633748
 20
128.7780137481874
 10
138.0067355340747
 20
129.2859930774875
 10
136.4402506169316
 20
129.2859930774875
 10
136.4402506169316
 20
130.3443264105563
 10
138.5147148633748
 20
130.3443264105563
  0
LWPOLYLINE
  5
49D7
330
4A47
100
AcDbEntity
  8
Layer 1
 62
     7
370
     0
100
AcDbPolyline
 90
        4
 70
     0
 43
0.0
 10
183.9805012560882
 20
133.3076252921939
 10
183.9805012560882
 20
132.3340413080623
 10
186.8168483690944
 20
132.8420206373624
 10
183.9805012560882
 20
133.3076252921939
  0
HATCH
  5
49D8
330
4A47
100
AcDbEntity
  8
Layer 1
 62
     7
100
AcDbHatch
 10
0.0
 20
0.0
 30
0.0
210
0.0
220
0.0
230
1.0
  2
SOLID
 70
     1
 71
     0
 91
        1
 92
        1
 93
        3
 72
     1
 10
183.9805012560882
 20
133.3076252921939
 11
183.9805012560882
 21
132.3340413080623
 72
     1
 10
183.9805012560882
 20
132.3340413080623
 11
186.8168483690944
 21
132.8420206373624
 72
     1
 10
186.8168483690944
 20
132.8420206373624
 11
183.9805012560882
 21
133.3076252921939
 97
        0
 75
     0
 76
     1
 98
        0
  0
LWPOLYLINE
  5
49D9
330
4A47
100
AcDbEntity
  8
Layer 1
 62
     7
370
     0
100
AcDbPolyline
 90
        4
 70
     0
 43
0.0
 10
97.28191729338789
 20
133.3076252921939
 10
97.28191729338789
 20
132.3340413080623
 10
94.44574243515594
 20
132.8420206373624
 10
97.28191729338789
 20
133.3076252921939
  0
HATCH
  5
49DA
330
4A47
100
AcDbEntity
  8
Layer 1
 62
     7
100
AcDbHatch
 10
0.0
 20
0.0
 30
0.0
210
0.0
220
0.0
230
1.0
  2
SOLID
 70
     1
 71
     0
 91
        1
 92
        1
 93
        3
 72
     1
 10
97.28191729338789
 20
133.3076252921939
 11
97.28191729338789
 21
132.3340413080623
 72
     1
 10
97.28191729338789
 20
132.3340413080623
 11
94.44574243515594
 21
132.8420206373624
 72
     1
 10
94.44574243515594
 20
132.8420206373624
 11
97.28191729338789
 21
133.3076252921939
 97
        0
 75
     0
 76
     1
 98
        0
  0
LWPOLYLINE
  5
49DB
330
4A47
100
AcDbEntity
  8
Layer 1
 62
     7
370
    13
100
AcDbPolyline
 90
        2
 70
     0
 43
0.0
 10
89.32340221291218
 20
114.7234022065622
 10
89.32340221291218
 20
57.40390352297541
  0
LWPOLYLINE
  5
49DC
330
4A47
100
AcDbEntity
  8
Layer 1
 62
     7
370
    13
100
AcDbPolyline
 90
        2
 70
     0
 43
0.0
 10
140.6313815295123
 20
54.6099310844378
 10
88.89999997777502
 20
54.6099310844378
  0
LWPOLYLINE
  5
49DD
330
4A47
100
AcDbEntity
  8
Layer 1
 62
     7
370
    13
100
AcDbPolyline
 90
        2
 70
     0
 43
0.0
 10
140.6313815295123
 20
117.5173746450998
 10
88.89999997777502
 20
117.5173746450998
  0
LWPOLYLINE
  5
49DE
330
4A47
100
AcDbEntity
  8
Layer 1
 62
     7
370
    13
100
AcDbPolyline
 90
        3
 70
     0
 43
0.0
 10
142.7056735211811
 20
136.4402506169316
 10
144.8223401873187
 20
136.4402506169316
 10
143.2560275249499
 20
133.3076252921939
  0
LWPOLYLINE
  5
49DF
330
4A47
100
AcDbEntity
  8
Layer 1
 62
     7
370
    13
100
AcDbPolyline
 90
        4
 70
     0
 43
0.0
 10
140.0810275257436
 20
134.8739379545627
 10
139.5730481964435
 20
134.323583950794
 10
139.5730481964435
 20
133.815604621494
 10
140.0810275257436
 20
133.3076252921939
  0
LWPOLYLINE
  5
49E0
330
4A47
100
AcDbEntity
  8
Layer 1
 62
     7
370
    13
100
AcDbPolyline
 90
       13
 70
     0
 43
0.0
 10
140.0810275257436
 20
133.3076252921939
 10
141.1393608588124
 20
133.3076252921939
 10
141.6473401881125
 20
133.815604621494
 10
141.6473401881125
 20
134.323583950794
 10
141.1393608588124
 20
134.8739379545627
 10
140.0810275257436
 20
134.8739379545627
 10
139.5730481964435
 20
135.3819172838628
 10
139.5730481964435
 20
135.9322712876315
 10
140.0810275257436
 20
136.4402506169316
 10
141.1393608588124
 20
136.4402506169316
 10
141.6473401881125
 20
135.9322712876315
 10
141.6473401881125
 20
135.3819172838628
 10
141.1393608588124
 20
134.8739379545627
  0
LWPOLYLINE
  5
49E1
330
4A47
100
AcDbEntity
  8
Layer 1
 62
     7
370
    13
100
AcDbPolyline
 90
        9
 70
     0
 43
0.0
 10
136.4402506169316
 20
133.815604621494
 10
136.9484022010059
 20
133.3076252921939
 10
138.0067355340747
 20
133.3076252921939
 10
138.5147148633748
 20
133.815604621494
 10
138.5147148633748
 20
134.8739379545627
 10
138.0067355340747
 20
135.3819172838628
 10
136.4402506169316
 20
135.3819172838628
 10
136.4402506169316
 20
136.4402506169316
 10
138.5147148633748
 20
136.4402506169316
  0
LWPOLYLINE
  5
49E2
330
4A47
100
AcDbEntity
  8
Layer 1
 62
     7
370
     0
100
AcDbPolyline
 90
        4
 70
     0
 43
0.0
 10
88.85762530330643
 20
114.7234022065622
 10
89.78900686774371
 20
114.7234022065622
 10
89.32340221291218
 20
117.5173746450998
 10
88.85762530330643
 20
114.7234022065622
  0
HATCH
  5
49E3
330
4A47
100
AcDbEntity
  8
Layer 1
 62
     7
100
AcDbHatch
 10
0.0
 20
0.0
 30
0.0
210
0.0
220
0.0
230
1.0
  2
SOLID
 70
     1
 71
     0
 91
        1
 92
        1
 93
        3
 72
     1
 10
88.85762530330643
 20
114.7234022065622
 11
89.78900686774371
 21
114.7234022065622
 72
     1
 10
89.78900686774371
 20
114.7234022065622
 11
89.32340221291218
 21
117.5173746450998
 72
     1
 10
89.32340221291218
 20
117.5173746450998
 11
88.85762530330643
 21
114.7234022065622
 97
        0
 75
     0
 76
     1
 98
        0
  0
LWPOLYLINE
  5
49E4
330
4A47
100
AcDbEntity
  8
Layer 1
 62
     7
370
     0
100
AcDbPolyline
 90
        4
 70
     0
 43
0.0
 10
88.85762530330643
 20
57.40390352297541
 10
89.78900686774371
 20
57.40390352297541
 10
89.32340221291218
 20
54.6099310844378
 10
88.85762530330643
 20
57.40390352297541
  0
HATCH
  5
49E5
330
4A47
100
AcDbEntity
  8
Layer 1
 62
     7
100
AcDbHatch
 10
0.0
 20
0.0
 30
0.0
210
0.0
220
0.0
230
1.0
  2
SOLID
 70
     1
 71
     0
 91
        1
 92
        1
 93
        3
 72
     1
 10
88.85762530330643
 20
57.40390352297541
 11
89.78900686774371
 21
57.40390352297541
 72
     1
 10
89.78900686774371
 20
57.40390352297541
 11
89.32340221291218
 21
54.6099310844378
 72
     1
 10
89.32340221291218
 20
54.6099310844378
 11
88.85762530330643
 21
57.40390352297541
 97
        0
 75
     0
 76
     1
 98
        0
  0
LWPOLYLINE
  5
49E6
330
4A47
100
AcDbEntity
  8
Layer 1
 62
     7
370
    13
100
AcDbPolyline
 90
        2
 70
     0
 43
0.0
 10
82.97340221449969
 20
118.8719861899
 10
82.97340221449969
 20
53.25531953963757
  0
LWPOLYLINE
  5
49E7
330
4A47
100
AcDbEntity
  8
Layer 1
 62
     7
370
    13
100
AcDbPolyline
 90
        2
 70
     0
 43
0.0
 10
140.6313815295123
 20
50.41897242663136
 10
82.5499999793625
 20
50.41897242663136
  0
LWPOLYLINE
  5
49E8
330
4A47
100
AcDbEntity
  8
Layer 1
 62
     7
370
    13
100
AcDbPolyline
 90
        2
 70
     0
 43
0.0
 10
140.6313815295123
 20
121.7083333029062
 10
82.5499999793625
 20
121.7083333029062
  0
LWPOLYLINE
  5
49E9
330
4A47
100
AcDbEntity
  8
Layer 1
 62
     7
370
    13
100
AcDbPolyline
 90
        9
 70
     0
 43
0.0
 10
88.85762530330643
 20
88.68847111498066
 10
88.85762530330643
 20
89.19627818950649
 10
88.30727129953777
 20
89.74680444804944
 10
86.23297930786884
 20
89.74680444804944
 10
85.68262530410018
 20
89.19627818950649
 10
85.68262530410018
 20
88.68847111498066
 10
86.23297930786884
 20
88.18031953090631
 10
88.30727129953777
 20
88.18031953090631
 10
88.85762530330643
 20
88.68847111498066
  0
LWPOLYLINE
  5
49EA
330
4A47
100
AcDbEntity
  8
Layer 1
 62
     7
370
    13
100
AcDbPolyline
 90
        9
 70
     0
 43
0.0
 10
88.85762530330643
 20
86.06365286476881
 10
88.85762530330643
 20
86.57180444884316
 10
88.30727129953777
 20
87.12198619783753
 10
86.23297930786884
 20
87.12198619783753
 10
85.68262530410018
 20
86.57180444884316
 10
85.68262530410018
 20
86.06365286476881
 10
86.23297930786884
 20
85.55550128069446
 10
88.30727129953777
 20
85.55550128069446
 10
88.85762530330643
 20
86.06365286476881
  0
LWPOLYLINE
  5
49EB
330
4A47
100
AcDbEntity
  8
Layer 1
 62
     7
370
    13
100
AcDbPolyline
 90
        4
 70
     0
 43
0.0
 10
88.85762530330643
 20
83.94698619863133
 10
85.68262530410018
 20
83.94698619863133
 10
87.79929197023767
 20
82.38050128148818
 10
87.79929197023767
 20
84.4971679476257
  0
LWPOLYLINE
  5
49EC
330
4A47
100
AcDbEntity
  8
Layer 1
 62
     7
370
     0
100
AcDbPolyline
 90
        4
 70
     0
 43
0.0
 10
82.46525063042536
 20
118.8719861899
 10
83.43900686933123
 20
118.8719861899
 10
82.97340221449969
 20
121.7083333029062
 10
82.46525063042536
 20
118.8719861899
  0
HATCH
  5
49ED
330
4A47
100
AcDbEntity
  8
Layer 1
 62
     7
100
AcDbHatch
 10
0.0
 20
0.0
 30
0.0
210
0.0
220
0.0
230
1.0
  2
SOLID
 70
     1
 71
     0
 91
        1
 92
        1
 93
        3
 72
     1
 10
82.46525063042536
 20
118.8719861899
 11
83.43900686933123
 21
118.8719861899
 72
     1
 10
83.43900686933123
 20
118.8719861899
 11
82.97340221449969
 21
121.7083333029062
 72
     1
 10
82.97340221449969
 20
121.7083333029062
 11
82.46525063042536
 21
118.8719861899
 97
        0
 75
     0
 76
     1
 98
        0
  0
LWPOLYLINE
  5
49EE
330
4A47
100
AcDbEntity
  8
Layer 1
 62
     7
370
     0
100
AcDbPolyline
 90
        4
 70
     0
 43
0.0
 10
82.46525063042536
 20
53.25531953963757
 10
83.43900686933123
 20
53.25531953963757
 10
82.97340221449969
 20
50.41897242663136
 10
82.46525063042536
 20
53.25531953963757
  0
HATCH
  5
49EF
330
4A47
100
AcDbEntity
  8
Layer 1
 62
     7
100
AcDbHatch
 10
0.0
 20
0.0
 30
0.0
210
0.0
220
0.0
230
1.0
  2
SOLID
 70
     1
 71
     0
 91
        1
 92
        1
 93
        3
 72
     1
 10
82.46525063042536
 20
53.25531953963757
 11
83.43900686933123
 21
53.25531953963757
 72
     1
 10
83.43900686933123
 20
53.25531953963757
 11
82.97340221449969
 21
50.41897242663136
 72
     1
 10
82.97340221449969
 20
50.41897242663136
 11
82.46525063042536
 21
53.25531953963757
 97
        0
 75
     0
 76
     1
 98
        0
  0
LWPOLYLINE
  5
49F0
330
4A47
100
AcDbEntity
  8
Layer 1
 62
     7
370
    13
100
AcDbPolyline
 90
        2
 70
     0
 43
0.0
 10
166.8356390641939
 20
101.5576253001314
 10
181.3984021898934
 20
107.4420206437124
  0
LWPOLYLINE
  5
49F1
330
4A47
100
AcDbEntity
  8
Layer 1
 62
     7
370
    13
100
AcDbPolyline
 90
        9
 70
     0
 43
0.0
 10
205.0203884036061
 20
111.9292575132503
 10
205.4861653132118
 20
111.9292575132503
 10
205.951597713269
 20
112.3950344228561
 10
205.951597713269
 20
114.299999971425
 10
205.4861653132118
 20
114.7656046262565
 10
205.0203884036061
 20
114.7656046262565
 10
204.5546114940003
 20
114.299999971425
 10
204.5546114940003
 20
112.3950344228561
 10
205.0203884036061
 20
111.9292575132503
  0
LWPOLYLINE
  5
49F2
330
4A47
100
AcDbEntity
  8
Layer 1
 62
     7
370
    13
100
AcDbPolyline
 90
        9
 70
     0
 43
0.0
 10
202.6498182002056
 20
111.9292575132503
 10
203.1152506002629
 20
111.9292575132503
 10
203.5810275098687
 20
112.3950344228561
 10
203.5810275098687
 20
114.299999971425
 10
203.1152506002629
 20
114.7656046262565
 10
202.6498182002056
 20
114.7656046262565
 10
202.1840412905998
 20
114.299999971425
 10
202.1840412905998
 20
112.3950344228561
 10
202.6498182002056
 20
111.9292575132503
  0
LWPOLYLINE
  5
49F3
330
4A47
100
AcDbEntity
  8
Layer 1
 62
     7
370
    13
100
AcDbPolyline
 90
        3
 70
     0
 43
0.0
 10
200.787055071331
 20
111.9292575132503
 10
200.787055071331
 20
114.7656046262565
 10
200.2789034872567
 20
114.299999971425
  0
LWPOLYLINE
  5
49F4
330
4A47
100
AcDbEntity
  8
Layer 1
 62
     7
370
    13
100
AcDbPolyline
 90
        2
 70
     0
 43
0.0
 10
200.2789034872567
 20
111.9292575132503
 10
201.2528319809368
 20
111.9292575132503
  0
LWPOLYLINE
  5
49F5
330
4A47
100
AcDbEntity
  8
Layer 1
 62
     7
370
    13
100
AcDbPolyline
 90
        2
 70
     0
 43
0.0
 10
197.9507079583248
 20
113.3264159872934
 10
199.3476941775936
 20
111.9292575132503
  0
LWPOLYLINE
  5
49F6
330
4A47
100
AcDbEntity
  8
Layer 1
 62
     7
370
    13
100
AcDbPolyline
 90
        7
 70
     0
 43
0.0
 10
197.4425563742505
 20
111.9292575132503
 10
197.4425563742505
 20
114.7656046262565
 10
198.8819172679878
 20
114.7656046262565
 10
199.3476941775936
 20
114.299999971425
 10
199.3476941775936
 20
113.7920206421249
 10
198.8819172679878
 20
113.3264159872934
 10
197.4425563742505
 20
113.3264159872934
  0
LWPOLYLINE
  5
49F7
330
4A47
100
AcDbEntity
  8
Layer 1
 62
     7
370
    13
100
AcDbPolyline
 90
        2
 70
     0
 43
0.0
 10
194.6485839357128
 20
113.3264159872934
 10
196.5113470645874
 20
113.3264159872934
  0
LWPOLYLINE
  5
49F8
330
4A47
100
AcDbEntity
  8
Layer 1
 62
     7
370
    13
100
AcDbPolyline
 90
        4
 70
     0
 43
0.0
 10
193.2092230419755
 20
111.9292575132503
 10
193.2092230419755
 20
114.7656046262565
 10
191.8122368227066
 20
112.8606390776876
 10
193.6749999515813
 20
112.8606390776876
  0
LWPOLYLINE
  5
49F9
330
4A47
100
AcDbEntity
  8
Layer 1
 62
     7
370
    13
100
AcDbPolyline
 90
        3
 70
     0
 43
0.0
 10
205.951597713269
 20
111.4636528584188
 10
191.3468044226494
 20
111.4636528584188
 10
183.3031954836881
 20
108.2040757650497
  0
LWPOLYLINE
  5
49FA
330
4A47
100
AcDbEntity
  8
Layer 1
 62
     7
370
    13
100
AcDbPolyline
 90
        6
 70
     0
 43
0.0
 10
80.89893796805652
 20
89.74680444804944
 10
81.44929197182518
 20
90.25461152257523
 10
81.95727130112528
 20
90.25461152257523
 10
82.46525063042536
 20
89.74680444804944
 10
82.46525063042536
 20
88.68847111498066
 10
81.95727130112528
 20
88.18031953090631
  0
LWPOLYLINE
  5
49FB
330
4A47
100
AcDbEntity
  8
Layer 1
 62
     7
370
    13
100
AcDbPolyline
 90
        7
 70
     0
 43
0.0
 10
79.84060463498777
 20
88.18031953090631
 10
79.33262530568768
 20
88.68847111498066
 10
79.33262530568768
 20
89.74680444804944
 10
79.84060463498777
 20
90.25461152257523
 10
80.39095863875642
 20
90.25461152257523
 10
80.89893796805652
 20
89.74680444804944
 10
80.89893796805652
 20
89.19627818950649
  0
LWPOLYLINE
  5
49FC
330
4A47
100
AcDbEntity
  8
Layer 1
 62
     7
370
    13
100
AcDbPolyline
 90
        9
 70
     0
 43
0.0
 10
81.95727130112528
 20
85.00531953170005
 10
82.46525063042536
 20
85.55550128069446
 10
82.46525063042536
 20
86.57180444884316
 10
81.95727130112528
 20
87.12198619783753
 10
80.89893796805652
 20
87.12198619783753
 10
80.39095863875642
 20
86.57180444884316
 10
80.39095863875642
 20
85.00531953170005
 10
79.33262530568768
 20
85.00531953170005
 10
79.33262530568768
 20
87.12198619783753
  0
LWPOLYLINE
  5
49FD
330
4A47
100
AcDbEntity
  8
Layer 1
 62
     7
370
    13
100
AcDbPolyline
 90
        4
 70
     0
 43
0.0
 10
82.46525063042536
 20
83.43883461455694
 10
79.33262530568768
 20
83.43883461455694
 10
81.44929197182518
 20
81.87269420696237
 10
81.44929197182518
 20
83.94698619863133
  0
LWPOLYLINE
  5
49FE
330
4A47
100
AcDbEntity
  8
Layer 1
 62
     7
370
     0
100
AcDbPolyline
 90
        4
 70
     0
 43
0.0
 10
183.1764159698309
 20
108.5427286512497
 10
183.4303195070938
 20
107.9076252985439
 10
181.3984021898934
 20
107.4420206437124
 10
183.1764159698309
 20
108.5427286512497
  0
HATCH
  5
49FF
330
4A47
100
AcDbEntity
  8
Layer 1
 62
     7
100
AcDbHatch
 10
0.0
 20
0.0
 30
0.0
210
0.0
220
0.0
230
1.0
  2
SOLID
 70
     1
 71
     0
 91
        1
 92
        1
 93
        3
 72
     1
 10
183.1764159698309
 20
108.5427286512497
 11
183.4303195070938
 21
107.9076252985439
 72
     1
 10
183.4303195070938
 20
107.9076252985439
 11
181.3984021898934
 21
107.4420206437124
 72
     1
 10
181.3984021898934
 20
107.4420206437124
 11
183.1764159698309
 21
108.5427286512497
 97
        0
 75
     0
 76
     1
 98
        0
  0
LWPOLYLINE
  5
4A00
330
4A47
100
AcDbEntity
  8
Layer 1
 62
     7
370
    13
100
AcDbPolyline
 90
        2
 70
     0
 43
0.0
 10
166.8356390641939
 20
101.5576253001314
 10
183.853721742231
 20
111.8446804190874
  0
LWPOLYLINE
  5
4A01
330
4A47
100
AcDbEntity
  8
Layer 1
 62
     7
370
    13
100
AcDbPolyline
 90
        9
 70
     0
 43
0.0
 10
208.8726941752124
 20
117.4749999706312
 10
209.3384710848182
 20
117.0093953157997
 10
210.2696803944812
 20
117.0093953157997
 10
210.735457304087
 20
117.4749999706312
 10
210.735457304087
 20
118.4485839547628
 10
210.2696803944812
 20
118.9143608643686
 10
208.8726941752124
 20
118.9143608643686
 10
208.8726941752124
 20
119.8457424288059
 10
210.735457304087
 20
119.8457424288059
  0
LWPOLYLINE
  5
4A02
330
4A47
100
AcDbEntity
  8
Layer 1
 62
     7
370
    13
100
AcDbPolyline
 90
        3
 70
     0
 43
0.0
 10
207.433333281475
 20
116.5436184061939
 10
207.8991101910808
 20
117.0093953157997
 10
207.8991101910808
 20
117.4749999706312
  0
LWPOLYLINE
  5
4A03
330
4A47
100
AcDbEntity
  8
Layer 1
 62
     7
370
    13
100
AcDbPolyline
 90
       10
 70
     0
 43
0.0
 10
204.5969861684688
 20
118.4485839547628
 10
206.0363470622062
 20
118.4485839547628
 10
206.502123971812
 20
117.9406046254627
 10
206.502123971812
 20
117.4749999706312
 10
206.0363470622062
 20
117.0093953157997
 10
205.1051377525431
 20
117.0093953157997
 10
204.5969861684688
 20
117.4749999706312
 10
204.5969861684688
 20
118.9143608643686
 10
205.5705701526004
 20
119.8457424288059
 10
206.0363470622062
 20
119.8457424288059
  0
LWPOLYLINE
  5
4A04
330
4A47
100
AcDbEntity
  8
Layer 1
 62
     7
370
    13
100
AcDbPolyline
 90
       10
 70
     0
 43
0.0
 10
201.8030137299312
 20
119.3799655192001
 10
202.268790639537
 20
119.8457424288059
 10
203.1999999492
 20
119.8457424288059
 10
203.6657768588058
 20
119.3799655192001
 10
203.6657768588058
 20
118.9143608643686
 10
203.1999999492
 20
118.4485839547628
 10
202.268790639537
 20
118.4485839547628
 10
201.8030137299312
 20
117.9406046254627
 10
201.8030137299312
 20
117.0093953157997
 10
203.6657768588058
 20
117.0093953157997
  0
LWPOLYLINE
  5
4A05
330
4A47
100
AcDbEntity
  8
Layer 1
 62
     7
370
    13
100
AcDbPolyline
 90
        3
 70
     0
 43
0.0
 10
200.3636528361938
 20
117.0093953157997
 10
200.3636528361938
 20
119.8457424288059
 10
199.897875926588
 20
119.3799655192001
  0
LWPOLYLINE
  5
4A06
330
4A47
100
AcDbEntity
  8
Layer 1
 62
     7
370
    13
100
AcDbPolyline
 90
        2
 70
     0
 43
0.0
 10
199.897875926588
 20
117.0093953157997
 10
200.8294297457996
 20
117.0093953157997
  0
LWPOLYLINE
  5
4A07
330
4A47
100
AcDbEntity
  8
Layer 1
 62
     7
370
    13
100
AcDbPolyline
 90
        2
 70
     0
 43
0.0
 10
197.5273057231876
 20
118.4485839547628
 10
198.966666616925
 20
117.0093953157997
  0
LWPOLYLINE
  5
4A08
330
4A47
100
AcDbEntity
  8
Layer 1
 62
     7
370
    13
100
AcDbPolyline
 90
        7
 70
     0
 43
0.0
 10
197.0615288135818
 20
117.0093953157997
 10
197.0615288135818
 20
119.8457424288059
 10
198.4585150328507
 20
119.8457424288059
 10
198.966666616925
 20
119.3799655192001
 10
198.966666616925
 20
118.9143608643686
 10
198.4585150328507
 20
118.4485839547628
 10
197.0615288135818
 20
118.4485839547628
  0
LWPOLYLINE
  5
4A09
330
4A47
100
AcDbEntity
  8
Layer 1
 62
     7
370
    13
100
AcDbPolyline
 90
        2
 70
     0
 43
0.0
 10
194.2251817005756
 20
118.4485839547628
 10
196.1303195039188
 20
118.4485839547628
  0
LWPOLYLINE
  5
4A0A
330
4A47
100
AcDbEntity
  8
Layer 1
 62
     7
370
    13
100
AcDbPolyline
 90
        4
 70
     0
 43
0.0
 10
192.8281954813068
 20
117.0093953157997
 10
192.8281954813068
 20
119.8457424288059
 10
191.3888345875695
 20
117.9406046254627
 10
193.2939723909126
 20
117.9406046254627
  0
LWPOLYLINE
  5
4A0B
330
4A47
100
AcDbEntity
  8
Layer 1
 62
     7
370
    13
100
AcDbPolyline
 90
        3
 70
     0
 43
0.0
 10
210.735457304087
 20
116.0780137513624
 10
190.9234021875121
 20
116.0780137513624
 10
185.6317355221684
 20
112.8606390776876
  0
LWPOLYLINE
  5
4A0C
330
4A47
100
AcDbEntity
  8
Layer 1
 62
     7
370
     0
100
AcDbPolyline
 90
        4
 70
     0
 43
0.0
 10
185.4622368242941
 20
113.1569172894191
 10
185.8008897104942
 20
112.6067355404247
 10
183.853721742231
 20
111.8446804190874
 10
185.4622368242941
 20
113.1569172894191
  0
HATCH
  5
4A0D
330
4A47
100
AcDbEntity
  8
Layer 1
 62
     7
100
AcDbHatch
 10
0.0
 20
0.0
 30
0.0
210
0.0
220
0.0
230
1.0
  2
SOLID
 70
     1
 71
     0
 91
        1
 92
        1
 93
        3
 72
     1
 10
185.4622368242941
 20
113.1569172894191
 11
185.8008897104942
 21
112.6067355404247
 72
     1
 10
185.8008897104942
 20
112.6067355404247
 11
183.853721742231
 21
111.8446804190874
 72
     1
 10
183.853721742231
 20
111.8446804190874
 11
185.4622368242941
 21
113.1569172894191
 97
        0
 75
     0
 76
     1
 98
        0
  0
LWPOLYLINE
  5
4A0E
330
4A47
100
AcDbEntity
  8
Layer 1
 62
     7
370
    30
100
AcDbPolyline
 90
        3
 70
     0
 43
0.0
 10
183.7265977188253
 20
183.4726941815624
 10
186.8168483690944
 20
183.4726941815624
 10
186.8168483690944
 20
183.684395299131
  0
LWPOLYLINE
  5
4A0F
330
4A47
100
AcDbEntity
  8
Layer 1
 62
     7
370
    30
100
AcDbPolyline
 90
        2
 70
     0
 43
0.0
 10
94.44574243515594
 20
183.684395299131
 10
186.8168483690944
 20
183.684395299131
  0
LWPOLYLINE
  5
4A10
330
4A47
100
AcDbEntity
  8
Layer 1
 62
     7
370
    30
100
AcDbPolyline
 90
        2
 70
     0
 43
0.0
 10
140.6313815295123
 20
147.0235839476191
 10
149.6060275233624
 20
147.0235839476191
  0
LWPOLYLINE
  5
4A11
330
4A47
100
AcDbEntity
  8
Layer 1
 62
     7
370
    30
100
AcDbPolyline
 90
        2
 70
     0
 43
0.0
 10
140.6313815295123
 20
146.346278175219
 10
147.8280137434249
 20
146.346278175219
  0
LWPOLYLINE
  5
4A12
330
4A47
100
AcDbEntity
  8
Layer 1
 62
     7
370
    30
100
AcDbPolyline
 90
        2
 70
     0
 43
0.0
 10
140.6313815295123
 20
146.5579792927876
 10
147.7856390689564
 20
146.5579792927876
  0
LWPOLYLINE
  5
4A13
330
4A47
100
AcDbEntity
  8
Layer 1
 62
     7
370
    30
100
AcDbPolyline
 90
        2
 70
     0
 43
0.0
 10
140.6313815295123
 20
147.6586873003249
 10
150.0718044329682
 20
147.6586873003249
  0
LWPOLYLINE
  5
4A14
330
4A47
100
AcDbEntity
  8
Layer 1
 62
     7
370
    13
100
AcDbPolyline
 90
        2
 70
     0
 43
0.0
 10
140.6313815295123
 20
178.9007079630873
 10
140.6313815295123
 20
185.2507079614998
  0
LWPOLYLINE
  5
4A15
330
4A47
100
AcDbEntity
  8
Layer 1
 62
     7
370
    13
100
AcDbPolyline
 90
        2
 70
     0
 43
0.0
 10
140.6313815295123
 20
176.9109930655813
 10
140.6313815295123
 20
177.9269517241814
  0
LWPOLYLINE
  5
4A16
330
4A47
100
AcDbEntity
  8
Layer 1
 62
     7
370
    13
100
AcDbPolyline
 90
        2
 70
     0
 43
0.0
 10
140.6313815295123
 20
170.8996459533688
 10
140.6313815295123
 20
175.8950344069811
  0
LWPOLYLINE
  5
4A17
330
4A47
100
AcDbEntity
  8
Layer 1
 62
     7
370
    13
100
AcDbPolyline
 90
        2
 70
     0
 43
0.0
 10
140.6313815295123
 20
168.9099310558628
 10
140.6313815295123
 20
169.9260619692372
  0
LWPOLYLINE
  5
4A18
330
4A47
100
AcDbEntity
  8
Layer 1
 62
     7
370
    13
100
AcDbPolyline
 90
        2
 70
     0
 43
0.0
 10
140.6313815295123
 20
162.9409586181189
 10
140.6313815295123
 20
167.9363470717311
  0
LWPOLYLINE
  5
4A19
330
4A47
100
AcDbEntity
  8
Layer 1
 62
     7
370
    13
100
AcDbPolyline
 90
        2
 70
     0
 43
0.0
 10
140.6313815295123
 20
160.9090413009186
 10
140.6313815295123
 20
161.9249999595187
  0
LWPOLYLINE
  5
4A1A
330
4A47
100
AcDbEntity
  8
Layer 1
 62
     7
370
    13
100
AcDbPolyline
 90
        2
 70
     0
 43
0.0
 10
140.6313815295123
 20
154.9400688631747
 10
140.6313815295123
 20
159.9352850620127
  0
LWPOLYLINE
  5
4A1B
330
4A47
100
AcDbEntity
  8
Layer 1
 62
     7
370
    13
100
AcDbPolyline
 90
        2
 70
     0
 43
0.0
 10
140.6313815295123
 20
152.9503539656687
 10
140.6313815295123
 20
153.9239379498001
  0
LWPOLYLINE
  5
4A1C
330
4A47
100
AcDbEntity
  8
Layer 1
 62
     7
370
    13
100
AcDbPolyline
 90
        2
 70
     0
 43
0.0
 10
140.6313815295123
 20
145.584395308656
 10
140.6313815295123
 20
151.9343953070685
  0
LWPOLYLINE
  5
4A1D
330
4A47
100
AcDbEntity
  8
Layer 1
 62
     7
370
    30
100
AcDbPolyline
 90
        2
 70
     0
 43
0.0
 10
131.0640068574249
 20
147.4469861827563
 10
108.9659586316127
 20
148.4207424216621
  0
LWPOLYLINE
  5
4A1E
330
4A47
100
AcDbEntity
  8
Layer 1
 62
     7
370
    30
100
AcDbPolyline
 90
        2
 70
     0
 43
0.0
 10
131.1909586260564
 20
147.6586873003249
 10
109.0083333060812
 20
148.6322712844565
  0
LWPOLYLINE
  5
4A1F
330
4A47
100
AcDbEntity
  8
Layer 1
 62
     7
370
    30
100
AcDbPolyline
 90
        2
 70
     0
 43
0.0
 10
131.5296115122565
 20
146.8542575045191
 10
133.4347493155996
 20
146.346278175219
  0
LWPOLYLINE
  5
4A20
330
4A47
100
AcDbEntity
  8
Layer 1
 62
     7
370
    30
100
AcDbPolyline
 90
        2
 70
     0
 43
0.0
 10
131.6567355356622
 20
147.0235839476191
 10
133.4347493155996
 20
146.5579792927876
  0
LWPOLYLINE
  5
4A21
330
4A47
100
AcDbEntity
  8
Layer 1
 62
     7
370
    30
100
AcDbPolyline
 90
        2
 70
     0
 43
0.0
 10
131.0640068574249
 20
147.4469861827563
 10
131.5296115122565
 20
146.8542575045191
  0
LWPOLYLINE
  5
4A22
330
4A47
100
AcDbEntity
  8
Layer 1
 62
     7
370
    30
100
AcDbPolyline
 90
        2
 70
     0
 43
0.0
 10
131.1909586260564
 20
147.6586873003249
 10
131.6567355356622
 20
147.0235839476191
  0
LWPOLYLINE
  5
4A23
330
4A47
100
AcDbEntity
  8
Layer 1
 62
     7
370
    30
100
AcDbPolyline
 90
       10
 70
     0
 43
0.0
 10
99.779611520194
 20
157.5223401841437
 10
99.99131263776259
 20
155.9984021962434
 10
100.4569172925941
 20
154.4742919535689
 10
101.1765977394628
 20
153.0773057343001
 10
102.0656046294315
 20
151.7650688639684
 10
103.2086873114374
 20
150.6643608564311
 10
104.4787217620747
 20
149.7753539664624
 10
105.9180826558121
 20
149.0556735195936
 10
107.3996459692438
 20
148.6322712844565
 10
108.9659586316127
 20
148.4207424216621
  0
LWPOLYLINE
  5
4A24
330
4A47
100
AcDbEntity
  8
Layer 1
 62
     7
370
    30
100
AcDbPolyline
 90
       10
 70
     0
 43
0.0
 10
99.99131263776259
 20
157.5647148586123
 10
100.1606390808626
 20
155.9984021962434
 10
100.6264159904684
 20
154.5590413025061
 10
101.3037217628685
 20
153.1620550832372
 10
102.2349310725315
 20
151.8920206325999
 10
103.3356390800688
 20
150.8336872995311
 10
104.5632988562376
 20
149.9446804095624
 10
105.9602850755064
 20
149.2673746371623
 10
107.4420206437124
 20
148.8015977275565
 10
109.0083333060812
 20
148.6322712844565
  0
LWPOLYLINE
  5
4A25
330
4A47
100
AcDbEntity
  8
Layer 1
 62
     7
370
    30
100
AcDbPolyline
 90
        2
 70
     0
 43
0.0
 10
140.6313815295123
 20
147.0235839476191
 10
131.6567355356622
 20
147.0235839476191
  0
LWPOLYLINE
  5
4A26
330
4A47
100
AcDbEntity
  8
Layer 1
 62
     7
370
    30
100
AcDbPolyline
 90
        2
 70
     0
 43
0.0
 10
140.6313815295123
 20
146.346278175219
 10
133.4347493155996
 20
146.346278175219
  0
LWPOLYLINE
  5
4A27
330
4A47
100
AcDbEntity
  8
Layer 1
 62
     7
370
    30
100
AcDbPolyline
 90
        2
 70
     0
 43
0.0
 10
140.6313815295123
 20
146.5579792927876
 10
133.4347493155996
 20
146.5579792927876
  0
LWPOLYLINE
  5
4A28
330
4A47
100
AcDbEntity
  8
Layer 1
 62
     7
370
    30
100
AcDbPolyline
 90
        2
 70
     0
 43
0.0
 10
140.6313815295123
 20
147.6586873003249
 10
131.1909586260564
 20
147.6586873003249
  0
LWPOLYLINE
  5
4A29
330
4A47
100
AcDbEntity
  8
Layer 1
 62
     7
370
    30
100
AcDbPolyline
 90
        2
 70
     0
 43
0.0
 10
150.1562092723568
 20
147.4469861827563
 10
172.2544297529433
 20
148.4207424216621
  0
LWPOLYLINE
  5
4A2A
330
4A47
100
AcDbEntity
  8
Layer 1
 62
     7
370
    30
100
AcDbPolyline
 90
        2
 70
     0
 43
0.0
 10
150.0718044329682
 20
147.6586873003249
 10
172.2544297529433
 20
148.6322712844565
  0
LWPOLYLINE
  5
4A2B
330
4A47
100
AcDbEntity
  8
Layer 1
 62
     7
370
    30
100
AcDbPolyline
 90
        2
 70
     0
 43
0.0
 10
149.6907768722995
 20
146.8542575045191
 10
147.8280137434249
 20
146.346278175219
  0
LWPOLYLINE
  5
4A2C
330
4A47
100
AcDbEntity
  8
Layer 1
 62
     7
370
    30
100
AcDbPolyline
 90
        2
 70
     0
 43
0.0
 10
149.6060275233624
 20
147.0235839476191
 10
147.7856390689564
 20
146.5579792927876
  0
LWPOLYLINE
  5
4A2D
330
4A47
100
AcDbEntity
  8
Layer 1
 62
     7
370
    30
100
AcDbPolyline
 90
        2
 70
     0
 43
0.0
 10
150.1562092723568
 20
147.4469861827563
 10
149.6907768722995
 20
146.8542575045191
  0
LWPOLYLINE
  5
4A2E
330
4A47
100
AcDbEntity
  8
Layer 1
 62
     7
370
    30
100
AcDbPolyline
 90
        2
 70
     0
 43
0.0
 10
150.0718044329682
 20
147.6586873003249
 10
149.6060275233624
 20
147.0235839476191
  0
LWPOLYLINE
  5
4A2F
330
4A47
100
AcDbEntity
  8
Layer 1
 62
     7
370
    30
100
AcDbPolyline
 90
       37
 70
     0
 43
0.0
 10
147.7856390689564
 20
86.06365286476881
 10
147.6586873003249
 20
87.29148489571185
 10
147.3624090885934
 20
88.51897241710636
 10
146.8120550848247
 20
89.66205509911226
 10
146.0923746379561
 20
90.67801375771244
 10
145.2457424224559
 20
91.56684839290692
 10
144.1874090893872
 20
92.28652883977558
 10
143.0867010818498
 20
92.79468042384994
 10
141.859041305681
 20
93.13333331004999
 10
140.6313815295123
 20
93.21808265898715
 10
139.3613470788749
 20
93.13333331004999
 10
138.1760619771747
 20
92.79468042384994
 10
137.0329792951688
 20
92.28652883977558
 10
136.0170206365687
 20
91.56684839290692
 10
135.1280137465999
 20
90.67801375771244
 10
134.4083332997312
 20
89.66205509911226
 10
133.9003539704311
 20
88.51897241710636
 10
133.5617010842311
 20
87.29148489571185
 10
133.4347493155996
 20
86.06365286476881
 10
133.5617010842311
 20
84.8361653433743
 10
133.9003539704311
 20
83.60833331243126
 10
134.4083332997312
 20
82.46525063042536
 10
135.1280137465999
 20
81.44929197182518
 10
136.0170206365687
 20
80.56045733663072
 10
137.0329792951688
 20
79.84077688976203
 10
138.1760619771747
 20
79.33262530568768
 10
139.3613470788749
 20
78.99397241948761
 10
140.6313815295123
 20
78.90922307055048
 10
141.859041305681
 20
78.99397241948761
 10
143.0867010818498
 20
79.33262530568768
 10
144.1874090893872
 20
79.84077688976203
 10
145.2457424224559
 20
80.56045733663072
 10
146.0923746379561
 20
81.44929197182518
 10
146.8120550848247
 20
82.46525063042536
 10
147.3624090885934
 20
83.60833331243126
 10
147.6586873003249
 20
84.8361653433743
 10
147.7856390689564
 20
86.06365286476881
  0
LWPOLYLINE
  5
4A30
330
4A47
100
AcDbEntity
  8
Layer 1
 62
     7
370
    30
100
AcDbPolyline
 90
       41
 70
     0
 43
0.0
 10
149.6060275233624
 20
86.06365286476881
 10
149.4789034999566
 20
87.46063908403762
 10
149.1402506137566
 20
88.81525062883786
 10
148.5900688647622
 20
90.12783200871806
 10
147.8703884178935
 20
91.35531953011257
 10
146.9390068534562
 20
92.4136528631813
 10
145.8806735203875
 20
93.30283200792429
 10
144.6953884186872
 20
94.06454261971303
 10
143.3829792935813
 20
94.57269420378741
 10
142.0283677487811
 20
94.91134708998743
 10
140.6313815295123
 20
95.03847111339316
 10
139.2343953102435
 20
94.91134708998743
 10
137.8374090909747
 20
94.57269420378741
 10
136.5249999658687
 20
94.06454261971303
 10
135.3397148641685
 20
93.30283200792429
 10
134.2813815310998
 20
92.4136528631813
 10
133.3499999666625
 20
91.35531953011257
 10
132.6303195197938
 20
90.12783200871806
 10
132.079965516025
 20
88.81525062883786
 10
131.7413126298251
 20
87.46063908403762
 10
131.6567355356622
 20
86.06365286476881
 10
131.7413126298251
 20
84.6666666455
 10
132.079965516025
 20
83.2696804262312
 10
132.6303195197938
 20
81.99981823036811
 10
133.3499999666625
 20
80.77198619942505
 10
134.2813815310998
 20
79.71365286635631
 10
135.3397148641685
 20
78.82481823116186
 10
136.5249999658687
 20
78.06276310982458
 10
137.8374090909747
 20
77.51223685128167
 10
139.2343953102435
 20
77.2159586395502
 10
140.6313815295123
 20
77.08883461614447
 10
142.0283677487811
 20
77.2159586395502
 10
143.3829792935813
 20
77.51223685128167
 10
144.6953884186872
 20
78.06276310982458
 10
145.8806735203875
 20
78.82481823116186
 10
146.9390068534562
 20
79.71365286635631
 10
147.8703884178935
 20
80.77198619942505
 10
148.5900688647622
 20
81.99981823036811
 10
149.1402506137566
 20
83.2696804262312
 10
149.4789034999566
 20
84.6666666455
 10
149.6060275233624
 20
86.06365286476881
  0
LWPOLYLINE
  5
4A31
330
4A47
100
AcDbEntity
  8
Layer 1
 62
     7
370
    30
100
AcDbPolyline
 90
       41
 70
     0
 43
0.0
 10
150.0718044329682
 20
86.06365286476881
 10
149.9446804095624
 20
87.54538843297476
 10
149.6060275233624
 20
88.98474932671215
 10
149.0134710998994
 20
90.33936087151236
 10
148.2514159785621
 20
91.60922306737548
 10
147.2776597396563
 20
92.75230574938136
 10
146.1769517321189
 20
93.6835150590444
 10
144.9069172814816
 20
94.48794485485024
 10
143.5523057366814
 20
95.03847111339316
 10
142.112944842944
 20
95.37712399959323
 10
140.6313815295123
 20
95.50390351345042
 10
139.1496459613063
 20
95.37712399959323
 10
137.7102850675689
 20
95.03847111339316
 10
136.3132988483001
 20
94.48794485485024
 10
135.0856390721314
 20
93.6835150590444
 10
133.9427286448997
 20
92.75230574938136
 10
132.9689724059939
 20
91.60922306737548
 10
132.2069172846566
 20
90.33936087151236
 10
131.6567355356622
 20
88.98474932671215
 10
131.2757079749935
 20
87.54538843297476
 10
131.1909586260564
 20
86.06365286476881
 10
131.2757079749935
 20
84.58191729656286
 10
131.6567355356622
 20
83.14255640282549
 10
132.2069172846566
 20
81.78794485802525
 10
132.9689724059939
 20
80.51808266216214
 10
133.9427286448997
 20
79.37499998015623
 10
135.0856390721314
 20
78.44379067049323
 10
136.3132988483001
 20
77.63936087468739
 10
137.7102850675689
 20
77.08883461614447
 10
139.1496459613063
 20
76.75018172994441
 10
140.6313815295123
 20
76.62340221608721
 10
142.112944842944
 20
76.75018172994441
 10
143.5523057366814
 20
77.08883461614447
 10
144.9069172814816
 20
77.63936087468739
 10
146.1769517321189
 20
78.44379067049323
 10
147.2776597396563
 20
79.37499998015623
 10
148.2514159785621
 20
80.51808266216214
 10
149.0134710998994
 20
81.78794485802525
 10
149.6060275233624
 20
83.14255640282549
 10
149.9446804095624
 20
84.58191729656286
 10
150.0718044329682
 20
86.06365286476881
  0
LWPOLYLINE
  5
4A32
330
4A47
100
AcDbEntity
  8
Layer 1
 62
     7
370
    30
100
AcDbPolyline
 90
        2
 70
     0
 43
0.0
 10
98.46737464986231
 20
182.5836872915935
 10
99.779611520194
 20
157.5223401841437
  0
LWPOLYLINE
  5
4A33
330
4A47
100
AcDbEntity
  8
Layer 1
 62
     7
370
    30
100
AcDbPolyline
 90
        2
 70
     0
 43
0.0
 10
98.59432641849378
 20
183.684395299131
 10
99.99131263776259
 20
157.5647148586123
  0
LWPOLYLINE
  5
4A34
330
4A47
100
AcDbEntity
  8
Layer 1
 62
     7
370
    30
100
AcDbPolyline
 90
        2
 70
     0
 43
0.0
 10
94.44574243515594
 20
183.4726941815624
 10
94.44574243515594
 20
183.684395299131
  0
LWPOLYLINE
  5
4A35
330
4A47
100
AcDbEntity
  8
Layer 1
 62
     7
370
    30
100
AcDbPolyline
 90
        4
 70
     0
 43
0.0
 10
98.63670109296236
 20
182.6260619660622
 10
98.46737464986231
 20
183.1340412953623
 10
98.0863470891937
 20
183.5572712757253
 10
97.53599308542504
 20
183.684395299131
  0
LWPOLYLINE
  5
4A36
330
4A47
100
AcDbEntity
  8
Layer 1
 62
     7
370
    30
100
AcDbPolyline
 90
        4
 70
     0
 43
0.0
 10
98.46737464986231
 20
182.5836872915935
 10
98.34025062645658
 20
183.0492919464252
 10
98.00159774025654
 20
183.3879448326252
 10
97.53599308542504
 20
183.4726941815624
  0
LWPOLYLINE
  5
4A37
330
4A47
100
AcDbEntity
  8
Layer 1
 62
     7
370
    30
100
AcDbPolyline
 90
        2
 70
     0
 43
0.0
 10
97.53599308542504
 20
183.4726941815624
 10
94.44574243515594
 20
183.4726941815624
  0
LWPOLYLINE
  5
4A38
330
4A47
100
AcDbEntity
  8
Layer 1
 62
     7
370
    30
100
AcDbPolyline
 90
        4
 70
     0
 43
0.0
 10
183.7265977188253
 20
183.684395299131
 10
183.1764159698309
 20
183.5572712757253
 10
182.7530137346936
 20
183.1340412953623
 10
182.5835150368194
 20
182.6260619660622
  0
LWPOLYLINE
  5
4A39
330
4A47
100
AcDbEntity
  8
Layer 1
 62
     7
370
    30
100
AcDbPolyline
 90
       14
 70
     0
 43
0.0
 10
172.2544297529433
 20
148.4207424216621
 10
173.8205701605379
 20
148.6322712844565
 10
175.3446804032124
 20
149.0556735195936
 10
176.7416666224812
 20
149.7753539664624
 10
178.0539034928129
 20
150.6643608564311
 10
179.1546115003502
 20
151.7650688639684
 10
180.0861653195618
 20
153.0773057343001
 10
180.7634710919619
 20
154.4742919535689
 10
181.2289034920192
 20
155.9984021962434
 10
181.440776864362
 20
157.5223401841437
 10
182.7530137346936
 20
182.5836872915935
 10
182.9221679230194
 20
183.0492919464252
 10
183.261165318768
 20
183.3879448326252
 10
183.7265977188253
 20
183.4726941815624
  0
LWPOLYLINE
  5
4A3A
330
4A47
100
AcDbEntity
  8
Layer 1
 62
     7
370
    30
100
AcDbPolyline
 90
       11
 70
     0
 43
0.0
 10
182.625889711288
 20
183.684395299131
 10
181.2712781664877
 20
157.5647148586123
 10
181.0597493036934
 20
155.9984021962434
 10
180.5939723940876
 20
154.5590413025061
 10
179.9166666216875
 20
153.1620550832372
 10
179.027831986493
 20
151.8920206325999
 10
177.9271239789556
 20
150.8336872995311
 10
176.6569172735441
 20
149.9446804095624
 10
175.2599310542753
 20
149.2673746371623
 10
173.7781954860693
 20
148.8015977275565
 10
172.2544297529433
 20
148.6322712844565
  0
LWPOLYLINE
  5
4A3B
330
4A47
100
AcDbEntity
  8
Layer 1
 62
     7
370
    13
100
AcDbPolyline
 90
        2
 70
     0
 43
0.0
 10
88.26506887984344
 20
180.8480481861248
 10
88.26506887984344
 20
150.4950344133311
  0
LWPOLYLINE
  5
4A3C
330
4A47
100
AcDbEntity
  8
Layer 1
 62
     7
370
    13
100
AcDbPolyline
 90
        2
 70
     0
 43
0.0
 10
131.1909586260564
 20
147.6586873003249
 10
87.84166664470625
 20
147.6586873003249
  0
LWPOLYLINE
  5
4A3D
330
4A47
100
AcDbEntity
  8
Layer 1
 62
     7
370
    13
100
AcDbPolyline
 90
        2
 70
     0
 43
0.0
 10
94.44574243515594
 20
183.684395299131
 10
87.84166664470625
 20
183.684395299131
  0
LWPOLYLINE
  5
4A3E
330
4A47
100
AcDbEntity
  8
Layer 1
 62
     7
370
     0
100
AcDbPolyline
 90
        4
 70
     0
 43
0.0
 10
88.26506887984344
 20
183.684395299131
 10
87.79929197023767
 20
180.8480481861248
 10
88.73067353467495
 20
180.8480481861248
 10
88.26506887984344
 20
183.684395299131
  0
HATCH
  5
4A3F
330
4A47
100
AcDbEntity
  8
Layer 1
 62
     7
100
AcDbHatch
 10
0.0
 20
0.0
 30
0.0
210
0.0
220
0.0
230
1.0
  2
SOLID
 70
     1
 71
     0
 91
        1
 92
        1
 93
        3
 72
     1
 10
88.26506887984344
 20
183.684395299131
 11
87.79929197023767
 21
180.8480481861248
 72
     1
 10
87.79929197023767
 20
180.8480481861248
 11
88.73067353467495
 21
180.8480481861248
 72
     1
 10
88.73067353467495
 20
180.8480481861248
 11
88.26506887984344
 21
183.684395299131
 97
        0
 75
     0
 76
     1
 98
        0
  0
LWPOLYLINE
  5
4A40
330
4A47
100
AcDbEntity
  8
Layer 1
 62
     7
370
     0
100
AcDbPolyline
 90
        4
 70
     0
 43
0.0
 10
88.26506887984344
 20
147.6586873003249
 10
87.79929197023767
 20
150.4950344133311
 10
88.73067353467495
 20
150.4950344133311
 10
88.26506887984344
 20
147.6586873003249
  0
HATCH
  5
4A41
330
4A47
100
AcDbEntity
  8
Layer 1
 62
     7
100
AcDbHatch
 10
0.0
 20
0.0
 30
0.0
210
0.0
220
0.0
230
1.0
  2
SOLID
 70
     1
 71
     0
 91
        1
 92
        1
 93
        3
 72
     1
 10
88.26506887984344
 20
147.6586873003249
 11
87.79929197023767
 21
150.4950344133311
 72
     1
 10
87.79929197023767
 20
150.4950344133311
 11
88.73067353467495
 21
150.4950344133311
 72
     1
 10
88.73067353467495
 20
150.4950344133311
 11
88.26506887984344
 21
147.6586873003249
 97
        0
 75
     0
 76
     1
 98
        0
  0
LWPOLYLINE
  5
4A42
330
4A47
100
AcDbEntity
  8
Layer 1
 62
     7
370
    13
100
AcDbPolyline
 90
        2
 70
     0
 43
0.0
 10
98.42499997539377
 20
183.4726941815624
 10
98.42499997539377
 20
181.9909586133564
  0
LWPOLYLINE
  5
4A43
330
4A47
100
AcDbEntity
  8
Layer 1
 62
     7
370
    13
100
AcDbPolyline
 90
       10
 70
     0
 43
0.0
 10
87.79929197023767
 20
168.2749999579312
 10
87.79929197023767
 20
168.8253539616999
 10
86.74095863716894
 20
169.8413126203001
 10
85.17464597480008
 20
169.8413126203001
 10
84.62429197103141
 20
169.333333291
 10
84.62429197103141
 20
168.2749999579312
 10
85.17464597480008
 20
167.7670206286312
 10
85.68262530410018
 20
167.7670206286312
 10
86.19060463340025
 20
168.2749999579312
 10
86.19060463340025
 20
169.8413126203001
  0
LWPOLYLINE
  5
4A44
330
4A47
100
AcDbEntity
  8
Layer 1
 62
     7
370
    13
100
AcDbPolyline
 90
       10
 70
     0
 43
0.0
 10
85.17464597480008
 20
164.5920206294249
 10
84.62429197103141
 20
165.1423746331936
 10
84.62429197103141
 20
166.2007079662623
 10
85.17464597480008
 20
166.7086872955624
 10
85.68262530410018
 20
166.7086872955624
 10
86.19060463340025
 20
166.2007079662623
 10
86.19060463340025
 20
165.1423746331936
 10
86.74095863716894
 20
164.5920206294249
 10
87.79929197023767
 20
164.5920206294249
 10
87.79929197023767
 20
166.7086872955624
  0
LWPOLYLINE
  5
4A45
330
4A47
100
AcDbEntity
  8
Layer 1
 62
     7
370
    13
100
AcDbPolyline
 90
       10
 70
     0
 43
0.0
 10
85.17464597480008
 20
161.4593953046872
 10
84.62429197103141
 20
162.0097493084559
 10
84.62429197103141
 20
163.0257079670561
 10
85.17464597480008
 20
163.5760619708246
 10
85.68262530410018
 20
163.5760619708246
 10
86.19060463340025
 20
163.0257079670561
 10
86.19060463340025
 20
162.0097493084559
 10
86.74095863716894
 20
161.4593953046872
 10
87.79929197023767
 20
161.4593953046872
 10
87.79929197023767
 20
163.5760619708246
  0
ENDBLK
  5
4A49
330
4A47
100
AcDbEntity
  8
0
100
AcDbBlockEnd
  0
BLOCK
  5
5D4D
330
5D43
100
AcDbEntity
  8
0
100
AcDbBlockBegin
  2
*D104
 70
     1
 10
0.0
 20
0.0
 30
0.0
  3
*D104
  1

  0
LINE
  5
6108
330
5D43
100
AcDbEntity
  8
标注
 62
     0
370
    -2
100
AcDbLine
 10
1247.283890826545
 20
716.9487873823063
 30
0.0
 11
1313.533890826546
 21
716.9487873823062
 31
0.0
  0
LINE
  5
6109
330
5D43
100
AcDbEntity
  8
标注
 62
     0
370
    -2
100
AcDbLine
 10
1242.283890826546
 20
311.9491985511477
 30
0.0
 11
1313.533890826545
 21
311.9491985511477
 31
0.0
  0
LINE
  5
610A
330
5D43
100
AcDbEntity
  8
标注
 62
     0
370
    -2
100
AcDbLine
 10
1309.783890826546
 20
708.9487873823062
 30
0.0
 11
1309.783890826545
 21
319.9491985511477
 31
0.0
  0
SOLID
  5
610B
330
5D43
100
AcDbEntity
  8
标注
 62
     0
100
AcDbTrace
 10
1308.450557493212
 20
708.9487873823062
 30
0.0
 11
1311.117224159879
 21
708.9487873823062
 31
0.0
 12
1309.783890826546
 22
716.9487873823062
 32
0.0
 13
1309.783890826546
 23
716.9487873823062
 33
0.0
  0
SOLID
  5
610C
330
5D43
100
AcDbEntity
  8
标注
 62
     0
100
AcDbTrace
 10
1308.450557493212
 20
319.9491985511477
 30
0.0
 11
1311.117224159879
 21
319.9491985511477
 31
0.0
 12
1309.783890826545
 22
311.9491985511477
 32
0.0
 13
1309.783890826545
 23
311.9491985511477
 33
0.0
  0
MTEXT
  5
610D
330
5D43
100
AcDbEntity
  8
标注
 62
     0
100
AcDbMText
 10
1297.530139121225
 20
514.448992966727
 30
0.0
 40
16.0
 41
0.0
 71
     5
 72
     1
  1
{\fArial|b0|i0|c0|p34;405 [16]}
 11
0.0000000000000001
 21
1.0
 31
0.0
 73
     1
 44
1.0
1001
ACAD
1000
MTEXTBEGIN
1070
    73
1070
     1
1070
    44
1040
1.0
1070
    74
1070
     0
1000
MTEXTEND
  0
POINT
  5
610E
330
5D43
100
AcDbEntity
  8
Defpoints
 62
     0
100
AcDbPoint
 10
1247.283890826545
 20
716.9487873823063
 30
0.0
  0
POINT
  5
610F
330
5D43
100
AcDbEntity
  8
Defpoints
 62
     0
100
AcDbPoint
 10
1242.283890826546
 20
311.9491985511477
 30
0.0
  0
POINT
  5
6110
330
5D43
100
AcDbEntity
  8
Defpoints
 62
     0
100
AcDbPoint
 10
1309.783890826545
 20
311.9491985511477
 30
0.0
  0
ENDBLK
  5
5D4E
330
5D43
100
AcDbEntity
  8
0
100
AcDbBlockEnd
  0
BLOCK
  5
5E15
330
5E0A
100
AcDbEntity
  8
0
100
AcDbBlockBegin
  2
*D107
 70
     1
 10
0.0
 20
0.0
 30
0.0
  3
*D107
  1

  0
LINE
  5
6111
330
5E0A
100
AcDbEntity
  8
标注
 62
     0
370
    -2
100
AcDbLine
 10
1219.177581121863
 20
776.5
 30
0.0
 11
1219.177581121863
 21
861.25
 31
0.0
  0
LINE
  5
6112
330
5E0A
100
AcDbEntity
  8
标注
 62
     0
370
    -2
100
AcDbLine
 10
472.1779922795658
 20
790.5
 30
0.0
 11
472.1779922795658
 21
861.25
 31
0.0
  0
LINE
  5
6113
330
5E0A
100
AcDbEntity
  8
标注
 62
     0
370
    -2
100
AcDbLine
 10
1211.177581121863
 20
857.5000000000001
 30
0.0
 11
480.1779922795658
 21
857.5000000000001
 31
0.0
  0
SOLID
  5
6114
330
5E0A
100
AcDbEntity
  8
标注
 62
     0
100
AcDbTrace
 10
1211.177581121863
 20
858.8333333333334
 30
0.0
 11
1211.177581121863
 21
856.1666666666665
 31
0.0
 12
1219.177581121863
 22
857.5000000000001
 32
0.0
 13
1219.177581121863
 23
857.5000000000001
 33
0.0
  0
SOLID
  5
6115
330
5E0A
100
AcDbEntity
  8
标注
 62
     0
100
AcDbTrace
 10
480.1779922795658
 20
858.8333333333334
 30
0.0
 11
480.1779922795658
 21
856.1666666666665
 31
0.0
 12
472.1779922795658
 22
857.5000000000001
 32
0.0
 13
472.1779922795658
 23
857.5000000000001
 33
0.0
  0
MTEXT
  5
6116
330
5E0A
100
AcDbEntity
  8
标注
 62
     0
100
AcDbMText
 10
845.6777867007144
 20
869.8574351978171
 30
0.0
 40
16.0
 41
0.0
 71
     5
 72
     1
  1
{\fArial|b0|i0|c0|p34;747 [29 3/8]}
 73
     1
 44
1.0
1001
ACAD
1000
MTEXTBEGIN
1070
    73
1070
     1
1070
    44
1040
1.0
1070
    74
1070
     0
1000
MTEXTEND
  0
POINT
  5
6117
330
5E0A
100
AcDbEntity
  8
Defpoints
 62
     0
100
AcDbPoint
 10
1219.177581121863
 20
776.5
 30
0.0
  0
POINT
  5
6118
330
5E0A
100
AcDbEntity
  8
Defpoints
 62
     0
100
AcDbPoint
 10
472.1779922795658
 20
790.5
 30
0.0
  0
POINT
  5
6119
330
5E0A
100
AcDbEntity
  8
Defpoints
 62
     0
100
AcDbPoint
 10
472.1779922795658
 20
857.5000000000001
 30
0.0
  0
ENDBLK
  5
5E16
330
5E0A
100
AcDbEntity
  8
0
100
AcDbBlockEnd
  0
BLOCK
  5
5E77
330
5E6C
100
AcDbEntity
  8
0
100
AcDbBlockBegin
  2
*D108
 70
     1
 10
0.0
 20
0.0
 30
0.0
  3
*D108
  1

  0
LINE
  5
611A
330
5E6C
100
AcDbEntity
  8
标注
 62
     0
370
    -2
100
AcDbLine
 10
478.5779922795682
 20
792.0
 30
0.0
 11
478.5779922795682
 21
828.7499999999999
 31
0.0
  0
LINE
  5
611B
330
5E6C
100
AcDbEntity
  8
标注
 62
     0
370
    -2
100
AcDbLine
 10
1212.777581121863
 20
776.5
 30
0.0
 11
1212.777581121863
 21
828.7499999999999
 31
0.0
  0
LINE
  5
611C
330
5E6C
100
AcDbEntity
  8
标注
 62
     0
370
    -2
100
AcDbLine
 10
486.5779922795682
 20
825.0
 30
0.0
 11
1204.777581121863
 21
825.0
 31
0.0
  0
SOLID
  5
611D
330
5E6C
100
AcDbEntity
  8
标注
 62
     0
100
AcDbTrace
 10
486.5779922795682
 20
826.3333333333333
 30
0.0
 11
486.5779922795682
 21
823.6666666666666
 31
0.0
 12
478.5779922795682
 22
825.0
 32
0.0
 13
478.5779922795682
 23
825.0
 33
0.0
  0
SOLID
  5
611E
330
5E6C
100
AcDbEntity
  8
标注
 62
     0
100
AcDbTrace
 10
1204.777581121863
 20
826.3333333333333
 30
0.0
 11
1204.777581121863
 21
823.6666666666666
 31
0.0
 12
1212.777581121863
 22
825.0
 32
0.0
 13
1212.777581121863
 23
825.0
 33
0.0
  0
MTEXT
  5
611F
330
5E6C
100
AcDbEntity
  8
标注
 62
     0
100
AcDbMText
 10
845.6777867007158
 20
837.3574351978172
 30
0.0
 40
16.0
 41
0.0
 71
     5
 72
     1
  1
{\fArial|b0|i0|c0|p34;734.2 [28 7/8]}
 73
     1
 44
1.0
1001
ACAD
1000
MTEXTBEGIN
1070
    73
1070
     1
1070
    44
1040
1.0
1070
    74
1070
     0
1000
MTEXTEND
  0
POINT
  5
6120
330
5E6C
100
AcDbEntity
  8
Defpoints
 62
     0
100
AcDbPoint
 10
478.5779922795682
 20
792.0
 30
0.0
  0
POINT
  5
6121
330
5E6C
100
AcDbEntity
  8
Defpoints
 62
     0
100
AcDbPoint
 10
1212.777581121863
 20
776.5
 30
0.0
  0
POINT
  5
6122
330
5E6C
100
AcDbEntity
  8
Defpoints
 62
     0
100
AcDbPoint
 10
1212.777581121863
 20
825.0
 30
0.0
  0
ENDBLK
  5
5E78
330
5E6C
100
AcDbEntity
  8
0
100
AcDbBlockEnd
  0
BLOCK
  5
5EC7
330
5EBC
100
AcDbEntity
  8
0
100
AcDbBlockBegin
  2
*D109
 70
     1
 10
0.0
 20
0.0
 30
0.0
  3
*D109
  1

  0
LINE
  5
6123
330
5EBC
100
AcDbEntity
  8
标注
 62
     0
370
    -2
100
AcDbLine
 10
1225.577581121862
 20
776.5
 30
0.0
 11
1225.577581121862
 21
892.75
 31
0.0
  0
LINE
  5
6124
330
5EBC
100
AcDbEntity
  8
标注
 62
     0
370
    -2
100
AcDbLine
 10
465.7779922795635
 20
789.5
 30
0.0
 11
465.7779922795635
 21
892.75
 31
0.0
  0
LINE
  5
6125
330
5EBC
100
AcDbEntity
  8
标注
 62
     0
370
    -2
100
AcDbLine
 10
1217.577581121862
 20
889.0
 30
0.0
 11
473.7779922795635
 21
889.0
 31
0.0
  0
SOLID
  5
6126
330
5EBC
100
AcDbEntity
  8
标注
 62
     0
100
AcDbTrace
 10
1217.577581121862
 20
890.3333333333334
 30
0.0
 11
1217.577581121862
 21
887.6666666666666
 31
0.0
 12
1225.577581121862
 22
889.0
 32
0.0
 13
1225.577581121862
 23
889.0
 33
0.0
  0
SOLID
  5
6127
330
5EBC
100
AcDbEntity
  8
标注
 62
     0
100
AcDbTrace
 10
473.7779922795635
 20
890.3333333333334
 30
0.0
 11
473.7779922795635
 21
887.6666666666666
 31
0.0
 12
465.7779922795635
 22
889.0
 32
0.0
 13
465.7779922795635
 23
889.0
 33
0.0
  0
MTEXT
  5
6128
330
5EBC
100
AcDbEntity
  8
标注
 62
     0
100
AcDbMText
 10
845.6777867007126
 20
901.3574351978171
 30
0.0
 40
16.0
 41
0.0
 71
     5
 72
     1
  1
{\fArial|b0|i0|c0|p34;759.8 [29 7/8]}
 73
     1
 44
1.0
1001
ACAD
1000
MTEXTBEGIN
1070
    73
1070
     1
1070
    44
1040
1.0
1070
    74
1070
     0
1000
MTEXTEND
  0
POINT
  5
6129
330
5EBC
100
AcDbEntity
  8
Defpoints
 62
     0
100
AcDbPoint
 10
1225.577581121862
 20
776.5
 30
0.0
  0
POINT
  5
612A
330
5EBC
100
AcDbEntity
  8
Defpoints
 62
     0
100
AcDbPoint
 10
465.7779922795635
 20
789.5
 30
0.0
  0
POINT
  5
612B
330
5EBC
100
AcDbEntity
  8
Defpoints
 62
     0
100
AcDbPoint
 10
465.7779922795635
 20
889.0
 30
0.0
  0
ENDBLK
  5
5EC8
330
5EBC
100
AcDbEntity
  8
0
100
AcDbBlockEnd
  0
BLOCK
  5
5F2A
330
5F1F
100
AcDbEntity
  8
0
100
AcDbBlockBegin
  2
*D110
 70
     1
 10
0.0
 20
0.0
 30
0.0
  3
*D110
  1

  0
LINE
  5
612C
330
5F1F
100
AcDbEntity
  8
标注
 62
     0
370
    -2
100
AcDbLine
 10
458.4999999999999
 20
781.9491985399849
 30
0.0
 11
391.838996139849
 21
781.9491985399849
 31
0.0
  0
LINE
  5
612D
330
5F1F
100
AcDbEntity
  8
标注
 62
     0
370
    -2
100
AcDbLine
 10
464.5
 20
311.9491985400064
 30
0.0
 11
391.8389961398489
 21
311.9491985400064
 31
0.0
  0
LINE
  5
612E
330
5F1F
100
AcDbEntity
  8
标注
 62
     0
370
    -2
100
AcDbLine
 10
395.588996139849
 20
773.9491985399849
 30
0.0
 11
395.5889961398489
 21
319.9491985400064
 31
0.0
  0
SOLID
  5
612F
330
5F1F
100
AcDbEntity
  8
标注
 62
     0
100
AcDbTrace
 10
394.2556628065156
 20
773.9491985399849
 30
0.0
 11
396.9223294731823
 21
773.9491985399849
 31
0.0
 12
395.588996139849
 22
781.9491985399849
 32
0.0
 13
395.588996139849
 23
781.9491985399849
 33
0.0
  0
SOLID
  5
6130
330
5F1F
100
AcDbEntity
  8
标注
 62
     0
100
AcDbTrace
 10
394.2556628065156
 20
319.9491985400064
 30
0.0
 11
396.9223294731822
 21
319.9491985400064
 31
0.0
 12
395.5889961398489
 22
311.9491985400064
 32
0.0
 13
395.5889961398489
 23
311.9491985400064
 33
0.0
  0
MTEXT
  5
6131
330
5F1F
100
AcDbEntity
  8
标注
 62
     0
100
AcDbMText
 10
383.2315609420316
 20
546.9491985399957
 30
0.0
 40
16.0
 41
0.0
 71
     5
 72
     1
  1
{\fArial|b0|i0|c0|p34;470 [18 1/2]}
 11
0.0000000000000001
 21
1.0
 31
0.0
 73
     1
 44
1.0
1001
ACAD
1000
MTEXTBEGIN
1070
    73
1070
     1
1070
    44
1040
1.0
1070
    74
1070
     0
1000
MTEXTEND
  0
POINT
  5
6132
330
5F1F
100
AcDbEntity
  8
Defpoints
 62
     0
100
AcDbPoint
 10
458.4999999999999
 20
781.9491985399849
 30
0.0
  0
POINT
  5
6133
330
5F1F
100
AcDbEntity
  8
Defpoints
 62
     0
100
AcDbPoint
 10
464.5
 20
311.9491985400064
 30
0.0
  0
POINT
  5
6134
330
5F1F
100
AcDbEntity
  8
Defpoints
 62
     0
100
AcDbPoint
 10
395.5889961398489
 20
311.9491985400064
 30
0.0
  0
ENDBLK
  5
5F2B
330
5F1F
100
AcDbEntity
  8
0
100
AcDbBlockEnd
  0
BLOCK
  5
5F7A
330
5F6F
100
AcDbEntity
  8
0
100
AcDbBlockBegin
  2
*D111
 70
     1
 10
0.0
 20
0.0
 30
0.0
  3
*D111
  1

  0
LINE
  5
6135
330
5F6F
100
AcDbEntity
  8
标注
 62
     0
370
    -2
100
AcDbLine
 10
459.0
 20
775.5491985399857
 30
0.0
 11
421.2500000000001
 21
775.5491985399857
 31
0.0
  0
LINE
  5
6136
330
5F6F
100
AcDbEntity
  8
标注
 62
     0
370
    -2
100
AcDbLine
 10
464.5
 20
318.3491985400114
 30
0.0
 11
421.25
 21
318.3491985400114
 31
0.0
  0
LINE
  5
6137
330
5F6F
100
AcDbEntity
  8
标注
 62
     0
370
    -2
100
AcDbLine
 10
425.0
 20
767.5491985399858
 30
0.0
 11
425.0
 21
326.3491985400114
 31
0.0
  0
SOLID
  5
6138
330
5F6F
100
AcDbEntity
  8
标注
 62
     0
100
AcDbTrace
 10
423.6666666666668
 20
767.5491985399858
 30
0.0
 11
426.3333333333334
 21
767.5491985399858
 31
0.0
 12
425.0
 22
775.5491985399857
 32
0.0
 13
425.0
 23
775.5491985399857
 33
0.0
  0
SOLID
  5
6139
330
5F6F
100
AcDbEntity
  8
标注
 62
     0
100
AcDbTrace
 10
423.6666666666667
 20
326.3491985400114
 30
0.0
 11
426.3333333333333
 21
326.3491985400114
 31
0.0
 12
425.0
 22
318.3491985400114
 32
0.0
 13
425.0
 23
318.3491985400114
 33
0.0
  0
MTEXT
  5
613A
330
5F6F
100
AcDbEntity
  8
标注
 62
     0
100
AcDbMText
 10
412.7462482946794
 20
546.9491985399984
 30
0.0
 40
16.0
 41
0.0
 71
     5
 72
     1
  1
{\fArial|b0|i0|c0|p34;457.2 [18]}
 11
0.0000000000000001
 21
1.0
 31
0.0
 73
     1
 44
1.0
1001
ACAD
1000
MTEXTBEGIN
1070
    73
1070
     1
1070
    44
1040
1.0
1070
    74
1070
     0
1000
MTEXTEND
  0
POINT
  5
613B
330
5F6F
100
AcDbEntity
  8
Defpoints
 62
     0
100
AcDbPoint
 10
459.0
 20
775.5491985399857
 30
0.0
  0
POINT
  5
613C
330
5F6F
100
AcDbEntity
  8
Defpoints
 62
     0
100
AcDbPoint
 10
464.5
 20
318.3491985400114
 30
0.0
  0
POINT
  5
613D
330
5F6F
100
AcDbEntity
  8
Defpoints
 62
     0
100
AcDbPoint
 10
425.0
 20
318.3491985400114
 30
0.0
  0
ENDBLK
  5
5F7B
330
5F6F
100
AcDbEntity
  8
0
100
AcDbBlockEnd
  0
BLOCK
  5
5F94
330
5F89
100
AcDbEntity
  8
0
100
AcDbBlockBegin
  2
*D112
 70
     1
 10
0.0
 20
0.0
 30
0.0
  3
*D112
  1

  0
LINE
  5
613E
330
5F89
100
AcDbEntity
  8
标注
 62
     0
370
    -2
100
AcDbLine
 10
464.5
 20
305.5491985400031
 30
0.0
 11
357.7499999999999
 21
305.5491985400032
 31
0.0
  0
LINE
  5
613F
330
5F89
100
AcDbEntity
  8
标注
 62
     0
370
    -2
100
AcDbLine
 10
458.0
 20
788.3491985399842
 30
0.0
 11
357.75
 21
788.3491985399842
 31
0.0
  0
LINE
  5
6140
330
5F89
100
AcDbEntity
  8
标注
 62
     0
370
    -2
100
AcDbLine
 10
361.4999999999999
 20
313.5491985400031
 30
0.0
 11
361.5
 21
780.3491985399842
 31
0.0
  0
SOLID
  5
6141
330
5F89
100
AcDbEntity
  8
标注
 62
     0
100
AcDbTrace
 10
360.1666666666666
 20
313.5491985400031
 30
0.0
 11
362.8333333333332
 21
313.5491985400031
 31
0.0
 12
361.4999999999999
 22
305.5491985400032
 32
0.0
 13
361.4999999999999
 23
305.5491985400032
 33
0.0
  0
SOLID
  5
6142
330
5F89
100
AcDbEntity
  8
标注
 62
     0
100
AcDbTrace
 10
360.1666666666667
 20
780.3491985399842
 30
0.0
 11
362.8333333333333
 21
780.3491985399842
 31
0.0
 12
361.5
 22
788.3491985399842
 32
0.0
 13
361.5
 23
788.3491985399842
 33
0.0
  0
MTEXT
  5
6143
330
5F89
100
AcDbEntity
  8
标注
 62
     0
100
AcDbMText
 10
349.2462482946793
 20
546.9491985399939
 30
0.0
 40
16.0
 41
0.0
 71
     5
 72
     1
  1
{\fArial|b0|i0|c0|p34;482.8 [19]}
 11
0.0000000000000001
 21
1.0
 31
0.0
 73
     1
 44
1.0
1001
ACAD
1000
MTEXTBEGIN
1070
    73
1070
     1
1070
    44
1040
1.0
1070
    74
1070
     0
1000
MTEXTEND
  0
POINT
  5
6144
330
5F89
100
AcDbEntity
  8
Defpoints
 62
     0
100
AcDbPoint
 10
464.5
 20
305.5491985400031
 30
0.0
  0
POINT
  5
6145
330
5F89
100
AcDbEntity
  8
Defpoints
 62
     0
100
AcDbPoint
 10
458.0
 20
788.3491985399842
 30
0.0
  0
POINT
  5
6146
330
5F89
100
AcDbEntity
  8
Defpoints
 62
     0
100
AcDbPoint
 10
361.5
 20
788.3491985399842
 30
0.0
  0
ENDBLK
  5
5F95
330
5F89
100
AcDbEntity
  8
0
100
AcDbBlockEnd
  0
BLOCK
  5
6011
330
6006
100
AcDbEntity
  8
0
100
AcDbBlockBegin
  2
*D113
 70
     1
 10
0.0
 20
0.0
 30
0.0
  3
*D113
  1

  0
LINE
  5
6147
330
6006
100
AcDbEntity
  8
标注
 62
     0
370
    -2
100
AcDbLine
 10
1247.5
 20
723.3487873823023
 30
0.0
 11
1342.25
 21
723.3487873823023
 31
0.0
  0
LINE
  5
6148
330
6006
100
AcDbEntity
  8
标注
 62
     0
370
    -2
100
AcDbLine
 10
1242.5
 20
305.5496097044044
 30
0.0
 11
1342.25
 21
305.5496097044044
 31
0.0
  0
LINE
  5
6149
330
6006
100
AcDbEntity
  8
标注
 62
     0
370
    -2
100
AcDbLine
 10
1338.5
 20
715.3487873823022
 30
0.0
 11
1338.5
 21
313.5496097044044
 31
0.0
  0
SOLID
  5
614A
330
6006
100
AcDbEntity
  8
标注
 62
     0
100
AcDbTrace
 10
1337.166666666667
 20
715.3487873823022
 30
0.0
 11
1339.833333333333
 21
715.3487873823022
 31
0.0
 12
1338.5
 22
723.3487873823023
 32
0.0
 13
1338.5
 23
723.3487873823023
 33
0.0
  0
SOLID
  5
614B
330
6006
100
AcDbEntity
  8
标注
 62
     0
100
AcDbTrace
 10
1337.166666666667
 20
313.5496097044044
 30
0.0
 11
1339.833333333333
 21
313.5496097044044
 31
0.0
 12
1338.5
 22
305.5496097044044
 32
0.0
 13
1338.5
 23
305.5496097044044
 33
0.0
  0
MTEXT
  5
614C
330
6006
100
AcDbEntity
  8
标注
 62
     0
100
AcDbMText
 10
1326.142564802182
 20
514.4491985433533
 30
0.0
 40
16.0
 41
0.0
 71
     5
 72
     1
  1
{\fArial|b0|i0|c0|p34;417.8 [16 1/2]}
 11
0.0000000000000001
 21
1.0
 31
0.0
 73
     1
 44
1.0
1001
ACAD
1000
MTEXTBEGIN
1070
    73
1070
     1
1070
    44
1040
1.0
1070
    74
1070
     0
1000
MTEXTEND
  0
POINT
  5
614D
330
6006
100
AcDbEntity
  8
Defpoints
 62
     0
100
AcDbPoint
 10
1247.5
 20
723.3487873823023
 30
0.0
  0
POINT
  5
614E
330
6006
100
AcDbEntity
  8
Defpoints
 62
     0
100
AcDbPoint
 10
1242.5
 20
305.5496097044044
 30
0.0
  0
POINT
  5
614F
330
6006
100
AcDbEntity
  8
Defpoints
 62
     0
100
AcDbPoint
 10
1338.5
 20
305.5496097044044
 30
0.0
  0
ENDBLK
  5
6012
330
6006
100
AcDbEntity
  8
0
100
AcDbBlockEnd
  0
BLOCK
  5
602B
330
6020
100
AcDbEntity
  8
0
100
AcDbBlockBegin
  2
*D114
 70
     1
 10
0.0
 20
0.0
 30
0.0
  3
*D114
  1

  0
LINE
  5
6150
330
6020
100
AcDbEntity
  8
标注
 62
     0
370
    -2
100
AcDbLine
 10
1247.0
 20
710.5487873823099
 30
0.0
 11
1287.25
 21
710.5487873823098
 31
0.0
  0
LINE
  5
6151
330
6020
100
AcDbEntity
  8
标注
 62
     0
370
    -2
100
AcDbLine
 10
1242.0
 20
318.3496097043833
 30
0.0
 11
1287.25
 21
318.3496097043833
 31
0.0
  0
LINE
  5
6152
330
6020
100
AcDbEntity
  8
标注
 62
     0
370
    -2
100
AcDbLine
 10
1283.5
 20
702.5487873823098
 30
0.0
 11
1283.5
 21
326.3496097043833
 31
0.0
  0
SOLID
  5
6153
330
6020
100
AcDbEntity
  8
标注
 62
     0
100
AcDbTrace
 10
1282.166666666667
 20
702.5487873823098
 30
0.0
 11
1284.833333333333
 21
702.5487873823098
 31
0.0
 12
1283.5
 22
710.5487873823098
 32
0.0
 13
1283.5
 23
710.5487873823098
 33
0.0
  0
SOLID
  5
6154
330
6020
100
AcDbEntity
  8
标注
 62
     0
100
AcDbTrace
 10
1282.166666666667
 20
326.3496097043833
 30
0.0
 11
1284.833333333333
 21
326.3496097043833
 31
0.0
 12
1283.5
 22
318.3496097043833
 32
0.0
 13
1283.5
 23
318.3496097043833
 33
0.0
  0
MTEXT
  5
6155
330
6020
100
AcDbEntity
  8
标注
 62
     0
100
AcDbMText
 10
1271.142564802183
 20
514.4491985433464
 30
0.0
 40
16.0
 41
0.0
 71
     5
 72
     1
  1
{\fArial|b0|i0|c0|p34;392.2 [15 1/2]}
 11
0.0000000000000001
 21
1.0
 31
0.0
 73
     1
 44
1.0
1001
ACAD
1000
MTEXTBEGIN
1070
    73
1070
     1
1070
    44
1040
1.0
1070
    74
1070
     0
1000
MTEXTEND
  0
POINT
  5
6156
330
6020
100
AcDbEntity
  8
Defpoints
 62
     0
100
AcDbPoint
 10
1247.0
 20
710.5487873823099
 30
0.0
  0
POINT
  5
6157
330
6020
100
AcDbEntity
  8
Defpoints
 62
     0
100
AcDbPoint
 10
1242.0
 20
318.3496097043833
 30
0.0
  0
POINT
  5
6158
330
6020
100
AcDbEntity
  8
Defpoints
 62
     0
100
AcDbPoint
 10
1283.5
 20
318.3496097043833
 30
0.0
  0
ENDBLK
  5
602C
330
6020
100
AcDbEntity
  8
0
100
AcDbBlockEnd
  0
ENDSEC
  0
SECTION
  2
ENTITIES
  0
IMAGE
  5
476F
330
1F
100
AcDbEntity
  8
0
 92
      140
310
8C0000000100000084000000060000000500000031063790AC84A040FDEBA441D0317340000000000000000031063790AC84A040653239AE4FB27540000000000000000071BFB8D839A5A140653239AE4FB27540000000000000000071BFB8D839A5A140FDEBA441D0317340000000000000000031063790AC84A040FDEBA4
310
41D03173400000000000000000
100
AcDbRasterImage
 90
        0
 10
2114.337037772661
 20
307.1133438532123
 30
0.0
 11
0.0683124733936893
 21
0.0
 31
0.0
 12
0.0
 22
0.0683124733934619
 32
0.0
 13
2112.0
 23
586.0
340
4765
 70
     7
280
     0
281
    50
282
    50
283
     0
360
4764
 71
     1
 91
        2
 14
-0.5
 24
-0.5
 14
2111.5
 24
585.5
  0
LINE
  5
48AF
330
1F
100
AcDbEntity
  8
粗实线
100
AcDbLine
 10
1463.895068013587
 20
104.299505175886
 30
0.0
 11
911.7006116037218
 21
104.299505175886
 31
0.0
  0
LINE
  5
48B0
330
1F
100
AcDbEntity
  8
图框线
100
AcDbLine
 10
1279.830249210288
 20
245.4158662584122
 30
0.0
 11
1279.830249210288
 21
104.299505175886
 31
0.0
  0
LINE
  5
48B1
330
1F
100
AcDbEntity
  8
图框线
100
AcDbLine
 10
1095.765430406993
 20
245.4158662584122
 30
0.0
 11
1095.765430406993
 21
104.299505175886
 31
0.0
  0
LINE
  5
48B2
330
1F
100
AcDbEntity
  8
图框线
100
AcDbLine
 10
1118.773532757436
 20
159.5189508168728
 30
0.0
 11
1118.773532757436
 21
125.7737340362815
 31
0.0
  0
LINE
  5
48B3
330
1F
100
AcDbEntity
  8
图框线
100
AcDbLine
 10
1141.781635107827
 20
159.5189508168728
 30
0.0
 11
1141.781635107827
 21
125.7737340362815
 31
0.0
  0
LINE
  5
48B4
330
1F
100
AcDbEntity
  8
图框线
100
AcDbLine
 10
1187.797839808628
 20
125.7737340362815
 30
0.0
 11
1187.797839808628
 21
104.299505175886
 31
0.0
  0
LINE
  5
48B5
330
1F
100
AcDbEntity
  8
图框线
100
AcDbLine
 10
1164.789737458224
 20
177.9254326972154
 30
0.0
 11
1164.789737458224
 21
125.7737340362815
 31
0.0
  0
LINE
  5
48B6
330
1F
100
AcDbEntity
  8
图框线
100
AcDbLine
 10
1201.60270121889
 20
177.9254326972154
 30
0.0
 11
1201.60270121889
 21
125.7737340362815
 31
0.0
  0
LINE
  5
48B7
330
1F
100
AcDbEntity
  8
图框线
100
AcDbLine
 10
1243.017285449626
 20
177.9254326972154
 30
0.0
 11
1243.017285449626
 21
125.7737340362815
 31
0.0
  0
LINE
  5
48B8
330
1F
100
AcDbEntity
  8
粗实线
100
AcDbLine
 10
1463.895068013587
 20
104.299505175886
 30
0.0
 11
911.7006116037218
 21
104.299505175886
 31
0.0
  0
LINE
  5
48B9
330
1F
100
AcDbEntity
  8
粗实线
100
AcDbLine
 10
1463.895068013587
 20
245.4158662584122
 30
0.0
 11
911.7006116037218
 21
245.4158662584122
 31
0.0
  0
LINE
  5
48BA
330
1F
100
AcDbEntity
  8
图框线
100
AcDbLine
 10
1279.830249210288
 20
177.9254326972154
 30
0.0
 11
911.7006116037218
 21
177.9254326972154
 31
0.0
  0
LINE
  5
48BB
330
1F
100
AcDbEntity
  8
图框线
100
AcDbLine
 10
1095.765430406993
 20
191.4235194094515
 30
0.0
 11
911.7006116037218
 21
191.4235194094515
 31
0.0
  0
LINE
  5
48BC
330
1F
100
AcDbEntity
  8
图框线
100
AcDbLine
 10
1095.765430406993
 20
204.9216061216839
 30
0.0
 11
911.7006116037218
 21
204.9216061216839
 31
0.0
  0
LINE
  5
48BD
330
1F
100
AcDbEntity
  8
图框线
100
AcDbLine
 10
1095.765430406993
 20
218.4196928339296
 30
0.0
 11
911.7006116037218
 21
218.4196928339296
 31
0.0
  0
LINE
  5
48BE
330
1F
100
AcDbEntity
  8
图框线
100
AcDbLine
 10
1095.765430406993
 20
231.9177795461762
 30
0.0
 11
911.7006116037218
 21
231.9177795461762
 31
0.0
  0
LINE
  5
48BF
330
1F
100
AcDbEntity
  8
图框线
100
AcDbLine
 10
1279.830249210288
 20
159.5189508168728
 30
0.0
 11
911.7006116037218
 21
159.5189508168728
 31
0.0
  0
LINE
  5
48C0
330
1F
100
AcDbEntity
  8
图框线
100
AcDbLine
 10
1279.830249210288
 20
141.1124689365408
 30
0.0
 11
911.7006116037218
 21
141.1124689365408
 31
0.0
  0
LINE
  5
48C1
330
1F
100
AcDbEntity
  8
图框线
100
AcDbLine
 10
1095.765430406993
 20
122.7059870562134
 30
0.0
 11
911.7006116037218
 21
122.7059870562134
 31
0.0
  0
LINE
  5
48C2
330
1F
100
AcDbEntity
  8
图框线
100
AcDbLine
 10
1279.830249210288
 20
159.5189508168728
 30
0.0
 11
1095.765430406993
 21
159.5189508168728
 31
0.0
  0
LINE
  5
48C3
330
1F
100
AcDbEntity
  8
图框线
100
AcDbLine
 10
1279.830249210288
 20
141.1124689365408
 30
0.0
 11
1095.765430406993
 21
141.1124689365408
 31
0.0
  0
LINE
  5
48C4
330
1F
100
AcDbEntity
  8
图框线
100
AcDbLine
 10
1279.830249210288
 20
125.7737340362815
 30
0.0
 11
1095.765430406993
 21
125.7737340362815
 31
0.0
  0
LINE
  5
48C5
330
1F
100
AcDbEntity
  8
图框线
100
AcDbLine
 10
1463.895068013587
 20
196.3319145775334
 30
0.0
 11
1279.830249210288
 21
196.3319145775334
 31
0.0
  0
LINE
  5
48C6
330
1F
100
AcDbEntity
  8
图框线
100
AcDbLine
 10
1463.895068013587
 20
150.3157098766921
 30
0.0
 11
1279.830249210288
 21
150.3157098766921
 31
0.0
  0
LINE
  5
48C7
330
1F
100
AcDbEntity
  8
图框线
100
AcDbLine
 10
936.242587444144
 20
177.9254326971907
 30
0.0
 11
936.242587444144
 21
245.4158662584122
 31
0.0
  0
LINE
  5
48C8
330
1F
100
AcDbEntity
  8
图框线
100
AcDbLine
 10
960.7845632845808
 20
177.9254326971907
 30
0.0
 11
960.7845632845808
 21
245.4158662584122
 31
0.0
  0
LINE
  5
48C9
330
1F
100
AcDbEntity
  8
图框线
100
AcDbLine
 10
1012.936261945535
 20
177.9254326972154
 30
0.0
 11
1012.936261945535
 21
245.4158662584122
 31
0.0
  0
LINE
  5
48CA
330
1F
100
AcDbEntity
  8
图框线
100
AcDbLine
 10
1058.952466646341
 20
177.9254326972154
 30
0.0
 11
1058.952466646341
 21
245.4158662584122
 31
0.0
  0
LINE
  5
48CB
330
1F
100
AcDbEntity
  8
图框线
100
AcDbLine
 10
948.5135753643696
 20
104.299505175886
 30
0.0
 11
948.5135753643696
 21
177.9254326971907
 31
0.0
  0
LINE
  5
48CC
330
1F
100
AcDbEntity
  8
图框线
100
AcDbLine
 10
1003.733021005362
 20
104.299505175886
 30
0.0
 11
1003.733021005362
 21
177.9254326972154
 31
0.0
  0
LINE
  5
48CD
330
1F
100
AcDbEntity
  8
图框线
100
AcDbLine
 10
1040.54598476601
 20
104.299505175886
 30
0.0
 11
1040.54598476601
 21
177.9254326972154
 31
0.0
  0
MTEXT
  5
48CE
330
1F
100
AcDbEntity
  8
文字
100
AcDbMText
 10
916.390572304167
 20
188.4811119990023
 30
0.0
 40
6.227457171756387
 41
40.01918640081004
 71
     1
 72
     5
  1
{\fSimSun|b0|i0|c134|p2;标记}
 73
     1
 44
1.0
1001
ACAD
1000
MTEXTBEGIN
1070
    73
1070
     1
1070
    44
1040
1.0
1070
    74
1070
     0
1000
MTEXTEND
  0
MTEXT
  5
48CF
330
1F
100
AcDbEntity
  8
文字
100
AcDbMText
 10
940.4106200270502
 20
188.4081806677179
 30
0.0
 40
6.227457171756387
 41
40.01918640081004
 71
     1
 72
     5
  1
{\fSimSun|b0|i0|c134|p2;处数}
 73
     1
 44
1.0
1001
ACAD
1000
MTEXTBEGIN
1070
    73
1070
     1
1070
    44
1040
1.0
1070
    74
1070
     0
1000
MTEXTEND
  0
MTEXT
  5
48D0
330
1F
100
AcDbEntity
  8
文字
100
AcDbMText
 10
970.1851177125403
 20
187.6286180468503
 30
0.0
 40
4.981965737405109
 41
85.09658239324911
 71
     1
 72
     5
  1
{\fSimSun|b0|i0|c134|p2;\C1;更改文件号}
 73
     1
 44
1.0
1001
ACAD
1000
MTEXTBEGIN
1070
    73
1070
     1
1070
    44
1040
1.0
1070
    74
1070
     0
1000
MTEXTEND
  0
MTEXT
  5
48D1
330
1F
100
AcDbEntity
  8
文字
100
AcDbMText
 10
1026.326528802965
 20
188.8642841412336
 30
0.0
 40
6.227457171756387
 41
40.01918640081004
 71
     1
 72
     5
  1
{\fSimSun|b0|i0|c134|p2;签名}
 73
     1
 44
1.0
1001
ACAD
1000
MTEXTBEGIN
1070
    73
1070
     1
1070
    44
1040
1.0
1070
    74
1070
     0
1000
MTEXTEND
  0
MTEXT
  5
48D2
330
1F
100
AcDbEntity
  8
文字
100
AcDbMText
 10
1070.441807196552
 20
188.4976070847429
 30
0.0
 40
6.227457171756387
 41
40.01918640081004
 71
     1
 72
     5
  1
{\fSimSun|b0|i0|c134|p2;日期}
 73
     1
 44
1.0
1001
ACAD
1000
MTEXTBEGIN
1070
    73
1070
     1
1070
    44
1040
1.0
1070
    74
1070
     0
1000
MTEXTEND
  0
MTEXT
  5
48D3
330
1F
100
AcDbEntity
  8
文字
100
AcDbMText
 10
919.6580474932652
 20
173.130568006044
 30
0.0
 40
7.78432146469548
 41
50.02398300101256
 71
     1
 72
     5
  1
{\fSimSun|b0|i0|c134|p2;设计}
 73
     1
 44
1.0
1001
ACAD
1000
MTEXTBEGIN
1070
    73
1070
     1
1070
    44
1040
1.0
1070
    74
1070
     0
1000
MTEXTEND
  0
MTEXT
  5
48D4
330
1F
100
AcDbEntity
  8
文字
100
AcDbMText
 10
919.6580474932652
 20
154.5988894300777
 30
0.0
 40
7.78432146469548
 41
50.02398300101256
 71
     1
 72
     5
  1
{\fSimSun|b0|i0|c134|p2;校对}
 73
     1
 44
1.0
1001
ACAD
1000
MTEXTBEGIN
1070
    73
1070
     1
1070
    44
1040
1.0
1070
    74
1070
     0
1000
MTEXTEND
  0
MTEXT
  5
48D5
330
1F
100
AcDbEntity
  8
文字
100
AcDbMText
 10
919.6580474932652
 20
136.24889385147
 30
0.0
 40
7.78432146469548
 41
50.02398300101256
 71
     1
 72
     5
  1
{\fSimSun|b0|i0|c134|p2;会签}
 73
     1
 44
1.0
1001
ACAD
1000
MTEXTBEGIN
1070
    73
1070
     1
1070
    44
1040
1.0
1070
    74
1070
     0
1000
MTEXTEND
  0
MTEXT
  5
48D6
330
1F
100
AcDbEntity
  8
文字
100
AcDbMText
 10
919.6580474932652
 20
118.0980986738527
 30
0.0
 40
7.78432146469548
 41
50.02398300101256
 71
     1
 72
     5
  1
{\fSimSun|b0|i0|c134|p2;工艺}
 73
     1
 44
1.0
1001
ACAD
1000
MTEXTBEGIN
1070
    73
1070
     1
1070
    44
1040
1.0
1070
    74
1070
     0
1000
MTEXTEND
  0
MTEXT
  5
48D7
330
1F
100
AcDbEntity
  8
文字
100
AcDbMText
 10
1011.564098982958
 20
153.5036944662425
 30
0.0
 40
7.78432146469548
 41
50.02398300101256
 71
     1
 72
     5
  1
{\fSimSun|b0|i0|c134|p2;批准}
 73
     1
 44
1.0
1001
ACAD
1000
MTEXTBEGIN
1070
    73
1070
     1
1070
    44
1040
1.0
1070
    74
1070
     0
1000
MTEXTEND
  0
MTEXT
  5
48D8
330
1F
100
AcDbEntity
  8
文字
100
AcDbMText
 10
1013.223088401899
 20
117.0029179306164
 30
0.0
 40
7.78432146469548
 41
50.02398300101256
 71
     1
 72
     5
  1
{\fSimSun|b0|i0|c134|p2;日期}
 73
     1
 44
1.0
1001
ACAD
1000
MTEXTBEGIN
1070
    73
1070
     1
1070
    44
1040
1.0
1070
    74
1070
     0
1000
MTEXTEND
  0
MTEXT
  5
48D9
330
1F
100
AcDbEntity
  8
文字
100
AcDbMText
 10
1109.217543749136
 20
173.2822311116968
 30
0.0
 40
7.78432146469548
 41
50.02398300101256
 71
     1
 72
     5
  1
{\fSimSun|b0|i0|c134|p2;图样标记}
 73
     1
 44
1.0
1001
ACAD
1000
MTEXTBEGIN
1070
    73
1070
     1
1070
    44
1040
1.0
1070
    74
1070
     0
1000
MTEXTEND
  0
MTEXT
  5
48DA
330
1F
100
AcDbEntity
  8
文字
100
AcDbMText
 10
1121.460601585165
 20
118.7629735788733
 30
0.0
 40
7.78432146469548
 41
50.02398300101256
 71
     1
 72
     5
  1
{\fSimSun|b0|i0|c134|p2;共  页}
 73
     1
 44
1.0
1001
ACAD
1000
MTEXTBEGIN
1070
    73
1070
     1
1070
    44
1040
1.0
1070
    74
1070
     0
1000
MTEXTEND
  0
MTEXT
  5
48DB
330
1F
100
AcDbEntity
  8
文字
100
AcDbMText
 10
1174.334665123817
 20
173.212315411742
 30
0.0
 40
7.78432146469548
 41
50.02398300101256
 71
     1
 72
     5
  1
{\fSimSun|b0|i0|c134|p2;数量}
 73
     1
 44
1.0
1001
ACAD
1000
MTEXTBEGIN
1070
    73
1070
     1
1070
    44
1040
1.0
1070
    74
1070
     0
1000
MTEXTEND
  0
MTEXT
  5
48DC
330
1F
100
AcDbEntity
  8
文字
100
AcDbMText
 10
1207.04073777703
 20
172.7060052084603
 30
0.0
 40
7.78432146469548
 41
50.02398300101256
 71
     1
 72
     5
  1
{\fSimSun|b0|i0|c134|p2;重量}
 73
     1
 44
1.0
1001
ACAD
1000
MTEXTBEGIN
1070
    73
1070
     1
1070
    44
1040
1.0
1070
    74
1070
     0
1000
MTEXTEND
  0
MTEXT
  5
48DD
330
1F
100
AcDbEntity
  8
文字
100
AcDbMText
 10
1251.786882648919
 20
173.1110505269688
 30
0.0
 40
7.78432146469548
 41
50.02398300101256
 71
     1
 72
     5
  1
{\fSimSun|b0|i0|c134|p2;比例}
 73
     1
 44
1.0
1001
ACAD
1000
MTEXTBEGIN
1070
    73
1070
     1
1070
    44
1040
1.0
1070
    74
1070
     0
1000
MTEXTEND
  0
MTEXT
  5
48DE
330
1F
100
AcDbEntity
  8
文字
100
AcDbMText
 10
1230.768144090589
 20
171.8982309262703
 30
0.0
 40
9.047153973819309
 41
179.6356872836378
 71
     1
 72
     5
  1
{\fArial|b0|i0|c0|p34;kg}
  7
样式 8
 73
     1
 44
1.0
1001
ACAD
1000
MTEXTBEGIN
1070
    73
1070
     1
1070
    44
1040
1.0
1070
    74
1070
     0
1000
MTEXTEND
  0
MTEXT
  5
48DF
330
1F
100
AcDbEntity
  8
文字
100
AcDbMText
 10
1214.194034645656
 20
118.7629735788733
 30
0.0
 40
7.78432146469548
 41
50.02398300101256
 71
     1
 72
     5
  1
{\fSimSun|b0|i0|c134|p2;第  页}
 73
     1
 44
1.0
1001
ACAD
1000
MTEXTBEGIN
1070
    73
1070
     1
1070
    44
1040
1.0
1070
    74
1070
     0
1000
MTEXTEND
  0
MTEXT
  5
48E0
330
1F
100
AcDbEntity
  8
文字
100
AcDbMText
 10
1288.82316904246
 20
224.0779171806756
 30
0.0
 40
11.30894246727414
 41
224.5446091045472
 71
     1
 72
     5
  1
{\fSimSun|b0|i0|c134|p2;\C1;泰捷不锈钢制品（泰国）有限公司}
  7
样式 8
 73
     1
 44
1.0
1001
ACAD
1000
MTEXTBEGIN
1070
    73
1070
     1
1070
    44
1040
1.0
1070
    74
1070
     0
1000
MTEXTEND
  0
MTEXT
  5
48E1
330
1F
100
AcDbEntity
  8
文字
100
AcDbMText
 10
1305.509957612281
 20
183.3954353798562
 30
0.0
 40
14.7251855042632
 41
292.3757931048791
 71
     1
 72
     5
  1
{\fSimSun|b0|i0|c134|p2;\C1;开孔纸板（FD1031）}
  7
样式 8
 73
     1
 44
1.0
1001
ACAD
1000
MTEXTBEGIN
1070
    73
1070
     1
1070
    44
1040
1.0
1070
    74
1070
     0
1000
MTEXTEND
  0
LINE
  5
48E2
330
1F
100
AcDbEntity
  8
不可见
100
AcDbLine
 10
1479.23380291386
 20
1000.0816233519
 30
0.0
 11
1479.23380291386
 21
88.96077027561265
 31
0.0
  0
LINE
  5
48E3
330
1F
100
AcDbEntity
  8
粗实线
100
AcDbLine
 10
1463.895068013587
 20
984.7428884516434
 30
0.0
 11
1463.895068013587
 21
104.299505175886
 31
0.0
  0
LINE
  5
48E4
330
1F
100
AcDbEntity
  8
不可见
100
AcDbLine
 10
1479.23380291386
 20
88.96077027561265
 30
0.0
 11
190.7800712908306
 21
88.96077027561265
 31
0.0
  0
LINE
  5
48E5
330
1F
100
AcDbEntity
  8
粗实线
100
AcDbLine
 10
1463.895068013587
 20
104.299505175886
 30
0.0
 11
267.473745792188
 21
104.299505175886
 31
0.0
  0
LINE
  5
48E6
330
1F
100
AcDbEntity
  8
粗实线
100
AcDbLine
 10
1463.895068013587
 20
104.299505175886
 30
0.0
 11
267.473745792188
 21
104.299505175886
 31
0.0
  0
MTEXT
  5
48E7
330
1F
100
AcDbEntity
  8
文字
100
AcDbMText
 10
1146.484106346481
 20
215.0215339269434
 30
0.0
 40
14.7251855042632
 41
292.3757931048791
 71
     1
 72
     5
  1
{\fSimSun|b0|i0|c0|p2;\C1;0.3\fSimSun|b0|i0|c134|p2;mm厚白纸板}
  7
样式 8
 73
     1
 44
1.0
1001
ACAD
1000
MTEXTBEGIN
1070
    73
1070
     1
1070
    44
1040
1.0
1070
    74
1070
     0
1000
MTEXTEND
  0
MTEXT
  5
48E8
330
1F
100
AcDbEntity
  8
文字
100
AcDbMText
 10
1103.815388494478
 20
237.9377882982484
 30
0.0
 40
14.7251855042632
 41
292.3757931048791
 71
     1
 72
     5
  1
{\fSimSun|b0|i0|c134|p2;材料:}
  7
样式 8
 73
     1
 44
1.0
1001
ACAD
1000
MTEXTBEGIN
1070
    73
1070
     1
1070
    44
1040
1.0
1070
    74
1070
     0
1000
MTEXTEND
  0
MTEXT
  5
48E9
330
1F
100
AcDbEntity
  8
文字
100
AcDbMText
 10
1011.564098982958
 20
171.9581774047235
 30
0.0
 40
7.78432146469548
 41
50.02398300101256
 71
     1
 72
     5
  1
{\fSimSun|b0|i0|c134|p2;审核}
 73
     1
 44
1.0
1001
ACAD
1000
MTEXTBEGIN
1070
    73
1070
     1
1070
    44
1040
1.0
1070
    74
1070
     0
1000
MTEXTEND
  0
LINE
  5
48EA
330
1F
100
AcDbEntity
  8
不可见
100
AcDbLine
 10
190.7800712908306
 20
1000.0816233519
 30
0.0
 11
1479.23380291386
 21
1000.0816233519
 31
0.0
  0
LINE
  5
48EB
330
1F
100
AcDbEntity
  8
粗实线
100
AcDbLine
 10
267.473745792188
 20
984.7428884516231
 30
0.0
 11
1463.895068013587
 21
984.7428884516231
 31
0.0
  0
LINE
  5
48EC
330
1F
100
AcDbEntity
  8
不可见
100
AcDbLine
 10
190.7800712908306
 20
88.96077027561265
 30
0.0
 11
190.7800712908306
 21
1000.0816233519
 31
0.0
  0
LINE
  5
48ED
330
1F
100
AcDbEntity
  8
粗实线
100
AcDbLine
 10
267.473745792188
 20
104.299505175886
 30
0.0
 11
267.473745792188
 21
984.7428884516231
 31
0.0
  0
LINE
  5
48EE
330
1F
100
AcDbEntity
  8
粗实线
100
AcDbLine
 10
267.473745792188
 20
952.9294948297136
 30
0.0
 11
418.7244240690109
 21
952.9294948297136
 31
0.0
  0
LINE
  5
48EF
330
1F
100
AcDbEntity
  8
粗实线
100
AcDbLine
 10
418.7244240690109
 20
952.9294948297136
 30
0.0
 11
418.7244240690109
 21
984.7428884516231
 31
0.0
  0
LINE
  5
48F0
330
1F
100
AcDbEntity
  8
图框线
100
AcDbLine
 10
267.473745792188
 20
128.8414810163201
 30
0.0
 11
190.7800712908306
 21
128.8414810163201
 31
0.0
  0
LINE
  5
48F1
330
1F
100
AcDbEntity
  8
图框线
100
AcDbLine
 10
267.473745792188
 20
147.2479628966627
 30
0.0
 11
190.7800712908306
 21
147.2479628966627
 31
0.0
  0
LINE
  5
48F2
330
1F
100
AcDbEntity
  8
图框线
100
AcDbLine
 10
267.473745792188
 20
171.7899387370874
 30
0.0
 11
190.7800712908306
 21
171.7899387370874
 31
0.0
  0
LINE
  5
48F3
330
1F
100
AcDbEntity
  8
图框线
100
AcDbLine
 10
267.473745792188
 20
190.1964206174195
 30
0.0
 11
190.7800712908306
 21
190.1964206174195
 31
0.0
  0
LINE
  5
48F4
330
1F
100
AcDbEntity
  8
图框线
100
AcDbLine
 10
267.473745792188
 20
214.738396457856
 30
0.0
 11
190.7800712908306
 21
214.738396457856
 31
0.0
  0
LINE
  5
48F5
330
1F
100
AcDbEntity
  8
图框线
100
AcDbLine
 10
267.473745792188
 20
233.1448783381787
 30
0.0
 11
190.7800712908306
 21
233.1448783381787
 31
0.0
  0
LINE
  5
48F6
330
1F
100
AcDbEntity
  8
图框线
100
AcDbLine
 10
267.473745792188
 20
257.6868541786328
 30
0.0
 11
190.7800712908306
 21
257.6868541786328
 31
0.0
  0
LINE
  5
48F7
330
1F
100
AcDbEntity
  8
图框线
100
AcDbLine
 10
267.473745792188
 20
276.0933360589543
 30
0.0
 11
190.7800712908306
 21
276.0933360589543
 31
0.0
  0
LINE
  5
48F8
330
1F
100
AcDbEntity
  8
图框线
100
AcDbLine
 10
267.473745792188
 20
300.6353118994096
 30
0.0
 11
190.7800712908306
 21
300.6353118994096
 31
0.0
  0
LINE
  5
48F9
330
1F
100
AcDbEntity
  8
图框线
100
AcDbLine
 10
267.473745792188
 20
319.0417937797463
 30
0.0
 11
190.7800712908306
 21
319.0417937797463
 31
0.0
  0
LINE
  5
48FA
330
1F
100
AcDbEntity
  8
图框线
100
AcDbLine
 10
267.473745792188
 20
343.5837696201557
 30
0.0
 11
190.7800712908306
 21
343.5837696201557
 31
0.0
  0
LINE
  5
48FB
330
1F
100
AcDbEntity
  8
图框线
100
AcDbLine
 10
267.473745792188
 20
361.990251500489
 30
0.0
 11
190.7800712908306
 21
361.990251500489
 31
0.0
  0
LINE
  5
48FC
330
1F
100
AcDbEntity
  8
图框线
100
AcDbLine
 10
267.473745792188
 20
380.3967333808116
 30
0.0
 11
190.7800712908306
 21
380.3967333808116
 31
0.0
  0
LINE
  5
48FD
330
1F
100
AcDbEntity
  8
图框线
100
AcDbLine
 10
267.473745792188
 20
104.299505175886
 30
0.0
 11
190.7800712908306
 21
104.299505175886
 31
0.0
  0
MTEXT
  5
48FE
102
{ACAD_XDICTIONARY
360
6179
102
}
330
1F
100
AcDbEntity
  8
文字
100
AcDbMText
 10
199.0001873849108
 20
142.17414222777
 30
0.0
 40
6.38858308596419
 41
162.2995529642348
 71
     1
 72
     5
  1
\U+65E5   
 73
     1
 44
1.0
1001
ACAD
1000
MTEXTBEGIN
1070
    73
1070
     1
1070
    44
1040
1.0
1070
    74
1070
     0
1000
MTEXTEND
  0
MTEXT
  5
48FF
102
{ACAD_XDICTIONARY
360
617B
102
}
330
1F
100
AcDbEntity
  8
文字
100
AcDbMText
 10
199.0001873849108
 20
185.0990778072656
 30
0.0
 40
6.38858308596419
 41
162.2995529642348
 71
     1
 72
     5
  1
\U+7B7E   
 73
     1
 44
1.0
1001
ACAD
1000
MTEXTBEGIN
1070
    73
1070
     1
1070
    44
1040
1.0
1070
    74
1070
     0
1000
MTEXTEND
  0
MTEXT
  5
4900
102
{ACAD_XDICTIONARY
360
617D
102
}
330
1F
100
AcDbEntity
  8
文字
100
AcDbMText
 10
199.0001873849108
 20
229.2239217666044
 30
0.0
 40
6.38858308596419
 41
162.2995529642348
 71
     1
 72
     5
  1
\U+5E95
 73
     1
 44
1.0
1001
ACAD
1000
MTEXTBEGIN
1070
    73
1070
     1
1070
    44
1040
1.0
1070
    74
1070
     0
1000
MTEXTEND
  0
MTEXT
  5
4901
102
{ACAD_XDICTIONARY
360
617F
102
}
330
1F
100
AcDbEntity
  8
文字
100
AcDbMText
 10
199.0001873849108
 20
270.9252560845113
 30
0.0
 40
6.38858308596419
 41
162.2995529642348
 71
     1
 72
     5
  1
\U+65E7
 73
     1
 44
1.0
1001
ACAD
1000
MTEXTBEGIN
1070
    73
1070
     1
1070
    44
1040
1.0
1070
    74
1070
     0
1000
MTEXTEND
  0
MTEXT
  5
4902
102
{ACAD_XDICTIONARY
360
6181
102
}
330
1F
100
AcDbEntity
  8
文字
100
AcDbMText
 10
197.8461954340967
 20
358.9576715620773
 30
0.0
 40
6.38858308596419
 41
162.2995529642348
 71
     1
 72
     5
  1
\U+63CF   
 73
     1
 44
1.0
1001
ACAD
1000
MTEXTBEGIN
1070
    73
1070
     1
1070
    44
1040
1.0
1070
    74
1070
     0
1000
MTEXTEND
  0
MTEXT
  5
4903
102
{ACAD_XDICTIONARY
360
6183
102
}
330
1F
100
AcDbEntity
  8
文字
100
AcDbMText
 10
194.7679003494296
 20
377.6773817602014
 30
0.0
 40
6.38858308596419
 41
162.2995529642348
 71
     1
 72
     5
  1
\ftxt.shx,gbcbig.shx;\H1x;\C1;\U+501F\U+FF08\U+901A\U+FF09\U+7528\U+4EF6\U+767B\U+8BB0
 73
     1
 44
1.0
1001
ACAD
1000
MTEXTBEGIN
1070
    73
1070
     1
1070
    44
1040
1.0
1070
    74
1070
     0
1000
MTEXTEND
  0
MTEXT
  5
4904
102
{ACAD_XDICTIONARY
360
6185
102
}
330
1F
100
AcDbEntity
  8
文字
100
AcDbMText
 10
252.303319320752
 20
358.9576715620773
 30
0.0
 40
6.38858308596419
 41
162.2995529642348
 71
     1
 72
     5
  1
\U+56FE   
 73
     1
 44
1.0
1001
ACAD
1000
MTEXTBEGIN
1070
    73
1070
     1
1070
    44
1040
1.0
1070
    74
1070
     0
1000
MTEXTEND
  0
MTEXT
  5
4905
102
{ACAD_XDICTIONARY
360
6187
102
}
330
1F
100
AcDbEntity
  8
文字
100
AcDbMText
 10
197.8461954340967
 20
315.6446464148759
 30
0.0
 40
6.38858308596419
 41
162.2995529642348
 71
     1
 72
     5
  1
\U+63CF   
 73
     1
 44
1.0
1001
ACAD
1000
MTEXTBEGIN
1070
    73
1070
     1
1070
    44
1040
1.0
1070
    74
1070
     0
1000
MTEXTEND
  0
MTEXT
  5
4906
102
{ACAD_XDICTIONARY
360
6189
102
}
330
1F
100
AcDbEntity
  8
文字
100
AcDbMText
 10
252.303319320752
 20
315.6446464148759
 30
0.0
 40
6.38858308596419
 41
162.2995529642348
 71
     1
 72
     5
  1
\U+6821   
 73
     1
 44
1.0
1001
ACAD
1000
MTEXTBEGIN
1070
    73
1070
     1
1070
    44
1040
1.0
1070
    74
1070
     0
1000
MTEXTEND
  0
MTEXT
  5
4907
102
{ACAD_XDICTIONARY
360
618B
102
}
330
1F
100
AcDbEntity
  8
文字
100
AcDbMText
 10
210.8454289365959
 20
271.0570418467018
 30
0.0
 40
6.38858308596419
 41
162.2995529642348
 71
     1
 72
     5
  1
\U+5E95
 73
     1
 44
1.0
1001
ACAD
1000
MTEXTBEGIN
1070
    73
1070
     1
1070
    44
1040
1.0
1070
    74
1070
     0
1000
MTEXTEND
  0
MTEXT
  5
4908
102
{ACAD_XDICTIONARY
360
618D
102
}
330
1F
100
AcDbEntity
  8
文字
100
AcDbMText
 10
225.8383481478052
 20
270.9252560845113
 30
0.0
 40
6.38858308596419
 41
162.2995529642348
 71
     1
 72
     5
  1
\U+56FE
 73
     1
 44
1.0
1001
ACAD
1000
MTEXTBEGIN
1070
    73
1070
     1
1070
    44
1040
1.0
1070
    74
1070
     0
1000
MTEXTEND
  0
MTEXT
  5
4909
102
{ACAD_XDICTIONARY
360
618F
102
}
330
1F
100
AcDbEntity
  8
文字
100
AcDbMText
 10
239.7920018861975
 20
270.9252560845113
 30
0.0
 40
6.38858308596419
 41
162.2995529642348
 71
     1
 72
     5
  1
\U+603B
 73
     1
 44
1.0
1001
ACAD
1000
MTEXTBEGIN
1070
    73
1070
     1
1070
    44
1040
1.0
1070
    74
1070
     0
1000
MTEXTEND
  0
MTEXT
  5
490A
102
{ACAD_XDICTIONARY
360
6191
102
}
330
1F
100
AcDbEntity
  8
文字
100
AcDbMText
 10
253.706276960485
 20
270.9252560845113
 30
0.0
 40
6.38858308596419
 41
162.2995529642348
 71
     1
 72
     5
  1
\U+53F7
 73
     1
 44
1.0
1001
ACAD
1000
MTEXTBEGIN
1070
    73
1070
     1
1070
    44
1040
1.0
1070
    74
1070
     0
1000
MTEXTEND
  0
MTEXT
  5
490B
102
{ACAD_XDICTIONARY
360
6193
102
}
330
1F
100
AcDbEntity
  8
文字
100
AcDbMText
 10
216.4278852503218
 20
229.2239217666044
 30
0.0
 40
6.38858308596419
 41
162.2995529642348
 71
     1
 72
     5
  1
\U+56FE
 73
     1
 44
1.0
1001
ACAD
1000
MTEXTBEGIN
1070
    73
1070
     1
1070
    44
1040
1.0
1070
    74
1070
     0
1000
MTEXTEND
  0
MTEXT
  5
490C
102
{ACAD_XDICTIONARY
360
6195
102
}
330
1F
100
AcDbEntity
  8
文字
100
AcDbMText
 10
233.550009295576
 20
229.2239217666044
 30
0.0
 40
6.38858308596419
 41
162.2995529642348
 71
     1
 72
     5
  1
\U+603B
 73
     1
 44
1.0
1001
ACAD
1000
MTEXTBEGIN
1070
    73
1070
     1
1070
    44
1040
1.0
1070
    74
1070
     0
1000
MTEXTEND
  0
MTEXT
  5
490D
102
{ACAD_XDICTIONARY
360
6197
102
}
330
1F
100
AcDbEntity
  8
文字
100
AcDbMText
 10
252.0150437973795
 20
229.2239217666044
 30
0.0
 40
6.38858308596419
 41
162.2995529642348
 71
     1
 72
     5
  1
\U+53F7
 73
     1
 44
1.0
1001
ACAD
1000
MTEXTBEGIN
1070
    73
1070
     1
1070
    44
1040
1.0
1070
    74
1070
     0
1000
MTEXTEND
  0
MTEXT
  5
490E
102
{ACAD_XDICTIONARY
360
6199
102
}
330
1F
100
AcDbEntity
  8
文字
100
AcDbMText
 10
252.1520960143494
 20
185.0990778072656
 30
0.0
 40
6.38858308596419
 41
162.2995529642348
 71
     1
 72
     5
  1
\U+5B57  
 73
     1
 44
1.0
1001
ACAD
1000
MTEXTBEGIN
1070
    73
1070
     1
1070
    44
1040
1.0
1070
    74
1070
     0
1000
MTEXTEND
  0
MTEXT
  5
490F
102
{ACAD_XDICTIONARY
360
619B
102
}
330
1F
100
AcDbEntity
  8
文字
100
AcDbMText
 10
251.0473601712215
 20
142.17414222777
 30
0.0
 40
6.38858308596419
 41
162.2995529642348
 71
     1
 72
     5
  1
\U+671F  
 73
     1
 44
1.0
1001
ACAD
1000
MTEXTBEGIN
1070
    73
1070
     1
1070
    44
1040
1.0
1070
    74
1070
     0
1000
MTEXTEND
  0
MTEXT
  5
4910
330
1F
100
AcDbEntity
  8
文字
100
AcDbMText
 10
1346.750293260922
 20
135.2015270194749
 30
0.0
 40
19.14274115554216
 41
380.0885310363429
 71
     1
 72
     5
  1
{\fNSimSun|b0|i0|c134|p49;\C1;1b104}
  7
样式 8
 73
     1
 44
1.0
1001
ACAD
1000
MTEXTBEGIN
1070
    73
1070
     1
1070
    44
1040
1.0
1070
    74
1070
     0
1000
MTEXTEND
  0
LINE
  5
4911
330
1F
100
AcDbEntity
  8
粗实线
100
AcDbLine
 10
911.7006116037218
 20
245.4158662584122
 30
0.0
 11
911.7006116037218
 21
104.299505175886
 31
0.0
  0
MTEXT
  5
4912
330
1F
100
AcDbEntity
  8
文字
100
AcDbMText
 10
1247.524106346481
 20
278.4415339269435
 30
0.0
 40
14.7251855042632
 41
292.3757931048791
 71
     1
 72
     5
  1
{\fSimSun|b0|i0|c134|p2;\C1;注：图纸上标注尺寸不用印刷}
  7
样式 8
 73
     1
 44
1.0
1001
ACAD
1000
MTEXTBEGIN
1070
    73
1070
     1
1070
    44
1040
1.0
1070
    74
1070
     0
1000
MTEXTEND
  0
LINE
  5
5A98
330
1F
100
AcDbEntity
  8
粗实线
100
AcDbLine
 10
913.8354316678723
 20
716.9489698355792
 30
0.0
 11
913.8354316678688
 21
716.9489698355782
 31
0.0
  0
LINE
  5
5A9B
330
1F
100
AcDbEntity
  8
粗实线
100
AcDbLine
 10
913.8354316678723
 20
716.948969841178
 30
0.0
 11
913.8354316678688
 21
716.9489698411771
 31
0.0
  0
LWPOLYLINE
  5
5B7D
330
1F
100
AcDbEntity
  8
虚线
 48
2.0
100
AcDbPolyline
 90
       15
 70
     0
 43
0.0
 10
1086.684325787902
 20
311.9496097043907
 10
697.1885476034267
 20
311.9491985511477
 42
-0.0073443860987178
 10
550.3245883127278
 20
314.1062560553828
 42
-0.401506666454908
 10
472.682311905663
 20
392.9355243474639
 42
-0.0118230393731756
 10
474.9145738109182
 20
629.3527246065746
 42
-0.3451826808364433
 10
593.8272552586913
 20
771.151227519008
 42
-0.1044788971246308
 10
800.528729300719
 20
771.1512275190155
 42
-0.138226697416843
 10
872.6034987727357
 20
733.3608695468555
 42
0.1917046078411735
 10
913.8354316679087
 20
716.948969835578
 10
1086.677991984869
 20
716.9487873823063
 42
-0.0046791227296576
 10
1142.823769138868
 20
716.4233499196834
 42
-0.3961267683641996
 10
1216.349007091354
 20
644.6929739242806
 42
-0.0217175371504771
 10
1216.349007091354
 20
384.2054231573977
 42
-0.3961267683641997
 10
1142.823769140777
 20
312.4750471603587
 42
-0.0046785949011061
 10
1086.684325787902
 20
311.9496097043907
 42
0.0046785949011061
  0
DIMENSION
  5
5D40
330
1F
100
AcDbEntity
  8
标注
100
AcDbDimension
  2
*D104
 10
1309.783890826545
 20
311.9491985511477
 30
0.0
 11
1309.783890826545
 21
514.448992966727
 31
0.0
 70
   160
  1
{\fArial|b0|i0|c0|p34;<>}
 71
     5
 42
404.9995888311586
  3
英寸
100
AcDbAlignedDimension
 13
1247.283890826545
 23
716.9487873823063
 33
0.0
 14
1242.283890826546
 24
311.9491985511477
 34
0.0
 50
90.0
100
AcDbRotatedDimension
1001
ACAD
1000
DSTYLE
1002
{
1070
    41
1040
8.0
1002
}
  0
LWPOLYLINE
  5
5DD6
330
1F
100
AcDbEntity
  8
粗实线
100
AcDbPolyline
 90
       15
 70
     0
 43
0.0
 10
1086.684332543766
 20
305.5496097043942
 10
697.1885543592914
 20
305.5491985511512
 42
-0.0073443860987177
 10
550.1366159556509
 20
307.7090170890033
 42
-0.401506666454908
 10
466.2829574347756
 20
392.8446268451076
 42
-0.0118230393731756
 10
468.5180766352787
 20
629.5644411199411
 42
-0.3451826808364435
 10
592.5043658248063
 20
777.4130134899364
 42
-0.1044788971246308
 10
801.8516187345896
 20
777.4130134899469
 42
-0.1382266974168429
 10
877.0015783707618
 20
738.010266910969
 42
0.1917046078411741
 10
913.8354384237638
 20
723.3489698355744
 10
1086.677998740733
 20
723.3487873823028
 42
-0.0046791227296575
 10
1142.943546812582
 20
722.8222289862765
 42
-0.3961267683641997
 10
1222.742972799259
 20
644.9708273499257
 42
-0.0217175371504771
 10
1222.742972799262
 20
383.9275697318342
 42
-0.3961267683641993
 10
1142.943546814567
 20
306.0761680937673
 42
-0.0046785949011059
 10
1086.68433929939
 20
305.5496097044044
 42
-0.0046785949011059
  0
LWPOLYLINE
  5
5DD7
330
1F
100
AcDbEntity
  8
虚线
 48
2.0
100
AcDbPolyline
 90
       14
 70
     1
 43
0.0
 10
1086.684315423434
 20
318.3496097043833
 10
697.188540847562
 20
318.3491985511441
 42
-0.0073443860987177
 10
550.5125606698059
 20
320.5034950217632
 42
-0.4015066664549083
 10
479.0816663765503
 20
393.0264218498202
 42
-0.0118230393731756
 10
481.3110709865577
 20
629.1410080932089
 42
-0.3451826808364436
 10
595.1501446925765
 20
764.8894415480796
 42
-0.1044788971246308
 10
799.2058398668481
 20
764.8894415480842
 42
-0.138226697416843
 10
868.2054191747097
 20
728.7114721827419
 42
0.1917046078411737
 10
913.8354249120537
 20
710.5489698355816
 10
1086.677985229004
 20
710.5487873823099
 42
-0.0046791227296575
 10
1142.703991465151
 20
710.0244708530908
 42
-0.3961267683641998
 10
1209.95504138345
 20
644.4151204986355
 42
-0.0217175371504771
 10
1209.955041383447
 20
384.4832765829611
 42
-0.3961267683641994
 10
1142.703991466987
 20
318.8739262269501
 42
-0.0046785946382879
  0
DIMENSION
  5
5E09
330
1F
100
AcDbEntity
  8
标注
100
AcDbDimension
  2
*D107
 10
472.1779922795658
 20
857.5000000000001
 30
0.0
 11
845.6777867007144
 21
857.5000000000001
 31
0.0
 70
   160
  1
{\fArial|b0|i0|c0|p34;<>}
 71
     5
 42
746.9995888422972
  3
英寸
100
AcDbAlignedDimension
 13
1219.177581121863
 23
776.5
 33
0.0
 14
472.1779922795658
 24
790.5
 34
0.0
100
AcDbRotatedDimension
1001
ACAD
1000
DSTYLE
1002
{
1070
    41
1040
8.0
1002
}
  0
DIMENSION
  5
5E6B
330
1F
100
AcDbEntity
  8
标注
100
AcDbDimension
  2
*D108
 10
1212.777581121863
 20
825.0
 30
0.0
 11
845.6777867007158
 21
825.0
 31
0.0
 70
   160
  1
{\fArial|b0|i0|c0|p34;<>}
 71
     5
 42
734.1995888422952
  3
英寸
100
AcDbAlignedDimension
 13
478.5779922795682
 23
792.0
 33
0.0
 14
1212.777581121863
 24
776.5
 34
0.0
100
AcDbRotatedDimension
1001
ACAD
1000
DSTYLE
1002
{
1070
    41
1040
8.0
1002
}
  0
DIMENSION
  5
5EBB
330
1F
100
AcDbEntity
  8
标注
100
AcDbDimension
  2
*D109
 10
465.7779922795635
 20
889.0
 30
0.0
 11
845.6777867007126
 21
889.0
 31
0.0
 70
   160
  1
{\fArial|b0|i0|c0|p34;<>}
 71
     5
 42
759.7995888422984
  3
英寸
100
AcDbAlignedDimension
 13
1225.577581121862
 23
776.5
 33
0.0
 14
465.7779922795635
 24
789.5
 34
0.0
100
AcDbRotatedDimension
1001
ACAD
1000
DSTYLE
1002
{
1070
    41
1040
8.0
1002
}
  0
DIMENSION
  5
5F1E
330
1F
100
AcDbEntity
  8
标注
100
AcDbDimension
  2
*D110
 10
395.5889961398489
 20
311.9491985400064
 30
0.0
 11
383.2315609420316
 21
546.9491985399957
 31
0.0
 70
    32
  1
{\fArial|b0|i0|c0|p34;<>}
 71
     5
 42
469.9999999999786
  3
英寸
100
AcDbAlignedDimension
 13
458.4999999999999
 23
781.9491985399849
 33
0.0
 14
464.5
 24
311.9491985400064
 34
0.0
 50
90.0
100
AcDbRotatedDimension
1001
ACAD
1000
DSTYLE
1002
{
1070
    41
1040
8.0
1002
}
  0
DIMENSION
  5
5F6E
330
1F
100
AcDbEntity
  8
标注
100
AcDbDimension
  2
*D111
 10
425.0
 20
318.3491985400114
 30
0.0
 11
425.0
 21
546.9491985399984
 31
0.0
 70
   160
  1
{\fArial|b0|i0|c0|p34;<>}
 71
     5
 42
457.1999999999743
  3
英寸
100
AcDbAlignedDimension
 13
459.0
 23
775.5491985399857
 33
0.0
 14
464.5
 24
318.3491985400114
 34
0.0
 50
90.0
100
AcDbRotatedDimension
1001
ACAD
1000
DSTYLE
1002
{
1070
    41
1040
8.0
1002
}
  0
DIMENSION
  5
5F88
330
1F
100
AcDbEntity
  8
标注
100
AcDbDimension
  2
*D112
 10
361.5
 20
788.3491985399842
 30
0.0
 11
349.2462482946793
 21
546.9491985399939
 31
0.0
 70
    32
  1
{\fArial|b0|i0|c0|p34;<>}
 71
     5
 42
482.7999999999811
  3
英寸
100
AcDbAlignedDimension
 13
464.5
 23
305.5491985400031
 33
0.0
 14
458.0
 24
788.3491985399842
 34
0.0
 50
90.0
100
AcDbRotatedDimension
1001
ACAD
1000
DSTYLE
1002
{
1070
    41
1040
8.0
1002
}
  0
DIMENSION
  5
6005
330
1F
100
AcDbEntity
  8
标注
100
AcDbDimension
  2
*D113
 10
1338.5
 20
305.5496097044044
 30
0.0
 11
1338.5
 21
514.4491985433533
 31
0.0
 70
   160
  1
{\fArial|b0|i0|c0|p34;<>}
 71
     5
 42
417.7991776778979
  3
英寸
100
AcDbAlignedDimension
 13
1247.5
 23
723.3487873823023
 33
0.0
 14
1242.5
 24
305.5496097044044
 34
0.0
 50
90.0
100
AcDbRotatedDimension
1001
ACAD
1000
DSTYLE
1002
{
1070
    41
1040
8.0
1002
}
  0
DIMENSION
  5
601F
330
1F
100
AcDbEntity
  8
标注
100
AcDbDimension
  2
*D114
 10
1283.5
 20
318.3496097043833
 30
0.0
 11
1283.5
 21
514.4491985433464
 31
0.0
 70
   160
  1
{\fArial|b0|i0|c0|p34;<>}
 71
     5
 42
392.1991776779265
  3
英寸
100
AcDbAlignedDimension
 13
1247.0
 23
710.5487873823099
 33
0.0
 14
1242.0
 24
318.3496097043833
 34
0.0
 50
90.0
100
AcDbRotatedDimension
1001
ACAD
1000
DSTYLE
1002
{
1070
    41
1040
8.0
1002
}
  0
SOLID
  5
60B7
330
1F
100
AcDbEntity
  8
粗实线
100
AcDbTrace
 10
622.4401298688367
 20
324.9731667724871
 30
0.0
 11
623.8426397661583
 21
318.8877242715379
 31
0.0
 12
620.5422841873055
 22
324.1893558597902
 32
0.0
 13
620.5422841873055
 23
324.1893558597902
 33
0.0
1001
ACAD
1000
DSTYLE
1002
{
1070
    41
1040
8.0
1070
   147
1040
3.0
1070
    77
1070
     0
1002
}
  0
MTEXT
  5
60B8
330
1F
100
AcDbEntity
  8
粗实线
100
AcDbMText
 10
579.518531650408
 20
347.0060010339647
 30
0.0
 40
5.6
 41
214.8192584769648
 71
     1
 72
     5
  1
{\fTahoma|b0|i0|c0|p34;Use this line for FLUSH MOUNT CUT.}
  7
样式 8
 73
     1
 44
1.0
1001
ACAD
1000
MTEXTBEGIN
1070
    73
1070
     1
1070
    44
1040
1.0
1070
    74
1070
     0
1000
MTEXTEND
  0
LINE
  5
60B9
330
1F
100
AcDbEntity
  8
0
100
AcDbLine
 10
621.7049736406202
 20
324.0636670393568
 30
0.0
 11
615.7359205201405
 21
338.5165682481046
 31
0.0
  0
HATCH
  5
60BA
330
1F
100
AcDbEntity
  8
剖切线
100
AcDbHatch
 10
0.0
 20
0.0
 30
0.0
210
0.0
220
0.0
230
1.0
  2
ANSI37
 70
     0
 71
     0
 91
        2
 92
        7
 72
     0
 73
     1
 93
        6
 10
1013.814606622662
 20
622.4996667867854
 10
1012.084878622656
 20
622.4996667867854
 10
1012.084878622656
 20
604.2251394858431
 10
1010.754318622654
 20
604.2251394858431
 10
1010.754318622654
 20
602.8945794858409
 10
1013.814606622662
 20
602.8945794858409
 97
        0
 92
        7
 72
     0
 73
     1
 93
        6
 10
1024.059918622653
 20
622.4996667867854
 10
1022.330190622662
 20
622.4996667867854
 10
1022.330190622662
 20
602.8945794858409
 10
1025.390478622655
 20
602.8945794858409
 10
1025.390478622655
 20
604.2251394858431
 10
1024.059918622653
 20
604.2251394858431
 97
        0
 75
     0
 76
     1
 52
0.0
 41
0.2661120000000001
 77
     0
 78
     2
 53
45.0
 43
2680.370870370829
 44
-2963.110227858699
 45
-0.5974384792217098
 46
0.5974384792245111
 79
     0
 53
135.0
 43
2680.370870370829
 44
-2963.110227858699
 45
-0.5974384792217098
 46
-0.5974384792245111
 79
     0
 47
0.0875911827022286
 98
        2
 10
1013.281652755992
 20
616.1883183544524
 10
1023.195486277574
 20
617.0041351301952
  0
HATCH
  5
60BB
330
1F
100
AcDbEntity
  8
剖切线
100
AcDbHatch
 10
0.0
 20
0.0
 30
0.0
210
0.0
220
0.0
230
1.0
  2
ANSI31
 70
     0
 71
     1
 91
        1
 92
        5
 93
        8
 72
     1
 10
1012.084878622656
 20
604.225139485832
 11
1012.084878622656
 21
622.4996667867634
 72
     1
 10
1012.084878622656
 20
622.4996667867634
 11
1024.059918622657
 21
622.4996667867634
 72
     1
 10
1024.059918622657
 20
622.4996667867634
 11
1024.059918622657
 21
604.2251394858322
 72
     1
 10
1024.059918622657
 20
604.2251394858322
 11
1057.781660381432
 21
604.2251394858322
 72
     1
 10
1057.781660381432
 20
604.2251394858322
 11
1057.781660381432
 21
637.4891394858277
 72
     1
 10
1057.781660381432
 20
637.4891394858277
 11
960.2143714017621
 21
637.4891394858277
 72
     4
 94
        3
 73
     0
 74
     0
 95
       11
 96
        7
 40
0.0
 40
0.0
 40
0.0
 40
0.0
 40
9.772388244965535
 40
19.74420542844685
 40
28.87401972480266
 40
35.16651116270554
 40
35.16651116270554
 40
35.16651116270554
 40
35.16651116270554
 10
960.214371401762
 20
637.4891394858277
 10
962.1670656159471
 20
634.4739607223003
 10
966.1123034367706
 20
628.3820712661841
 10
958.471632749606
 20
619.2645612603833
 10
964.4392419399112
 20
610.722401739122
 10
961.4386500112638
 20
606.1079094133841
 10
960.214371401762
 20
604.2251394858322
 72
     1
 10
960.2143714017618
 20
604.2251394858322
 11
1012.084878622656
 21
604.225139485832
 97
        8
330
60D7
330
60CD
330
60BE
330
60C1
330
60C0
330
60ED
330
60BC
330
60D9
 75
     0
 76
     1
 52
0.0
 41
1.1088
 77
     0
 78
     1
 53
44.9999999999263
 43
-10133.42960864795
 44
25429.15381307262
 45
-2.489326996760392
 46
2.489326996757591
 79
     0
 47
0.514725256801631
 98
        1
 10
982.0589508274498
 20
614.3807600797008
  0
LINE
  5
60BC
102
{ACAD_REACTORS
330
60BB
102
}
330
1F
100
AcDbEntity
  8
粗实线
100
AcDbLine
 10
960.214371401762
 20
604.2251394858322
 30
0.0
 11
1012.084878622656
 21
604.2251394858322
 31
0.0
  0
HATCH
  5
60BD
330
1F
100
AcDbEntity
  8
剖切线
100
AcDbHatch
 10
0.0
 20
0.0
 30
0.0
210
0.0
220
0.0
230
1.0
  2
ANSI31
 70
     0
 71
     0
 91
        1
 92
        7
 72
     1
 73
     1
 93
        9
 10
1044.252209967657
 20
604.2251394858322
 42
0.0
 10
1042.305315671521
 20
604.2251394858322
 42
0.0
 10
1042.305315671525
 20
602.9952954858345
 42
0.0
 10
1061.473984759977
 20
602.9931394858322
 42
-0.4014906669060268
 10
1064.089493004077
 20
600.4893350419552
 42
0.0
 10
1065.829993035284
 20
560.67475795282
 42
0.0
 10
1067.052210539135
 20
560.8762687239395
 42
0.0
 10
1065.320320413069
 20
600.543074127192
 42
0.4014906669060268
 10
1061.473984759977
 20
604.2251394858322
 42
0.0
 97
        0
 75
     0
 76
     1
 52
90.0
 41
0.7700000000000001
 77
     0
 78
     1
 53
135.0000000001474
 43
-15286.2018446976
 44
26328.06207082348
 45
-1.728699303305439
 46
-1.72869930330824
 79
     0
 47
0.1745883849316779
 98
        1
 10
1055.092044842018
 20
603.9153388140875
  0
LINE
  5
60BE
102
{ACAD_REACTORS
330
60BB
102
}
330
1F
100
AcDbEntity
  8
粗实线
100
AcDbLine
 10
1024.059918622657
 20
604.2251394858322
 30
0.0
 11
1057.781660381432
 21
604.2251394858322
 31
0.0
  0
LINE
  5
60BF
330
1F
100
AcDbEntity
  8
粗实线
100
AcDbLine
 10
1022.330190622662
 20
602.89457948583
 30
0.0
 11
1025.390478622655
 21
602.89457948583
 31
0.0
  0
LINE
  5
60C0
102
{ACAD_REACTORS
330
60BB
102
}
330
1F
100
AcDbEntity
  8
粗实线
100
AcDbLine
 10
960.214371401762
 20
637.4891394858277
 30
0.0
 11
1057.781660381432
 21
637.4891394858277
 31
0.0
  0
LINE
  5
60C1
102
{ACAD_REACTORS
330
60BB
102
}
330
1F
100
AcDbEntity
  8
粗实线
100
AcDbLine
 10
1057.781660381432
 20
637.4891394858277
 30
0.0
 11
1057.781660381432
 21
604.2251394858322
 31
0.0
  0
HATCH
  5
60C2
330
1F
100
AcDbEntity
  8
剖切线
100
AcDbHatch
 10
0.0
 20
0.0
 30
0.0
210
0.0
220
0.0
230
1.0
  2
ANSI31
 70
     0
 71
     0
 91
        2
 92
        7
 72
     0
 73
     1
 93
        6
 10
1010.721054622659
 20
592.8120495036491
 10
1010.721054622656
 20
587.4898095036623
 10
1012.417518622656
 20
587.4898095036623
 10
1012.417518622656
 20
589.0864815036657
 10
1018.072398622658
 20
589.0864815036657
 10
1018.072398622658
 20
592.8120495036491
 97
        0
 92
        7
 72
     0
 73
     1
 93
        6
 10
1018.072398622658
 20
592.8120495036491
 10
1018.072398622658
 20
589.0864815036657
 10
1023.727278622653
 20
589.0864815036657
 10
1023.727278622653
 20
587.4898095036623
 10
1025.423742622654
 20
587.4898095036623
 10
1025.423742622654
 20
592.8120495036491
 97
        0
 75
     0
 76
     1
 52
90.0
 41
0.6652800000000002
 77
     0
 78
     1
 53
135.0
 43
4258.589151668689
 44
2862.623986892773
 45
-1.493596198055675
 46
-1.493596198055675
 79
     0
 47
0.1137768334985027
 98
        2
 10
1012.984698425687
 20
592.5996874453231
 10
1020.402657688599
 20
591.8421827272977
  0
LINE
  5
60C3
330
1F
100
AcDbEntity
  8
粗实线
 48
0.1
100
AcDbLine
 10
1025.423742622654
 20
587.4898095036406
 30
0.0
 11
1010.721054622656
 21
587.4898095036406
 31
0.0
  0
LINE
  5
60C4
330
1F
100
AcDbEntity
  8
粗实线
 48
0.1
100
AcDbLine
 10
1023.727278622656
 20
589.0864815036438
 30
0.0
 11
1012.417518622656
 21
589.0864815036438
 31
0.0
  0
LINE
  5
60C5
330
1F
100
AcDbEntity
  8
粗实线
 48
0.1
100
AcDbLine
 10
1025.423742622654
 20
592.8120495036491
 30
0.0
 11
1010.721054622656
 21
592.8120495036491
 31
0.0
  0
LINE
  5
60C6
330
1F
100
AcDbEntity
  8
粗实线
 48
0.1
100
AcDbLine
 10
1021.39879862266
 20
622.0843695036419
 30
0.0
 11
1014.745998622653
 21
622.0843695036419
 31
0.0
  0
LINE
  5
60C7
330
1F
100
AcDbEntity
  8
粗实线
 48
0.1
100
AcDbLine
 10
1022.064078622654
 20
621.4190895036518
 30
0.0
 11
1014.080718622659
 21
621.4190895036518
 31
0.0
  0
LINE
  5
60C8
330
1F
100
AcDbEntity
  8
中心线
 48
0.1
100
AcDbLine
 10
1018.072398622655
 20
624.3913143279897
 30
0.0
 11
1018.072398622655
 21
584.4370641999957
 31
0.0
  0
LINE
  5
60C9
330
1F
100
AcDbEntity
  8
粗实线
 48
0.1
100
AcDbLine
 10
1014.080718622659
 20
621.4190895036518
 30
0.0
 11
1014.080718622659
 21
592.8120495036491
 31
0.0
  0
LINE
  5
60CA
330
1F
100
AcDbEntity
  8
细实线
 48
0.1
100
AcDbLine
 10
1014.745998622653
 20
622.0843695036419
 30
0.0
 11
1014.745998622653
 21
592.8120495036491
 31
0.0
  0
LINE
  5
60CB
330
1F
100
AcDbEntity
  8
粗实线
 48
0.1
100
AcDbLine
 10
1022.064078622654
 20
621.4190895036518
 30
0.0
 11
1022.064078622654
 21
592.8120495036491
 31
0.0
  0
LINE
  5
60CC
330
1F
100
AcDbEntity
  8
粗实线
 48
0.1
100
AcDbLine
 10
1022.330190622662
 20
622.4996667867635
 30
0.0
 11
1022.330190622662
 21
602.89457948583
 31
0.0
  0
LINE
  5
60CD
102
{ACAD_REACTORS
330
60BB
102
}
330
1F
100
AcDbEntity
  8
粗实线
 48
0.1
100
AcDbLine
 10
1024.059918622657
 20
622.4996667867635
 30
0.0
 11
1024.059918622657
 21
604.2251394858322
 31
0.0
  0
LINE
  5
60CE
330
1F
100
AcDbEntity
  8
粗实线
 48
0.1
100
AcDbLine
 10
1025.390478622655
 20
604.2251394858322
 30
0.0
 11
1025.390478622655
 21
602.89457948583
 31
0.0
  0
LINE
  5
60CF
330
1F
100
AcDbEntity
  8
细实线
 48
0.1
100
AcDbLine
 10
1021.39879862266
 20
622.0843695036419
 30
0.0
 11
1021.39879862266
 21
592.8120495036491
 31
0.0
  0
LINE
  5
60D0
330
1F
100
AcDbEntity
  8
粗实线
 48
0.1
100
AcDbLine
 10
1012.417518622656
 20
589.0864815036438
 30
0.0
 11
1012.417518622656
 21
587.4898095036406
 31
0.0
  0
LINE
  5
60D1
330
1F
100
AcDbEntity
  8
粗实线
 48
0.1
100
AcDbLine
 10
1023.727278622656
 20
589.0864815036438
 30
0.0
 11
1023.727278622656
 21
587.4898095036406
 31
0.0
  0
LINE
  5
60D2
330
1F
100
AcDbEntity
  8
粗实线
 48
0.1
100
AcDbLine
 10
1010.721054622656
 20
592.8120495036491
 30
0.0
 11
1010.721054622656
 21
587.4898095036406
 31
0.0
  0
LINE
  5
60D3
330
1F
100
AcDbEntity
  8
粗实线
 48
0.1
100
AcDbLine
 10
1025.423742622654
 20
592.8120495036491
 30
0.0
 11
1025.423742622654
 21
587.4898095036406
 31
0.0
  0
LINE
  5
60D4
330
1F
100
AcDbEntity
  8
粗实线
 48
0.1
100
AcDbLine
 10
1014.745998622653
 20
622.0843695036419
 30
0.0
 11
1014.080718622659
 21
621.4190895036518
 31
0.0
  0
LINE
  5
60D5
330
1F
100
AcDbEntity
  8
粗实线
 48
0.1
100
AcDbLine
 10
1021.39879862266
 20
622.0843695036419
 30
0.0
 11
1022.064078622654
 21
621.4190895036518
 31
0.0
  0
LINE
  5
60D6
330
1F
100
AcDbEntity
  8
粗实线
100
AcDbLine
 10
1013.814606622662
 20
602.89457948583
 30
0.0
 11
1010.754318622654
 21
602.89457948583
 31
0.0
  0
LINE
  5
60D7
102
{ACAD_REACTORS
330
60BB
102
}
330
1F
100
AcDbEntity
  8
粗实线
 48
0.1
100
AcDbLine
 10
1012.084878622656
 20
622.4996667867635
 30
0.0
 11
1024.059918622657
 21
622.4996667867635
 31
0.0
  0
LINE
  5
60D8
330
1F
100
AcDbEntity
  8
粗实线
 48
0.1
100
AcDbLine
 10
1013.814606622662
 20
622.4996667867635
 30
0.0
 11
1013.814606622662
 21
602.89457948583
 31
0.0
  0
LINE
  5
60D9
102
{ACAD_REACTORS
330
60BB
102
}
330
1F
100
AcDbEntity
  8
粗实线
 48
0.1
100
AcDbLine
 10
1012.084878622656
 20
622.4996667867635
 30
0.0
 11
1012.084878622656
 21
604.2251394858322
 31
0.0
  0
LINE
  5
60DA
330
1F
100
AcDbEntity
  8
粗实线
 48
0.1
100
AcDbLine
 10
1010.754318622654
 20
604.2251394858322
 30
0.0
 11
1010.754318622654
 21
602.89457948583
 31
0.0
  0
LINE
  5
60DB
330
1F
100
AcDbEntity
  8
中心线
 48
0.1
100
AcDbLine
 10
1018.072398622655
 20
585.1781771318528
 30
0.0
 11
1018.072398622655
 21
610.9533500643083
 31
0.0
  0
HATCH
  5
60DC
330
1F
100
AcDbEntity
  8
剖切线
100
AcDbHatch
 10
0.0
 20
0.0
 30
0.0
210
0.0
220
0.0
230
1.0
  2
ANSI31
 70
     0
 71
     0
 91
        1
 92
        7
 72
     1
 73
     1
 93
        8
 10
993.471205076843
 20
596.5758776638176
 42
-0.3003703345698272
 10
988.8217863827266
 20
600.1515774010731
 42
0.0
 10
987.4994906504761
 20
603.991803050183
 42
0.0
 10
984.9833522585832
 20
603.1254271229954
 42
0.0
 10
986.3056479908264
 20
599.2852014739001
 42
0.3003703345697881
 10
993.2797760320026
 20
593.9216518680004
 42
0.0070565129482686
 10
1006.101932866892
 20
593.1786123713027
 42
0.0
 10
1006.148391999118
 20
595.8402542737967
 42
-0.0070177978545288
 97
        0
 75
     0
 76
     1
 52
-0.9999999998692691
 41
0.6652800000000002
 77
     0
 78
     1
 53
43.99999999980776
 43
3232.320602188527
 44
-2814.762640495006
 45
-1.467301868219583
 46
1.519435564022496
 79
     0
 47
0.1104702278856199
 98
        1
 10
998.4192682844405
 20
595.7644894632685
  0
LINE
  5
60DD
330
1F
100
AcDbEntity
  8
粗实线
100
AcDbLine
 10
1006.101932866892
 20
593.1786123712917
 30
0.0
 11
1006.148391999115
 21
595.8402542737822
 31
0.0
  0
LINE
  5
60DE
330
1F
100
AcDbEntity
  8
粗实线
100
AcDbLine
 10
1030.048365153703
 20
592.7606258409286
 30
0.0
 11
1030.094824285923
 21
595.4222677434263
 31
0.0
  0
ARC
  5
60DF
330
1F
100
AcDbEntity
  8
粗实线
100
AcDbCircle
 10
1026.014142699601
 20
1047.794262953062
 30
0.0
 40
452.3904
100
AcDbArc
 50
265.8748354479506
 51
268.4884423862466
  0
ARC
  5
60E0
330
1F
100
AcDbEntity
  8
粗实线
100
AcDbCircle
 10
1026.014142699601
 20
1047.794262953062
 30
0.0
 40
452.3904
100
AcDbArc
 50
269.4997133532673
 51
272.0817910569315
  0
ARC
  5
60E1
330
1F
100
AcDbEntity
  8
粗实线
100
AcDbCircle
 10
993.8540631665201
 20
601.8843292554374
 30
0.0
 40
5.322240000000001
100
AcDbArc
 50
198.9999999997955
 51
265.8748354479506
  0
ARC
  5
60E2
330
1F
100
AcDbEntity
  8
粗实线
100
AcDbCircle
 10
993.8540631665201
 20
601.8843292554374
 30
0.0
 40
7.983360000000002
100
AcDbArc
 50
198.9999999997955
 51
265.8748354479506
  0
ARC
  5
60E3
330
1F
100
AcDbEntity
  8
粗实线
100
AcDbCircle
 10
1026.014142699601
 20
1047.794262953062
 30
0.0
 40
455.0515200000001
100
AcDbArc
 50
265.8748354479506
 51
272.0817910569315
  0
LINE
  5
60E4
330
1F
100
AcDbEntity
  8
粗实线
100
AcDbLine
 10
987.4994906504761
 20
603.9918030501685
 30
0.0
 11
988.8217863827266
 21
600.1515774010622
 31
0.0
  0
LINE
  5
60E5
330
1F
100
AcDbEntity
  8
粗实线
100
AcDbLine
 10
984.9833522585795
 20
603.1254271229736
 30
0.0
 11
986.3056479908264
 21
599.2852014738746
 31
0.0
  0
LINE
  5
60E6
330
1F
100
AcDbEntity
  8
粗实线
100
AcDbLine
 10
984.9833522585795
 20
603.1254271229736
 30
0.0
 11
987.4994906504761
 21
603.9918030501685
 31
0.0
  0
ARC
  5
60E7
330
1F
100
AcDbEntity
  8
粗实线
100
AcDbCircle
 10
1042.59259892047
 20
601.0335949493492
 30
0.0
 40
5.322240000000001
100
AcDbArc
 50
272.1251645521351
 51
339.0000000002083
  0
ARC
  5
60E8
330
1F
100
AcDbEntity
  8
粗实线
100
AcDbCircle
 10
1042.59259892047
 20
601.0335949493492
 30
0.0
 40
7.983360000000002
100
AcDbArc
 50
272.1251645521351
 51
339.0000000002095
  0
LINE
  5
60E9
330
1F
100
AcDbEntity
  8
粗实线
100
AcDbLine
 10
1049.01685017738
 20
602.9180135454116
 30
0.0
 11
1047.561338009593
 21
599.126274713566
 31
0.0
  0
LINE
  5
60EA
330
1F
100
AcDbEntity
  8
粗实线
100
AcDbLine
 10
1051.501219721944
 20
601.9643534275092
 30
0.0
 11
1050.045707554152
 21
598.1726145956745
 31
0.0
  0
LINE
  5
60EB
330
1F
100
AcDbEntity
  8
粗实线
100
AcDbLine
 10
1051.501219721944
 20
601.9643534275092
 30
0.0
 11
1049.01685017738
 21
602.9180135454116
 31
0.0
  0
HATCH
  5
60EC
330
1F
100
AcDbEntity
  8
剖切线
100
AcDbHatch
 10
0.0
 20
0.0
 30
0.0
210
0.0
220
0.0
230
1.0
  2
ANSI31
 70
     0
 71
     0
 91
        1
 92
        7
 72
     1
 73
     1
 93
        8
 10
1030.094824285926
 20
595.4222677434263
 42
0.0070177978545289
 10
1042.789961494531
 20
595.7150155683629
 42
0.3003703345697906
 10
1047.561338009596
 20
599.126274713566
 42
0.0
 10
1049.01685017738
 20
602.9180135454225
 42
0.0
 10
1051.501219721944
 20
601.9643534275201
 42
0.0
 10
1050.045707554145
 20
598.1726145956854
 42
-0.3003703345697732
 10
1042.88864278156
 20
593.0557258778754
 42
-0.0070565129482688
 10
1030.048365153703
 20
592.7606258409177
 42
0.0
 97
        0
 75
     0
 76
     1
 52
-0.9999999998692691
 41
0.6652800000000002
 77
     0
 78
     1
 53
43.99999999980776
 43
3232.320602188527
 44
-2814.762640495006
 45
-1.467301868219583
 46
1.519435564022496
 79
     0
 47
0.1104702278856199
 98
        1
 10
1037.816595473519
 20
595.0768065591764
  0
SPLINE
  5
60ED
102
{ACAD_REACTORS
330
60BB
102
}
330
1F
100
AcDbEntity
  8
细实线
100
AcDbSpline
210
0.0
220
0.0
230
1.0
 70
     8
 71
     3
 72
    11
 73
     7
 74
     5
 42
0.0000000001
 43
0.0000000001
 44
0.0000000001
 40
0.0
 40
0.0
 40
0.0
 40
0.0
 40
9.772388244965535
 40
19.74420542844685
 40
28.87401972480266
 40
35.16651116270554
 40
35.16651116270554
 40
35.16651116270554
 40
35.16651116270554
 10
960.214371401762
 20
637.4891394858277
 30
0.0
 10
962.1670656159469
 20
634.4739607223004
 30
0.0
 10
966.1123034367703
 20
628.3820712661844
 30
0.0
 10
958.4716327496062
 20
619.2645612603833
 30
0.0
 10
964.439241939911
 20
610.722401739122
 30
0.0
 10
961.438650011264
 20
606.1079094133841
 30
0.0
 10
960.214371401762
 20
604.2251394858322
 30
0.0
 11
960.214371401762
 21
637.4891394858277
 31
0.0
 11
963.8260393108613
 21
628.4086424220804
 31
0.0
 11
960.8496900748942
 21
618.8913695371447
 31
0.0
 11
962.7843450357177
 21
609.9688912228812
 31
0.0
 11
960.214371401762
 21
604.2251394858322
 31
0.0
  0
LINE
  5
60EE
330
1F
100
AcDbEntity
  8
粗实线
 62
     0
100
AcDbLine
 10
1067.052210539143
 20
560.8762687239395
 30
0.0
 11
1065.320320413069
 21
600.543074127192
 31
0.0
  0
LINE
  5
60EF
330
1F
100
AcDbEntity
  8
粗实线
 62
     0
100
AcDbLine
 10
1065.829993035284
 20
560.67475795282
 30
0.0
 11
1064.089493004077
 21
600.4893350419552
 31
0.0
  0
LINE
  5
60F0
330
1F
100
AcDbEntity
  8
粗实线
 62
     0
100
AcDbLine
 10
1044.252209967657
 20
604.2251394858322
 30
0.0
 11
1061.473984759977
 21
604.2251394858322
 31
0.0
  0
ARC
  5
60F1
330
1F
100
AcDbEntity
  8
粗实线
 62
     0
100
AcDbCircle
 10
1061.473984759977
 20
600.37513948583
 30
0.0
 40
3.850000000000001
100
AcDbArc
 50
2.50000000017063
 51
90.0
  0
ARC
  5
60F2
330
1F
100
AcDbEntity
  8
粗实线
 62
     0
100
AcDbCircle
 10
1061.473984759977
 20
600.37513948583
 30
0.0
 40
2.618
100
AcDbArc
 50
2.49999999996304
 51
90.0
  0
LINE
  5
60F3
330
1F
100
AcDbEntity
  8
粗实线
 62
     0
100
AcDbLine
 10
1042.305315671521
 20
602.9952954858417
 30
0.0
 11
1061.473984759977
 21
602.9931394858322
 31
0.0
  0
LINE
  5
60F4
330
1F
100
AcDbEntity
  8
粗实线
 62
     0
100
AcDbLine
 10
1061.473984759977
 20
604.2251394858322
 30
0.0
 11
1079.206020320831
 21
604.2251394858322
 31
0.0
  0
LINE
  5
60F5
330
1F
100
AcDbEntity
  8
粗实线
100
AcDbLine
 10
1042.305315671521
 20
604.2251394858322
 30
0.0
 11
1042.305315671521
 21
602.9952954858417
 31
0.0
  0
LINE
  5
60F6
330
1F
100
AcDbEntity
  8
粗实线
100
AcDbLine
 10
1064.089493004077
 20
603.200314989237
 30
0.0
 11
1086.352948698557
 21
623.6731316645528
 31
0.0
  0
LINE
  5
60F7
330
1F
100
AcDbEntity
  8
粗实线
100
AcDbLine
 10
1086.352948698557
 20
623.6731316645528
 30
0.0
 11
1088.006004940482
 21
623.6731316645528
 31
0.0
  0
LINE
  5
60F8
330
1F
100
AcDbEntity
  8
粗实线
100
AcDbLine
 10
1008.9980158916
 20
637.4891394858277
 30
0.0
 11
998.6230080139103
 21
649.4692283829608
 31
0.0
  0
LINE
  5
60F9
330
1F
100
AcDbEntity
  8
粗实线
100
AcDbLine
 10
998.6230080139103
 20
649.4692283829608
 30
0.0
 11
995.1651083079523
 21
649.4692283829608
 31
0.0
  0
LINE
  5
60FA
330
1F
100
AcDbEntity
  8
粗实线
100
AcDbLine
 10
993.2797760321628
 20
593.9216518679822
 30
0.0
 11
983.1908945516371
 21
580.8672165026691
 31
0.0
  0
LINE
  5
60FB
330
1F
100
AcDbEntity
  8
粗实线
100
AcDbLine
 10
983.1908945516371
 20
580.8672165026691
 30
0.0
 11
978.5050182947925
 21
580.8672165026691
 31
0.0
  0
LINE
  5
60FC
330
1F
100
AcDbEntity
  8
粗实线
100
AcDbLine
 10
1011.341770240757
 20
588.0907192510167
 30
0.0
 11
1012.306915477893
 21
568.6995743081424
 31
0.0
  0
LINE
  5
60FD
330
1F
100
AcDbEntity
  8
粗实线
100
AcDbLine
 10
1014.901826055218
 20
568.6995743081424
 30
0.0
 11
1012.306915477893
 21
568.6995743081424
 31
0.0
  0
MTEXT
  5
60FE
330
1F
100
AcDbEntity
  8
粗实线
100
AcDbMText
 10
1090.108261664965
 20
627.9528772252669
 30
0.0
 40
6.160000000000001
 41
639.645506911315
 71
     1
 72
     5
  1
{\fTahoma|b0|i0|c0|p34;SINK}
 73
     1
 44
1.0
1001
ACAD
1000
MTEXTBEGIN
1070
    73
1070
     1
1070
    44
1040
1.0
1070
    74
1070
     0
1000
MTEXTEND
  0
MTEXT
  5
60FF
330
1F
100
AcDbEntity
  8
粗实线
100
AcDbMText
 10
940.3842309307037
 20
653.6357611089952
 30
0.0
 40
6.160000000000001
 41
639.645506911315
 71
     1
 72
     5
  1
{\fTahoma|b0|i0|c0|p34;COUNTERTOP}
 73
     1
 44
1.0
1001
ACAD
1000
MTEXTBEGIN
1070
    73
1070
     1
1070
    44
1040
1.0
1070
    74
1070
     0
1000
MTEXTEND
  0
MTEXT
  5
6100
330
1F
100
AcDbEntity
  8
粗实线
100
AcDbMText
 10
936.8064259406782
 20
584.1118409101691
 30
0.0
 40
6.160000000000001
 41
639.645506911315
 71
     1
 72
     5
  1
{\fTahoma|b0|i0|c0|p34;FASTENER}
 73
     1
 44
1.0
1001
ACAD
1000
MTEXTBEGIN
1070
    73
1070
     1
1070
    44
1040
1.0
1070
    74
1070
     0
1000
MTEXTEND
  0
MTEXT
  5
6101
330
1F
100
AcDbEntity
  8
粗实线
100
AcDbMText
 10
1016.09647254724
 20
572.7271691609566
 30
0.0
 40
6.160000000000001
 41
639.645506911315
 71
     1
 72
     5
  1
{\fTahoma|b0|i0|c0|p34;SCREWS}
 73
     1
 44
1.0
1001
ACAD
1000
MTEXTBEGIN
1070
    73
1070
     1
1070
    44
1040
1.0
1070
    74
1070
     0
1000
MTEXTEND
  0
MTEXT
  5
6102
102
{ACAD_XDICTIONARY
360
619F
102
}
330
1F
100
AcDbEntity
  8
粗实线
100
AcDbMText
 10
553.5377849603356
 20
547.6146881390523
 30
0.0
 40
7.700000000000001
 41
639.645506911315
 71
     1
 72
     5
  1
\fArial|b0|i0|c0|p34;Use outside line for reveal mount cut:\PSink rim is \U+00BC\U+201D revealed from the countertop opening.
 73
     1
 44
1.0
1001
ACAD
1000
MTEXTBEGIN
1070
    73
1070
     1
1070
    44
1040
1.0
1070
    74
1070
     0
1000
MTEXTEND
  0
MTEXT
  5
6103
330
1F
100
AcDbEntity
  8
粗实线
100
AcDbMText
 10
553.5377849603356
 20
504.2889918127002
 30
0.0
 40
7.700000000000001
 41
639.645506911315
 71
     1
 72
     5
  1
\fArial|b0|i0|c0|p34;Use middle line for flush mount cut:\PSink wall is flush to the edge of countertop opening.
 73
     1
 44
1.0
1001
ACAD
1000
MTEXTBEGIN
1070
    73
1070
     1
1070
    44
1040
1.0
1070
    74
1070
     0
1000
MTEXTEND
  0
MTEXT
  5
6104
102
{ACAD_XDICTIONARY
360
61A1
102
}
330
1F
100
AcDbEntity
  8
粗实线
100
AcDbMText
 10
553.5377849603356
 20
460.5110447293263
 30
0.0
 40
7.700000000000001
 41
639.645506911315
 71
     1
 72
     5
  1
\fArial|b0|i0|c0|p34;Use inside line for negative reveal mount cut:\PSink wall is covered \U+00BC\U+201D inside the edge of countertop opening.
 73
     1
 44
1.0
1001
ACAD
1000
MTEXTBEGIN
1070
    73
1070
     1
1070
    44
1040
1.0
1070
    74
1070
     0
1000
MTEXTEND
  0
MTEXT
  5
6105
330
1F
100
AcDbEntity
  8
粗实线
100
AcDbMText
 10
554.0377849603355
 20
414.0565139436112
 30
0.0
 40
7.700000000000001
 41
639.645506911315
 71
     1
 72
     5
  1
\fArial|b0|i0|c0|p34;Please check actual template against physical sink unit for most accurate cut.
 73
     1
 44
1.0
1001
ACAD
1000
MTEXTBEGIN
1070
    73
1070
     1
1070
    44
1040
1.0
1070
    74
1070
     0
1000
MTEXTEND
  0
ENDSEC
  0
SECTION
  2
OBJECTS
  0
DICTIONARY
  5
C
330
0
100
AcDbDictionary
281
     1
  3
ACAD_2007HEADERVARS_RT
350
6169
  3
ACAD_COLOR
350
3513
  3
ACAD_GROUP
350
D
  3
ACAD_IMAGE_DICT
350
4763
  3
ACAD_IMAGE_VARS
350
47EC
  3
ACAD_LAYOUT
350
1A
  3
ACAD_MATERIAL
350
350F
  3
ACAD_MLINESTYLE
350
17
  3
ACAD_PLOTSETTINGS
350
19
  3
ACAD_PLOTSTYLENAME
350
E
  3
ACAD_TABLESTYLE
350
E9
  3
ACAD_VISUALSTYLE
350
28
  3
AcDbVariableDictionary
350
366A
  3
DWGPROPS
350
6168
  0
DICTIONARY
  5
36E2
330
2
100
AcDbDictionary
280
     1
281
     1
  3
ACAD_LAYERSTATES
360
36E3
  0
DICTIONARY
  5
56DA
330
56D9
100
AcDbDictionary
280
     1
281
     1
  3
ADSK_XREC_LAYER_RECONCILED
360
56DB
  0
DICTIONARY
  5
5967
330
1F
100
AcDbDictionary
280
     1
281
     1
  3
ACAD_SORTENTS
360
5968
  0
IMAGEDEF_REACTOR
  5
4764
330
476F
100
AcDbRasterImageDefReactor
 90
        2
330
476F
  0
DICTIONARY
  5
6179
330
48FE
100
AcDbDictionary
280
     1
281
     1
  3
ACAD_MTEXT_RT
360
617A
  0
DICTIONARY
  5
617B
330
48FF
100
AcDbDictionary
280
     1
281
     1
  3
ACAD_MTEXT_RT
360
617C
  0
DICTIONARY
  5
617D
330
4900
100
AcDbDictionary
280
     1
281
     1
  3
ACAD_MTEXT_RT
360
617E
  0
DICTIONARY
  5
617F
330
4901
100
AcDbDictionary
280
     1
281
     1
  3
ACAD_MTEXT_RT
360
6180
  0
DICTIONARY
  5
6181
330
4902
100
AcDbDictionary
280
     1
281
     1
  3
ACAD_MTEXT_RT
360
6182
  0
DICTIONARY
  5
6183
330
4903
100
AcDbDictionary
280
     1
281
     1
  3
ACAD_MTEXT_RT
360
6184
  0
DICTIONARY
  5
6185
330
4904
100
AcDbDictionary
280
     1
281
     1
  3
ACAD_MTEXT_RT
360
6186
  0
DICTIONARY
  5
6187
330
4905
100
AcDbDictionary
280
     1
281
     1
  3
ACAD_MTEXT_RT
360
6188
  0
DICTIONARY
  5
6189
330
4906
100
AcDbDictionary
280
     1
281
     1
  3
ACAD_MTEXT_RT
360
618A
  0
DICTIONARY
  5
618B
330
4907
100
AcDbDictionary
280
     1
281
     1
  3
ACAD_MTEXT_RT
360
618C
  0
DICTIONARY
  5
618D
330
4908
100
AcDbDictionary
280
     1
281
     1
  3
ACAD_MTEXT_RT
360
618E
  0
DICTIONARY
  5
618F
330
4909
100
AcDbDictionary
280
     1
281
     1
  3
ACAD_MTEXT_RT
360
6190
  0
DICTIONARY
  5
6191
330
490A
100
AcDbDictionary
280
     1
281
     1
  3
ACAD_MTEXT_RT
360
6192
  0
DICTIONARY
  5
6193
330
490B
100
AcDbDictionary
280
     1
281
     1
  3
ACAD_MTEXT_RT
360
6194
  0
DICTIONARY
  5
6195
330
490C
100
AcDbDictionary
280
     1
281
     1
  3
ACAD_MTEXT_RT
360
6196
  0
DICTIONARY
  5
6197
330
490D
100
AcDbDictionary
280
     1
281
     1
  3
ACAD_MTEXT_RT
360
6198
  0
DICTIONARY
  5
6199
330
490E
100
AcDbDictionary
280
     1
281
     1
  3
ACAD_MTEXT_RT
360
619A
  0
DICTIONARY
  5
619B
330
490F
100
AcDbDictionary
280
     1
281
     1
  3
ACAD_MTEXT_RT
360
619C
  0
DICTIONARY
  5
619F
330
6102
100
AcDbDictionary
280
     1
281
     1
  3
ACAD_MTEXT_RT
360
61A0
  0
DICTIONARY
  5
61A1
330
6104
100
AcDbDictionary
280
     1
281
     1
  3
ACAD_MTEXT_RT
360
61A2
  0
DICTIONARY
  5
6169
102
{ACAD_REACTORS
330
C
102
}
330
C
100
AcDbDictionary
281
     1
  3
INTERFERECOLOR
350
616A
  0
DICTIONARY
  5
3513
102
{ACAD_REACTORS
330
C
102
}
330
C
100
AcDbDictionary
281
     1
  0
DICTIONARY
  5
D
102
{ACAD_REACTORS
330
C
102
}
330
C
100
AcDbDictionary
281
     1
  0
DICTIONARY
  5
4763
102
{ACAD_REACTORS
330
C
102
}
330
C
100
AcDbDictionary
281
     1
  3
LOGO1
350
4765
  0
ACAD_PROXY_OBJECT
  5
47EC
102
{ACAD_REACTORS
330
C
102
}
330
C
100
AcDbProxyObject
 90
      499
 91
      510
 95
    65563
 70
     0
 93
       41
310
40901405054C
 94
        0
  0
DICTIONARY
  5
1A
102
{ACAD_REACTORS
330
C
102
}
330
C
100
AcDbDictionary
281
     1
  3
Layout1
350
1E
  3
Layout2
350
24
  3
Model
350
22
  0
DICTIONARY
  5
350F
102
{ACAD_REACTORS
330
C
102
}
330
C
100
AcDbDictionary
281
     1
  3
ByBlock
350
3511
  3
ByLayer
350
3510
  3
Global
350
3512
  0
DICTIONARY
  5
17
102
{ACAD_REACTORS
330
C
102
}
330
C
100
AcDbDictionary
281
     1
  3
Standard
350
18
  0
DICTIONARY
  5
19
102
{ACAD_REACTORS
330
C
102
}
330
C
100
AcDbDictionary
281
     1
  0
ACDBDICTIONARYWDFLT
  5
E
102
{ACAD_REACTORS
330
C
102
}
330
C
100
AcDbDictionary
281
     1
  3
Normal
350
F
100
AcDbDictionaryWithDefault
340
F
  0
DICTIONARY
  5
E9
102
{ACAD_REACTORS
330
C
102
}
330
C
100
AcDbDictionary
281
     1
  3
Standard
350
3514
  0
DICTIONARY
  5
28
102
{ACAD_REACTORS
330
C
102
}
330
C
100
AcDbDictionary
281
     1
  3
2dWireframe
350
2D
  3
3D Hidden
350
2F
  3
3dWireframe
350
2E
  3
Basic
350
30
  3
Brighten
350
34
  3
ColorChange
350
38
  3
Conceptual
350
32
  3
Dim
350
33
  3
Facepattern
350
37
  3
Flat
350
29
  3
FlatWithEdges
350
2A
  3
Gouraud
350
2B
  3
GouraudWithEdges
350
2C
  3
Linepattern
350
36
  3
Realistic
350
31
  3
Thicken
350
35
  0
DICTIONARY
  5
366A
102
{ACAD_REACTORS
330
C
102
}
330
C
100
AcDbDictionary
281
     1
  3
CTABLESTYLE
350
366B
  3
DGNFRAME
350
6167
  3
DIMASSOC
350
6166
  3
HIDETEXT
350
6165
  3
INDEXCTL
350
6164
  3
SORTENTS
350
6163
  0
XRECORD
  5
6168
102
{ACAD_REACTORS
330
C
102
}
330
C
100
AcDbXrecord
280
     1
  1
DWGPROPS COOKIE
  2

  3

  4

  6

  7

  8
hxl
  9

300
=
301
=
302
=
303
=
304
=
305
=
306
=
307
=
308
=
309
=
 40
0.0561164351851852
 41
2455841.60680022
 42
2459542.030112952
  1

 90
        0
  0
DICTIONARY
  5
36E3
102
{ACAD_REACTORS
330
36E2
102
}
330
36E2
100
AcDbDictionary
281
     1
  0
XRECORD
  5
56DB
102
{ACAD_REACTORS
330
56DA
102
}
330
56DA
100
AcDbXrecord
280
     1
290
     1
  0
SORTENTSTABLE
  5
5968
102
{ACAD_REACTORS
330
5967
102
}
330
5967
100
AcDbSortentsTable
330
1F
331
476F
  5
476F
331
48CD
  5
48CD
331
490C
  5
490C
331
48D5
  5
48D5
331
48DD
  5
48DD
331
48E5
  5
48E5
331
48ED
  5
48ED
331
5A98
  5
5BC1
331
5B7D
  5
5AC5
331
48F5
  5
48F5
331
48B6
  5
48B6
331
48FD
  5
48FD
331
48BE
  5
48BE
331
48C6
  5
48C6
331
4905
  5
4905
331
48CE
  5
48CE
331
48D6
  5
48D6
331
490D
  5
490D
331
48DE
  5
48DE
331
48E6
  5
48E6
331
48EE
  5
48EE
331
48AF
  5
48AF
331
48B7
  5
48B7
331
48F6
  5
48F6
331
48BF
  5
48BF
331
48FE
  5
48FE
331
4906
  5
4906
331
48C7
  5
48C7
331
48CF
  5
48CF
331
48D7
  5
48D7
331
490E
  5
490E
331
48DF
  5
48DF
331
48E7
  5
48E7
331
48EF
  5
48EF
331
48B0
  5
48B0
331
48F7
  5
48F7
331
48B8
  5
48B8
331
48FF
  5
48FF
331
48C0
  5
48C0
331
48C8
  5
48C8
331
4907
  5
4907
331
48D0
  5
48D0
331
48D8
  5
48D8
331
490F
  5
490F
331
48E0
  5
48E0
331
48E8
  5
48E8
331
5A9B
  5
5BC2
331
48F0
  5
48F0
331
48B1
  5
48B1
331
48B9
  5
48B9
331
48F8
  5
48F8
331
48C1
  5
48C1
331
4900
  5
4900
331
48C9
  5
48C9
331
4908
  5
4908
331
48D1
  5
48D1
331
48D9
  5
48D9
331
4910
  5
4910
331
48E1
  5
48E1
331
48E9
  5
48E9
331
48F1
  5
48F1
331
48B2
  5
48B2
331
48F9
  5
48F9
331
48BA
  5
48BA
331
4901
  5
4901
331
48C2
  5
48C2
331
48CA
  5
48CA
331
48D2
  5
48D2
331
4909
  5
4909
331
48DA
  5
48DA
331
4911
  5
4911
331
48E2
  5
48E2
331
48EA
  5
48EA
331
5DD6
  5
5B7F
331
48F2
  5
48F2
331
48B3
  5
48B3
331
48BB
  5
48BB
331
48FA
  5
48FA
331
4902
  5
4902
331
48C3
  5
48C3
331
48CB
  5
48CB
331
490A
  5
490A
331
48D3
  5
48D3
331
48DB
  5
48DB
331
4912
  5
4912
331
48E3
  5
48E3
331
48EB
  5
48EB
331
5DD7
  5
5ACB
331
48F3
  5
48F3
331
48B4
  5
48B4
331
48FB
  5
48FB
331
48BC
  5
48BC
331
4903
  5
4903
331
48C4
  5
48C4
331
48CC
  5
48CC
331
5D40
  5
5D42
331
48D4
  5
48D4
331
490B
  5
490B
331
48DC
  5
48DC
331
48E4
  5
48E4
331
48EC
  5
48EC
331
48B5
  5
48B5
331
48F4
  5
48F4
331
48BD
  5
48BD
331
48FC
  5
48FC
331
4904
  5
4904
331
48C5
  5
48C5
  0
XRECORD
  5
617A
102
{ACAD_REACTORS
330
6179
102
}
330
6179
100
AcDbXrecord
280
     1
 40
2521.0
  1
日   
  0
XRECORD
  5
617C
102
{ACAD_REACTORS
330
617B
102
}
330
617B
100
AcDbXrecord
280
     1
 40
2618.0
  1
签   
  0
XRECORD
  5
617E
102
{ACAD_REACTORS
330
617D
102
}
330
617D
100
AcDbXrecord
280
     1
 40
1661.0
  1
底
  0
XRECORD
  5
6180
102
{ACAD_REACTORS
330
617F
102
}
330
617F
100
AcDbXrecord
280
     1
 40
1671.0
  1
旧
  0
XRECORD
  5
6182
102
{ACAD_REACTORS
330
6181
102
}
330
6181
100
AcDbXrecord
280
     1
 40
2618.0
  1
描   
  0
XRECORD
  5
6184
102
{ACAD_REACTORS
330
6183
102
}
330
6183
100
AcDbXrecord
280
     1
 40
249260.0
  1
\ftxt.shx,gbcbig.shx;\H1x;\C1;借（通）用件登记
  0
XRECORD
  5
6186
102
{ACAD_REACTORS
330
6185
102
}
330
6185
100
AcDbXrecord
280
     1
 40
2640.0
  1
图   
  0
XRECORD
  5
6188
102
{ACAD_REACTORS
330
6187
102
}
330
6187
100
AcDbXrecord
280
     1
 40
2618.0
  1
描   
  0
XRECORD
  5
618A
102
{ACAD_REACTORS
330
6189
102
}
330
6189
100
AcDbXrecord
280
     1
 40
2394.0
  1
校   
  0
XRECORD
  5
618C
102
{ACAD_REACTORS
330
618B
102
}
330
618B
100
AcDbXrecord
280
     1
 40
1661.0
  1
底
  0
XRECORD
  5
618E
102
{ACAD_REACTORS
330
618D
102
}
330
618D
100
AcDbXrecord
280
     1
 40
1776.0
  1
图
  0
XRECORD
  5
6190
102
{ACAD_REACTORS
330
618F
102
}
330
618F
100
AcDbXrecord
280
     1
 40
1615.0
  1
总
  0
XRECORD
  5
6192
102
{ACAD_REACTORS
330
6191
102
}
330
6191
100
AcDbXrecord
280
     1
 40
1663.0
  1
号
  0
XRECORD
  5
6194
102
{ACAD_REACTORS
330
6193
102
}
330
6193
100
AcDbXrecord
280
     1
 40
1776.0
  1
图
  0
XRECORD
  5
6196
102
{ACAD_REACTORS
330
6195
102
}
330
6195
100
AcDbXrecord
280
     1
 40
1615.0
  1
总
  0
XRECORD
  5
6198
102
{ACAD_REACTORS
330
6197
102
}
330
6197
100
AcDbXrecord
280
     1
 40
1663.0
  1
号
  0
XRECORD
  5
619A
102
{ACAD_REACTORS
330
6199
102
}
330
6199
100
AcDbXrecord
280
     1
 40
2180.0
  1
字  
  0
XRECORD
  5
619C
102
{ACAD_REACTORS
330
619B
102
}
330
619B
100
AcDbXrecord
280
     1
 40
2210.0
  1
期  
  0
XRECORD
  5
61A0
102
{ACAD_REACTORS
330
619F
102
}
330
619F
100
AcDbXrecord
280
     1
 40
708060.0
  1
\fArial|b0|i0|c0|p34;Use outside line for reveal mount cut:\PSink rim is \U+00BC” revealed from the countertop opening.
  0
XRECORD
  5
61A2
102
{ACAD_REACTORS
330
61A1
102
}
330
61A1
100
AcDbXrecord
280
     1
 40
922857.0
  1
\fArial|b0|i0|c0|p34;Use inside line for negative reveal mount cut:\PSink wall is covered \U+00BC” inside the edge of countertop opening.
  0
XRECORD
  5
616A
102
{ACAD_REACTORS
330
6169
102
}
330
6169
100
AcDbXrecord
280
     1
1004
1800000001000000000000C0000000000000000000000000
  0
IMAGEDEF
  5
4765
102
{ACAD_REACTORS
330
4763
330
4764
102
}
330
4763
100
AcDbRasterImageDef
 90
        0
  1
H:\1-E盘家中电脑\TAJE泰捷资料\3-开孔纸板\Logo1.jpg
 10
2112.0
 20
586.0
 11
0.0004734848484848
 21
0.0004734848484848
280
     1
281
     0
  0
LAYOUT
  5
1E
102
{ACAD_XDICTIONARY
360
616B
102
}
102
{ACAD_REACTORS
330
1A
102
}
330
1A
100
AcDbPlotSettings
  1

  2
none_device
  4

  6

 40
0.0
 41
0.0
 42
0.0
 43
0.0
 44
0.0
 45
0.0
 46
0.0
 47
0.0
 48
0.0
 49
0.0
140
0.0
141
0.0
142
1.0
143
1.0
 70
   688
 72
     0
 73
     0
 74
     5
  7

 75
    16
147
1.0
148
0.0
149
0.0
100
AcDbLayout
  1
Layout1
 70
     1
 71
     1
 10
0.0
 20
0.0
 11
12.0
 21
9.0
 12
0.0
 22
0.0
 32
0.0
 14
1.000000000000000E+20
 24
1.000000000000000E+20
 34
1.000000000000000E+20
 15
-1.000000000000000E+20
 25
-1.000000000000000E+20
 35
-1.000000000000000E+20
146
0.0
 13
0.0
 23
0.0
 33
0.0
 16
1.0
 26
0.0
 36
0.0
 17
0.0
 27
1.0
 37
0.0
 76
     0
330
1B
  0
LAYOUT
  5
24
102
{ACAD_XDICTIONARY
360
616F
102
}
102
{ACAD_REACTORS
330
1A
102
}
330
1A
100
AcDbPlotSettings
  1

  2
none_device
  4

  6

 40
0.0
 41
0.0
 42
0.0
 43
0.0
 44
0.0
 45
0.0
 46
0.0
 47
0.0
 48
0.0
 49
0.0
140
0.0
141
0.0
142
1.0
143
1.0
 70
   688
 72
     0
 73
     0
 74
     5
  7

 75
    16
147
1.0
148
0.0
149
0.0
100
AcDbLayout
  1
Layout2
 70
     1
 71
     2
 10
0.0
 20
0.0
 11
0.0
 21
0.0
 12
0.0
 22
0.0
 32
0.0
 14
0.0
 24
0.0
 34
0.0
 15
0.0
 25
0.0
 35
0.0
146
0.0
 13
0.0
 23
0.0
 33
0.0
 16
1.0
 26
0.0
 36
0.0
 17
0.0
 27
1.0
 37
0.0
 76
     0
330
23
  0
LAYOUT
  5
22
102
{ACAD_XDICTIONARY
360
616D
102
}
102
{ACAD_REACTORS
330
1A
102
}
330
1A
100
AcDbPlotSettings
  1

  2
pdfFactory Pro
  4
A4
  6

 40
6.349999999999999
 41
6.350000000000009
 42
6.350000000000017
 43
6.349999999999999
 44
210.0
 45
297.0
 46
0.0000000000000039
 47
2.644949494949735
 48
148.3587781688279
 49
91.51722609232487
140
1222.07022118802
141
850.7846036558978
142
1.0
143
3.848288786434732
 70
  1716
 72
     1
 73
     1
 74
     4
  7
Monochrome.ctb
 75
     0
147
0.2598557581034492
148
0.0
149
0.0
100
AcDbLayout
  1
Model
 70
     1
 71
     0
 10
0.0
 20
0.0
 11
12.0
 21
9.0
 12
0.0
 22
0.0
 32
0.0
 14
258.1869031377898
 24
-2770.5
 34
0.0
 15
9962.495173146381
 25
803.0356641931767
 35
0.0
146
0.0
 13
0.0
 23
0.0
 33
0.0
 16
1.0
 26
0.0
 36
0.0
 17
0.0
 27
1.0
 37
0.0
 76
     0
330
1F
331
27
  0
MATERIAL
  5
3511
102
{ACAD_XDICTIONARY
360
6173
102
}
102
{ACAD_REACTORS
330
350F
102
}
330
350F
100
AcDbMaterial
  1
ByBlock
  0
MATERIAL
  5
3510
102
{ACAD_XDICTIONARY
360
6171
102
}
102
{ACAD_REACTORS
330
350F
102
}
330
350F
100
AcDbMaterial
  1
ByLayer
  0
MATERIAL
  5
3512
102
{ACAD_XDICTIONARY
360
6175
102
}
102
{ACAD_REACTORS
330
350F
102
}
330
350F
100
AcDbMaterial
  1
Global
  0
MLINESTYLE
  5
18
102
{ACAD_REACTORS
330
17
102
}
330
17
100
AcDbMlineStyle
  2
STANDARD
 70
     0
  3

 62
   256
 51
90.0
 52
90.0
 71
     2
 49
0.5
 62
   256
  6
BYLAYER
 49
-0.5
 62
   256
  6
BYLAYER
  0
ACDBPLACEHOLDER
  5
F
102
{ACAD_REACTORS
330
E
102
}
330
E
  0
TABLESTYLE
  5
3514
102
{ACAD_XDICTIONARY
360
6177
102
}
102
{ACAD_REACTORS
330
E9
102
}
330
E9
100
AcDbTableStyle
  3
Standard
 70
     0
 71
     0
 40
0.06
 41
0.06
280
     0
281
     0
  7
Standard
140
0.18
170
     2
 62
     0
 63
     7
283
     0
274
    -2
284
     1
 64
     0
275
    -2
285
     1
 65
     0
276
    -2
286
     1
 66
     0
277
    -2
287
     1
 67
     0
278
    -2
288
     1
 68
     0
279
    -2
289
     1
 69
     0
  7
Standard
140
0.25
170
     5
 62
     0
 63
     7
283
     0
274
    -2
284
     1
 64
     0
275
    -2
285
     1
 65
     0
276
    -2
286
     1
 66
     0
277
    -2
287
     1
 67
     0
278
    -2
288
     1
 68
     0
279
    -2
289
     1
 69
     0
  7
Standard
140
0.18
170
     5
 62
     0
 63
     7
283
     0
274
    -2
284
     1
 64
     0
275
    -2
285
     1
 65
     0
276
    -2
286
     1
 66
     0
277
    -2
287
     1
 67
     0
278
    -2
288
     1
 68
     0
279
    -2
289
     1
 69
     0
  0
VISUALSTYLE
  5
2D
102
{ACAD_REACTORS
330
28
102
}
330
28
100
AcDbVisualStyle
  2
2dWireframe
 70
     4
 71
     0
 72
     2
 73
     0
 90
        0
 40
-0.6
 41
-30.0
 62
     5
 63
     7
 74
     1
 91
        4
 64
     7
 65
   257
 75
     1
175
     1
 42
1.0
 92
        0
 66
   257
 43
1.0
 76
     1
 77
     6
 78
     2
 67
     7
 79
     5
170
     0
171
     0
290
     0
174
     0
 93
        1
 44
0.0
173
     0
291
     0
 45
0.0
1001
ACAD
1000
AcDbSavedByObjectVersion
1070
     0
  0
VISUALSTYLE
  5
2F
102
{ACAD_REACTORS
330
28
102
}
330
28
100
AcDbVisualStyle
  2
3D Hidden
 70
     6
 71
     1
 72
     2
 73
     2
 90
        0
 40
-0.6
 41
-30.0
 62
     5
 63
     7
 74
     2
 91
        2
 64
     7
 65
   257
 75
     2
175
     1
 42
40.0
 92
        0
 66
   257
 43
1.0
 76
     1
 77
     6
 78
     2
 67
     7
 79
     3
170
     0
171
     0
290
     0
174
     0
 93
        1
 44
0.0
173
     0
291
     0
 45
0.0
1001
ACAD
1000
AcDbSavedByObjectVersion
1070
     0
  0
VISUALSTYLE
  5
2E
102
{ACAD_REACTORS
330
28
102
}
330
28
100
AcDbVisualStyle
  2
3dWireframe
 70
     5
 71
     0
 72
     2
 73
     0
 90
        0
 40
-0.6
 41
-30.0
 62
     5
 63
     7
 74
     1
 91
        4
 64
     7
 65
   257
 75
     1
175
     1
 42
1.0
 92
        0
 66
   257
 43
1.0
 76
     1
 77
     6
 78
     2
 67
     7
 79
     5
170
     0
171
     0
290
     0
174
     0
 93
        1
 44
0.0
173
     0
291
     0
 45
0.0
1001
ACAD
1000
AcDbSavedByObjectVersion
1070
     0
  0
VISUALSTYLE
  5
30
102
{ACAD_REACTORS
330
28
102
}
330
28
100
AcDbVisualStyle
  2
Basic
 70
     7
 71
     1
 72
     0
 73
     1
 90
        0
 40
-0.6
 41
-30.0
 62
     5
 63
     7
 74
     0
 91
        4
 64
     7
 65
   257
 75
     1
175
     1
 42
1.0
 92
        8
 66
     7
 43
1.0
 76
     1
 77
     6
 78
     2
 67
     7
 79
     5
170
     0
171
     0
290
     0
174
     0
 93
        1
 44
0.0
173
     0
291
     1
 45
0.0
1001
ACAD
1000
AcDbSavedByObjectVersion
1070
     0
  0
VISUALSTYLE
  5
34
102
{ACAD_REACTORS
330
28
102
}
330
28
100
AcDbVisualStyle
  2
Brighten
 70
    12
 71
     2
 72
     2
 73
     0
 90
        0
 40
-0.6
 41
-30.0
 62
     5
 63
     7
 74
     1
 91
        4
 64
     7
 65
   257
 75
     1
175
     1
 42
1.0
 92
        8
 66
     7
 43
1.0
 76
     1
 77
     6
 78
     2
 67
     7
 79
     5
170
     0
171
     0
290
     0
174
     0
 93
        1
 44
50.0
173
     0
291
     1
 45
0.0
1001
ACAD
1000
AcDbSavedByObjectVersion
1070
     0
  0
VISUALSTYLE
  5
38
102
{ACAD_REACTORS
330
28
102
}
330
28
100
AcDbVisualStyle
  2
ColorChange
 70
    16
 71
     2
 72
     2
 73
     3
 90
        0
 40
-0.6
 41
-30.0
 62
     5
 63
     8
 74
     1
 91
        4
 64
     7
 65
   257
 75
     1
175
     1
 42
1.0
 92
        8
 66
     8
 43
1.0
 76
     1
 77
     6
 78
     2
 67
     7
 79
     5
170
     0
171
     0
290
     0
174
     0
 93
        1
 44
0.0
173
     0
291
     1
 45
0.0
1001
ACAD
1000
AcDbSavedByObjectVersion
1070
     0
  0
VISUALSTYLE
  5
32
102
{ACAD_REACTORS
330
28
102
}
330
28
100
AcDbVisualStyle
  2
Conceptual
 70
     9
 71
     3
 72
     2
 73
     0
 90
        0
 40
-0.6
 41
-30.0
 62
     5
 63
     7
 74
     2
 91
        2
 64
     7
 65
   257
 75
     1
175
     1
 42
40.0
 92
        8
 66
     7
 43
1.0
 76
     1
 77
     6
 78
     2
 67
     7
 79
     3
170
     0
171
     0
290
     0
174
     0
 93
        1
 44
0.0
173
     0
291
     0
 45
0.0
1001
ACAD
1000
AcDbSavedByObjectVersion
1070
     0
  0
VISUALSTYLE
  5
33
102
{ACAD_REACTORS
330
28
102
}
330
28
100
AcDbVisualStyle
  2
Dim
 70
    11
 71
     2
 72
     2
 73
     0
 90
        0
 40
-0.6
 41
-30.0
 62
     5
 63
     7
 74
     1
 91
        4
 64
     7
 65
   257
 75
     1
175
     1
 42
1.0
 92
        8
 66
     7
 43
1.0
 76
     1
 77
     6
 78
     2
 67
     7
 79
     5
170
     0
171
     0
290
     0
174
     0
 93
        1
 44
-50.0
173
     0
291
     1
 45
0.0
1001
ACAD
1000
AcDbSavedByObjectVersion
1070
     0
  0
VISUALSTYLE
  5
37
102
{ACAD_REACTORS
330
28
102
}
330
28
100
AcDbVisualStyle
  2
Facepattern
 70
    15
 71
     2
 72
     2
 73
     0
 90
        0
 40
-0.6
 41
-30.0
 62
     5
 63
     7
 74
     1
 91
        4
 64
     7
 65
   257
 75
     1
175
     1
 42
1.0
 92
        8
 66
     7
 43
1.0
 76
     1
 77
     6
 78
     2
 67
     7
 79
     5
170
     0
171
     0
290
     0
174
     0
 93
        1
 44
0.0
173
     0
291
     1
 45
0.0
1001
ACAD
1000
AcDbSavedByObjectVersion
1070
     0
  0
VISUALSTYLE
  5
29
102
{ACAD_REACTORS
330
28
102
}
330
28
100
AcDbVisualStyle
  2
Flat
 70
     0
 71
     2
 72
     1
 73
     1
 90
        2
 40
-0.6
 41
30.0
 62
     5
 63
     7
 74
     0
 91
        4
 64
     7
 65
   257
 75
     1
175
     1
 42
1.0
 92
        8
 66
     7
 43
1.0
 76
     1
 77
     6
 78
     2
 67
     7
 79
     5
170
     0
171
     0
290
     0
174
     0
 93
       13
 44
0.0
173
     0
291
     1
 45
0.0
1001
ACAD
1000
AcDbSavedByObjectVersion
1070
     0
  0
VISUALSTYLE
  5
2A
102
{ACAD_REACTORS
330
28
102
}
330
28
100
AcDbVisualStyle
  2
FlatWithEdges
 70
     1
 71
     2
 72
     1
 73
     1
 90
        2
 40
-0.6
 41
30.0
 62
     5
 63
     7
 74
     1
 91
        4
 64
     7
 65
   257
 75
     1
175
     1
 42
1.0
 92
        0
 66
   257
 43
1.0
 76
     1
 77
     6
 78
     2
 67
     7
 79
     5
170
     0
171
     0
290
     0
174
     0
 93
       13
 44
0.0
173
     0
291
     1
 45
0.0
1001
ACAD
1000
AcDbSavedByObjectVersion
1070
     0
  0
VISUALSTYLE
  5
2B
102
{ACAD_REACTORS
330
28
102
}
330
28
100
AcDbVisualStyle
  2
Gouraud
 70
     2
 71
     2
 72
     2
 73
     1
 90
        2
 40
-0.6
 41
30.0
 62
     5
 63
     7
 74
     0
 91
        4
 64
     7
 65
   257
 75
     1
175
     1
 42
1.0
 92
        0
 66
     7
 43
1.0
 76
     1
 77
     6
 78
     2
 67
     7
 79
     5
170
     0
171
     0
290
     0
174
     0
 93
       13
 44
0.0
173
     0
291
     1
 45
0.0
1001
ACAD
1000
AcDbSavedByObjectVersion
1070
     0
  0
VISUALSTYLE
  5
2C
102
{ACAD_REACTORS
330
28
102
}
330
28
100
AcDbVisualStyle
  2
GouraudWithEdges
 70
     3
 71
     2
 72
     2
 73
     1
 90
        2
 40
-0.6
 41
30.0
 62
     5
 63
     7
 74
     1
 91
        4
 64
     7
 65
   257
 75
     1
175
     1
 42
1.0
 92
        0
 66
   257
 43
1.0
 76
     1
 77
     6
 78
     2
 67
     7
 79
     5
170
     0
171
     0
290
     0
174
     0
 93
       13
 44
0.0
173
     0
291
     1
 45
0.0
1001
ACAD
1000
AcDbSavedByObjectVersion
1070
     0
  0
VISUALSTYLE
  5
36
102
{ACAD_REACTORS
330
28
102
}
330
28
100
AcDbVisualStyle
  2
Linepattern
 70
    14
 71
     2
 72
     2
 73
     0
 90
        0
 40
-0.6
 41
-30.0
 62
     5
 63
     7
 74
     1
 91
        4
 64
     7
 65
   257
 75
     7
175
     7
 42
1.0
 92
        8
 66
     7
 43
1.0
 76
     1
 77
     6
 78
     2
 67
     7
 79
     5
170
     0
171
     0
290
     0
174
     0
 93
        1
 44
0.0
173
     0
291
     1
 45
0.0
1001
ACAD
1000
AcDbSavedByObjectVersion
1070
     0
  0
VISUALSTYLE
  5
31
102
{ACAD_REACTORS
330
28
102
}
330
28
100
AcDbVisualStyle
  2
Realistic
 70
     8
 71
     2
 72
     2
 73
     0
 90
        0
 40
-0.6
 41
-30.0
 62
     5
 63
     7
 74
     1
 91
        0
 64
     7
 65
   257
 75
     1
175
     1
 42
1.0
 92
        8
 66
     8
 43
1.0
 76
     1
 77
     6
 78
     2
 67
     7
 79
     5
170
     0
171
     0
290
     0
174
     0
 93
       13
 44
0.0
173
     0
291
     0
 45
0.0
1001
ACAD
1000
AcDbSavedByObjectVersion
1070
     0
  0
VISUALSTYLE
  5
35
102
{ACAD_REACTORS
330
28
102
}
330
28
100
AcDbVisualStyle
  2
Thicken
 70
    13
 71
     2
 72
     2
 73
     0
 90
        0
 40
-0.6
 41
-30.0
 62
     5
 63
     7
 74
     1
 91
        4
 64
     7
 65
   257
 75
     1
175
     1
 42
1.0
 92
       12
 66
     7
 43
1.0
 76
     1
 77
     6
 78
     2
 67
     7
 79
     5
170
     0
171
     0
290
     0
174
     0
 93
        1
 44
0.0
173
     0
291
     1
 45
0.0
1001
ACAD
1000
AcDbSavedByObjectVersion
1070
     0
  0
DICTIONARYVAR
  5
366B
102
{ACAD_REACTORS
330
366A
102
}
330
366A
100
DictionaryVariables
280
     0
  1
STANDARD
  0
DICTIONARYVAR
  5
6167
102
{ACAD_REACTORS
330
366A
102
}
330
366A
100
DictionaryVariables
280
     0
  1
2
  0
DICTIONARYVAR
  5
6166
102
{ACAD_REACTORS
330
366A
102
}
330
366A
100
DictionaryVariables
280
     0
  1
2
  0
DICTIONARYVAR
  5
6165
102
{ACAD_REACTORS
330
366A
102
}
330
366A
100
DictionaryVariables
280
     0
  1
1
  0
DICTIONARYVAR
  5
6164
102
{ACAD_REACTORS
330
366A
102
}
330
366A
100
DictionaryVariables
280
     0
  1
0
  0
DICTIONARYVAR
  5
6163
102
{ACAD_REACTORS
330
366A
102
}
330
366A
100
DictionaryVariables
280
     0
  1
127
  0
DICTIONARY
  5
616B
330
1E
100
AcDbDictionary
280
     1
281
     1
  3
ACAD_XREC_ROUNDTRIP
360
616C
  0
DICTIONARY
  5
616F
330
24
100
AcDbDictionary
280
     1
281
     1
  3
ACAD_XREC_ROUNDTRIP
360
6170
  0
DICTIONARY
  5
616D
330
22
100
AcDbDictionary
280
     1
281
     1
  3
ACAD_XREC_ROUNDTRIP
360
616E
  0
DICTIONARY
  5
6173
330
3511
100
AcDbDictionary
280
     1
281
     1
  3
ACAD_XREC_ROUNDTRIP
360
6174
  0
DICTIONARY
  5
6171
330
3510
100
AcDbDictionary
280
     1
281
     1
  3
ACAD_XREC_ROUNDTRIP
360
6172
  0
DICTIONARY
  5
6175
330
3512
100
AcDbDictionary
280
     1
281
     1
  3
ACAD_XREC_ROUNDTRIP
360
6176
  0
DICTIONARY
  5
6177
330
3514
100
AcDbDictionary
280
     1
281
     1
  3
ACAD_XREC_ROUNDTRIP
360
6178
  0
XRECORD
  5
616C
102
{ACAD_REACTORS
330
616B
102
}
330
616B
100
AcDbXrecord
280
     1
102
SHADEPLOT
 70
     0
102
SHADEPLOTRESLEVEL
 70
     2
102
SHADEPLOTCUSTOMDPI
 70
   300
  0
XRECORD
  5
6170
102
{ACAD_REACTORS
330
616F
102
}
330
616F
100
AcDbXrecord
280
     1
102
SHADEPLOT
 70
     0
102
SHADEPLOTRESLEVEL
 70
     2
102
SHADEPLOTCUSTOMDPI
 70
   300
  0
XRECORD
  5
616E
102
{ACAD_REACTORS
330
616D
102
}
330
616D
100
AcDbXrecord
280
     1
102
SHADEPLOT
 70
     0
102
SHADEPLOTRESLEVEL
 70
     2
102
SHADEPLOTCUSTOMDPI
 70
   300
  0
XRECORD
  5
6174
102
{ACAD_REACTORS
330
6173
102
}
330
6173
100
AcDbXrecord
280
     1
102
MATERIAL
148
0.0
149
0.0
149
0.0
 93
        0
 94
       63
282
     0
 72
     1
 77
     1
171
     1
175
     1
179
     1
273
     0
  0
XRECORD
  5
6172
102
{ACAD_REACTORS
330
6171
102
}
330
6171
100
AcDbXrecord
280
     1
102
MATERIAL
148
0.0
149
0.0
149
0.0
 93
        0
 94
       63
282
     0
 72
     1
 77
     1
171
     1
175
     1
179
     1
273
     0
  0
XRECORD
  5
6176
102
{ACAD_REACTORS
330
6175
102
}
330
6175
100
AcDbXrecord
280
     1
102
MATERIAL
148
0.0
149
0.0
149
0.0
 93
        0
 94
       63
282
     0
 72
     1
 77
     1
171
     1
175
     1
179
     1
273
     0
  0
XRECORD
  5
6178
102
{ACAD_REACTORS
330
6177
102
}
330
6177
100
AcDbXrecord
280
     1
102
ACAD_ROUNDTRIP_PRE2007_TABLESTYLE
 90
      512
 91
        0
  1

 92
      512
 93
        0
  2

 94
      512
 95
        0
  3

  0
ENDSEC
  0
EOF
