  0
SECTION
  2
HEADER
  9
$ACADVER
  1
AC1015
  9
$ACADMAINTVER
 70
    20
  9
$DWGCODEPAGE
  3
ANSI_936
  9
$INSBASE
 10
0.0
 20
0.0
 30
0.0
  9
$EXTMIN
 10
-5.522519577665804
 20
-1517.831395820289
 30
0.0
  9
$EXTMAX
 10
2674.585838883062
 20
962.1773719483696
 30
0.0
  9
$LIMMIN
 10
0.0
 20
0.0
  9
$LIMMAX
 10
12.0
 20
9.0
  9
$ORTHOMODE
 70
     0
  9
$REGENMODE
 70
     1
  9
$FILLMODE
 70
     1
  9
$QTEXTMODE
 70
     0
  9
$MIRRTEXT
 70
     1
  9
$LTSCALE
 40
1.0
  9
$ATTMODE
 70
     1
  9
$TEXTSIZE
 40
0.2
  9
$TRACEWID
 40
0.05
  9
$TEXTSTYLE
  7
Standard
  9
$CLAYER
  8
0
  9
$CELTYPE
  6
ByLayer
  9
$CECOLOR
 62
   256
  9
$CELTSCALE
 40
1.0
  9
$DISPSILH
 70
     0
  9
$DIMSCALE
 40
1.0
  9
$DIMASZ
 40
0.18
  9
$DIMEXO
 40
0.0625
  9
$DIMDLI
 40
0.38
  9
$DIMRND
 40
0.0
  9
$DIMDLE
 40
0.0
  9
$DIMEXE
 40
0.18
  9
$DIMTP
 40
0.0
  9
$DIMTM
 40
0.0
  9
$DIMTXT
 40
0.18
  9
$DIMCEN
 40
0.09
  9
$DIMTSZ
 40
0.0
  9
$DIMTOL
 70
     0
  9
$DIMLIM
 70
     0
  9
$DIMTIH
 70
     1
  9
$DIMTOH
 70
     1
  9
$DIMSE1
 70
     0
  9
$DIMSE2
 70
     0
  9
$DIMTAD
 70
     0
  9
$DIMZIN
 70
     0
  9
$DIMBLK
  1

  9
$DIMASO
 70
     1
  9
$DIMSHO
 70
     1
  9
$DIMPOST
  1

  9
$DIMAPOST
  1

  9
$DIMALT
 70
     0
  9
$DIMALTD
 70
     2
  9
$DIMALTF
 40
25.4
  9
$DIMLFAC
 40
1.0
  9
$DIMTOFL
 70
     0
  9
$DIMTVP
 40
0.0
  9
$DIMTIX
 70
     0
  9
$DIMSOXD
 70
     0
  9
$DIMSAH
 70
     0
  9
$DIMBLK1
  1

  9
$DIMBLK2
  1

  9
$DIMSTYLE
  2
Standard
  9
$DIMCLRD
 70
     0
  9
$DIMCLRE
 70
     0
  9
$DIMCLRT
 70
     0
  9
$DIMTFAC
 40
1.0
  9
$DIMGAP
 40
0.09
  9
$DIMJUST
 70
     0
  9
$DIMSD1
 70
     0
  9
$DIMSD2
 70
     0
  9
$DIMTOLJ
 70
     1
  9
$DIMTZIN
 70
     0
  9
$DIMALTZ
 70
     0
  9
$DIMALTTZ
 70
     0
  9
$DIMUPT
 70
     0
  9
$DIMDEC
 70
     4
  9
$DIMTDEC
 70
     4
  9
$DIMALTU
 70
     2
  9
$DIMALTTD
 70
     2
  9
$DIMTXSTY
  7
Standard
  9
$DIMAUNIT
 70
     0
  9
$DIMADEC
 70
     0
  9
$DIMALTRND
 40
0.0
  9
$DIMAZIN
 70
     0
  9
$DIMDSEP
 70
    46
  9
$DIMATFIT
 70
     3
  9
$DIMFRAC
 70
     0
  9
$DIMLDRBLK
  1

  9
$DIMLUNIT
 70
     2
  9
$DIMLWD
 70
    -2
  9
$DIMLWE
 70
    -2
  9
$DIMTMOVE
 70
     0
  9
$LUNITS
 70
     2
  9
$LUPREC
 70
     4
  9
$SKETCHINC
 40
0.1
  9
$FILLETRAD
 40
0.0
  9
$AUNITS
 70
     0
  9
$AUPREC
 70
     0
  9
$MENU
  1
.
  9
$ELEVATION
 40
0.0
  9
$PELEVATION
 40
0.0
  9
$THICKNESS
 40
0.0
  9
$LIMCHECK
 70
     0
  9
$CHAMFERA
 40
0.5
  9
$CHAMFERB
 40
0.5
  9
$CHAMFERC
 40
1.0
  9
$CHAMFERD
 40
0.0
  9
$SKPOLY
 70
     0
  9
$TDCREATE
 40
2455841.606800220
  9
$TDUCREATE
 40
2455841.273466887
  9
$TDUPDATE
 40
2459756.636208993
  9
$TDUUPDATE
 40
2459756.302875660
  9
$TDINDWG
 40
0.0452651736
  9
$TDUSRTIMER
 40
0.0452651736
  9
$USRTIMER
 70
     1
  9
$ANGBASE
 50
0.0
  9
$ANGDIR
 70
     0
  9
$PDMODE
 70
     0
  9
$PDSIZE
 40
0.0
  9
$PLINEWID
 40
0.0
  9
$SPLFRAME
 70
     0
  9
$SPLINETYPE
 70
     6
  9
$SPLINESEGS
 70
     8
  9
$HANDSEED
  5
50FD
  9
$SURFTAB1
 70
     6
  9
$SURFTAB2
 70
     6
  9
$SURFTYPE
 70
     6
  9
$SURFU
 70
     6
  9
$SURFV
 70
     6
  9
$UCSBASE
  2

  9
$UCSNAME
  2

  9
$UCSORG
 10
0.0
 20
0.0
 30
0.0
  9
$UCSXDIR
 10
1.0
 20
0.0
 30
0.0
  9
$UCSYDIR
 10
0.0
 20
1.0
 30
0.0
  9
$UCSORTHOREF
  2

  9
$UCSORTHOVIEW
 70
     0
  9
$UCSORGTOP
 10
0.0
 20
0.0
 30
0.0
  9
$UCSORGBOTTOM
 10
0.0
 20
0.0
 30
0.0
  9
$UCSORGLEFT
 10
0.0
 20
0.0
 30
0.0
  9
$UCSORGRIGHT
 10
0.0
 20
0.0
 30
0.0
  9
$UCSORGFRONT
 10
0.0
 20
0.0
 30
0.0
  9
$UCSORGBACK
 10
0.0
 20
0.0
 30
0.0
  9
$PUCSBASE
  2

  9
$PUCSNAME
  2

  9
$PUCSORG
 10
0.0
 20
0.0
 30
0.0
  9
$PUCSXDIR
 10
1.0
 20
0.0
 30
0.0
  9
$PUCSYDIR
 10
0.0
 20
1.0
 30
0.0
  9
$PUCSORTHOREF
  2

  9
$PUCSORTHOVIEW
 70
     0
  9
$PUCSORGTOP
 10
0.0
 20
0.0
 30
0.0
  9
$PUCSORGBOTTOM
 10
0.0
 20
0.0
 30
0.0
  9
$PUCSORGLEFT
 10
0.0
 20
0.0
 30
0.0
  9
$PUCSORGRIGHT
 10
0.0
 20
0.0
 30
0.0
  9
$PUCSORGFRONT
 10
0.0
 20
0.0
 30
0.0
  9
$PUCSORGBACK
 10
0.0
 20
0.0
 30
0.0
  9
$USERI1
 70
     0
  9
$USERI2
 70
     0
  9
$USERI3
 70
     0
  9
$USERI4
 70
     0
  9
$USERI5
 70
     0
  9
$USERR1
 40
0.0
  9
$USERR2
 40
0.0
  9
$USERR3
 40
0.0
  9
$USERR4
 40
0.0
  9
$USERR5
 40
0.0
  9
$WORLDVIEW
 70
     1
  9
$SHADEDGE
 70
     3
  9
$SHADEDIF
 70
    70
  9
$TILEMODE
 70
     1
  9
$MAXACTVP
 70
    64
  9
$PINSBASE
 10
0.0
 20
0.0
 30
0.0
  9
$PLIMCHECK
 70
     0
  9
$PEXTMIN
 10
1.000000000000000E+20
 20
1.000000000000000E+20
 30
1.000000000000000E+20
  9
$PEXTMAX
 10
-1.000000000000000E+20
 20
-1.000000000000000E+20
 30
-1.000000000000000E+20
  9
$PLIMMIN
 10
0.0
 20
0.0
  9
$PLIMMAX
 10
12.0
 20
9.0
  9
$UNITMODE
 70
     0
  9
$VISRETAIN
 70
     1
  9
$PLINEGEN
 70
     0
  9
$PSLTSCALE
 70
     1
  9
$TREEDEPTH
 70
  3020
  9
$CMLSTYLE
  2
Standard
  9
$CMLJUST
 70
     0
  9
$CMLSCALE
 40
1.0
  9
$PROXYGRAPHICS
 70
     1
  9
$MEASUREMENT
 70
     0
  9
$CELWEIGHT
370
    -1
  9
$ENDCAPS
280
     0
  9
$JOINSTYLE
280
     0
  9
$LWDISPLAY
290
     0
  9
$INSUNITS
 70
     1
  9
$HYPERLINKBASE
  1

  9
$STYLESHEET
  1
Monochrome.ctb
  9
$XEDIT
290
     1
  9
$CEPSNTYPE
380
     0
  9
$PSTYLEMODE
290
     1
  9
$FINGERPRINTGUID
  2
{168A8766-4015-4ABD-915A-AD1ECBE2E3C2}
  9
$VERSIONGUID
  2
{422ACBB3-253F-4292-8E26-7D4A35393317}
  9
$EXTNAMES
290
     1
  9
$PSVPSCALE
 40
0.0
  9
$OLESTARTUP
290
     0
  0
ENDSEC
  0
SECTION
  2
CLASSES
  0
CLASS
  1
ACDBDICTIONARYWDFLT
  2
AcDbDictionaryWithDefault
  3
ObjectDBX Classes
 90
        0
280
     0
281
     0
  0
CLASS
  1
VISUALSTYLE
  2
AcDbVisualStyle
  3
ObjectDBX Classes
 90
     4095
280
     0
281
     0
  0
CLASS
  1
DIMASSOC
  2
AcDbDimAssoc
  3
"AcDbDimAssoc|Product Desc:     AcDim ARX App For Dimension|Company:          Autodesk, Inc.|WEB Address:      www.autodesk.com"
 90
    32768
280
     0
281
     0
  0
CLASS
  1
MATERIAL
  2
AcDbMaterial
  3
ObjectDBX Classes
 90
     1024
280
     0
281
     0
  0
CLASS
  1
TABLESTYLE
  2
AcDbTableStyle
  3
ObjectDBX Classes
 90
     4095
280
     0
281
     0
  0
CLASS
  1
DICTIONARYVAR
  2
AcDbDictionaryVar
  3
ObjectDBX Classes
 90
        0
280
     0
281
     0
  0
CLASS
  1
SORTENTSTABLE
  2
AcDbSortentsTable
  3
ObjectDBX Classes
 90
    32768
280
     0
281
     0
  0
CLASS
  1
ACDBPLACEHOLDER
  2
AcDbPlaceHolder
  3
ObjectDBX Classes
 90
        0
280
     0
281
     0
  0
CLASS
  1
LAYOUT
  2
AcDbLayout
  3
ObjectDBX Classes
 90
        0
280
     0
281
     0
  0
ENDSEC
  0
SECTION
  2
TABLES
  0
TABLE
  2
VPORT
  5
8
330
0
100
AcDbSymbolTable
 70
     1
  0
VPORT
  5
27
330
8
100
AcDbSymbolTableRecord
100
AcDbViewportTableRecord
  2
*Active
 70
     0
 10
0.0
 20
0.0
 11
1.0
 21
1.0
 12
833.9756992934319
 22
642.2645436840484
 13
0.0
 23
0.0
 14
0.5
 24
0.5
 15
0.5
 25
0.5
 16
0.0
 26
0.0
 36
1.0
 17
0.0
 27
0.0
 37
0.0
 40
1365.815282256648
 41
2.294999999999999
 42
50.0
 43
0.0
 44
0.0
 50
0.0
 51
0.0
 71
     0
 72
   100
 73
     1
 74
     3
 75
     1
 76
     0
 77
     0
 78
     0
281
     0
 65
     1
110
0.0
120
0.0
130
0.0
111
1.0
121
0.0
131
0.0
112
0.0
122
1.0
132
0.0
 79
     0
146
0.0
  0
ENDTAB
  0
TABLE
  2
LTYPE
  5
5
330
0
100
AcDbSymbolTable
 70
     6
  0
LTYPE
  5
14
330
5
100
AcDbSymbolTableRecord
100
AcDbLinetypeTableRecord
  2
ByBlock
 70
     0
  3

 72
    65
 73
     0
 40
0.0
  0
LTYPE
  5
15
330
5
100
AcDbSymbolTableRecord
100
AcDbLinetypeTableRecord
  2
ByLayer
 70
     0
  3

 72
    65
 73
     0
 40
0.0
  0
LTYPE
  5
16
330
5
100
AcDbSymbolTableRecord
100
AcDbLinetypeTableRecord
  2
Continuous
 70
     0
  3
Solid line
 72
    65
 73
     0
 40
0.0
  0
LTYPE
  5
5B
330
5
100
AcDbSymbolTableRecord
100
AcDbLinetypeTableRecord
  2
CENTERX2
 70
     0
  3
Center (2x) ________  __  ________  __  _____
 72
    65
 73
     4
 40
101.6
 49
63.5
 74
     4
 75
     0
340
0
 46
1.0
 50
0.0
 44
0.0
 45
0.0
 49
-12.7
 74
     4
 75
     0
340
0
 46
1.0
 50
0.0
 44
0.0
 45
0.0
 49
12.7
 74
     4
 75
     0
340
0
 46
1.0
 50
0.0
 44
0.0
 45
0.0
 49
-12.7
 74
     4
 75
     0
340
0
 46
1.0
 50
0.0
 44
0.0
 45
0.0
  0
LTYPE
  5
192
330
5
100
AcDbSymbolTableRecord
100
AcDbLinetypeTableRecord
  2
CENTER
 70
     0
  3
Center ____ _ ____ _ ____ _ ____ _ ____ _ ____
 72
    65
 73
     4
 40
50.8
 49
31.75
 74
     4
 75
     0
340
0
 46
1.0
 50
0.0
 44
0.0
 45
0.0
 49
-6.349999999999999
 74
     4
 75
     0
340
0
 46
1.0
 50
0.0
 44
0.0
 45
0.0
 49
6.349999999999999
 74
     4
 75
     0
340
0
 46
1.0
 50
0.0
 44
0.0
 45
0.0
 49
-6.349999999999999
 74
     4
 75
     0
340
0
 46
1.0
 50
0.0
 44
0.0
 45
0.0
  0
LTYPE
  5
112E
330
5
100
AcDbSymbolTableRecord
100
AcDbLinetypeTableRecord
  2
DASHED
 70
     0
  3
Dashed __ __ __ __ __ __ __ __ __ __ __ __ __ _
 72
    65
 73
     2
 40
19.05
 49
12.7
 74
     4
 75
     0
340
0
 46
1.0
 50
0.0
 44
0.0
 45
0.0
 49
-6.349999999999999
 74
     4
 75
     0
340
0
 46
1.0
 50
0.0
 44
0.0
 45
0.0
  0
LTYPE
  5
121B
330
5
100
AcDbSymbolTableRecord
100
AcDbLinetypeTableRecord
  2
ACAD_ISO02W100
 70
     0
  3
ISO dash __ __ __ __ __ __ __ __ __ __ __ __ __
 72
    65
 73
     2
 40
15.0
 49
12.0
 74
     4
 75
     0
340
0
 46
1.0
 50
0.0
 44
0.0
 45
0.0
 49
-3.0
 74
     4
 75
     0
340
0
 46
1.0
 50
0.0
 44
0.0
 45
0.0
  0
LTYPE
  5
121C
330
5
100
AcDbSymbolTableRecord
100
AcDbLinetypeTableRecord
  2
DIVIDE
 70
     0
  3
Divide ____ . . ____ . . ____ . . ____ . . ____
 72
    65
 73
     6
 40
31.75
 49
12.7
 74
     4
 75
     0
340
0
 46
1.0
 50
0.0
 44
0.0
 45
0.0
 49
-6.349999999999999
 74
     4
 75
     0
340
0
 46
1.0
 50
0.0
 44
0.0
 45
0.0
 49
0.0
 74
     4
 75
     0
340
0
 46
1.0
 50
0.0
 44
0.0
 45
0.0
 49
-6.349999999999999
 74
     4
 75
     0
340
0
 46
1.0
 50
0.0
 44
0.0
 45
0.0
 49
0.0
 74
     4
 75
     0
340
0
 46
1.0
 50
0.0
 44
0.0
 45
0.0
 49
-6.349999999999999
 74
     4
 75
     0
340
0
 46
1.0
 50
0.0
 44
0.0
 45
0.0
  0
ENDTAB
  0
TABLE
  2
LAYER
  5
2
102
{ACAD_XDICTIONARY
360
36E2
102
}
330
0
100
AcDbSymbolTable
 70
    17
  0
LAYER
  5
10
330
2
100
AcDbSymbolTableRecord
100
AcDbLayerTableRecord
  2
0
 70
     0
 62
     7
  6
Continuous
370
    -3
390
F
  0
LAYER
  5
5C
330
2
100
AcDbSymbolTableRecord
100
AcDbLayerTableRecord
  2
粗实线
 70
     0
 62
     7
  6
Continuous
370
    30
390
F
1001
AcAecLayerStandard
1000

1000

  0
LAYER
  5
5D
330
2
100
AcDbSymbolTableRecord
100
AcDbLayerTableRecord
  2
中心线
 70
     0
 62
     1
  6
CENTERX2
370
    15
390
F
1001
AcAecLayerStandard
1000

1000

  0
LAYER
  5
5E
330
2
100
AcDbSymbolTableRecord
100
AcDbLayerTableRecord
  2
标注
 70
     0
 62
     4
  6
Continuous
370
    15
390
F
1001
AcAecLayerStandard
1000

1000

  0
LAYER
  5
5F
330
2
100
AcDbSymbolTableRecord
100
AcDbLayerTableRecord
  2
Defpoints
 70
     0
 62
     7
  6
Continuous
290
     0
370
    -3
390
F
  0
LAYER
  5
118
330
2
100
AcDbSymbolTableRecord
100
AcDbLayerTableRecord
  2
图层1粗线
 70
     0
 62
     7
  6
Continuous
370
    -3
390
F
1001
AcAecLayerStandard
1000

1000

  0
LAYER
  5
193
330
2
100
AcDbSymbolTableRecord
100
AcDbLayerTableRecord
  2
细实线
 70
     0
 62
     3
  6
Continuous
370
    15
390
F
1001
AcAecLayerStandard
1000

1000

  0
LAYER
  5
357
330
2
100
AcDbSymbolTableRecord
100
AcDbLayerTableRecord
  2
图层2
 70
     0
 62
     7
  6
Continuous
370
    30
390
F
1001
AcAecLayerStandard
1000

1000

  0
LAYER
  5
358
330
2
100
AcDbSymbolTableRecord
100
AcDbLayerTableRecord
  2
图层3
 70
     0
 62
     7
  6
Continuous
370
    18
390
F
1001
AcAecLayerStandard
1000

1000

  0
LAYER
  5
4E7
330
2
100
AcDbSymbolTableRecord
100
AcDbLayerTableRecord
  2
文字
 70
     0
 62
     1
  6
Continuous
370
    15
390
F
1001
AcAecLayerStandard
1000

1000

  0
LAYER
  5
4E8
330
2
100
AcDbSymbolTableRecord
100
AcDbLayerTableRecord
  2
不可见
 70
     0
 62
     2
  6
Continuous
290
     0
370
    15
390
F
1001
AcAecLayerStandard
1000

1000

  0
LAYER
  5
4E9
330
2
100
AcDbSymbolTableRecord
100
AcDbLayerTableRecord
  2
图层2细线
 70
     0
 62
     3
  6
Continuous
370
    -3
390
F
1001
AcAecLayerStandard
1000

1000

  0
LAYER
  5
4EA
330
2
100
AcDbSymbolTableRecord
100
AcDbLayerTableRecord
  2
图框线
 70
     0
 62
     7
  6
Continuous
370
    13
390
F
1001
AcAecLayerStandard
1000

1000

  0
LAYER
  5
4EB
330
2
100
AcDbSymbolTableRecord
100
AcDbLayerTableRecord
  2
图层 1
 70
     0
 62
     7
  6
Continuous
370
    -3
390
F
  0
LAYER
  5
112F
330
2
100
AcDbSymbolTableRecord
100
AcDbLayerTableRecord
  2
图层1
 70
     0
 62
     7
  6
DASHED
370
    25
390
F
1001
AcAecLayerStandard
1000

1000

  0
LAYER
  5
121D
330
2
100
AcDbSymbolTableRecord
100
AcDbLayerTableRecord
  2
虚线
 70
     0
 62
     2
  6
ACAD_ISO02W100
370
    15
390
F
1001
AcAecLayerStandard
1000

1000

  0
LAYER
  5
121E
330
2
100
AcDbSymbolTableRecord
100
AcDbLayerTableRecord
  2
剖切线
 70
     0
 62
   241
  6
Continuous
370
    15
390
F
1001
AcAecLayerStandard
1000

1000

  0
ENDTAB
  0
TABLE
  2
STYLE
  5
3
330
0
100
AcDbSymbolTable
 70
     5
  0
STYLE
  5
11
330
3
100
AcDbSymbolTableRecord
100
AcDbTextStyleTableRecord
  2
Standard
 70
     0
 40
0.0
 41
1.0
 50
0.0
 71
     0
 42
0.2
  3
txt
  4

  0
STYLE
  5
5A
330
3
100
AcDbSymbolTableRecord
100
AcDbTextStyleTableRecord
  2
样式 8
 70
     0
 40
10.0
 41
0.7
 50
0.0
 71
     0
 42
10.0
  3
txt.shx
  4
gbcbig.shx
  0
STYLE
  5
117
330
3
100
AcDbSymbolTableRecord
100
AcDbTextStyleTableRecord
  2
样式 1
 70
     0
 40
5.0
 41
1.0
 50
0.0
 71
     0
 42
5.0
  3
txt.shx
  4
gbcbig.shx
  0
STYLE
  5
356
330
3
100
AcDbSymbolTableRecord
100
AcDbTextStyleTableRecord
  2
样式 2
 70
     0
 40
0.0
 41
0.35
 50
0.0
 71
     0
 42
2.5
  3
txt.shx
  4
gbcbig.shx
  0
STYLE
  5
4E6
330
3
100
AcDbSymbolTableRecord
100
AcDbTextStyleTableRecord
  2
样式 3
 70
     0
 40
3.5
 41
0.7
 50
0.0
 71
     0
 42
5.0
  3
txt.shx
  4
gbcbig.shx
  0
ENDTAB
  0
TABLE
  2
VIEW
  5
6
330
0
100
AcDbSymbolTable
 70
     0
  0
ENDTAB
  0
TABLE
  2
UCS
  5
7
330
0
100
AcDbSymbolTable
 70
     0
  0
ENDTAB
  0
TABLE
  2
APPID
  5
9
330
0
100
AcDbSymbolTable
 70
    46
  0
APPID
  5
12
330
9
100
AcDbSymbolTableRecord
100
AcDbRegAppTableRecord
  2
ACAD
 70
     0
  0
APPID
  5
3B
330
9
100
AcDbSymbolTableRecord
100
AcDbRegAppTableRecord
  2
ACAD_PSEXT
 70
     0
  0
APPID
  5
3C
330
9
100
AcDbSymbolTableRecord
100
AcDbRegAppTableRecord
  2
AcAecLayerStandard
 70
     0
  0
APPID
  5
3D
330
9
100
AcDbSymbolTableRecord
100
AcDbRegAppTableRecord
  2
ACAD_DSTYLE_DIMTEXT_FILL
 70
     0
  0
APPID
  5
3E
330
9
100
AcDbSymbolTableRecord
100
AcDbRegAppTableRecord
  2
DCO15
 70
     0
  0
APPID
  5
3F
330
9
100
AcDbSymbolTableRecord
100
AcDbRegAppTableRecord
  2
ACAD_DSTYLE_DIMEXT_LENGTH
 70
     0
  0
APPID
  5
40
330
9
100
AcDbSymbolTableRecord
100
AcDbRegAppTableRecord
  2
ACAD_DSTYLE_DIMEXT_ENABLED
 70
     0
  0
APPID
  5
41
330
9
100
AcDbSymbolTableRecord
100
AcDbRegAppTableRecord
  2
ACAD_DSTYLE_DIM_LINETYPE
 70
     0
  0
APPID
  5
42
330
9
100
AcDbSymbolTableRecord
100
AcDbRegAppTableRecord
  2
ACAD_DSTYLE_DIM_EXT1_LINETYPE
 70
     0
  0
APPID
  5
43
330
9
100
AcDbSymbolTableRecord
100
AcDbRegAppTableRecord
  2
ACAD_DSTYLE_DIM_EXT2_LINETYPE
 70
     0
  0
APPID
  5
44
330
9
100
AcDbSymbolTableRecord
100
AcDbRegAppTableRecord
  2
ACAD_EXEMPT_FROM_CAD_STANDARDS
 70
     0
  0
APPID
  5
45
330
9
100
AcDbSymbolTableRecord
100
AcDbRegAppTableRecord
  2
AcadAnnoPO
 70
     0
  0
APPID
  5
46
330
9
100
AcDbSymbolTableRecord
100
AcDbRegAppTableRecord
  2
AcadAnnotative
 70
     0
  0
APPID
  5
47
330
9
100
AcDbSymbolTableRecord
100
AcDbRegAppTableRecord
  2
ACAD_DSTYLE_DIMJAG
 70
     0
  0
APPID
  5
48
330
9
100
AcDbSymbolTableRecord
100
AcDbRegAppTableRecord
  2
ACAD_DSTYLE_DIMTALN
 70
     0
  0
APPID
  5
49
330
9
100
AcDbSymbolTableRecord
100
AcDbRegAppTableRecord
  2
ACAD_MLEADERVER
 70
     0
  0
APPID
  5
4A
330
9
100
AcDbSymbolTableRecord
100
AcDbRegAppTableRecord
  2
ACAD_DSTYLE_DIMRADIAL_EXTENSION
 70
     0
  0
APPID
  5
4B
330
9
100
AcDbSymbolTableRecord
100
AcDbRegAppTableRecord
  2
ACAD_DSTYLE_DIMBREAK
 70
     0
  0
APPID
  5
4C
330
9
100
AcDbSymbolTableRecord
100
AcDbRegAppTableRecord
  2
ACAD_DSTYLE_DIMARC_LENGTH_SYMBOL
 70
     0
  0
APPID
  5
4D
330
9
100
AcDbSymbolTableRecord
100
AcDbRegAppTableRecord
  2
ACAD_DSTYLE_DIMJOGGED_JOGANGLE_SYMBOL
 70
     0
  0
APPID
  5
4E
330
9
100
AcDbSymbolTableRecord
100
AcDbRegAppTableRecord
  2
MCAD_NO_VIS
 70
     0
  0
APPID
  5
4F
330
9
100
AcDbSymbolTableRecord
100
AcDbRegAppTableRecord
  2
ACAD_TEMP_GRAPHIC
 70
     0
  0
APPID
  5
50
330
9
100
AcDbSymbolTableRecord
100
AcDbRegAppTableRecord
  2
AD_DRAW
 70
     0
  0
APPID
  5
51
330
9
100
AcDbSymbolTableRecord
100
AcDbRegAppTableRecord
  2
ACATTRIBSERVICES
 70
     0
  0
APPID
  5
52
330
9
100
AcDbSymbolTableRecord
100
AcDbRegAppTableRecord
  2
DESIGNERASSEMBLIES
 70
     0
  0
APPID
  5
53
330
9
100
AcDbSymbolTableRecord
100
AcDbRegAppTableRecord
  2
ACADM_DIM_EDIT
 70
     0
  0
APPID
  5
54
330
9
100
AcDbSymbolTableRecord
100
AcDbRegAppTableRecord
  2
AMDT_DM_ADJ
 70
     0
  0
APPID
  5
55
330
9
100
AcDbSymbolTableRecord
100
AcDbRegAppTableRecord
  2
GENIUS_GENODEF_13
 70
     0
  0
APPID
  5
56
330
9
100
AcDbSymbolTableRecord
100
AcDbRegAppTableRecord
  2
GENIUS_GENOBJ-N-FIL_13
 70
     0
  0
APPID
  5
57
330
9
100
AcDbSymbolTableRecord
100
AcDbRegAppTableRecord
  2
ACAD_DIMASSOC_CALC_DIMLFAC
 70
     0
  0
APPID
  5
58
330
9
100
AcDbSymbolTableRecord
100
AcDbRegAppTableRecord
  2
ACAD_DIMASSOC_DIMLFAC
 70
     0
  0
APPID
  5
59
330
9
100
AcDbSymbolTableRecord
100
AcDbRegAppTableRecord
  2
ACAD_DIMASSOC_OVERRIDDEN_DIMLFAC
 70
     0
  0
APPID
  5
4E5
330
9
100
AcDbSymbolTableRecord
100
AcDbRegAppTableRecord
  2
CAXA
 70
     0
  0
APPID
  5
1BF7
330
9
100
AcDbSymbolTableRecord
100
AcDbRegAppTableRecord
  2
AVE_RENDER
 70
     0
  0
APPID
  5
1BF8
330
9
100
AcDbSymbolTableRecord
100
AcDbRegAppTableRecord
  2
AVE_ENTITY_MATERIAL
 70
     0
  0
APPID
  5
1BF9
330
9
100
AcDbSymbolTableRecord
100
AcDbRegAppTableRecord
  2
AVE_FINISH
 70
     0
  0
APPID
  5
1BFA
330
9
100
AcDbSymbolTableRecord
100
AcDbRegAppTableRecord
  2
AVE_MATERIAL
 70
     0
  0
APPID
  5
1BFB
330
9
100
AcDbSymbolTableRecord
100
AcDbRegAppTableRecord
  2
AVE_GLOBAL
 70
     0
  0
APPID
  5
1BFC
330
9
100
AcDbSymbolTableRecord
100
AcDbRegAppTableRecord
  2
GENIUS_GENBLLY_14
 70
     0
  0
APPID
  5
1BFD
330
9
100
AcDbSymbolTableRecord
100
AcDbRegAppTableRecord
  2
ODA
 70
     0
  0
APPID
  5
1BFE
330
9
100
AcDbSymbolTableRecord
100
AcDbRegAppTableRecord
  2
RAK
 70
     0
  0
APPID
  5
1BFF
330
9
100
AcDbSymbolTableRecord
100
AcDbRegAppTableRecord
  2
AcDbDynamicBlockGUID
 70
     0
  0
APPID
  5
1C00
330
9
100
AcDbSymbolTableRecord
100
AcDbRegAppTableRecord
  2
AcDbBlockRepETag
 70
     0
  0
APPID
  5
1C01
330
9
100
AcDbSymbolTableRecord
100
AcDbRegAppTableRecord
  2
ACAUTHENVIRON
 70
     0
  0
APPID
  5
1C02
330
9
100
AcDbSymbolTableRecord
100
AcDbRegAppTableRecord
  2
AcDbDynamicBlockTrueName
 70
     0
  0
APPID
  5
49FC
330
9
100
AcDbSymbolTableRecord
100
AcDbRegAppTableRecord
  2
AcDbAttr
 70
     0
  0
ENDTAB
  0
TABLE
  2
DIMSTYLE
  5
A
330
0
100
AcDbSymbolTable
 70
     5
100
AcDbDimStyleTable
 71
     1
340
25
  0
DIMSTYLE
105
25
330
A
100
AcDbSymbolTableRecord
100
AcDbDimStyleTableRecord
  2
Standard
 70
     0
340
11
  0
DIMSTYLE
105
60
330
A
100
AcDbSymbolTableRecord
100
AcDbDimStyleTableRecord
  2
副本 (3) ISO-25 4
 70
     0
 41
14.0
 42
0.0
 43
10.0
 44
6.0
 73
     0
 74
     0
 77
     1
 78
     8
140
20.0
141
7.5
143
0.03937007874016
147
1.5
171
     3
172
     1
271
     1
272
     1
274
     3
283
     0
284
     8
340
11
  0
DIMSTYLE
105
119
330
A
100
AcDbSymbolTableRecord
100
AcDbDimStyleTableRecord
  2
副本 ISO-25
 70
     0
 41
12.0
 42
0.0
 43
10.0
 44
5.0
 73
     0
 74
     0
 77
     1
 78
     8
140
18.0
141
1.5
143
0.03937007874016
147
1.5
171
     3
172
     1
271
     1
272
     1
274
     3
278
    44
283
     0
284
     8
340
11
  0
DIMSTYLE
105
359
330
A
100
AcDbSymbolTableRecord
100
AcDbDimStyleTableRecord
  2
ISO-25
 70
     0
 41
17.0
 42
3.0
 43
3.75
 44
1.25
 73
     0
 77
     1
 78
     8
140
19.0
141
80.0
143
0.03937007874016
147
7.0
170
     1
171
     3
172
     1
271
     2
272
     2
273
     7
274
     3
283
     0
284
     8
340
11
  0
DIMSTYLE
105
4EC
330
A
100
AcDbSymbolTableRecord
100
AcDbDimStyleTableRecord
  2
英寸
 70
     0
 41
12.0
 42
0.0
 43
10.0
 44
3.75
 73
     0
 74
     0
 77
     1
 78
     8
140
16.0
141
7.5
143
0.03937007874016
147
2.0
170
     1
171
     3
172
     1
179
     1
271
     1
272
     1
273
     7
274
     3
283
     0
284
     8
340
11
  0
ENDTAB
  0
TABLE
  2
BLOCK_RECORD
  5
1
330
0
100
AcDbSymbolTable
 70
    37
  0
BLOCK_RECORD
  5
1F
330
1
100
AcDbSymbolTableRecord
100
AcDbBlockTableRecord
  2
*Model_Space
340
22
  0
BLOCK_RECORD
  5
1B
330
1
100
AcDbSymbolTableRecord
100
AcDbBlockTableRecord
  2
*Paper_Space
340
1E
  0
BLOCK_RECORD
  5
23
330
1
100
AcDbSymbolTableRecord
100
AcDbBlockTableRecord
  2
*Paper_Space0
340
24
  0
BLOCK_RECORD
  5
4783
330
1
100
AcDbSymbolTableRecord
100
AcDbBlockTableRecord
  2
*D1
340
0
  0
BLOCK_RECORD
  5
478F
330
1
100
AcDbSymbolTableRecord
100
AcDbBlockTableRecord
  2
*D2
340
0
  0
BLOCK_RECORD
  5
479B
330
1
100
AcDbSymbolTableRecord
100
AcDbBlockTableRecord
  2
*D3
340
0
  0
BLOCK_RECORD
  5
47A7
330
1
100
AcDbSymbolTableRecord
100
AcDbBlockTableRecord
  2
*D4
340
0
  0
BLOCK_RECORD
  5
47B3
330
1
100
AcDbSymbolTableRecord
100
AcDbBlockTableRecord
  2
*D5
340
0
  0
BLOCK_RECORD
  5
47BF
330
1
100
AcDbSymbolTableRecord
100
AcDbBlockTableRecord
  2
*D6
340
0
  0
BLOCK_RECORD
  5
489E
330
1
100
AcDbSymbolTableRecord
100
AcDbBlockTableRecord
  2
*D7
340
0
  0
BLOCK_RECORD
  5
48AC
330
1
100
AcDbSymbolTableRecord
100
AcDbBlockTableRecord
  2
*D8
340
0
  0
BLOCK_RECORD
  5
4C00
330
1
100
AcDbSymbolTableRecord
100
AcDbBlockTableRecord
  2
*D9
340
0
  0
BLOCK_RECORD
  5
4C0D
330
1
100
AcDbSymbolTableRecord
100
AcDbBlockTableRecord
  2
*D10
340
0
  0
BLOCK_RECORD
  5
4C1A
330
1
100
AcDbSymbolTableRecord
100
AcDbBlockTableRecord
  2
*D11
340
0
  0
BLOCK_RECORD
  5
4C27
330
1
100
AcDbSymbolTableRecord
100
AcDbBlockTableRecord
  2
*D12
340
0
  0
BLOCK_RECORD
  5
4C34
330
1
100
AcDbSymbolTableRecord
100
AcDbBlockTableRecord
  2
*D13
340
0
  0
BLOCK_RECORD
  5
4C41
330
1
100
AcDbSymbolTableRecord
100
AcDbBlockTableRecord
  2
*D14
340
0
  0
BLOCK_RECORD
  5
4C4F
330
1
100
AcDbSymbolTableRecord
100
AcDbBlockTableRecord
  2
*D15
340
0
  0
BLOCK_RECORD
  5
4C5E
330
1
100
AcDbSymbolTableRecord
100
AcDbBlockTableRecord
  2
*D16
340
0
  0
BLOCK_RECORD
  5
4D45
330
1
100
AcDbSymbolTableRecord
100
AcDbBlockTableRecord
  2
*D17
340
0
  0
BLOCK_RECORD
  5
4D51
330
1
100
AcDbSymbolTableRecord
100
AcDbBlockTableRecord
  2
*D18
340
0
  0
BLOCK_RECORD
  5
4D5D
330
1
100
AcDbSymbolTableRecord
100
AcDbBlockTableRecord
  2
*D19
340
0
  0
BLOCK_RECORD
  5
4E5B
330
1
100
AcDbSymbolTableRecord
100
AcDbBlockTableRecord
  2
*D20
340
0
  0
BLOCK_RECORD
  5
4E67
330
1
100
AcDbSymbolTableRecord
100
AcDbBlockTableRecord
  2
*D21
340
0
  0
BLOCK_RECORD
  5
4E73
330
1
100
AcDbSymbolTableRecord
100
AcDbBlockTableRecord
  2
*D22
340
0
  0
BLOCK_RECORD
  5
4F47
330
1
100
AcDbSymbolTableRecord
100
AcDbBlockTableRecord
  2
*D23
340
0
  0
BLOCK_RECORD
  5
4F51
330
1
100
AcDbSymbolTableRecord
100
AcDbBlockTableRecord
  2
*D24
340
0
  0
BLOCK_RECORD
  5
4F5B
330
1
100
AcDbSymbolTableRecord
100
AcDbBlockTableRecord
  2
*D25
340
0
  0
BLOCK_RECORD
  5
4F65
330
1
100
AcDbSymbolTableRecord
100
AcDbBlockTableRecord
  2
*D26
340
0
  0
BLOCK_RECORD
  5
4F6F
330
1
100
AcDbSymbolTableRecord
100
AcDbBlockTableRecord
  2
*D27
340
0
  0
BLOCK_RECORD
  5
4F79
330
1
100
AcDbSymbolTableRecord
100
AcDbBlockTableRecord
  2
*D28
340
0
  0
BLOCK_RECORD
  5
4F83
330
1
100
AcDbSymbolTableRecord
100
AcDbBlockTableRecord
  2
*D29
340
0
  0
BLOCK_RECORD
  5
4F8F
330
1
100
AcDbSymbolTableRecord
100
AcDbBlockTableRecord
  2
*D30
340
0
  0
BLOCK_RECORD
  5
4F9B
330
1
100
AcDbSymbolTableRecord
100
AcDbBlockTableRecord
  2
*D31
340
0
  0
BLOCK_RECORD
  5
4FA7
330
1
100
AcDbSymbolTableRecord
100
AcDbBlockTableRecord
  2
*D32
340
0
  0
BLOCK_RECORD
  5
4FB3
330
1
100
AcDbSymbolTableRecord
100
AcDbBlockTableRecord
  2
*D33
340
0
  0
BLOCK_RECORD
  5
4FBF
330
1
100
AcDbSymbolTableRecord
100
AcDbBlockTableRecord
  2
*D34
340
0
  0
BLOCK_RECORD
  5
4FCB
330
1
100
AcDbSymbolTableRecord
100
AcDbBlockTableRecord
  2
*D35
340
0
  0
BLOCK_RECORD
  5
4FD9
330
1
100
AcDbSymbolTableRecord
100
AcDbBlockTableRecord
  2
*D36
340
0
  0
ENDTAB
  0
ENDSEC
  0
SECTION
  2
BLOCKS
  0
BLOCK
  5
20
330
1F
100
AcDbEntity
  8
0
100
AcDbBlockBegin
  2
*Model_Space
 70
     0
 10
0.0
 20
0.0
 30
0.0
  3
*Model_Space
  1

  0
ENDBLK
  5
21
330
1F
100
AcDbEntity
  8
0
100
AcDbBlockEnd
  0
BLOCK
  5
1C
330
1B
100
AcDbEntity
 67
     1
  8
0
100
AcDbBlockBegin
  2
*Paper_Space
 70
     0
 10
0.0
 20
0.0
 30
0.0
  3
*Paper_Space
  1

  0
ENDBLK
  5
1D
330
1B
100
AcDbEntity
 67
     1
  8
0
100
AcDbBlockEnd
  0
BLOCK
  5
39
330
23
100
AcDbEntity
 67
     1
  8
0
100
AcDbBlockBegin
  2
*Paper_Space0
 70
     0
 10
0.0
 20
0.0
 30
0.0
  3
*Paper_Space0
  1

  0
ENDBLK
  5
3A
330
23
100
AcDbEntity
 67
     1
  8
0
100
AcDbBlockEnd
  0
BLOCK
  5
478D
330
4783
100
AcDbEntity
  8
0
100
AcDbBlockBegin
  2
*D1
 70
     1
 10
0.0
 20
0.0
 30
0.0
  3
*D1
  1

  0
LINE
  5
499F
330
4783
100
AcDbEntity
  8
标注
 62
     0
370
    -2
100
AcDbLine
 10
856.2664468469479
 20
781.5
 30
0.0
 11
856.2664468469479
 21
859.6111632339489
 31
0.0
  0
LINE
  5
49A0
330
4783
100
AcDbEntity
  8
标注
 62
     0
370
    -2
100
AcDbLine
 10
311.2664468469479
 20
795.5
 30
0.0
 11
311.2664468469479
 21
859.6111632339489
 31
0.0
  0
LINE
  5
49A1
330
4783
100
AcDbEntity
  8
标注
 62
     0
370
    -2
100
AcDbLine
 10
848.2664468469479
 20
855.861163233949
 30
0.0
 11
319.2664468469479
 21
855.861163233949
 31
0.0
  0
SOLID
  5
49A2
330
4783
100
AcDbEntity
  8
标注
 62
     0
100
AcDbTrace
 10
848.2664468469479
 20
857.1944965672823
 30
0.0
 11
848.2664468469479
 21
854.5278299006154
 31
0.0
 12
856.2664468469479
 22
855.861163233949
 32
0.0
 13
856.2664468469479
 23
855.861163233949
 33
0.0
  0
SOLID
  5
49A3
330
4783
100
AcDbEntity
  8
标注
 62
     0
100
AcDbTrace
 10
319.2664468469479
 20
857.1944965672823
 30
0.0
 11
319.2664468469479
 21
854.5278299006154
 31
0.0
 12
311.2664468469479
 22
855.861163233949
 32
0.0
 13
311.2664468469479
 23
855.861163233949
 33
0.0
  0
MTEXT
  5
49A4
330
4783
100
AcDbEntity
  8
标注
 62
     0
100
AcDbMText
 10
584.0329343690282
 20
868.218598431766
 30
0.0
 40
16.0
 41
0.0
 71
     5
 72
     1
  1
{\fArial|b0|i0|c0|p34;545 [21 1/2]}
 73
     1
 44
1.0
1001
ACAD
1000
MTEXTBEGIN
1070
    73
1070
     1
1070
    44
1040
1.0
1070
    74
1070
     0
1000
MTEXTEND
  0
POINT
  5
49A5
330
4783
100
AcDbEntity
  8
Defpoints
 62
     0
100
AcDbPoint
 10
856.2664468469479
 20
781.5
 30
0.0
  0
POINT
  5
49A6
330
4783
100
AcDbEntity
  8
Defpoints
 62
     0
100
AcDbPoint
 10
311.2664468469479
 20
795.5
 30
0.0
  0
POINT
  5
49A7
330
4783
100
AcDbEntity
  8
Defpoints
 62
     0
100
AcDbPoint
 10
311.2664468469479
 20
855.861163233949
 30
0.0
  0
ENDBLK
  5
478E
330
4783
100
AcDbEntity
  8
0
100
AcDbBlockEnd
  0
BLOCK
  5
4799
330
478F
100
AcDbEntity
  8
0
100
AcDbBlockBegin
  2
*D2
 70
     1
 10
0.0
 20
0.0
 30
0.0
  3
*D2
  1

  0
LINE
  5
49A8
330
478F
100
AcDbEntity
  8
标注
 62
     0
370
    -2
100
AcDbLine
 10
313.0
 20
786.9999759392786
 30
0.0
 11
230.2877399689498
 21
786.9999759392787
 31
0.0
  0
LINE
  5
49A9
330
478F
100
AcDbEntity
  8
标注
 62
     0
370
    -2
100
AcDbLine
 10
309.5
 20
308.9999759392815
 30
0.0
 11
230.2877399689496
 21
308.9999759392815
 31
0.0
  0
LINE
  5
49AA
330
478F
100
AcDbEntity
  8
标注
 62
     0
370
    -2
100
AcDbLine
 10
234.0377399689498
 20
778.9999759392787
 30
0.0
 11
234.0377399689496
 21
316.9999759392815
 31
0.0
  0
SOLID
  5
49AB
330
478F
100
AcDbEntity
  8
标注
 62
     0
100
AcDbTrace
 10
232.7044066356164
 20
778.9999759392787
 30
0.0
 11
235.3710733022831
 21
778.9999759392787
 31
0.0
 12
234.0377399689498
 22
786.9999759392787
 32
0.0
 13
234.0377399689498
 23
786.9999759392787
 33
0.0
  0
SOLID
  5
49AC
330
478F
100
AcDbEntity
  8
标注
 62
     0
100
AcDbTrace
 10
232.7044066356163
 20
316.9999759392815
 30
0.0
 11
235.371073302283
 21
316.9999759392815
 31
0.0
 12
234.0377399689496
 22
308.9999759392815
 32
0.0
 13
234.0377399689496
 23
308.9999759392815
 33
0.0
  0
MTEXT
  5
49AD
330
478F
100
AcDbEntity
  8
标注
 62
     0
100
AcDbMText
 10
221.6803047711324
 20
547.9999759392801
 30
0.0
 40
16.0
 41
0.0
 71
     5
 72
     1
  1
{\fArial|b0|i0|c0|p34;478 [18 7/8]}
 11
0.0000000000000001
 21
1.0
 31
0.0
 73
     1
 44
1.0
1001
ACAD
1000
MTEXTBEGIN
1070
    73
1070
     1
1070
    44
1040
1.0
1070
    74
1070
     0
1000
MTEXTEND
  0
POINT
  5
49AE
330
478F
100
AcDbEntity
  8
Defpoints
 62
     0
100
AcDbPoint
 10
313.0
 20
786.9999759392786
 30
0.0
  0
POINT
  5
49AF
330
478F
100
AcDbEntity
  8
Defpoints
 62
     0
100
AcDbPoint
 10
309.5
 20
308.9999759392815
 30
0.0
  0
POINT
  5
49B0
330
478F
100
AcDbEntity
  8
Defpoints
 62
     0
100
AcDbPoint
 10
234.0377399689496
 20
308.9999759392815
 30
0.0
  0
ENDBLK
  5
479A
330
478F
100
AcDbEntity
  8
0
100
AcDbBlockEnd
  0
BLOCK
  5
47A5
330
479B
100
AcDbEntity
  8
0
100
AcDbBlockBegin
  2
*D3
 70
     1
 10
0.0
 20
0.0
 30
0.0
  3
*D3
  1

  0
LINE
  5
49B1
330
479B
100
AcDbEntity
  8
标注
 62
     0
370
    -2
100
AcDbLine
 10
862.6164468469481
 20
783.4999999999999
 30
0.0
 11
862.6164468469481
 21
893.1111632339488
 31
0.0
  0
LINE
  5
49B2
330
479B
100
AcDbEntity
  8
标注
 62
     0
370
    -2
100
AcDbLine
 10
304.9164468469471
 20
799.5
 30
0.0
 11
304.9164468469471
 21
893.1111632339488
 31
0.0
  0
LINE
  5
49B3
330
479B
100
AcDbEntity
  8
标注
 62
     0
370
    -2
100
AcDbLine
 10
854.6164468469481
 20
889.3611632339489
 30
0.0
 11
312.9164468469471
 21
889.3611632339489
 31
0.0
  0
SOLID
  5
49B4
330
479B
100
AcDbEntity
  8
标注
 62
     0
100
AcDbTrace
 10
854.6164468469481
 20
890.6944965672822
 30
0.0
 11
854.6164468469481
 21
888.0278299006155
 31
0.0
 12
862.6164468469481
 22
889.3611632339489
 32
0.0
 13
862.6164468469481
 23
889.3611632339489
 33
0.0
  0
SOLID
  5
49B5
330
479B
100
AcDbEntity
  8
标注
 62
     0
100
AcDbTrace
 10
312.9164468469471
 20
890.6944965672822
 30
0.0
 11
312.9164468469471
 21
888.0278299006155
 31
0.0
 12
304.9164468469471
 22
889.3611632339489
 32
0.0
 13
304.9164468469471
 23
889.3611632339489
 33
0.0
  0
MTEXT
  5
49B6
330
479B
100
AcDbEntity
  8
标注
 62
     0
100
AcDbMText
 10
584.033116261693
 20
901.6149149392695
 30
0.0
 40
16.0
 41
0.0
 71
     5
 72
     1
  1
{\fArial|b0|i0|c0|p34;557.7 [22]}
 73
     1
 44
1.0
1001
ACAD
1000
MTEXTBEGIN
1070
    73
1070
     1
1070
    44
1040
1.0
1070
    74
1070
     0
1000
MTEXTEND
  0
POINT
  5
49B7
330
479B
100
AcDbEntity
  8
Defpoints
 62
     0
100
AcDbPoint
 10
862.6164468469481
 20
783.4999999999999
 30
0.0
  0
POINT
  5
49B8
330
479B
100
AcDbEntity
  8
Defpoints
 62
     0
100
AcDbPoint
 10
304.9164468469471
 20
799.5
 30
0.0
  0
POINT
  5
49B9
330
479B
100
AcDbEntity
  8
Defpoints
 62
     0
100
AcDbPoint
 10
304.9164468469471
 20
889.3611632339489
 30
0.0
  0
ENDBLK
  5
47A6
330
479B
100
AcDbEntity
  8
0
100
AcDbBlockEnd
  0
BLOCK
  5
47B1
330
47A7
100
AcDbEntity
  8
0
100
AcDbBlockBegin
  2
*D4
 70
     1
 10
0.0
 20
0.0
 30
0.0
  3
*D4
  1

  0
LINE
  5
49BA
330
47A7
100
AcDbEntity
  8
标注
 62
     0
370
    -2
100
AcDbLine
 10
313.0
 20
793.3499759392782
 30
0.0
 11
199.2877399689497
 21
793.3499759392783
 31
0.0
  0
LINE
  5
49BB
330
47A7
100
AcDbEntity
  8
标注
 62
     0
370
    -2
100
AcDbLine
 10
311.0
 20
302.6499759392818
 30
0.0
 11
199.2877399689496
 21
302.6499759392818
 31
0.0
  0
LINE
  5
49BC
330
47A7
100
AcDbEntity
  8
标注
 62
     0
370
    -2
100
AcDbLine
 10
203.0377399689498
 20
785.3499759392783
 30
0.0
 11
203.0377399689496
 21
310.6499759392818
 31
0.0
  0
SOLID
  5
49BD
330
47A7
100
AcDbEntity
  8
标注
 62
     0
100
AcDbTrace
 10
201.7044066356164
 20
785.3499759392783
 30
0.0
 11
204.3710733022831
 21
785.3499759392783
 31
0.0
 12
203.0377399689498
 22
793.3499759392783
 32
0.0
 13
203.0377399689498
 23
793.3499759392783
 33
0.0
  0
SOLID
  5
49BE
330
47A7
100
AcDbEntity
  8
标注
 62
     0
100
AcDbTrace
 10
201.7044066356163
 20
310.6499759392818
 30
0.0
 11
204.371073302283
 21
310.6499759392818
 31
0.0
 12
203.0377399689496
 22
302.6499759392818
 32
0.0
 13
203.0377399689496
 23
302.6499759392818
 33
0.0
  0
MTEXT
  5
49BF
330
47A7
100
AcDbEntity
  8
标注
 62
     0
100
AcDbMText
 10
190.6803047711324
 20
547.9999759392801
 30
0.0
 40
16.0
 41
0.0
 71
     5
 72
     1
  1
{\fArial|b0|i0|c0|p34;490.7 [19 3/8]}
 11
0.0000000000000001
 21
1.0
 31
0.0
 73
     1
 44
1.0
1001
ACAD
1000
MTEXTBEGIN
1070
    73
1070
     1
1070
    44
1040
1.0
1070
    74
1070
     0
1000
MTEXTEND
  0
POINT
  5
49C0
330
47A7
100
AcDbEntity
  8
Defpoints
 62
     0
100
AcDbPoint
 10
313.0
 20
793.3499759392782
 30
0.0
  0
POINT
  5
49C1
330
47A7
100
AcDbEntity
  8
Defpoints
 62
     0
100
AcDbPoint
 10
311.0
 20
302.6499759392818
 30
0.0
  0
POINT
  5
49C2
330
47A7
100
AcDbEntity
  8
Defpoints
 62
     0
100
AcDbPoint
 10
203.0377399689496
 20
302.6499759392818
 30
0.0
  0
ENDBLK
  5
47B2
330
47A7
100
AcDbEntity
  8
0
100
AcDbBlockEnd
  0
BLOCK
  5
47BD
330
47B3
100
AcDbEntity
  8
0
100
AcDbBlockBegin
  2
*D5
 70
     1
 10
0.0
 20
0.0
 30
0.0
  3
*D5
  1

  0
LINE
  5
49C3
330
47B3
100
AcDbEntity
  8
标注
 62
     0
370
    -2
100
AcDbLine
 10
849.9164468469484
 20
783.4999999999999
 30
0.0
 11
849.9164468469484
 21
828.6111632339489
 31
0.0
  0
LINE
  5
49C4
330
47B3
100
AcDbEntity
  8
标注
 62
     0
370
    -2
100
AcDbLine
 10
317.6164468469474
 20
797.0
 30
0.0
 11
317.6164468469474
 21
828.6111632339489
 31
0.0
  0
LINE
  5
49C5
330
47B3
100
AcDbEntity
  8
标注
 62
     0
370
    -2
100
AcDbLine
 10
841.9164468469485
 20
824.8611632339489
 30
0.0
 11
325.6164468469474
 21
824.8611632339489
 31
0.0
  0
SOLID
  5
49C6
330
47B3
100
AcDbEntity
  8
标注
 62
     0
100
AcDbTrace
 10
841.9164468469485
 20
826.1944965672823
 30
0.0
 11
841.9164468469485
 21
823.5278299006155
 31
0.0
 12
849.9164468469484
 22
824.8611632339489
 32
0.0
 13
849.9164468469484
 23
824.8611632339489
 33
0.0
  0
SOLID
  5
49C7
330
47B3
100
AcDbEntity
  8
标注
 62
     0
100
AcDbTrace
 10
325.6164468469474
 20
826.1944965672823
 30
0.0
 11
325.6164468469474
 21
823.5278299006155
 31
0.0
 12
317.6164468469474
 22
824.8611632339489
 32
0.0
 13
317.6164468469474
 23
824.8611632339489
 33
0.0
  0
MTEXT
  5
49C8
330
47B3
100
AcDbEntity
  8
标注
 62
     0
100
AcDbMText
 10
583.7664468469479
 20
837.1149149392694
 30
0.0
 40
16.0
 41
0.0
 71
     5
 72
     1
  1
{\fArial|b0|i0|c0|p34;532.3 [21]}
 73
     1
 44
1.0
1001
ACAD
1000
MTEXTBEGIN
1070
    73
1070
     1
1070
    44
1040
1.0
1070
    74
1070
     0
1000
MTEXTEND
  0
POINT
  5
49C9
330
47B3
100
AcDbEntity
  8
Defpoints
 62
     0
100
AcDbPoint
 10
849.9164468469484
 20
783.4999999999999
 30
0.0
  0
POINT
  5
49CA
330
47B3
100
AcDbEntity
  8
Defpoints
 62
     0
100
AcDbPoint
 10
317.6164468469474
 20
797.0
 30
0.0
  0
POINT
  5
49CB
330
47B3
100
AcDbEntity
  8
Defpoints
 62
     0
100
AcDbPoint
 10
317.6164468469474
 20
824.8611632339489
 30
0.0
  0
ENDBLK
  5
47BE
330
47B3
100
AcDbEntity
  8
0
100
AcDbBlockEnd
  0
BLOCK
  5
47C9
330
47BF
100
AcDbEntity
  8
0
100
AcDbBlockBegin
  2
*D6
 70
     1
 10
0.0
 20
0.0
 30
0.0
  3
*D6
  1

  0
LINE
  5
49CC
330
47BF
100
AcDbEntity
  8
标注
 62
     0
370
    -2
100
AcDbLine
 10
311.5
 20
780.6499759392793
 30
0.0
 11
258.2877399689497
 21
780.6499759392793
 31
0.0
  0
LINE
  5
49CD
330
47BF
100
AcDbEntity
  8
标注
 62
     0
370
    -2
100
AcDbLine
 10
306.5
 20
315.3499759392805
 30
0.0
 11
258.2877399689496
 21
315.3499759392805
 31
0.0
  0
LINE
  5
49CE
330
47BF
100
AcDbEntity
  8
标注
 62
     0
370
    -2
100
AcDbLine
 10
262.0377399689497
 20
772.6499759392793
 30
0.0
 11
262.0377399689496
 21
323.3499759392805
 31
0.0
  0
SOLID
  5
49CF
330
47BF
100
AcDbEntity
  8
标注
 62
     0
100
AcDbTrace
 10
260.7044066356164
 20
772.6499759392793
 30
0.0
 11
263.371073302283
 21
772.6499759392793
 31
0.0
 12
262.0377399689497
 22
780.6499759392793
 32
0.0
 13
262.0377399689497
 23
780.6499759392793
 33
0.0
  0
SOLID
  5
49D0
330
47BF
100
AcDbEntity
  8
标注
 62
     0
100
AcDbTrace
 10
260.7044066356163
 20
323.3499759392805
 30
0.0
 11
263.3710733022829
 21
323.3499759392805
 31
0.0
 12
262.0377399689496
 22
315.3499759392805
 32
0.0
 13
262.0377399689496
 23
315.3499759392805
 33
0.0
  0
MTEXT
  5
49D1
330
47BF
100
AcDbEntity
  8
标注
 62
     0
100
AcDbMText
 10
249.6803047711324
 20
547.9999759392799
 30
0.0
 40
16.0
 41
0.0
 71
     5
 72
     1
  1
{\fArial|b0|i0|c0|p34;465.3 [18 3/8]}
 11
0.0000000000000001
 21
1.0
 31
0.0
 73
     1
 44
1.0
1001
ACAD
1000
MTEXTBEGIN
1070
    73
1070
     1
1070
    44
1040
1.0
1070
    74
1070
     0
1000
MTEXTEND
  0
POINT
  5
49D2
330
47BF
100
AcDbEntity
  8
Defpoints
 62
     0
100
AcDbPoint
 10
311.5
 20
780.6499759392793
 30
0.0
  0
POINT
  5
49D3
330
47BF
100
AcDbEntity
  8
Defpoints
 62
     0
100
AcDbPoint
 10
306.5
 20
315.3499759392805
 30
0.0
  0
POINT
  5
49D4
330
47BF
100
AcDbEntity
  8
Defpoints
 62
     0
100
AcDbPoint
 10
262.0377399689496
 20
315.3499759392805
 30
0.0
  0
ENDBLK
  5
47CA
330
47BF
100
AcDbEntity
  8
0
100
AcDbBlockEnd
  0
BLOCK
  5
48AA
330
489E
100
AcDbEntity
  8
0
100
AcDbBlockBegin
  2
*D7
 70
     1
 10
0.0
 20
0.0
 30
0.0
  3
*D7
  1

  0
LINE
  5
49D5
330
489E
100
AcDbEntity
  8
标注
 62
     0
370
    -2
100
AcDbLine
 10
849.9164468469437
 20
508.9999759393069
 30
0.0
 11
849.9164468469437
 21
482.7499999999999
 31
0.0
  0
LINE
  5
49D6
330
489E
100
AcDbEntity
  8
标注
 62
     0
370
    -2
100
AcDbLine
 10
856.2664468469458
 20
508.9999759392997
 30
0.0
 11
856.2664468469458
 21
482.7499999999999
 31
0.0
  0
LINE
  5
49D7
330
489E
100
AcDbEntity
  8
标注
 62
     0
370
    -2
100
AcDbLine
 10
864.2664468469458
 20
486.5
 30
0.0
 11
872.2664468469458
 21
486.5
 31
0.0
  0
LINE
  5
49D8
330
489E
100
AcDbEntity
  8
标注
 62
     0
370
    -2
100
AcDbLine
 10
841.9164468469437
 20
486.5
 30
0.0
 11
737.2585266030014
 21
486.5
 31
0.0
  0
LINE
  5
49D9
330
489E
100
AcDbEntity
  8
标注
 62
     0
370
    -2
100
AcDbLine
 10
856.2664468469458
 20
486.5
 30
0.0
 11
849.9164468469437
 21
486.5
 31
0.0
  0
SOLID
  5
49DA
330
489E
100
AcDbEntity
  8
标注
 62
     0
100
AcDbTrace
 10
864.2664468469458
 20
487.8333333333332
 30
0.0
 11
864.2664468469458
 21
485.1666666666666
 31
0.0
 12
856.2664468469458
 22
486.5
 32
0.0
 13
856.2664468469458
 23
486.5
 33
0.0
  0
SOLID
  5
49DB
330
489E
100
AcDbEntity
  8
标注
 62
     0
100
AcDbTrace
 10
841.9164468469437
 20
487.8333333333332
 30
0.0
 11
841.9164468469437
 21
485.1666666666666
 31
0.0
 12
849.9164468469437
 22
486.5
 32
0.0
 13
849.9164468469437
 23
486.5
 33
0.0
  0
MTEXT
  5
49DC
330
489E
100
AcDbEntity
  8
标注
 62
     0
100
AcDbMText
 10
778.5
 20
498.8574351978171
 30
0.0
 40
16.0
 41
0.0
 71
     5
 72
     1
  1
{\fArial|b0|i0|c0|p34;6.4 [1/4]}
 73
     1
 44
1.0
1001
ACAD
1000
MTEXTBEGIN
1070
    73
1070
     1
1070
    44
1040
1.0
1070
    74
1070
     0
1000
MTEXTEND
  0
POINT
  5
49DD
330
489E
100
AcDbEntity
  8
Defpoints
 62
     0
100
AcDbPoint
 10
849.9164468469437
 20
508.9999759393069
 30
0.0
  0
POINT
  5
49DE
330
489E
100
AcDbEntity
  8
Defpoints
 62
     0
100
AcDbPoint
 10
856.2664468469458
 20
508.9999759392997
 30
0.0
  0
POINT
  5
49DF
330
489E
100
AcDbEntity
  8
Defpoints
 62
     0
100
AcDbPoint
 10
856.2664468469458
 20
486.5
 30
0.0
  0
ENDBLK
  5
48AB
330
489E
100
AcDbEntity
  8
0
100
AcDbBlockEnd
  0
BLOCK
  5
48B8
330
48AC
100
AcDbEntity
  8
0
100
AcDbBlockBegin
  2
*D8
 70
     1
 10
0.0
 20
0.0
 30
0.0
  3
*D8
  1

  0
LINE
  5
49E0
330
48AC
100
AcDbEntity
  8
标注
 62
     0
370
    -2
100
AcDbLine
 10
856.2664468469458
 20
508.9999759392997
 30
0.0
 11
856.2664468469458
 21
455.25
 31
0.0
  0
LINE
  5
49E1
330
48AC
100
AcDbEntity
  8
标注
 62
     0
370
    -2
100
AcDbLine
 10
862.6164468469481
 20
508.9999759393069
 30
0.0
 11
862.6164468469481
 21
455.25
 31
0.0
  0
LINE
  5
49E2
330
48AC
100
AcDbEntity
  8
标注
 62
     0
370
    -2
100
AcDbLine
 10
870.6164468469481
 20
459.0
 30
0.0
 11
878.6164468469481
 21
459.0
 31
0.0
  0
LINE
  5
49E3
330
48AC
100
AcDbEntity
  8
标注
 62
     0
370
    -2
100
AcDbLine
 10
848.2664468469458
 20
459.0
 30
0.0
 11
742.7585266030014
 21
459.0
 31
0.0
  0
LINE
  5
49E4
330
48AC
100
AcDbEntity
  8
标注
 62
     0
370
    -2
100
AcDbLine
 10
862.6164468469481
 20
459.0
 30
0.0
 11
856.2664468469458
 21
459.0
 31
0.0
  0
SOLID
  5
49E5
330
48AC
100
AcDbEntity
  8
标注
 62
     0
100
AcDbTrace
 10
870.6164468469481
 20
460.3333333333333
 30
0.0
 11
870.6164468469481
 21
457.6666666666667
 31
0.0
 12
862.6164468469481
 22
459.0
 32
0.0
 13
862.6164468469481
 23
459.0
 33
0.0
  0
SOLID
  5
49E6
330
48AC
100
AcDbEntity
  8
标注
 62
     0
100
AcDbTrace
 10
848.2664468469458
 20
460.3333333333333
 30
0.0
 11
848.2664468469458
 21
457.6666666666667
 31
0.0
 12
856.2664468469458
 22
459.0
 32
0.0
 13
856.2664468469458
 23
459.0
 33
0.0
  0
MTEXT
  5
49E7
330
48AC
100
AcDbEntity
  8
标注
 62
     0
100
AcDbMText
 10
784.0
 20
471.3574351978172
 30
0.0
 40
16.0
 41
0.0
 71
     5
 72
     1
  1
{\fArial|b0|i0|c0|p34;6.4 [1/4]}
 73
     1
 44
1.0
1001
ACAD
1000
MTEXTBEGIN
1070
    73
1070
     1
1070
    44
1040
1.0
1070
    74
1070
     0
1000
MTEXTEND
  0
POINT
  5
49E8
330
48AC
100
AcDbEntity
  8
Defpoints
 62
     0
100
AcDbPoint
 10
856.2664468469458
 20
508.9999759392997
 30
0.0
  0
POINT
  5
49E9
330
48AC
100
AcDbEntity
  8
Defpoints
 62
     0
100
AcDbPoint
 10
862.6164468469481
 20
508.9999759393069
 30
0.0
  0
POINT
  5
49EA
330
48AC
100
AcDbEntity
  8
Defpoints
 62
     0
100
AcDbPoint
 10
862.6164468469481
 20
459.0
 30
0.0
  0
ENDBLK
  5
48B9
330
48AC
100
AcDbEntity
  8
0
100
AcDbBlockEnd
  0
BLOCK
  5
4C01
330
4C00
100
AcDbEntity
  8
0
100
AcDbBlockBegin
  2
*D9
 70
     1
 10
0.0
 20
0.0
 30
0.0
  3
*D9
  1

  0
LINE
  5
4C02
330
4C00
100
AcDbEntity
  8
标注
 62
     0
370
    -2
100
AcDbLine
 10
856.2664468469479
 20
-878.5
 30
0.0
 11
856.2664468469479
 21
-800.3888367660511
 31
0.0
  0
LINE
  5
4C03
330
4C00
100
AcDbEntity
  8
标注
 62
     0
370
    -2
100
AcDbLine
 10
311.2664468469479
 20
-864.4999999999999
 30
0.0
 11
311.2664468469479
 21
-800.3888367660511
 31
0.0
  0
LINE
  5
4C04
330
4C00
100
AcDbEntity
  8
标注
 62
     0
370
    -2
100
AcDbLine
 10
848.2664468469479
 20
-804.1388367660511
 30
0.0
 11
319.2664468469479
 21
-804.1388367660511
 31
0.0
  0
SOLID
  5
4C05
330
4C00
100
AcDbEntity
  8
标注
 62
     0
100
AcDbTrace
 10
848.2664468469479
 20
-802.8055034327177
 30
0.0
 11
848.2664468469479
 21
-805.4721700993844
 31
0.0
 12
856.2664468469479
 22
-804.1388367660511
 32
0.0
 13
856.2664468469479
 23
-804.1388367660511
 33
0.0
  0
SOLID
  5
4C06
330
4C00
100
AcDbEntity
  8
标注
 62
     0
100
AcDbTrace
 10
319.2664468469479
 20
-802.8055034327177
 30
0.0
 11
319.2664468469479
 21
-805.4721700993844
 31
0.0
 12
311.2664468469479
 22
-804.1388367660511
 32
0.0
 13
311.2664468469479
 23
-804.1388367660511
 33
0.0
  0
MTEXT
  5
4C07
330
4C00
100
AcDbEntity
  8
标注
 62
     0
100
AcDbMText
 10
584.0329343690282
 20
-791.7814015682339
 30
0.0
 40
16.0
 41
0.0
 71
     5
 72
     1
  1
{\fArial|b0|i0|c0|p34;545 [21 1/2]}
 73
     1
 44
1.0
1001
ACAD
1000
MTEXTBEGIN
1070
    73
1070
     1
1070
    44
1040
1.0
1070
    74
1070
     0
1000
MTEXTEND
  0
POINT
  5
4C08
330
4C00
100
AcDbEntity
  8
Defpoints
 62
     0
100
AcDbPoint
 10
856.2664468469479
 20
-878.5
 30
0.0
  0
POINT
  5
4C09
330
4C00
100
AcDbEntity
  8
Defpoints
 62
     0
100
AcDbPoint
 10
311.2664468469479
 20
-864.4999999999999
 30
0.0
  0
POINT
  5
4C0A
330
4C00
100
AcDbEntity
  8
Defpoints
 62
     0
100
AcDbPoint
 10
311.2664468469479
 20
-804.1388367660511
 30
0.0
  0
ENDBLK
  5
4C0B
330
4C00
100
AcDbEntity
  8
0
100
AcDbBlockEnd
  0
BLOCK
  5
4C0E
330
4C0D
100
AcDbEntity
  8
0
100
AcDbBlockBegin
  2
*D10
 70
     1
 10
0.0
 20
0.0
 30
0.0
  3
*D10
  1

  0
LINE
  5
4C0F
330
4C0D
100
AcDbEntity
  8
标注
 62
     0
370
    -2
100
AcDbLine
 10
313.0
 20
-873.0000240607212
 30
0.0
 11
230.2877399689498
 21
-873.0000240607212
 31
0.0
  0
LINE
  5
4C10
330
4C0D
100
AcDbEntity
  8
标注
 62
     0
370
    -2
100
AcDbLine
 10
309.5
 20
-1351.000024060718
 30
0.0
 11
230.2877399689496
 21
-1351.000024060718
 31
0.0
  0
LINE
  5
4C11
330
4C0D
100
AcDbEntity
  8
标注
 62
     0
370
    -2
100
AcDbLine
 10
234.0377399689498
 20
-881.0000240607212
 30
0.0
 11
234.0377399689496
 21
-1343.000024060718
 31
0.0
  0
SOLID
  5
4C12
330
4C0D
100
AcDbEntity
  8
标注
 62
     0
100
AcDbTrace
 10
232.7044066356164
 20
-881.0000240607212
 30
0.0
 11
235.3710733022831
 21
-881.0000240607212
 31
0.0
 12
234.0377399689498
 22
-873.0000240607212
 32
0.0
 13
234.0377399689498
 23
-873.0000240607212
 33
0.0
  0
SOLID
  5
4C13
330
4C0D
100
AcDbEntity
  8
标注
 62
     0
100
AcDbTrace
 10
232.7044066356163
 20
-1343.000024060718
 30
0.0
 11
235.371073302283
 21
-1343.000024060718
 31
0.0
 12
234.0377399689496
 22
-1351.000024060718
 32
0.0
 13
234.0377399689496
 23
-1351.000024060718
 33
0.0
  0
MTEXT
  5
4C14
330
4C0D
100
AcDbEntity
  8
标注
 62
     0
100
AcDbMText
 10
221.6803047711324
 20
-1112.00002406072
 30
0.0
 40
16.0
 41
0.0
 71
     5
 72
     1
  1
{\fArial|b0|i0|c0|p34;478 [18 7/8]}
 11
0.0000000000000001
 21
1.0
 31
0.0
 73
     1
 44
1.0
1001
ACAD
1000
MTEXTBEGIN
1070
    73
1070
     1
1070
    44
1040
1.0
1070
    74
1070
     0
1000
MTEXTEND
  0
POINT
  5
4C15
330
4C0D
100
AcDbEntity
  8
Defpoints
 62
     0
100
AcDbPoint
 10
313.0
 20
-873.0000240607212
 30
0.0
  0
POINT
  5
4C16
330
4C0D
100
AcDbEntity
  8
Defpoints
 62
     0
100
AcDbPoint
 10
309.5
 20
-1351.000024060718
 30
0.0
  0
POINT
  5
4C17
330
4C0D
100
AcDbEntity
  8
Defpoints
 62
     0
100
AcDbPoint
 10
234.0377399689496
 20
-1351.000024060718
 30
0.0
  0
ENDBLK
  5
4C18
330
4C0D
100
AcDbEntity
  8
0
100
AcDbBlockEnd
  0
BLOCK
  5
4C1B
330
4C1A
100
AcDbEntity
  8
0
100
AcDbBlockBegin
  2
*D11
 70
     1
 10
0.0
 20
0.0
 30
0.0
  3
*D11
  1

  0
LINE
  5
4C1C
330
4C1A
100
AcDbEntity
  8
标注
 62
     0
370
    -2
100
AcDbLine
 10
862.6164468469481
 20
-876.5
 30
0.0
 11
862.6164468469481
 21
-766.888836766051
 31
0.0
  0
LINE
  5
4C1D
330
4C1A
100
AcDbEntity
  8
标注
 62
     0
370
    -2
100
AcDbLine
 10
304.9164468469471
 20
-860.5
 30
0.0
 11
304.9164468469471
 21
-766.888836766051
 31
0.0
  0
LINE
  5
4C1E
330
4C1A
100
AcDbEntity
  8
标注
 62
     0
370
    -2
100
AcDbLine
 10
854.6164468469481
 20
-770.6388367660511
 30
0.0
 11
312.9164468469471
 21
-770.6388367660511
 31
0.0
  0
SOLID
  5
4C1F
330
4C1A
100
AcDbEntity
  8
标注
 62
     0
100
AcDbTrace
 10
854.6164468469481
 20
-769.3055034327177
 30
0.0
 11
854.6164468469481
 21
-771.9721700993845
 31
0.0
 12
862.6164468469481
 22
-770.6388367660511
 32
0.0
 13
862.6164468469481
 23
-770.6388367660511
 33
0.0
  0
SOLID
  5
4C20
330
4C1A
100
AcDbEntity
  8
标注
 62
     0
100
AcDbTrace
 10
312.9164468469471
 20
-769.3055034327177
 30
0.0
 11
312.9164468469471
 21
-771.9721700993845
 31
0.0
 12
304.9164468469471
 22
-770.6388367660511
 32
0.0
 13
304.9164468469471
 23
-770.6388367660511
 33
0.0
  0
MTEXT
  5
4C21
330
4C1A
100
AcDbEntity
  8
标注
 62
     0
100
AcDbMText
 10
584.033116261693
 20
-758.3850850607305
 30
0.0
 40
16.0
 41
0.0
 71
     5
 72
     1
  1
{\fArial|b0|i0|c0|p34;557.7 [22]}
 73
     1
 44
1.0
1001
ACAD
1000
MTEXTBEGIN
1070
    73
1070
     1
1070
    44
1040
1.0
1070
    74
1070
     0
1000
MTEXTEND
  0
POINT
  5
4C22
330
4C1A
100
AcDbEntity
  8
Defpoints
 62
     0
100
AcDbPoint
 10
862.6164468469481
 20
-876.5
 30
0.0
  0
POINT
  5
4C23
330
4C1A
100
AcDbEntity
  8
Defpoints
 62
     0
100
AcDbPoint
 10
304.9164468469471
 20
-860.5
 30
0.0
  0
POINT
  5
4C24
330
4C1A
100
AcDbEntity
  8
Defpoints
 62
     0
100
AcDbPoint
 10
304.9164468469471
 20
-770.6388367660511
 30
0.0
  0
ENDBLK
  5
4C25
330
4C1A
100
AcDbEntity
  8
0
100
AcDbBlockEnd
  0
BLOCK
  5
4C28
330
4C27
100
AcDbEntity
  8
0
100
AcDbBlockBegin
  2
*D12
 70
     1
 10
0.0
 20
0.0
 30
0.0
  3
*D12
  1

  0
LINE
  5
4C29
330
4C27
100
AcDbEntity
  8
标注
 62
     0
370
    -2
100
AcDbLine
 10
313.0
 20
-866.6500240607218
 30
0.0
 11
199.2877399689497
 21
-866.6500240607216
 31
0.0
  0
LINE
  5
4C2A
330
4C27
100
AcDbEntity
  8
标注
 62
     0
370
    -2
100
AcDbLine
 10
311.0
 20
-1357.350024060718
 30
0.0
 11
199.2877399689496
 21
-1357.350024060718
 31
0.0
  0
LINE
  5
4C2B
330
4C27
100
AcDbEntity
  8
标注
 62
     0
370
    -2
100
AcDbLine
 10
203.0377399689498
 20
-874.6500240607216
 30
0.0
 11
203.0377399689496
 21
-1349.350024060718
 31
0.0
  0
SOLID
  5
4C2C
330
4C27
100
AcDbEntity
  8
标注
 62
     0
100
AcDbTrace
 10
201.7044066356164
 20
-874.6500240607216
 30
0.0
 11
204.3710733022831
 21
-874.6500240607216
 31
0.0
 12
203.0377399689498
 22
-866.6500240607216
 32
0.0
 13
203.0377399689498
 23
-866.6500240607216
 33
0.0
  0
SOLID
  5
4C2D
330
4C27
100
AcDbEntity
  8
标注
 62
     0
100
AcDbTrace
 10
201.7044066356163
 20
-1349.350024060718
 30
0.0
 11
204.371073302283
 21
-1349.350024060718
 31
0.0
 12
203.0377399689496
 22
-1357.350024060718
 32
0.0
 13
203.0377399689496
 23
-1357.350024060718
 33
0.0
  0
MTEXT
  5
4C2E
330
4C27
100
AcDbEntity
  8
标注
 62
     0
100
AcDbMText
 10
190.6803047711324
 20
-1112.00002406072
 30
0.0
 40
16.0
 41
0.0
 71
     5
 72
     1
  1
{\fArial|b0|i0|c0|p34;490.7 [19 3/8]}
 11
0.0000000000000001
 21
1.0
 31
0.0
 73
     1
 44
1.0
1001
ACAD
1000
MTEXTBEGIN
1070
    73
1070
     1
1070
    44
1040
1.0
1070
    74
1070
     0
1000
MTEXTEND
  0
POINT
  5
4C2F
330
4C27
100
AcDbEntity
  8
Defpoints
 62
     0
100
AcDbPoint
 10
313.0
 20
-866.6500240607218
 30
0.0
  0
POINT
  5
4C30
330
4C27
100
AcDbEntity
  8
Defpoints
 62
     0
100
AcDbPoint
 10
311.0
 20
-1357.350024060718
 30
0.0
  0
POINT
  5
4C31
330
4C27
100
AcDbEntity
  8
Defpoints
 62
     0
100
AcDbPoint
 10
203.0377399689496
 20
-1357.350024060718
 30
0.0
  0
ENDBLK
  5
4C32
330
4C27
100
AcDbEntity
  8
0
100
AcDbBlockEnd
  0
BLOCK
  5
4C35
330
4C34
100
AcDbEntity
  8
0
100
AcDbBlockBegin
  2
*D13
 70
     1
 10
0.0
 20
0.0
 30
0.0
  3
*D13
  1

  0
LINE
  5
4C36
330
4C34
100
AcDbEntity
  8
标注
 62
     0
370
    -2
100
AcDbLine
 10
849.9164468469484
 20
-876.5
 30
0.0
 11
849.9164468469484
 21
-831.388836766051
 31
0.0
  0
LINE
  5
4C37
330
4C34
100
AcDbEntity
  8
标注
 62
     0
370
    -2
100
AcDbLine
 10
317.6164468469474
 20
-863.0
 30
0.0
 11
317.6164468469474
 21
-831.388836766051
 31
0.0
  0
LINE
  5
4C38
330
4C34
100
AcDbEntity
  8
标注
 62
     0
370
    -2
100
AcDbLine
 10
841.9164468469485
 20
-835.1388367660511
 30
0.0
 11
325.6164468469474
 21
-835.1388367660511
 31
0.0
  0
SOLID
  5
4C39
330
4C34
100
AcDbEntity
  8
标注
 62
     0
100
AcDbTrace
 10
841.9164468469485
 20
-833.8055034327178
 30
0.0
 11
841.9164468469485
 21
-836.4721700993845
 31
0.0
 12
849.9164468469484
 22
-835.1388367660511
 32
0.0
 13
849.9164468469484
 23
-835.1388367660511
 33
0.0
  0
SOLID
  5
4C3A
330
4C34
100
AcDbEntity
  8
标注
 62
     0
100
AcDbTrace
 10
325.6164468469474
 20
-833.8055034327178
 30
0.0
 11
325.6164468469474
 21
-836.4721700993845
 31
0.0
 12
317.6164468469474
 22
-835.1388367660511
 32
0.0
 13
317.6164468469474
 23
-835.1388367660511
 33
0.0
  0
MTEXT
  5
4C3B
330
4C34
100
AcDbEntity
  8
标注
 62
     0
100
AcDbMText
 10
583.7664468469479
 20
-822.8850850607305
 30
0.0
 40
16.0
 41
0.0
 71
     5
 72
     1
  1
{\fArial|b0|i0|c0|p34;532.3 [21]}
 73
     1
 44
1.0
1001
ACAD
1000
MTEXTBEGIN
1070
    73
1070
     1
1070
    44
1040
1.0
1070
    74
1070
     0
1000
MTEXTEND
  0
POINT
  5
4C3C
330
4C34
100
AcDbEntity
  8
Defpoints
 62
     0
100
AcDbPoint
 10
849.9164468469484
 20
-876.5
 30
0.0
  0
POINT
  5
4C3D
330
4C34
100
AcDbEntity
  8
Defpoints
 62
     0
100
AcDbPoint
 10
317.6164468469474
 20
-863.0
 30
0.0
  0
POINT
  5
4C3E
330
4C34
100
AcDbEntity
  8
Defpoints
 62
     0
100
AcDbPoint
 10
317.6164468469474
 20
-835.1388367660511
 30
0.0
  0
ENDBLK
  5
4C3F
330
4C34
100
AcDbEntity
  8
0
100
AcDbBlockEnd
  0
BLOCK
  5
4C42
330
4C41
100
AcDbEntity
  8
0
100
AcDbBlockBegin
  2
*D14
 70
     1
 10
0.0
 20
0.0
 30
0.0
  3
*D14
  1

  0
LINE
  5
4C43
330
4C41
100
AcDbEntity
  8
标注
 62
     0
370
    -2
100
AcDbLine
 10
311.5
 20
-879.3500240607206
 30
0.0
 11
258.2877399689497
 21
-879.3500240607206
 31
0.0
  0
LINE
  5
4C44
330
4C41
100
AcDbEntity
  8
标注
 62
     0
370
    -2
100
AcDbLine
 10
306.5
 20
-1344.650024060719
 30
0.0
 11
258.2877399689496
 21
-1344.650024060719
 31
0.0
  0
LINE
  5
4C45
330
4C41
100
AcDbEntity
  8
标注
 62
     0
370
    -2
100
AcDbLine
 10
262.0377399689497
 20
-887.3500240607206
 30
0.0
 11
262.0377399689496
 21
-1336.650024060719
 31
0.0
  0
SOLID
  5
4C46
330
4C41
100
AcDbEntity
  8
标注
 62
     0
100
AcDbTrace
 10
260.7044066356164
 20
-887.3500240607206
 30
0.0
 11
263.371073302283
 21
-887.3500240607206
 31
0.0
 12
262.0377399689497
 22
-879.3500240607206
 32
0.0
 13
262.0377399689497
 23
-879.3500240607206
 33
0.0
  0
SOLID
  5
4C47
330
4C41
100
AcDbEntity
  8
标注
 62
     0
100
AcDbTrace
 10
260.7044066356163
 20
-1336.650024060719
 30
0.0
 11
263.3710733022829
 21
-1336.650024060719
 31
0.0
 12
262.0377399689496
 22
-1344.650024060719
 32
0.0
 13
262.0377399689496
 23
-1344.650024060719
 33
0.0
  0
MTEXT
  5
4C48
330
4C41
100
AcDbEntity
  8
标注
 62
     0
100
AcDbMText
 10
249.6803047711324
 20
-1112.00002406072
 30
0.0
 40
16.0
 41
0.0
 71
     5
 72
     1
  1
{\fArial|b0|i0|c0|p34;465.3 [18 3/8]}
 11
0.0000000000000001
 21
1.0
 31
0.0
 73
     1
 44
1.0
1001
ACAD
1000
MTEXTBEGIN
1070
    73
1070
     1
1070
    44
1040
1.0
1070
    74
1070
     0
1000
MTEXTEND
  0
POINT
  5
4C49
330
4C41
100
AcDbEntity
  8
Defpoints
 62
     0
100
AcDbPoint
 10
311.5
 20
-879.3500240607206
 30
0.0
  0
POINT
  5
4C4A
330
4C41
100
AcDbEntity
  8
Defpoints
 62
     0
100
AcDbPoint
 10
306.5
 20
-1344.650024060719
 30
0.0
  0
POINT
  5
4C4B
330
4C41
100
AcDbEntity
  8
Defpoints
 62
     0
100
AcDbPoint
 10
262.0377399689496
 20
-1344.650024060719
 30
0.0
  0
ENDBLK
  5
4C4C
330
4C41
100
AcDbEntity
  8
0
100
AcDbBlockEnd
  0
BLOCK
  5
4C50
330
4C4F
100
AcDbEntity
  8
0
100
AcDbBlockBegin
  2
*D15
 70
     1
 10
0.0
 20
0.0
 30
0.0
  3
*D15
  1

  0
LINE
  5
4C51
330
4C4F
100
AcDbEntity
  8
标注
 62
     0
370
    -2
100
AcDbLine
 10
849.9164468469437
 20
-1151.000024060693
 30
0.0
 11
849.9164468469437
 21
-1177.25
 31
0.0
  0
LINE
  5
4C52
330
4C4F
100
AcDbEntity
  8
标注
 62
     0
370
    -2
100
AcDbLine
 10
856.2664468469458
 20
-1151.0000240607
 30
0.0
 11
856.2664468469458
 21
-1177.25
 31
0.0
  0
LINE
  5
4C53
330
4C4F
100
AcDbEntity
  8
标注
 62
     0
370
    -2
100
AcDbLine
 10
864.2664468469458
 20
-1173.5
 30
0.0
 11
872.2664468469458
 21
-1173.5
 31
0.0
  0
LINE
  5
4C54
330
4C4F
100
AcDbEntity
  8
标注
 62
     0
370
    -2
100
AcDbLine
 10
841.9164468469437
 20
-1173.5
 30
0.0
 11
737.2585266030014
 21
-1173.5
 31
0.0
  0
LINE
  5
4C55
330
4C4F
100
AcDbEntity
  8
标注
 62
     0
370
    -2
100
AcDbLine
 10
856.2664468469458
 20
-1173.5
 30
0.0
 11
849.9164468469437
 21
-1173.5
 31
0.0
  0
SOLID
  5
4C56
330
4C4F
100
AcDbEntity
  8
标注
 62
     0
100
AcDbTrace
 10
864.2664468469458
 20
-1172.166666666667
 30
0.0
 11
864.2664468469458
 21
-1174.833333333333
 31
0.0
 12
856.2664468469458
 22
-1173.5
 32
0.0
 13
856.2664468469458
 23
-1173.5
 33
0.0
  0
SOLID
  5
4C57
330
4C4F
100
AcDbEntity
  8
标注
 62
     0
100
AcDbTrace
 10
841.9164468469437
 20
-1172.166666666667
 30
0.0
 11
841.9164468469437
 21
-1174.833333333333
 31
0.0
 12
849.9164468469437
 22
-1173.5
 32
0.0
 13
849.9164468469437
 23
-1173.5
 33
0.0
  0
MTEXT
  5
4C58
330
4C4F
100
AcDbEntity
  8
标注
 62
     0
100
AcDbMText
 10
778.5
 20
-1161.142564802182
 30
0.0
 40
16.0
 41
0.0
 71
     5
 72
     1
  1
{\fArial|b0|i0|c0|p34;6.4 [1/4]}
 73
     1
 44
1.0
1001
ACAD
1000
MTEXTBEGIN
1070
    73
1070
     1
1070
    44
1040
1.0
1070
    74
1070
     0
1000
MTEXTEND
  0
POINT
  5
4C59
330
4C4F
100
AcDbEntity
  8
Defpoints
 62
     0
100
AcDbPoint
 10
849.9164468469437
 20
-1151.000024060693
 30
0.0
  0
POINT
  5
4C5A
330
4C4F
100
AcDbEntity
  8
Defpoints
 62
     0
100
AcDbPoint
 10
856.2664468469458
 20
-1151.0000240607
 30
0.0
  0
POINT
  5
4C5B
330
4C4F
100
AcDbEntity
  8
Defpoints
 62
     0
100
AcDbPoint
 10
856.2664468469458
 20
-1173.5
 30
0.0
  0
ENDBLK
  5
4C5C
330
4C4F
100
AcDbEntity
  8
0
100
AcDbBlockEnd
  0
BLOCK
  5
4C5F
330
4C5E
100
AcDbEntity
  8
0
100
AcDbBlockBegin
  2
*D16
 70
     1
 10
0.0
 20
0.0
 30
0.0
  3
*D16
  1

  0
LINE
  5
4C60
330
4C5E
100
AcDbEntity
  8
标注
 62
     0
370
    -2
100
AcDbLine
 10
856.2664468469458
 20
-1151.0000240607
 30
0.0
 11
856.2664468469458
 21
-1204.75
 31
0.0
  0
LINE
  5
4C61
330
4C5E
100
AcDbEntity
  8
标注
 62
     0
370
    -2
100
AcDbLine
 10
862.6164468469481
 20
-1151.000024060693
 30
0.0
 11
862.6164468469481
 21
-1204.75
 31
0.0
  0
LINE
  5
4C62
330
4C5E
100
AcDbEntity
  8
标注
 62
     0
370
    -2
100
AcDbLine
 10
870.6164468469481
 20
-1201.0
 30
0.0
 11
878.6164468469481
 21
-1201.0
 31
0.0
  0
LINE
  5
4C63
330
4C5E
100
AcDbEntity
  8
标注
 62
     0
370
    -2
100
AcDbLine
 10
848.2664468469458
 20
-1201.0
 30
0.0
 11
742.7585266030014
 21
-1201.0
 31
0.0
  0
LINE
  5
4C64
330
4C5E
100
AcDbEntity
  8
标注
 62
     0
370
    -2
100
AcDbLine
 10
862.6164468469481
 20
-1201.0
 30
0.0
 11
856.2664468469458
 21
-1201.0
 31
0.0
  0
SOLID
  5
4C65
330
4C5E
100
AcDbEntity
  8
标注
 62
     0
100
AcDbTrace
 10
870.6164468469481
 20
-1199.666666666667
 30
0.0
 11
870.6164468469481
 21
-1202.333333333333
 31
0.0
 12
862.6164468469481
 22
-1201.0
 32
0.0
 13
862.6164468469481
 23
-1201.0
 33
0.0
  0
SOLID
  5
4C66
330
4C5E
100
AcDbEntity
  8
标注
 62
     0
100
AcDbTrace
 10
848.2664468469458
 20
-1199.666666666667
 30
0.0
 11
848.2664468469458
 21
-1202.333333333333
 31
0.0
 12
856.2664468469458
 22
-1201.0
 32
0.0
 13
856.2664468469458
 23
-1201.0
 33
0.0
  0
MTEXT
  5
4C67
330
4C5E
100
AcDbEntity
  8
标注
 62
     0
100
AcDbMText
 10
784.0
 20
-1188.642564802182
 30
0.0
 40
16.0
 41
0.0
 71
     5
 72
     1
  1
{\fArial|b0|i0|c0|p34;6.4 [1/4]}
 73
     1
 44
1.0
1001
ACAD
1000
MTEXTBEGIN
1070
    73
1070
     1
1070
    44
1040
1.0
1070
    74
1070
     0
1000
MTEXTEND
  0
POINT
  5
4C68
330
4C5E
100
AcDbEntity
  8
Defpoints
 62
     0
100
AcDbPoint
 10
856.2664468469458
 20
-1151.0000240607
 30
0.0
  0
POINT
  5
4C69
330
4C5E
100
AcDbEntity
  8
Defpoints
 62
     0
100
AcDbPoint
 10
862.6164468469481
 20
-1151.000024060693
 30
0.0
  0
POINT
  5
4C6A
330
4C5E
100
AcDbEntity
  8
Defpoints
 62
     0
100
AcDbPoint
 10
862.6164468469481
 20
-1201.0
 30
0.0
  0
ENDBLK
  5
4C6B
330
4C5E
100
AcDbEntity
  8
0
100
AcDbBlockEnd
  0
BLOCK
  5
4D46
330
4D45
100
AcDbEntity
  8
0
100
AcDbBlockBegin
  2
*D17
 70
     1
 10
0.0
 20
0.0
 30
0.0
  3
*D17
  1

  0
LINE
  5
4D3D
330
4D45
100
AcDbEntity
  8
标注
  6
ByBlock
 62
     0
370
    -2
100
AcDbLine
 10
809.7499061008965
 20
708.749232950315
 30
0.0
 11
854.0
 21
744.0
 31
0.0
  0
LINE
  5
4D3E
330
4D45
100
AcDbEntity
  8
标注
  6
ByBlock
 62
     0
370
    -2
100
AcDbLine
 10
854.0
 20
744.0
 30
0.0
 11
1098.0
 21
744.0
 31
0.0
  0
LINE
  5
4D3F
330
4D45
100
AcDbEntity
  8
标注
  6
ByBlock
 62
     0
370
    -2
100
AcDbLine
 10
803.4926698261994
 20
703.7645570127424
 30
0.0
 11
652.0284442518118
 21
583.1042450988761
 31
0.0
  0
SOLID
  5
4D40
330
4D45
100
AcDbEntity
  8
标注
  6
ByBlock
 62
     0
100
AcDbTrace
 10
803.4926698261994
 20
703.7645570127424
 30
0.0
 11
810.5806854238256
 21
707.7063602378652
 31
0.0
 12
808.9191267779677
 22
709.7921056627646
 32
0.0
 13
808.9191267779677
 23
709.7921056627646
 33
0.0
  0
MTEXT
  5
4D41
330
4D45
100
AcDbEntity
  8
标注
  6
ByBlock
 62
     0
100
AcDbMText
 10
976.0
 20
754.0
 30
0.0
 40
16.0
 41
0.0
 71
     5
 72
     1
  1
\A0;2-R193.7 [R7 5/8]
 73
     1
 44
1.0
1001
ACAD
1000
MTEXTBEGIN
1070
    73
1070
     1
1070
    44
1040
1.0
1070
    74
1070
     0
1000
MTEXTEND
  0
POINT
  5
4D42
330
4D45
100
AcDbEntity
  8
Defpoints
  6
ByBlock
100
AcDbPoint
 10
652.0284442518118
 20
583.1042450988761
 30
0.0
  0
POINT
  5
4D43
330
4D45
100
AcDbEntity
  8
Defpoints
  6
ByBlock
100
AcDbPoint
 10
803.4926698261994
 20
703.7645570127424
 30
0.0
  0
ENDBLK
  5
4D47
330
4D45
100
AcDbEntity
  8
0
100
AcDbBlockEnd
  0
BLOCK
  5
4D52
330
4D51
100
AcDbEntity
  8
0
100
AcDbBlockBegin
  2
*D18
 70
     1
 10
0.0
 20
0.0
 30
0.0
  3
*D18
  1

  0
LINE
  5
4D49
330
4D51
100
AcDbEntity
  8
标注
  6
ByBlock
 62
     0
370
    -2
100
AcDbLine
 10
828.8802733286015
 20
692.5913701510658
 30
0.0
 11
856.9999999999998
 21
710.0
 31
0.0
  0
LINE
  5
4D4A
330
4D51
100
AcDbEntity
  8
标注
  6
ByBlock
 62
     0
370
    -2
100
AcDbLine
 10
856.9999999999998
 20
710.0
 30
0.0
 11
1079.666666666666
 21
710.0
 31
0.0
  0
LINE
  5
4D4B
330
4D51
100
AcDbEntity
  8
标注
  6
ByBlock
 62
     0
370
    -2
100
AcDbLine
 10
822.0782799025711
 20
688.3803268798279
 30
0.0
 11
652.028444251811
 21
583.1042450988759
 31
0.0
  0
SOLID
  5
4D4C
330
4D51
100
AcDbEntity
  8
标注
  6
ByBlock
 62
     0
100
AcDbTrace
 10
822.0782799025711
 20
688.3803268798279
 30
0.0
 11
829.582113873808
 21
691.4577045800606
 31
0.0
 12
828.178432783395
 22
693.7250357220712
 32
0.0
 13
828.178432783395
 23
693.7250357220712
 33
0.0
  0
MTEXT
  5
4D4D
330
4D51
100
AcDbEntity
  8
标注
  6
ByBlock
 62
     0
100
AcDbMText
 10
968.3333333333333
 20
720.0
 30
0.0
 40
16.0
 41
0.0
 71
     5
 72
     1
  1
\A0;2-R200 [R7 7/8]
 73
     1
 44
1.0
1001
ACAD
1000
MTEXTBEGIN
1070
    73
1070
     1
1070
    44
1040
1.0
1070
    74
1070
     0
1000
MTEXTEND
  0
POINT
  5
4D4E
330
4D51
100
AcDbEntity
  8
Defpoints
  6
ByBlock
100
AcDbPoint
 10
652.028444251811
 20
583.1042450988759
 30
0.0
  0
POINT
  5
4D4F
330
4D51
100
AcDbEntity
  8
Defpoints
  6
ByBlock
100
AcDbPoint
 10
822.0782799025711
 20
688.3803268798279
 30
0.0
  0
ENDBLK
  5
4D53
330
4D51
100
AcDbEntity
  8
0
100
AcDbBlockEnd
  0
BLOCK
  5
4D5E
330
4D5D
100
AcDbEntity
  8
0
100
AcDbBlockBegin
  2
*D19
 70
     1
 10
0.0
 20
0.0
 30
0.0
  3
*D19
  1

  0
LINE
  5
4D55
330
4D5D
100
AcDbEntity
  8
标注
  6
ByBlock
 62
     0
370
    -2
100
AcDbLine
 10
848.2650647502904
 20
669.3429329097213
 30
0.0
 11
860.0000000000001
 21
674.5
 31
0.0
  0
LINE
  5
4D56
330
4D5D
100
AcDbEntity
  8
标注
  6
ByBlock
 62
     0
370
    -2
100
AcDbLine
 10
860.0000000000001
 20
674.5
 30
0.0
 11
1101.333333333333
 21
674.5
 31
0.0
  0
LINE
  5
4D57
330
4D5D
100
AcDbEntity
  8
标注
  6
ByBlock
 62
     0
370
    -2
100
AcDbLine
 10
840.9410947760061
 20
666.1243208150781
 30
0.0
 11
652.0284442518113
 21
583.1042450988745
 31
0.0
  0
SOLID
  5
4D58
330
4D5D
100
AcDbEntity
  8
标注
  6
ByBlock
 62
     0
100
AcDbTrace
 10
840.9410947760061
 20
666.1243208150781
 30
0.0
 11
848.8015000993978
 21
668.1222712473403
 31
0.0
 12
847.7286294011831
 22
670.5635945721022
 32
0.0
 13
847.7286294011831
 23
670.5635945721022
 33
0.0
  0
MTEXT
  5
4D59
330
4D5D
100
AcDbEntity
  8
标注
  6
ByBlock
 62
     0
100
AcDbMText
 10
980.6666666666668
 20
684.4999999999999
 30
0.0
 40
16.0
 41
0.0
 71
     5
 72
     1
  1
\A0;2-R206.4 [R8 1/8]
 73
     1
 44
1.0
1001
ACAD
1000
MTEXTBEGIN
1070
    73
1070
     1
1070
    44
1040
1.0
1070
    74
1070
     0
1000
MTEXTEND
  0
POINT
  5
4D5A
330
4D5D
100
AcDbEntity
  8
Defpoints
  6
ByBlock
100
AcDbPoint
 10
652.0284442518113
 20
583.1042450988745
 30
0.0
  0
POINT
  5
4D5B
330
4D5D
100
AcDbEntity
  8
Defpoints
  6
ByBlock
100
AcDbPoint
 10
840.9410947760061
 20
666.1243208150781
 30
0.0
  0
ENDBLK
  5
4D5F
330
4D5D
100
AcDbEntity
  8
0
100
AcDbBlockEnd
  0
BLOCK
  5
4E5C
330
4E5B
100
AcDbEntity
  8
0
100
AcDbBlockBegin
  2
*D20
 70
     1
 10
0.0
 20
0.0
 30
0.0
  3
*D20
  1

  0
LINE
  5
4E53
330
4E5B
100
AcDbEntity
  8
标注
  6
ByBlock
 62
     0
370
    -2
100
AcDbLine
 10
385.1102492392782
 20
306.5222121691224
 30
0.0
 11
352.9999999999999
 21
196.0
 31
0.0
  0
LINE
  5
4E54
330
4E5B
100
AcDbEntity
  8
标注
  6
ByBlock
 62
     0
370
    -2
100
AcDbLine
 10
352.9999999999999
 20
196.0
 30
0.0
 11
116.9999999999999
 21
196.0
 31
0.0
  0
LINE
  5
4E55
330
4E5B
100
AcDbEntity
  8
标注
  6
ByBlock
 62
     0
370
    -2
100
AcDbLine
 10
387.3422151585661
 20
314.2045508843274
 30
0.0
 11
417.0134120980986
 21
416.3316411795794
 31
0.0
  0
SOLID
  5
4E56
330
4E5B
100
AcDbEntity
  8
标注
  6
ByBlock
 62
     0
100
AcDbTrace
 10
387.3422151585661
 20
314.2045508843274
 30
0.0
 11
383.8298594534105
 21
306.8942064890038
 31
0.0
 12
386.390639025146
 22
306.150217849241
 32
0.0
 13
386.390639025146
 23
306.150217849241
 33
0.0
  0
MTEXT
  5
4E57
330
4E5B
100
AcDbEntity
  8
标注
  6
ByBlock
 62
     0
100
AcDbMText
 10
234.9999999999999
 20
206.0
 30
0.0
 40
16.0
 41
0.0
 71
     5
 72
     1
  1
\A0;2-R106.3 [R4 1/8]
 73
     1
 44
1.0
1001
ACAD
1000
MTEXTBEGIN
1070
    73
1070
     1
1070
    44
1040
1.0
1070
    74
1070
     0
1000
MTEXTEND
  0
POINT
  5
4E58
330
4E5B
100
AcDbEntity
  8
Defpoints
  6
ByBlock
100
AcDbPoint
 10
417.0134120980986
 20
416.3316411795794
 30
0.0
  0
POINT
  5
4E59
330
4E5B
100
AcDbEntity
  8
Defpoints
  6
ByBlock
100
AcDbPoint
 10
387.3422151585661
 20
314.2045508843274
 30
0.0
  0
ENDBLK
  5
4E5D
330
4E5B
100
AcDbEntity
  8
0
100
AcDbBlockEnd
  0
BLOCK
  5
4E68
330
4E67
100
AcDbEntity
  8
0
100
AcDbBlockBegin
  2
*D21
 70
     1
 10
0.0
 20
0.0
 30
0.0
  3
*D21
  1

  0
LINE
  5
4E5F
330
4E67
100
AcDbEntity
  8
标注
  6
ByBlock
 62
     0
370
    -2
100
AcDbLine
 10
379.2323131075083
 20
315.1556135887426
 30
0.0
 11
346.5000000000001
 21
227.5
 31
0.0
  0
LINE
  5
4E60
330
4E67
100
AcDbEntity
  8
标注
  6
ByBlock
 62
     0
370
    -2
100
AcDbLine
 10
346.5000000000001
 20
227.5
 30
0.0
 11
129.1666666666667
 21
227.5
 31
0.0
  0
LINE
  5
4E61
330
4E67
100
AcDbEntity
  8
标注
  6
ByBlock
 62
     0
370
    -2
100
AcDbLine
 10
382.0309130327374
 20
322.6501341510272
 30
0.0
 11
417.0134120980997
 21
416.3316411795838
 31
0.0
  0
SOLID
  5
4E62
330
4E67
100
AcDbEntity
  8
标注
  6
ByBlock
 62
     0
100
AcDbTrace
 10
382.0309130327374
 20
322.6501341510272
 30
0.0
 11
377.9832263471273
 21
315.6220469096141
 31
0.0
 12
380.4813998678893
 22
314.6891802678709
 32
0.0
 13
380.4813998678893
 23
314.6891802678709
 33
0.0
  0
MTEXT
  5
4E63
330
4E67
100
AcDbEntity
  8
标注
  6
ByBlock
 62
     0
100
AcDbMText
 10
237.8333333333334
 20
237.5
 30
0.0
 40
16.0
 41
0.0
 71
     5
 72
     1
  1
\A0;2-R100 [R3 7/8]
 73
     1
 44
1.0
1001
ACAD
1000
MTEXTBEGIN
1070
    73
1070
     1
1070
    44
1040
1.0
1070
    74
1070
     0
1000
MTEXTEND
  0
POINT
  5
4E64
330
4E67
100
AcDbEntity
  8
Defpoints
  6
ByBlock
100
AcDbPoint
 10
417.0134120980997
 20
416.3316411795838
 30
0.0
  0
POINT
  5
4E65
330
4E67
100
AcDbEntity
  8
Defpoints
  6
ByBlock
100
AcDbPoint
 10
382.0309130327374
 20
322.6501341510272
 30
0.0
  0
ENDBLK
  5
4E69
330
4E67
100
AcDbEntity
  8
0
100
AcDbBlockEnd
  0
BLOCK
  5
4E74
330
4E73
100
AcDbEntity
  8
0
100
AcDbBlockBegin
  2
*D22
 70
     1
 10
0.0
 20
0.0
 30
0.0
  3
*D22
  1

  0
LINE
  5
4E6B
330
4E73
100
AcDbEntity
  8
标注
  6
ByBlock
 62
     0
370
    -2
100
AcDbLine
 10
374.5568937802427
 20
323.9727404048031
 30
0.0
 11
343.9999999999998
 21
257.5
 31
0.0
  0
LINE
  5
4E6C
330
4E73
100
AcDbEntity
  8
标注
  6
ByBlock
 62
     0
370
    -2
100
AcDbLine
 10
343.9999999999998
 20
257.5
 30
0.0
 11
110.6666666666665
 21
257.5
 31
0.0
  0
LINE
  5
4E6D
330
4E73
100
AcDbEntity
  8
标注
  6
ByBlock
 62
     0
370
    -2
100
AcDbLine
 10
377.8982823345258
 20
331.2415176423655
 30
0.0
 11
417.0134120981021
 21
416.3316411795797
 31
0.0
  0
SOLID
  5
4E6E
330
4E73
100
AcDbEntity
  8
标注
  6
ByBlock
 62
     0
100
AcDbTrace
 10
377.8982823345258
 20
331.2415176423655
 30
0.0
 11
373.3454309073153
 21
324.5296384971837
 31
0.0
 12
375.76835665317
 22
323.4158423124224
 32
0.0
 13
375.76835665317
 23
323.4158423124224
 33
0.0
  0
MTEXT
  5
4E6F
330
4E73
100
AcDbEntity
  8
标注
  6
ByBlock
 62
     0
100
AcDbMText
 10
227.3333333333332
 20
267.5
 30
0.0
 40
16.0
 41
0.0
 71
     5
 72
     1
  1
\A0;2-R93.6 [R3 5/8]
 73
     1
 44
1.0
1001
ACAD
1000
MTEXTBEGIN
1070
    73
1070
     1
1070
    44
1040
1.0
1070
    74
1070
     0
1000
MTEXTEND
  0
POINT
  5
4E70
330
4E73
100
AcDbEntity
  8
Defpoints
  6
ByBlock
100
AcDbPoint
 10
417.0134120981021
 20
416.3316411795797
 30
0.0
  0
POINT
  5
4E71
330
4E73
100
AcDbEntity
  8
Defpoints
  6
ByBlock
100
AcDbPoint
 10
377.8982823345258
 20
331.2415176423655
 30
0.0
  0
ENDBLK
  5
4E75
330
4E73
100
AcDbEntity
  8
0
100
AcDbBlockEnd
  0
BLOCK
  5
4F4F
330
4F47
100
AcDbEntity
  8
0
100
AcDbBlockBegin
  2
*D23
 70
     1
 10
0.0
 20
0.0
 30
0.0
  3
*D23
  1

  0
LINE
  5
50AB
330
4F47
100
AcDbEntity
  8
标注
 62
     0
370
    -2
100
AcDbLine
 10
2615.833333333333
 20
-932.5000000000006
 30
0.0
 11
2376.5
 21
-932.5000000000002
 31
0.0
  0
LINE
  5
50AC
330
4F47
100
AcDbEntity
  8
标注
 62
     0
370
    -2
100
AcDbLine
 10
2376.5
 20
-932.5000000000002
 30
0.0
 11
2366.509611012773
 21
-937.1969092831196
 31
0.0
  0
MTEXT
  5
50AD
330
4F47
100
AcDbEntity
  8
标注
 62
     0
100
AcDbMText
 10
2497.166666666666
 20
-922.5000000000003
 30
0.0
 40
16.0
 41
0.0
 71
     5
 72
     1
  1
2-R206.4 [R8 1/8]
 73
     1
 44
1.0
1001
ACAD
1000
MTEXTBEGIN
1070
    73
1070
     1
1070
    44
1040
1.0
1070
    74
1070
     0
1000
MTEXTEND
  0
LINE
  5
50AE
330
4F47
100
AcDbEntity
  8
标注
 62
     0
370
    -2
100
AcDbLine
 10
2172.528444251812
 20
-1028.395754901126
 30
0.0
 11
2359.269819391184
 21
-940.6006450654571
 31
0.0
  0
SOLID
  5
50AF
330
4F47
100
AcDbEntity
  8
标注
 62
     0
100
AcDbTrace
 10
2365.942321715717
 20
-935.9902773461882
 30
0.0
 11
2367.076900309829
 21
-938.4035412200514
 31
0.0
 12
2359.269819391184
 22
-940.6006450654571
 32
0.0
 13
2359.269819391184
 23
-940.6006450654571
 33
0.0
  0
POINT
  5
50B0
330
4F47
100
AcDbEntity
  8
Defpoints
 62
     0
100
AcDbPoint
 10
2359.269819391184
 20
-940.6006450654571
 30
0.0
  0
POINT
  5
50B1
330
4F47
100
AcDbEntity
  8
Defpoints
 62
     0
100
AcDbPoint
 10
2172.528444251812
 20
-1028.395754901126
 30
0.0
  0
ENDBLK
  5
4F50
330
4F47
100
AcDbEntity
  8
0
100
AcDbBlockEnd
  0
BLOCK
  5
4F59
330
4F51
100
AcDbEntity
  8
0
100
AcDbBlockBegin
  2
*D24
 70
     1
 10
0.0
 20
0.0
 30
0.0
  3
*D24
  1

  0
LINE
  5
50A4
330
4F51
100
AcDbEntity
  8
标注
 62
     0
370
    -2
100
AcDbLine
 10
2595.166666666667
 20
-903.0000000000002
 30
0.0
 11
2374.5
 21
-902.9999999999999
 31
0.0
  0
LINE
  5
50A5
330
4F51
100
AcDbEntity
  8
标注
 62
     0
370
    -2
100
AcDbLine
 10
2374.5
 20
-902.9999999999999
 30
0.0
 11
2349.240229421055
 21
-918.6827429914194
 31
0.0
  0
MTEXT
  5
50A6
330
4F51
100
AcDbEntity
  8
标注
 62
     0
100
AcDbMText
 10
2485.833333333333
 20
-893.0000000000001
 30
0.0
 40
16.0
 41
0.0
 71
     5
 72
     1
  1
2-R200 [R7 7/8]
 73
     1
 44
1.0
1001
ACAD
1000
MTEXTBEGIN
1070
    73
1070
     1
1070
    44
1040
1.0
1070
    74
1070
     0
1000
MTEXTEND
  0
LINE
  5
50A7
330
4F51
100
AcDbEntity
  8
标注
 62
     0
370
    -2
100
AcDbLine
 10
2172.528444251811
 20
-1028.395754901123
 30
0.0
 11
2342.443622299161
 21
-922.9024742187156
 31
0.0
  0
SOLID
  5
50A8
330
4F51
100
AcDbEntity
  8
标注
 62
     0
100
AcDbTrace
 10
2348.536940883173
 20
-917.5499751377705
 30
0.0
 11
2349.943517958938
 21
-919.8155108450684
 31
0.0
 12
2342.443622299161
 22
-922.9024742187156
 32
0.0
 13
2342.443622299161
 23
-922.9024742187156
 33
0.0
  0
POINT
  5
50A9
330
4F51
100
AcDbEntity
  8
Defpoints
 62
     0
100
AcDbPoint
 10
2342.443622299161
 20
-922.9024742187156
 30
0.0
  0
POINT
  5
50AA
330
4F51
100
AcDbEntity
  8
Defpoints
 62
     0
100
AcDbPoint
 10
2172.528444251811
 20
-1028.395754901123
 30
0.0
  0
ENDBLK
  5
4F5A
330
4F51
100
AcDbEntity
  8
0
100
AcDbBlockEnd
  0
BLOCK
  5
4F63
330
4F5B
100
AcDbEntity
  8
0
100
AcDbBlockBegin
  2
*D25
 70
     1
 10
0.0
 20
0.0
 30
0.0
  3
*D25
  1

  0
LINE
  5
509D
330
4F5B
100
AcDbEntity
  8
标注
 62
     0
370
    -2
100
AcDbLine
 10
2612.5
 20
-871.4999999999999
 30
0.0
 11
2370.5
 21
-871.4999999999999
 31
0.0
  0
LINE
  5
509E
330
4F5B
100
AcDbEntity
  8
标注
 62
     0
370
    -2
100
AcDbLine
 10
2370.5
 20
-871.4999999999999
 30
0.0
 11
2330.565890314886
 21
-903.1484469785127
 31
0.0
  0
MTEXT
  5
509F
330
4F5B
100
AcDbEntity
  8
标注
 62
     0
100
AcDbMText
 10
2492.5
 20
-861.4999999999998
 30
0.0
 40
16.0
 41
0.0
 71
     5
 72
     1
  1
2-R193.7 [R7 5/8]
 73
     1
 44
1.0
1001
ACAD
1000
MTEXTBEGIN
1070
    73
1070
     1
1070
    44
1040
1.0
1070
    74
1070
     0
1000
MTEXTEND
  0
LINE
  5
50A0
330
4F5B
100
AcDbEntity
  8
标注
 62
     0
370
    -2
100
AcDbLine
 10
2172.528444251812
 20
-1028.395754901124
 30
0.0
 11
2324.296118093192
 21
-908.1173458794841
 31
0.0
  0
SOLID
  5
50A1
330
4F5B
100
AcDbEntity
  8
标注
 62
     0
100
AcDbTrace
 10
2329.737740498058
 20
-902.1034849415636
 30
0.0
 11
2331.394040131715
 21
-904.1934090154619
 31
0.0
 12
2324.296118093192
 22
-908.1173458794841
 32
0.0
 13
2324.296118093192
 23
-908.1173458794841
 33
0.0
  0
POINT
  5
50A2
330
4F5B
100
AcDbEntity
  8
Defpoints
 62
     0
100
AcDbPoint
 10
2324.296118093192
 20
-908.1173458794841
 30
0.0
  0
POINT
  5
50A3
330
4F5B
100
AcDbEntity
  8
Defpoints
 62
     0
100
AcDbPoint
 10
2172.528444251812
 20
-1028.395754901124
 30
0.0
  0
ENDBLK
  5
4F64
330
4F5B
100
AcDbEntity
  8
0
100
AcDbBlockEnd
  0
BLOCK
  5
4F6D
330
4F65
100
AcDbEntity
  8
0
100
AcDbBlockBegin
  2
*D26
 70
     1
 10
0.0
 20
0.0
 30
0.0
  3
*D26
  1

  0
LINE
  5
5088
330
4F65
100
AcDbEntity
  8
标注
 62
     0
370
    -2
100
AcDbLine
 10
1652.499999999999
 20
-1383.5
 30
0.0
 11
1886.499999999999
 21
-1383.5
 31
0.0
  0
LINE
  5
5089
330
4F65
100
AcDbEntity
  8
标注
 62
     0
370
    -2
100
AcDbLine
 10
1886.499999999999
 20
-1383.5
 30
0.0
 11
1907.616770867391
 21
-1305.540970201693
 31
0.0
  0
MTEXT
  5
508A
330
4F65
100
AcDbEntity
  8
标注
 62
     0
100
AcDbMText
 10
1768.5
 20
-1373.5
 30
0.0
 40
16.0
 41
0.0
 71
     5
 72
     1
  1
2-R106.4 [R4 1/8]
 73
     1
 44
1.0
1001
ACAD
1000
MTEXTBEGIN
1070
    73
1070
     1
1070
    44
1040
1.0
1070
    74
1070
     0
1000
MTEXTEND
  0
LINE
  5
508B
330
4F65
100
AcDbEntity
  8
标注
 62
     0
370
    -2
100
AcDbLine
 10
1937.513412098098
 20
-1195.168358820421
 30
0.0
 11
1909.708359235084
 21
-1297.81923088337
 31
0.0
  0
SOLID
  5
508C
330
4F65
100
AcDbEntity
  8
标注
 62
     0
100
AcDbTrace
 10
1906.329814314337
 20
-1305.192372140411
 30
0.0
 11
1908.903727420445
 21
-1305.889568262975
 31
0.0
 12
1909.708359235084
 22
-1297.81923088337
 32
0.0
 13
1909.708359235084
 23
-1297.81923088337
 33
0.0
  0
POINT
  5
508D
330
4F65
100
AcDbEntity
  8
Defpoints
 62
     0
100
AcDbPoint
 10
1909.708359235084
 20
-1297.81923088337
 30
0.0
  0
POINT
  5
508E
330
4F65
100
AcDbEntity
  8
Defpoints
 62
     0
100
AcDbPoint
 10
1937.513412098098
 20
-1195.168358820421
 30
0.0
  0
ENDBLK
  5
4F6E
330
4F65
100
AcDbEntity
  8
0
100
AcDbBlockEnd
  0
BLOCK
  5
4F77
330
4F6F
100
AcDbEntity
  8
0
100
AcDbBlockBegin
  2
*D27
 70
     1
 10
0.0
 20
0.0
 30
0.0
  3
*D27
  1

  0
LINE
  5
508F
330
4F6F
100
AcDbEntity
  8
标注
 62
     0
370
    -2
100
AcDbLine
 10
1665.166666666666
 20
-1359.0
 30
0.0
 11
1880.499999999999
 21
-1359.0
 31
0.0
  0
LINE
  5
5090
330
4F6F
100
AcDbEntity
  8
标注
 62
     0
370
    -2
100
AcDbLine
 10
1880.499999999999
 20
-1359.0
 30
0.0
 11
1902.017359850418
 21
-1297.168507226334
 31
0.0
  0
MTEXT
  5
5091
330
4F6F
100
AcDbEntity
  8
标注
 62
     0
100
AcDbMText
 10
1771.833333333333
 20
-1349.0
 30
0.0
 40
16.0
 41
0.0
 71
     5
 72
     1
  1
2-R100 [R3 7/8]
 73
     1
 44
1.0
1001
ACAD
1000
MTEXTBEGIN
1070
    73
1070
     1
1070
    44
1040
1.0
1070
    74
1070
     0
1000
MTEXTEND
  0
LINE
  5
5092
330
4F6F
100
AcDbEntity
  8
标注
 62
     0
370
    -2
100
AcDbLine
 10
1937.5134120981
 20
-1195.168358820416
 30
0.0
 11
1904.64669705395
 21
-1289.612940677747
 31
0.0
  0
SOLID
  5
5093
330
4F6F
100
AcDbEntity
  8
标注
 62
     0
100
AcDbTrace
 10
1900.758098758987
 20
-1296.730284359078
 30
0.0
 11
1903.276620941849
 21
-1297.606730093589
 31
0.0
 12
1904.64669705395
 22
-1289.612940677747
 32
0.0
 13
1904.64669705395
 23
-1289.612940677747
 33
0.0
  0
POINT
  5
5094
330
4F6F
100
AcDbEntity
  8
Defpoints
 62
     0
100
AcDbPoint
 10
1904.64669705395
 20
-1289.612940677747
 30
0.0
  0
POINT
  5
5095
330
4F6F
100
AcDbEntity
  8
Defpoints
 62
     0
100
AcDbPoint
 10
1937.5134120981
 20
-1195.168358820416
 30
0.0
  0
ENDBLK
  5
4F78
330
4F6F
100
AcDbEntity
  8
0
100
AcDbBlockEnd
  0
BLOCK
  5
4F81
330
4F79
100
AcDbEntity
  8
0
100
AcDbBlockBegin
  2
*D28
 70
     1
 10
0.0
 20
0.0
 30
0.0
  3
*D28
  1

  0
LINE
  5
5096
330
4F79
100
AcDbEntity
  8
标注
 62
     0
370
    -2
100
AcDbLine
 10
1646.166666666666
 20
-1334.5
 30
0.0
 11
1877.5
 21
-1334.5
 31
0.0
  0
LINE
  5
5097
330
4F79
100
AcDbEntity
  8
标注
 62
     0
370
    -2
100
AcDbLine
 10
1877.5
 20
-1334.5
 30
0.0
 11
1897.301844236493
 21
-1288.526552408937
 31
0.0
  0
MTEXT
  5
5098
330
4F79
100
AcDbEntity
  8
标注
 62
     0
100
AcDbMText
 10
1760.833333333333
 20
-1324.5
 30
0.0
 40
16.0
 41
0.0
 71
     5
 72
     1
  1
2-R93.7 [R3 5/8]
 73
     1
 44
1.0
1001
ACAD
1000
MTEXTBEGIN
1070
    73
1070
     1
1070
    44
1040
1.0
1070
    74
1070
     0
1000
MTEXTEND
  0
LINE
  5
5099
330
4F79
100
AcDbEntity
  8
标注
 62
     0
370
    -2
100
AcDbLine
 10
1937.513412098103
 20
-1195.168358820421
 30
0.0
 11
1900.46655198753
 21
-1281.179129401479
 31
0.0
  0
SOLID
  5
509A
330
4F79
100
AcDbEntity
  8
标注
 62
     0
100
AcDbTrace
 10
1896.077273735249
 20
-1287.999101117098
 30
0.0
 11
1898.526414737736
 21
-1289.054003700776
 31
0.0
 12
1900.46655198753
 22
-1281.179129401479
 32
0.0
 13
1900.46655198753
 23
-1281.179129401479
 33
0.0
  0
POINT
  5
509B
330
4F79
100
AcDbEntity
  8
Defpoints
 62
     0
100
AcDbPoint
 10
1900.46655198753
 20
-1281.179129401479
 30
0.0
  0
POINT
  5
509C
330
4F79
100
AcDbEntity
  8
Defpoints
 62
     0
100
AcDbPoint
 10
1937.513412098103
 20
-1195.168358820421
 30
0.0
  0
ENDBLK
  5
4F82
330
4F79
100
AcDbEntity
  8
0
100
AcDbBlockEnd
  0
BLOCK
  5
4F8D
330
4F83
100
AcDbEntity
  8
0
100
AcDbBlockBegin
  2
*D29
 70
     1
 10
0.0
 20
0.0
 30
0.0
  3
*D29
  1

  0
LINE
  5
5011
330
4F83
100
AcDbEntity
  8
标注
 62
     0
370
    -2
100
AcDbLine
 10
2376.766446846948
 20
-830.0
 30
0.0
 11
2376.766446846948
 21
-751.8888367660511
 31
0.0
  0
LINE
  5
5012
330
4F83
100
AcDbEntity
  8
标注
 62
     0
370
    -2
100
AcDbLine
 10
1831.766446846948
 20
-816.0
 30
0.0
 11
1831.766446846948
 21
-751.8888367660511
 31
0.0
  0
LINE
  5
5013
330
4F83
100
AcDbEntity
  8
标注
 62
     0
370
    -2
100
AcDbLine
 10
2368.766446846948
 20
-755.6388367660511
 30
0.0
 11
1839.766446846948
 21
-755.6388367660511
 31
0.0
  0
SOLID
  5
5014
330
4F83
100
AcDbEntity
  8
标注
 62
     0
100
AcDbTrace
 10
2368.766446846948
 20
-754.3055034327177
 30
0.0
 11
2368.766446846948
 21
-756.9721700993844
 31
0.0
 12
2376.766446846948
 22
-755.6388367660511
 32
0.0
 13
2376.766446846948
 23
-755.6388367660511
 33
0.0
  0
SOLID
  5
5015
330
4F83
100
AcDbEntity
  8
标注
 62
     0
100
AcDbTrace
 10
1839.766446846948
 20
-754.3055034327177
 30
0.0
 11
1839.766446846948
 21
-756.9721700993844
 31
0.0
 12
1831.766446846948
 22
-755.6388367660511
 32
0.0
 13
1831.766446846948
 23
-755.6388367660511
 33
0.0
  0
MTEXT
  5
5016
330
4F83
100
AcDbEntity
  8
标注
 62
     0
100
AcDbMText
 10
2104.532934369029
 20
-743.2814015682339
 30
0.0
 40
16.0
 41
0.0
 71
     5
 72
     1
  1
{\fArial|b0|i0|c0|p34;545 [21 1/2]}
 73
     1
 44
1.0
1001
ACAD
1000
MTEXTBEGIN
1070
    73
1070
     1
1070
    44
1040
1.0
1070
    74
1070
     0
1000
MTEXTEND
  0
POINT
  5
5017
330
4F83
100
AcDbEntity
  8
Defpoints
 62
     0
100
AcDbPoint
 10
2376.766446846948
 20
-830.0
 30
0.0
  0
POINT
  5
5018
330
4F83
100
AcDbEntity
  8
Defpoints
 62
     0
100
AcDbPoint
 10
1831.766446846948
 20
-816.0
 30
0.0
  0
POINT
  5
5019
330
4F83
100
AcDbEntity
  8
Defpoints
 62
     0
100
AcDbPoint
 10
1831.766446846948
 20
-755.6388367660511
 30
0.0
  0
ENDBLK
  5
4F8E
330
4F83
100
AcDbEntity
  8
0
100
AcDbBlockEnd
  0
BLOCK
  5
4F99
330
4F8F
100
AcDbEntity
  8
0
100
AcDbBlockBegin
  2
*D30
 70
     1
 10
0.0
 20
0.0
 30
0.0
  3
*D30
  1

  0
LINE
  5
501A
330
4F8F
100
AcDbEntity
  8
标注
 62
     0
370
    -2
100
AcDbLine
 10
1833.5
 20
-824.5000240607213
 30
0.0
 11
1750.787739968949
 21
-824.5000240607211
 31
0.0
  0
LINE
  5
501B
330
4F8F
100
AcDbEntity
  8
标注
 62
     0
370
    -2
100
AcDbLine
 10
1830.0
 20
-1302.500024060718
 30
0.0
 11
1750.787739968949
 21
-1302.500024060718
 31
0.0
  0
LINE
  5
501C
330
4F8F
100
AcDbEntity
  8
标注
 62
     0
370
    -2
100
AcDbLine
 10
1754.537739968949
 20
-832.5000240607211
 30
0.0
 11
1754.537739968949
 21
-1294.500024060718
 31
0.0
  0
SOLID
  5
501D
330
4F8F
100
AcDbEntity
  8
标注
 62
     0
100
AcDbTrace
 10
1753.204406635616
 20
-832.5000240607211
 30
0.0
 11
1755.871073302283
 21
-832.5000240607211
 31
0.0
 12
1754.537739968949
 22
-824.5000240607211
 32
0.0
 13
1754.537739968949
 23
-824.5000240607211
 33
0.0
  0
SOLID
  5
501E
330
4F8F
100
AcDbEntity
  8
标注
 62
     0
100
AcDbTrace
 10
1753.204406635616
 20
-1294.500024060718
 30
0.0
 11
1755.871073302283
 21
-1294.500024060718
 31
0.0
 12
1754.537739968949
 22
-1302.500024060718
 32
0.0
 13
1754.537739968949
 23
-1302.500024060718
 33
0.0
  0
MTEXT
  5
501F
330
4F8F
100
AcDbEntity
  8
标注
 62
     0
100
AcDbMText
 10
1742.180304771132
 20
-1063.500024060719
 30
0.0
 40
16.0
 41
0.0
 71
     5
 72
     1
  1
{\fArial|b0|i0|c0|p34;478 [18 7/8]}
 11
0.0000000000000001
 21
1.0
 31
0.0
 73
     1
 44
1.0
1001
ACAD
1000
MTEXTBEGIN
1070
    73
1070
     1
1070
    44
1040
1.0
1070
    74
1070
     0
1000
MTEXTEND
  0
POINT
  5
5020
330
4F8F
100
AcDbEntity
  8
Defpoints
 62
     0
100
AcDbPoint
 10
1833.5
 20
-824.5000240607213
 30
0.0
  0
POINT
  5
5021
330
4F8F
100
AcDbEntity
  8
Defpoints
 62
     0
100
AcDbPoint
 10
1830.0
 20
-1302.500024060718
 30
0.0
  0
POINT
  5
5022
330
4F8F
100
AcDbEntity
  8
Defpoints
 62
     0
100
AcDbPoint
 10
1754.537739968949
 20
-1302.500024060718
 30
0.0
  0
ENDBLK
  5
4F9A
330
4F8F
100
AcDbEntity
  8
0
100
AcDbBlockEnd
  0
BLOCK
  5
4FA5
330
4F9B
100
AcDbEntity
  8
0
100
AcDbBlockBegin
  2
*D31
 70
     1
 10
0.0
 20
0.0
 30
0.0
  3
*D31
  1

  0
LINE
  5
5023
330
4F9B
100
AcDbEntity
  8
标注
 62
     0
370
    -2
100
AcDbLine
 10
2383.116446846948
 20
-828.0
 30
0.0
 11
2383.116446846948
 21
-718.3888367660511
 31
0.0
  0
LINE
  5
5024
330
4F9B
100
AcDbEntity
  8
标注
 62
     0
370
    -2
100
AcDbLine
 10
1825.416446846947
 20
-812.0
 30
0.0
 11
1825.416446846947
 21
-718.3888367660511
 31
0.0
  0
LINE
  5
5025
330
4F9B
100
AcDbEntity
  8
标注
 62
     0
370
    -2
100
AcDbLine
 10
2375.116446846948
 20
-722.1388367660511
 30
0.0
 11
1833.416446846947
 21
-722.1388367660511
 31
0.0
  0
SOLID
  5
5026
330
4F9B
100
AcDbEntity
  8
标注
 62
     0
100
AcDbTrace
 10
2375.116446846948
 20
-720.8055034327177
 30
0.0
 11
2375.116446846948
 21
-723.4721700993844
 31
0.0
 12
2383.116446846948
 22
-722.1388367660511
 32
0.0
 13
2383.116446846948
 23
-722.1388367660511
 33
0.0
  0
SOLID
  5
5027
330
4F9B
100
AcDbEntity
  8
标注
 62
     0
100
AcDbTrace
 10
1833.416446846947
 20
-720.8055034327177
 30
0.0
 11
1833.416446846947
 21
-723.4721700993844
 31
0.0
 12
1825.416446846947
 22
-722.1388367660511
 32
0.0
 13
1825.416446846947
 23
-722.1388367660511
 33
0.0
  0
MTEXT
  5
5028
330
4F9B
100
AcDbEntity
  8
标注
 62
     0
100
AcDbMText
 10
2104.533116261693
 20
-709.8850850607305
 30
0.0
 40
16.0
 41
0.0
 71
     5
 72
     1
  1
{\fArial|b0|i0|c0|p34;557.7 [22]}
 73
     1
 44
1.0
1001
ACAD
1000
MTEXTBEGIN
1070
    73
1070
     1
1070
    44
1040
1.0
1070
    74
1070
     0
1000
MTEXTEND
  0
POINT
  5
5029
330
4F9B
100
AcDbEntity
  8
Defpoints
 62
     0
100
AcDbPoint
 10
2383.116446846948
 20
-828.0
 30
0.0
  0
POINT
  5
502A
330
4F9B
100
AcDbEntity
  8
Defpoints
 62
     0
100
AcDbPoint
 10
1825.416446846947
 20
-812.0
 30
0.0
  0
POINT
  5
502B
330
4F9B
100
AcDbEntity
  8
Defpoints
 62
     0
100
AcDbPoint
 10
1825.416446846947
 20
-722.1388367660511
 30
0.0
  0
ENDBLK
  5
4FA6
330
4F9B
100
AcDbEntity
  8
0
100
AcDbBlockEnd
  0
BLOCK
  5
4FB1
330
4FA7
100
AcDbEntity
  8
0
100
AcDbBlockBegin
  2
*D32
 70
     1
 10
0.0
 20
0.0
 30
0.0
  3
*D32
  1

  0
LINE
  5
502C
330
4FA7
100
AcDbEntity
  8
标注
 62
     0
370
    -2
100
AcDbLine
 10
1833.5
 20
-818.1500240607217
 30
0.0
 11
1719.787739968949
 21
-818.1500240607217
 31
0.0
  0
LINE
  5
502D
330
4FA7
100
AcDbEntity
  8
标注
 62
     0
370
    -2
100
AcDbLine
 10
1831.5
 20
-1308.850024060718
 30
0.0
 11
1719.787739968949
 21
-1308.850024060718
 31
0.0
  0
LINE
  5
502E
330
4FA7
100
AcDbEntity
  8
标注
 62
     0
370
    -2
100
AcDbLine
 10
1723.537739968949
 20
-826.1500240607215
 30
0.0
 11
1723.537739968949
 21
-1300.850024060718
 31
0.0
  0
SOLID
  5
502F
330
4FA7
100
AcDbEntity
  8
标注
 62
     0
100
AcDbTrace
 10
1722.204406635616
 20
-826.1500240607215
 30
0.0
 11
1724.871073302282
 21
-826.1500240607215
 31
0.0
 12
1723.537739968949
 22
-818.1500240607217
 32
0.0
 13
1723.537739968949
 23
-818.1500240607217
 33
0.0
  0
SOLID
  5
5030
330
4FA7
100
AcDbEntity
  8
标注
 62
     0
100
AcDbTrace
 10
1722.204406635616
 20
-1300.850024060718
 30
0.0
 11
1724.871073302282
 21
-1300.850024060718
 31
0.0
 12
1723.537739968949
 22
-1308.850024060718
 32
0.0
 13
1723.537739968949
 23
-1308.850024060718
 33
0.0
  0
MTEXT
  5
5031
330
4FA7
100
AcDbEntity
  8
标注
 62
     0
100
AcDbMText
 10
1711.180304771132
 20
-1063.500024060719
 30
0.0
 40
16.0
 41
0.0
 71
     5
 72
     1
  1
{\fArial|b0|i0|c0|p34;490.7 [19 3/8]}
 11
0.0000000000000001
 21
1.0
 31
0.0
 73
     1
 44
1.0
1001
ACAD
1000
MTEXTBEGIN
1070
    73
1070
     1
1070
    44
1040
1.0
1070
    74
1070
     0
1000
MTEXTEND
  0
POINT
  5
5032
330
4FA7
100
AcDbEntity
  8
Defpoints
 62
     0
100
AcDbPoint
 10
1833.5
 20
-818.1500240607217
 30
0.0
  0
POINT
  5
5033
330
4FA7
100
AcDbEntity
  8
Defpoints
 62
     0
100
AcDbPoint
 10
1831.5
 20
-1308.850024060718
 30
0.0
  0
POINT
  5
5034
330
4FA7
100
AcDbEntity
  8
Defpoints
 62
     0
100
AcDbPoint
 10
1723.537739968949
 20
-1308.850024060718
 30
0.0
  0
ENDBLK
  5
4FB2
330
4FA7
100
AcDbEntity
  8
0
100
AcDbBlockEnd
  0
BLOCK
  5
4FBD
330
4FB3
100
AcDbEntity
  8
0
100
AcDbBlockBegin
  2
*D33
 70
     1
 10
0.0
 20
0.0
 30
0.0
  3
*D33
  1

  0
LINE
  5
5035
330
4FB3
100
AcDbEntity
  8
标注
 62
     0
370
    -2
100
AcDbLine
 10
2370.416446846949
 20
-828.0
 30
0.0
 11
2370.416446846949
 21
-782.888836766051
 31
0.0
  0
LINE
  5
5036
330
4FB3
100
AcDbEntity
  8
标注
 62
     0
370
    -2
100
AcDbLine
 10
1838.116446846947
 20
-814.4999999999999
 30
0.0
 11
1838.116446846947
 21
-782.888836766051
 31
0.0
  0
LINE
  5
5037
330
4FB3
100
AcDbEntity
  8
标注
 62
     0
370
    -2
100
AcDbLine
 10
2362.416446846948
 20
-786.6388367660511
 30
0.0
 11
1846.116446846947
 21
-786.6388367660511
 31
0.0
  0
SOLID
  5
5038
330
4FB3
100
AcDbEntity
  8
标注
 62
     0
100
AcDbTrace
 10
2362.416446846948
 20
-785.3055034327177
 30
0.0
 11
2362.416446846948
 21
-787.9721700993845
 31
0.0
 12
2370.416446846949
 22
-786.6388367660511
 32
0.0
 13
2370.416446846949
 23
-786.6388367660511
 33
0.0
  0
SOLID
  5
5039
330
4FB3
100
AcDbEntity
  8
标注
 62
     0
100
AcDbTrace
 10
1846.116446846947
 20
-785.3055034327177
 30
0.0
 11
1846.116446846947
 21
-787.9721700993845
 31
0.0
 12
1838.116446846947
 22
-786.6388367660511
 32
0.0
 13
1838.116446846947
 23
-786.6388367660511
 33
0.0
  0
MTEXT
  5
503A
330
4FB3
100
AcDbEntity
  8
标注
 62
     0
100
AcDbMText
 10
2104.266446846948
 20
-774.3850850607304
 30
0.0
 40
16.0
 41
0.0
 71
     5
 72
     1
  1
{\fArial|b0|i0|c0|p34;532.3 [21]}
 73
     1
 44
1.0
1001
ACAD
1000
MTEXTBEGIN
1070
    73
1070
     1
1070
    44
1040
1.0
1070
    74
1070
     0
1000
MTEXTEND
  0
POINT
  5
503B
330
4FB3
100
AcDbEntity
  8
Defpoints
 62
     0
100
AcDbPoint
 10
2370.416446846949
 20
-828.0
 30
0.0
  0
POINT
  5
503C
330
4FB3
100
AcDbEntity
  8
Defpoints
 62
     0
100
AcDbPoint
 10
1838.116446846947
 20
-814.4999999999999
 30
0.0
  0
POINT
  5
503D
330
4FB3
100
AcDbEntity
  8
Defpoints
 62
     0
100
AcDbPoint
 10
1838.116446846947
 20
-786.6388367660511
 30
0.0
  0
ENDBLK
  5
4FBE
330
4FB3
100
AcDbEntity
  8
0
100
AcDbBlockEnd
  0
BLOCK
  5
4FC9
330
4FBF
100
AcDbEntity
  8
0
100
AcDbBlockBegin
  2
*D34
 70
     1
 10
0.0
 20
0.0
 30
0.0
  3
*D34
  1

  0
LINE
  5
503E
330
4FBF
100
AcDbEntity
  8
标注
 62
     0
370
    -2
100
AcDbLine
 10
1832.0
 20
-830.8500240607207
 30
0.0
 11
1778.787739968949
 21
-830.8500240607205
 31
0.0
  0
LINE
  5
503F
330
4FBF
100
AcDbEntity
  8
标注
 62
     0
370
    -2
100
AcDbLine
 10
1827.0
 20
-1296.150024060719
 30
0.0
 11
1778.787739968949
 21
-1296.150024060719
 31
0.0
  0
LINE
  5
5040
330
4FBF
100
AcDbEntity
  8
标注
 62
     0
370
    -2
100
AcDbLine
 10
1782.537739968949
 20
-838.8500240607205
 30
0.0
 11
1782.537739968949
 21
-1288.150024060719
 31
0.0
  0
SOLID
  5
5041
330
4FBF
100
AcDbEntity
  8
标注
 62
     0
100
AcDbTrace
 10
1781.204406635616
 20
-838.8500240607205
 30
0.0
 11
1783.871073302282
 21
-838.8500240607205
 31
0.0
 12
1782.537739968949
 22
-830.8500240607205
 32
0.0
 13
1782.537739968949
 23
-830.8500240607205
 33
0.0
  0
SOLID
  5
5042
330
4FBF
100
AcDbEntity
  8
标注
 62
     0
100
AcDbTrace
 10
1781.204406635616
 20
-1288.150024060719
 30
0.0
 11
1783.871073302282
 21
-1288.150024060719
 31
0.0
 12
1782.537739968949
 22
-1296.150024060719
 32
0.0
 13
1782.537739968949
 23
-1296.150024060719
 33
0.0
  0
MTEXT
  5
5043
330
4FBF
100
AcDbEntity
  8
标注
 62
     0
100
AcDbMText
 10
1770.180304771132
 20
-1063.50002406072
 30
0.0
 40
16.0
 41
0.0
 71
     5
 72
     1
  1
{\fArial|b0|i0|c0|p34;465.3 [18 3/8]}
 11
0.0000000000000001
 21
1.0
 31
0.0
 73
     1
 44
1.0
1001
ACAD
1000
MTEXTBEGIN
1070
    73
1070
     1
1070
    44
1040
1.0
1070
    74
1070
     0
1000
MTEXTEND
  0
POINT
  5
5044
330
4FBF
100
AcDbEntity
  8
Defpoints
 62
     0
100
AcDbPoint
 10
1832.0
 20
-830.8500240607207
 30
0.0
  0
POINT
  5
5045
330
4FBF
100
AcDbEntity
  8
Defpoints
 62
     0
100
AcDbPoint
 10
1827.0
 20
-1296.150024060719
 30
0.0
  0
POINT
  5
5046
330
4FBF
100
AcDbEntity
  8
Defpoints
 62
     0
100
AcDbPoint
 10
1782.537739968949
 20
-1296.150024060719
 30
0.0
  0
ENDBLK
  5
4FCA
330
4FBF
100
AcDbEntity
  8
0
100
AcDbBlockEnd
  0
BLOCK
  5
4FD7
330
4FCB
100
AcDbEntity
  8
0
100
AcDbBlockBegin
  2
*D35
 70
     1
 10
0.0
 20
0.0
 30
0.0
  3
*D35
  1

  0
LINE
  5
5047
330
4FCB
100
AcDbEntity
  8
标注
 62
     0
370
    -2
100
AcDbLine
 10
2370.416446846943
 20
-1102.500024060693
 30
0.0
 11
2370.416446846943
 21
-1128.75
 31
0.0
  0
LINE
  5
5048
330
4FCB
100
AcDbEntity
  8
标注
 62
     0
370
    -2
100
AcDbLine
 10
2376.766446846946
 20
-1102.5000240607
 30
0.0
 11
2376.766446846946
 21
-1128.75
 31
0.0
  0
LINE
  5
5049
330
4FCB
100
AcDbEntity
  8
标注
 62
     0
370
    -2
100
AcDbLine
 10
2384.766446846946
 20
-1125.0
 30
0.0
 11
2392.766446846946
 21
-1125.0
 31
0.0
  0
LINE
  5
504A
330
4FCB
100
AcDbEntity
  8
标注
 62
     0
370
    -2
100
AcDbLine
 10
2362.416446846943
 20
-1125.0
 30
0.0
 11
2257.758526603002
 21
-1125.0
 31
0.0
  0
LINE
  5
504B
330
4FCB
100
AcDbEntity
  8
标注
 62
     0
370
    -2
100
AcDbLine
 10
2376.766446846946
 20
-1125.0
 30
0.0
 11
2370.416446846943
 21
-1125.0
 31
0.0
  0
SOLID
  5
504C
330
4FCB
100
AcDbEntity
  8
标注
 62
     0
100
AcDbTrace
 10
2384.766446846946
 20
-1123.666666666667
 30
0.0
 11
2384.766446846946
 21
-1126.333333333333
 31
0.0
 12
2376.766446846946
 22
-1125.0
 32
0.0
 13
2376.766446846946
 23
-1125.0
 33
0.0
  0
SOLID
  5
504D
330
4FCB
100
AcDbEntity
  8
标注
 62
     0
100
AcDbTrace
 10
2362.416446846943
 20
-1123.666666666667
 30
0.0
 11
2362.416446846943
 21
-1126.333333333333
 31
0.0
 12
2370.416446846943
 22
-1125.0
 32
0.0
 13
2370.416446846943
 23
-1125.0
 33
0.0
  0
MTEXT
  5
504E
330
4FCB
100
AcDbEntity
  8
标注
 62
     0
100
AcDbMText
 10
2299.0
 20
-1112.642564802182
 30
0.0
 40
16.0
 41
0.0
 71
     5
 72
     1
  1
{\fArial|b0|i0|c0|p34;6.4 [1/4]}
 73
     1
 44
1.0
1001
ACAD
1000
MTEXTBEGIN
1070
    73
1070
     1
1070
    44
1040
1.0
1070
    74
1070
     0
1000
MTEXTEND
  0
POINT
  5
504F
330
4FCB
100
AcDbEntity
  8
Defpoints
 62
     0
100
AcDbPoint
 10
2370.416446846943
 20
-1102.500024060693
 30
0.0
  0
POINT
  5
5050
330
4FCB
100
AcDbEntity
  8
Defpoints
 62
     0
100
AcDbPoint
 10
2376.766446846946
 20
-1102.5000240607
 30
0.0
  0
POINT
  5
5051
330
4FCB
100
AcDbEntity
  8
Defpoints
 62
     0
100
AcDbPoint
 10
2376.766446846946
 20
-1125.0
 30
0.0
  0
ENDBLK
  5
4FD8
330
4FCB
100
AcDbEntity
  8
0
100
AcDbBlockEnd
  0
BLOCK
  5
4FE5
330
4FD9
100
AcDbEntity
  8
0
100
AcDbBlockBegin
  2
*D36
 70
     1
 10
0.0
 20
0.0
 30
0.0
  3
*D36
  1

  0
LINE
  5
5052
330
4FD9
100
AcDbEntity
  8
标注
 62
     0
370
    -2
100
AcDbLine
 10
2376.766446846946
 20
-1102.5000240607
 30
0.0
 11
2376.766446846946
 21
-1156.25
 31
0.0
  0
LINE
  5
5053
330
4FD9
100
AcDbEntity
  8
标注
 62
     0
370
    -2
100
AcDbLine
 10
2383.116446846948
 20
-1102.500024060693
 30
0.0
 11
2383.116446846948
 21
-1156.25
 31
0.0
  0
LINE
  5
5054
330
4FD9
100
AcDbEntity
  8
标注
 62
     0
370
    -2
100
AcDbLine
 10
2391.116446846948
 20
-1152.5
 30
0.0
 11
2399.116446846948
 21
-1152.5
 31
0.0
  0
LINE
  5
5055
330
4FD9
100
AcDbEntity
  8
标注
 62
     0
370
    -2
100
AcDbLine
 10
2368.766446846946
 20
-1152.5
 30
0.0
 11
2263.258526603002
 21
-1152.5
 31
0.0
  0
LINE
  5
5056
330
4FD9
100
AcDbEntity
  8
标注
 62
     0
370
    -2
100
AcDbLine
 10
2383.116446846948
 20
-1152.5
 30
0.0
 11
2376.766446846946
 21
-1152.5
 31
0.0
  0
SOLID
  5
5057
330
4FD9
100
AcDbEntity
  8
标注
 62
     0
100
AcDbTrace
 10
2391.116446846948
 20
-1151.166666666667
 30
0.0
 11
2391.116446846948
 21
-1153.833333333333
 31
0.0
 12
2383.116446846948
 22
-1152.5
 32
0.0
 13
2383.116446846948
 23
-1152.5
 33
0.0
  0
SOLID
  5
5058
330
4FD9
100
AcDbEntity
  8
标注
 62
     0
100
AcDbTrace
 10
2368.766446846946
 20
-1151.166666666667
 30
0.0
 11
2368.766446846946
 21
-1153.833333333333
 31
0.0
 12
2376.766446846946
 22
-1152.5
 32
0.0
 13
2376.766446846946
 23
-1152.5
 33
0.0
  0
MTEXT
  5
5059
330
4FD9
100
AcDbEntity
  8
标注
 62
     0
100
AcDbMText
 10
2304.5
 20
-1140.142564802183
 30
0.0
 40
16.0
 41
0.0
 71
     5
 72
     1
  1
{\fArial|b0|i0|c0|p34;6.4 [1/4]}
 73
     1
 44
1.0
1001
ACAD
1000
MTEXTBEGIN
1070
    73
1070
     1
1070
    44
1040
1.0
1070
    74
1070
     0
1000
MTEXTEND
  0
POINT
  5
505A
330
4FD9
100
AcDbEntity
  8
Defpoints
 62
     0
100
AcDbPoint
 10
2376.766446846946
 20
-1102.5000240607
 30
0.0
  0
POINT
  5
505B
330
4FD9
100
AcDbEntity
  8
Defpoints
 62
     0
100
AcDbPoint
 10
2383.116446846948
 20
-1102.500024060693
 30
0.0
  0
POINT
  5
505C
330
4FD9
100
AcDbEntity
  8
Defpoints
 62
     0
100
AcDbPoint
 10
2383.116446846948
 20
-1152.5
 30
0.0
  0
ENDBLK
  5
4FE6
330
4FD9
100
AcDbEntity
  8
0
100
AcDbBlockEnd
  0
ENDSEC
  0
SECTION
  2
ENTITIES
  0
LINE
  5
4009
330
1F
100
AcDbEntity
  8
粗实线
100
AcDbLine
 10
1140.280977472815
 20
155.9734655899569
 30
0.0
 11
643.3059667039365
 21
155.9734655899569
 31
0.0
  0
LINE
  5
400A
330
1F
100
AcDbEntity
  8
图框线
100
AcDbLine
 10
974.6226405498457
 20
282.9781905642304
 30
0.0
 11
974.6226405498457
 21
155.9734655899569
 31
0.0
  0
LINE
  5
400B
330
1F
100
AcDbEntity
  8
图框线
100
AcDbLine
 10
808.9643036268801
 20
282.9781905642304
 30
0.0
 11
808.9643036268801
 21
155.9734655899569
 31
0.0
  0
LINE
  5
400C
330
1F
100
AcDbEntity
  8
图框线
100
AcDbLine
 10
829.671595742279
 20
205.670966666845
 30
0.0
 11
829.671595742279
 21
175.3002715643128
 31
0.0
  0
LINE
  5
400D
330
1F
100
AcDbEntity
  8
图框线
100
AcDbLine
 10
850.3788878576312
 20
205.670966666845
 30
0.0
 11
850.3788878576312
 21
175.3002715643128
 31
0.0
  0
LINE
  5
400E
330
1F
100
AcDbEntity
  8
图框线
100
AcDbLine
 10
891.7934720883526
 20
175.3002715643128
 30
0.0
 11
891.7934720883526
 21
155.9734655899569
 31
0.0
  0
LINE
  5
400F
330
1F
100
AcDbEntity
  8
图框线
100
AcDbLine
 10
871.086179972988
 20
222.2368003591534
 30
0.0
 11
871.086179972988
 21
175.3002715643128
 31
0.0
  0
LINE
  5
4010
330
1F
100
AcDbEntity
  8
图框线
100
AcDbLine
 10
904.2178473575875
 20
222.2368003591534
 30
0.0
 11
904.2178473575875
 21
175.3002715643128
 31
0.0
  0
LINE
  5
4011
330
1F
100
AcDbEntity
  8
图框线
100
AcDbLine
 10
941.4909731652501
 20
222.2368003591534
 30
0.0
 11
941.4909731652501
 21
175.3002715643128
 31
0.0
  0
LINE
  5
4012
330
1F
100
AcDbEntity
  8
粗实线
100
AcDbLine
 10
1140.280977472815
 20
155.9734655899569
 30
0.0
 11
643.3059667039365
 21
155.9734655899569
 31
0.0
  0
LINE
  5
4013
330
1F
100
AcDbEntity
  8
粗实线
100
AcDbLine
 10
1140.280977472815
 20
282.9781905642304
 30
0.0
 11
643.3059667039365
 21
282.9781905642304
 31
0.0
  0
LINE
  5
4014
330
1F
100
AcDbEntity
  8
图框线
100
AcDbLine
 10
974.6226405498457
 20
222.2368003591534
 30
0.0
 11
643.3059667039365
 21
222.2368003591534
 31
0.0
  0
LINE
  5
4015
330
1F
100
AcDbEntity
  8
图框线
100
AcDbLine
 10
808.9643036268801
 20
234.3850784001659
 30
0.0
 11
643.3059667039365
 21
234.3850784001659
 31
0.0
  0
LINE
  5
4016
330
1F
100
AcDbEntity
  8
图框线
100
AcDbLine
 10
808.9643036268801
 20
246.5333564411751
 30
0.0
 11
643.3059667039365
 21
246.5333564411751
 31
0.0
  0
LINE
  5
4017
330
1F
100
AcDbEntity
  8
图框线
100
AcDbLine
 10
808.9643036268801
 20
258.681634482196
 30
0.0
 11
643.3059667039365
 21
258.681634482196
 31
0.0
  0
LINE
  5
4018
330
1F
100
AcDbEntity
  8
图框线
100
AcDbLine
 10
808.9643036268801
 20
270.8299125232181
 30
0.0
 11
643.3059667039365
 21
270.8299125232181
 31
0.0
  0
LINE
  5
4019
330
1F
100
AcDbEntity
  8
图框线
100
AcDbLine
 10
974.6226405498457
 20
205.670966666845
 30
0.0
 11
643.3059667039365
 21
205.670966666845
 31
0.0
  0
LINE
  5
401A
330
1F
100
AcDbEntity
  8
图框线
100
AcDbLine
 10
974.6226405498457
 20
189.1051329745462
 30
0.0
 11
643.3059667039365
 21
189.1051329745462
 31
0.0
  0
LINE
  5
401B
330
1F
100
AcDbEntity
  8
图框线
100
AcDbLine
 10
808.9643036268801
 20
172.5392992822515
 30
0.0
 11
643.3059667039365
 21
172.5392992822515
 31
0.0
  0
LINE
  5
401C
330
1F
100
AcDbEntity
  8
图框线
100
AcDbLine
 10
974.6226405498457
 20
205.670966666845
 30
0.0
 11
808.9643036268801
 21
205.670966666845
 31
0.0
  0
LINE
  5
401D
330
1F
100
AcDbEntity
  8
图框线
100
AcDbLine
 10
974.6226405498457
 20
189.1051329745462
 30
0.0
 11
808.9643036268801
 21
189.1051329745462
 31
0.0
  0
LINE
  5
401E
330
1F
100
AcDbEntity
  8
图框线
100
AcDbLine
 10
974.6226405498457
 20
175.3002715643128
 30
0.0
 11
808.9643036268801
 21
175.3002715643128
 31
0.0
  0
LINE
  5
401F
330
1F
100
AcDbEntity
  8
图框线
100
AcDbLine
 10
1140.280977472815
 20
238.8026340514396
 30
0.0
 11
974.6226405498457
 21
238.8026340514396
 31
0.0
  0
LINE
  5
4020
330
1F
100
AcDbEntity
  8
图框线
100
AcDbLine
 10
1140.280977472815
 20
197.3880498206823
 30
0.0
 11
974.6226405498457
 21
197.3880498206823
 31
0.0
  0
LINE
  5
4021
330
1F
100
AcDbEntity
  8
图框线
100
AcDbLine
 10
665.3937449603163
 20
222.2368003591311
 30
0.0
 11
665.3937449603163
 21
282.9781905642304
 31
0.0
  0
LINE
  5
4022
330
1F
100
AcDbEntity
  8
图框线
100
AcDbLine
 10
687.4815232167095
 20
222.2368003591311
 30
0.0
 11
687.4815232167095
 21
282.9781905642304
 31
0.0
  0
LINE
  5
4023
330
1F
100
AcDbEntity
  8
图框线
100
AcDbLine
 10
734.418052011568
 20
222.2368003591534
 30
0.0
 11
734.418052011568
 21
282.9781905642304
 31
0.0
  0
LINE
  5
4024
330
1F
100
AcDbEntity
  8
图框线
100
AcDbLine
 10
775.8326362422934
 20
222.2368003591534
 30
0.0
 11
775.8326362422934
 21
282.9781905642304
 31
0.0
  0
LINE
  5
4025
330
1F
100
AcDbEntity
  8
图框线
100
AcDbLine
 10
676.4376340885193
 20
155.9734655899569
 30
0.0
 11
676.4376340885193
 21
222.2368003591311
 31
0.0
  0
LINE
  5
4026
330
1F
100
AcDbEntity
  8
图框线
100
AcDbLine
 10
726.1351351654125
 20
155.9734655899569
 30
0.0
 11
726.1351351654125
 21
222.2368003591534
 31
0.0
  0
LINE
  5
4027
330
1F
100
AcDbEntity
  8
图框线
100
AcDbLine
 10
759.266802549996
 20
155.9734655899569
 30
0.0
 11
759.266802549996
 21
222.2368003591534
 31
0.0
  0
MTEXT
  5
4028
330
1F
100
AcDbEntity
  8
文字
100
AcDbMText
 10
647.5269313343369
 20
231.7369117307616
 30
0.0
 40
5.604711454580748
 41
36.01726776072903
 71
     1
 72
     5
  1
{\fSimSun|b0|i0|c134|p2;标记}
 73
     1
 44
1.0
1001
ACAD
1000
MTEXTBEGIN
1070
    73
1070
     1
1070
    44
1040
1.0
1070
    74
1070
     0
1000
MTEXTEND
  0
MTEXT
  5
4029
330
1F
100
AcDbEntity
  8
文字
100
AcDbMText
 10
669.1449742849319
 20
231.6712735326055
 30
0.0
 40
5.604711454580748
 41
36.01726776072903
 71
     1
 72
     5
  1
{\fSimSun|b0|i0|c134|p2;处数}
 73
     1
 44
1.0
1001
ACAD
1000
MTEXTBEGIN
1070
    73
1070
     1
1070
    44
1040
1.0
1070
    74
1070
     0
1000
MTEXTEND
  0
MTEXT
  5
402A
330
1F
100
AcDbEntity
  8
文字
100
AcDbMText
 10
695.942022201873
 20
230.9696671738247
 30
0.0
 40
4.483769163664597
 41
76.5869241539242
 71
     1
 72
     5
  1
{\fSimSun|b0|i0|c134|p2;\C1;更改文件号}
 73
     1
 44
1.0
1001
ACAD
1000
MTEXTBEGIN
1070
    73
1070
     1
1070
    44
1040
1.0
1070
    74
1070
     0
1000
MTEXTEND
  0
MTEXT
  5
402B
330
1F
100
AcDbEntity
  8
文字
100
AcDbMText
 10
746.4692921832554
 20
232.0817666587698
 30
0.0
 40
5.604711454580748
 41
36.01726776072903
 71
     1
 72
     5
  1
{\fSimSun|b0|i0|c134|p2;签名}
 73
     1
 44
1.0
1001
ACAD
1000
MTEXTBEGIN
1070
    73
1070
     1
1070
    44
1040
1.0
1070
    74
1070
     0
1000
MTEXTEND
  0
MTEXT
  5
402C
330
1F
100
AcDbEntity
  8
文字
100
AcDbMText
 10
786.1730427374838
 20
231.7517573079281
 30
0.0
 40
5.604711454580748
 41
36.01726776072903
 71
     1
 72
     5
  1
{\fSimSun|b0|i0|c134|p2;日期}
 73
     1
 44
1.0
1001
ACAD
1000
MTEXTBEGIN
1070
    73
1070
     1
1070
    44
1040
1.0
1070
    74
1070
     0
1000
MTEXTEND
  0
MTEXT
  5
402D
330
1F
100
AcDbEntity
  8
文字
100
AcDbMText
 10
650.4676590045256
 20
217.9214221370991
 30
0.0
 40
7.005889318225932
 41
45.02158470091131
 71
     1
 72
     5
  1
{\fSimSun|b0|i0|c134|p2;设计}
 73
     1
 44
1.0
1001
ACAD
1000
MTEXTBEGIN
1070
    73
1070
     1
1070
    44
1040
1.0
1070
    74
1070
     0
1000
MTEXTEND
  0
MTEXT
  5
402E
330
1F
100
AcDbEntity
  8
文字
100
AcDbMText
 10
650.4676590045256
 20
201.2429114187294
 30
0.0
 40
7.005889318225932
 41
45.02158470091131
 71
     1
 72
     5
  1
{\fSimSun|b0|i0|c134|p2;校对}
 73
     1
 44
1.0
1001
ACAD
1000
MTEXTBEGIN
1070
    73
1070
     1
1070
    44
1040
1.0
1070
    74
1070
     0
1000
MTEXTEND
  0
MTEXT
  5
402F
330
1F
100
AcDbEntity
  8
文字
100
AcDbMText
 10
650.4676590045256
 20
184.7279153979824
 30
0.0
 40
7.005889318225932
 41
45.02158470091131
 71
     1
 72
     5
  1
{\fSimSun|b0|i0|c134|p2;会签}
 73
     1
 44
1.0
1001
ACAD
1000
MTEXTBEGIN
1070
    73
1070
     1
1070
    44
1040
1.0
1070
    74
1070
     0
1000
MTEXTEND
  0
MTEXT
  5
4030
330
1F
100
AcDbEntity
  8
文字
100
AcDbMText
 10
650.4676590045256
 20
168.3921997381268
 30
0.0
 40
7.005889318225932
 41
45.02158470091131
 71
     1
 72
     5
  1
{\fSimSun|b0|i0|c134|p2;工艺}
 73
     1
 44
1.0
1001
ACAD
1000
MTEXTBEGIN
1070
    73
1070
     1
1070
    44
1040
1.0
1070
    74
1070
     0
1000
MTEXTEND
  0
MTEXT
  5
4031
330
1F
100
AcDbEntity
  8
文字
100
AcDbMText
 10
733.1831053452492
 20
200.2572359512777
 30
0.0
 40
7.005889318225932
 41
45.02158470091131
 71
     1
 72
     5
  1
{\fSimSun|b0|i0|c134|p2;批准}
 73
     1
 44
1.0
1001
ACAD
1000
MTEXTBEGIN
1070
    73
1070
     1
1070
    44
1040
1.0
1070
    74
1070
     0
1000
MTEXTEND
  0
MTEXT
  5
4032
330
1F
100
AcDbEntity
  8
文字
100
AcDbMText
 10
734.6761958222961
 20
167.4065370692142
 30
0.0
 40
7.005889318225932
 41
45.02158470091131
 71
     1
 72
     5
  1
{\fSimSun|b0|i0|c134|p2;日期}
 73
     1
 44
1.0
1001
ACAD
1000
MTEXTBEGIN
1070
    73
1070
     1
1070
    44
1040
1.0
1070
    74
1070
     0
1000
MTEXTEND
  0
MTEXT
  5
4033
330
1F
100
AcDbEntity
  8
文字
100
AcDbMText
 10
821.0712056348087
 20
218.0579189321866
 30
0.0
 40
7.005889318225932
 41
45.02158470091131
 71
     1
 72
     5
  1
{\fSimSun|b0|i0|c134|p2;图样标记}
 73
     1
 44
1.0
1001
ACAD
1000
MTEXTBEGIN
1070
    73
1070
     1
1070
    44
1040
1.0
1070
    74
1070
     0
1000
MTEXTEND
  0
MTEXT
  5
4034
330
1F
100
AcDbEntity
  8
文字
100
AcDbMText
 10
832.0899576872351
 20
168.9905871526455
 30
0.0
 40
7.005889318225932
 41
45.02158470091131
 71
     1
 72
     5
  1
{\fSimSun|b0|i0|c134|p2;共  页}
 73
     1
 44
1.0
1001
ACAD
1000
MTEXTBEGIN
1070
    73
1070
     1
1070
    44
1040
1.0
1070
    74
1070
     0
1000
MTEXTEND
  0
MTEXT
  5
4035
330
1F
100
AcDbEntity
  8
文字
100
AcDbMText
 10
879.6766148720218
 20
217.9949948022273
 30
0.0
 40
7.005889318225932
 41
45.02158470091131
 71
     1
 72
     5
  1
{\fSimSun|b0|i0|c134|p2;数量}
 73
     1
 44
1.0
1001
ACAD
1000
MTEXTBEGIN
1070
    73
1070
     1
1070
    44
1040
1.0
1070
    74
1070
     0
1000
MTEXTEND
  0
MTEXT
  5
4036
330
1F
100
AcDbEntity
  8
文字
100
AcDbMText
 10
909.1120802599135
 20
217.5393156192737
 30
0.0
 40
7.005889318225932
 41
45.02158470091131
 71
     1
 72
     5
  1
{\fSimSun|b0|i0|c134|p2;重量}
 73
     1
 44
1.0
1001
ACAD
1000
MTEXTBEGIN
1070
    73
1070
     1
1070
    44
1040
1.0
1070
    74
1070
     0
1000
MTEXTEND
  0
MTEXT
  5
4037
330
1F
100
AcDbEntity
  8
文字
100
AcDbMText
 10
949.3836106446137
 20
217.9038564059314
 30
0.0
 40
7.005889318225932
 41
45.02158470091131
 71
     1
 72
     5
  1
{\fSimSun|b0|i0|c134|p2;比例}
 73
     1
 44
1.0
1001
ACAD
1000
MTEXTBEGIN
1070
    73
1070
     1
1070
    44
1040
1.0
1070
    74
1070
     0
1000
MTEXTEND
  0
MTEXT
  5
4038
330
1F
100
AcDbEntity
  8
文字
100
AcDbMText
 10
930.4667459421166
 20
216.8123187653027
 30
0.0
 40
8.142438576437378
 41
161.672118555274
 71
     1
 72
     5
  1
{\fArial|b0|i0|c0|p34;kg}
  7
样式 8
 73
     1
 44
1.0
1001
ACAD
1000
MTEXTBEGIN
1070
    73
1070
     1
1070
    44
1040
1.0
1070
    74
1070
     0
1000
MTEXTEND
  0
MTEXT
  5
4039
330
1F
100
AcDbEntity
  8
文字
100
AcDbMText
 10
915.550047441677
 20
168.9905871526455
 30
0.0
 40
7.005889318225932
 41
45.02158470091131
 71
     1
 72
     5
  1
{\fSimSun|b0|i0|c134|p2;第  页}
 73
     1
 44
1.0
1001
ACAD
1000
MTEXTBEGIN
1070
    73
1070
     1
1070
    44
1040
1.0
1070
    74
1070
     0
1000
MTEXTEND
  0
MTEXT
  5
403A
330
1F
100
AcDbEntity
  8
文字
100
AcDbMText
 10
982.7162683988008
 20
263.7740363942675
 30
0.0
 40
10.17804822054672
 41
202.0901481940925
 71
     1
 72
     5
  1
{\fSimSun|b0|i0|c134|p2;\C1;泰捷不锈钢制品（泰国）有限公司}
  7
样式 8
 73
     1
 44
1.0
1001
ACAD
1000
MTEXTBEGIN
1070
    73
1070
     1
1070
    44
1040
1.0
1070
    74
1070
     0
1000
MTEXTEND
  0
MTEXT
  5
403B
330
1F
100
AcDbEntity
  8
文字
100
AcDbMText
 10
997.7343781116395
 20
227.1598027735301
 30
0.0
 40
13.25266695383688
 41
263.1382137943912
 71
     1
 72
     5
  1
{\fSimSun|b0|i0|c134|p2;\C1;开孔纸板（FD1001）}
  7
样式 8
 73
     1
 44
1.0
1001
ACAD
1000
MTEXTBEGIN
1070
    73
1070
     1
1070
    44
1040
1.0
1070
    74
1070
     0
1000
MTEXTEND
  0
LINE
  5
403C
330
1F
100
AcDbEntity
  8
不可见
100
AcDbLine
 10
1154.085838883061
 20
962.1773719483696
 30
0.0
 11
1154.085838883061
 21
142.1686041797108
 31
0.0
  0
LINE
  5
403D
330
1F
100
AcDbEntity
  8
粗实线
100
AcDbLine
 10
1140.280977472815
 20
948.3725105381386
 30
0.0
 11
1140.280977472815
 21
155.9734655899569
 31
0.0
  0
LINE
  5
403E
330
1F
100
AcDbEntity
  8
不可见
100
AcDbLine
 10
1154.085838883061
 20
142.1686041797108
 30
0.0
 11
-5.522519577665804
 21
142.1686041797108
 31
0.0
  0
LINE
  5
403F
330
1F
100
AcDbEntity
  8
粗实线
100
AcDbLine
 10
1140.280977472815
 20
155.9734655899569
 30
0.0
 11
63.50178747355588
 21
155.9734655899569
 31
0.0
  0
LINE
  5
4040
330
1F
100
AcDbEntity
  8
粗实线
100
AcDbLine
 10
1140.280977472815
 20
155.9734655899569
 30
0.0
 11
63.50178747355588
 21
155.9734655899569
 31
0.0
  0
MTEXT
  5
4041
330
1F
100
AcDbEntity
  8
文字
100
AcDbMText
 10
854.6111119724196
 20
255.6232914659085
 30
0.0
 40
13.25266695383688
 41
263.1382137943912
 71
     1
 72
     5
  1
{\fSimSun|b0|i0|c0|p2;\C1;0.3\fSimSun|b0|i0|c134|p2;mm厚白纸板}
  7
样式 8
 73
     1
 44
1.0
1001
ACAD
1000
MTEXTBEGIN
1070
    73
1070
     1
1070
    44
1040
1.0
1070
    74
1070
     0
1000
MTEXTEND
  0
MTEXT
  5
4042
330
1F
100
AcDbEntity
  8
文字
100
AcDbMText
 10
816.2092659056169
 20
276.247920400083
 30
0.0
 40
13.25266695383688
 41
263.1382137943912
 71
     1
 72
     5
  1
{\fSimSun|b0|i0|c134|p2;材料:}
  7
样式 8
 73
     1
 44
1.0
1001
ACAD
1000
MTEXTBEGIN
1070
    73
1070
     1
1070
    44
1040
1.0
1070
    74
1070
     0
1000
MTEXTEND
  0
MTEXT
  5
4043
330
1F
100
AcDbEntity
  8
文字
100
AcDbMText
 10
733.1831053452492
 20
216.8662705959107
 30
0.0
 40
7.005889318225932
 41
45.02158470091131
 71
     1
 72
     5
  1
{\fSimSun|b0|i0|c134|p2;审核}
 73
     1
 44
1.0
1001
ACAD
1000
MTEXTBEGIN
1070
    73
1070
     1
1070
    44
1040
1.0
1070
    74
1070
     0
1000
MTEXTEND
  0
LINE
  5
4044
330
1F
100
AcDbEntity
  8
不可见
100
AcDbLine
 10
-5.522519577665804
 20
962.1773719483696
 30
0.0
 11
1154.085838883061
 21
962.1773719483696
 31
0.0
  0
LINE
  5
4045
330
1F
100
AcDbEntity
  8
粗实线
100
AcDbLine
 10
63.50178747355588
 20
948.3725105381203
 30
0.0
 11
1140.280977472815
 21
948.3725105381203
 31
0.0
  0
LINE
  5
4046
330
1F
100
AcDbEntity
  8
不可见
100
AcDbLine
 10
-5.522519577665804
 20
142.1686041797108
 30
0.0
 11
-5.522519577665804
 21
962.1773719483696
 31
0.0
  0
LINE
  5
4047
330
1F
100
AcDbEntity
  8
粗实线
100
AcDbLine
 10
63.50178747355588
 20
155.9734655899569
 30
0.0
 11
63.50178747355588
 21
948.3725105381203
 31
0.0
  0
LINE
  5
4048
330
1F
100
AcDbEntity
  8
粗实线
100
AcDbLine
 10
63.50178747355588
 20
919.7404562784017
 30
0.0
 11
199.6273979226964
 21
919.7404562784017
 31
0.0
  0
LINE
  5
4049
330
1F
100
AcDbEntity
  8
粗实线
100
AcDbLine
 10
199.6273979226964
 20
919.7404562784017
 30
0.0
 11
199.6273979226964
 21
948.3725105381203
 31
0.0
  0
LINE
  5
404A
330
1F
100
AcDbEntity
  8
图框线
100
AcDbLine
 10
63.50178747355588
 20
178.0612438463475
 30
0.0
 11
-5.522519577665804
 21
178.0612438463475
 31
0.0
  0
LINE
  5
404B
330
1F
100
AcDbEntity
  8
图框线
100
AcDbLine
 10
63.50178747355588
 20
194.6270775386559
 30
0.0
 11
-5.522519577665804
 21
194.6270775386559
 31
0.0
  0
LINE
  5
404C
330
1F
100
AcDbEntity
  8
图框线
100
AcDbLine
 10
63.50178747355588
 20
216.7148557950382
 30
0.0
 11
-5.522519577665804
 21
216.7148557950382
 31
0.0
  0
LINE
  5
404D
330
1F
100
AcDbEntity
  8
图框线
100
AcDbLine
 10
63.50178747355588
 20
233.2806894873371
 30
0.0
 11
-5.522519577665804
 21
233.2806894873371
 31
0.0
  0
LINE
  5
404E
330
1F
100
AcDbEntity
  8
图框线
100
AcDbLine
 10
63.50178747355588
 20
255.3684677437299
 30
0.0
 11
-5.522519577665804
 21
255.3684677437299
 31
0.0
  0
LINE
  5
404F
330
1F
100
AcDbEntity
  8
图框线
100
AcDbLine
 10
63.50178747355588
 20
271.9343014360203
 30
0.0
 11
-5.522519577665804
 21
271.9343014360203
 31
0.0
  0
LINE
  5
4050
330
1F
100
AcDbEntity
  8
图框线
100
AcDbLine
 10
63.50178747355588
 20
294.022079692429
 30
0.0
 11
-5.522519577665804
 21
294.022079692429
 31
0.0
  0
LINE
  5
4051
330
1F
100
AcDbEntity
  8
图框线
100
AcDbLine
 10
63.50178747355588
 20
310.5879133847184
 30
0.0
 11
-5.522519577665804
 21
310.5879133847184
 31
0.0
  0
LINE
  5
4052
330
1F
100
AcDbEntity
  8
图框线
100
AcDbLine
 10
63.50178747355588
 20
332.6756916411281
 30
0.0
 11
-5.522519577665804
 21
332.6756916411281
 31
0.0
  0
LINE
  5
4053
330
1F
100
AcDbEntity
  8
图框线
100
AcDbLine
 10
63.50178747355588
 20
349.2415253334312
 30
0.0
 11
-5.522519577665804
 21
349.2415253334312
 31
0.0
  0
LINE
  5
4054
330
1F
100
AcDbEntity
  8
图框线
100
AcDbLine
 10
63.50178747355588
 20
371.3293035897996
 30
0.0
 11
-5.522519577665804
 21
371.3293035897996
 31
0.0
  0
LINE
  5
4055
330
1F
100
AcDbEntity
  8
图框线
100
AcDbLine
 10
63.50178747355588
 20
387.8951372820996
 30
0.0
 11
-5.522519577665804
 21
387.8951372820996
 31
0.0
  0
LINE
  5
4056
330
1F
100
AcDbEntity
  8
图框线
100
AcDbLine
 10
63.50178747355588
 20
404.4609709743899
 30
0.0
 11
-5.522519577665804
 21
404.4609709743899
 31
0.0
  0
LINE
  5
4057
330
1F
100
AcDbEntity
  8
图框线
100
AcDbLine
 10
63.50178747355588
 20
155.9734655899569
 30
0.0
 11
-5.522519577665804
 21
155.9734655899569
 31
0.0
  0
MTEXT
  5
4058
102
{ACAD_XDICTIONARY
360
50D9
102
}
330
1F
100
AcDbEntity
  8
文字
100
AcDbMText
 10
1.875584907006626
 20
190.0606389366525
 30
0.0
 40
5.749724777367771
 41
146.0695976678113
 71
     1
 72
     5
  1
\U+65E5   
 73
     1
 44
1.0
1001
ACAD
1000
MTEXTBEGIN
1070
    73
1070
     1
1070
    44
1040
1.0
1070
    74
1070
     0
1000
MTEXTEND
  0
MTEXT
  5
4059
102
{ACAD_XDICTIONARY
360
50DB
102
}
330
1F
100
AcDbEntity
  8
文字
100
AcDbMText
 10
1.875584907006626
 20
228.6930809581986
 30
0.0
 40
5.749724777367771
 41
146.0695976678113
 71
     1
 72
     5
  1
\U+7B7E   
 73
     1
 44
1.0
1001
ACAD
1000
MTEXTBEGIN
1070
    73
1070
     1
1070
    44
1040
1.0
1070
    74
1070
     0
1000
MTEXTEND
  0
MTEXT
  5
405A
102
{ACAD_XDICTIONARY
360
50DD
102
}
330
1F
100
AcDbEntity
  8
文字
100
AcDbMText
 10
1.875584907006626
 20
268.4054405216035
 30
0.0
 40
5.749724777367771
 41
146.0695976678113
 71
     1
 72
     5
  1
\U+5E95
 73
     1
 44
1.0
1001
ACAD
1000
MTEXTBEGIN
1070
    73
1070
     1
1070
    44
1040
1.0
1070
    74
1070
     0
1000
MTEXTEND
  0
MTEXT
  5
405B
102
{ACAD_XDICTIONARY
360
50DF
102
}
330
1F
100
AcDbEntity
  8
文字
100
AcDbMText
 10
1.875584907006626
 20
305.9366414077197
 30
0.0
 40
5.749724777367771
 41
146.0695976678113
 71
     1
 72
     5
  1
\U+65E7
 73
     1
 44
1.0
1001
ACAD
1000
MTEXTBEGIN
1070
    73
1070
     1
1070
    44
1040
1.0
1070
    74
1070
     0
1000
MTEXTEND
  0
MTEXT
  5
405C
102
{ACAD_XDICTIONARY
360
50E1
102
}
330
1F
100
AcDbEntity
  8
文字
100
AcDbMText
 10
0.8369921512739466
 20
385.165815337529
 30
0.0
 40
5.749724777367771
 41
146.0695976678113
 71
     1
 72
     5
  1
\U+63CF   
 73
     1
 44
1.0
1001
ACAD
1000
MTEXTBEGIN
1070
    73
1070
     1
1070
    44
1040
1.0
1070
    74
1070
     0
1000
MTEXTEND
  0
MTEXT
  5
405D
102
{ACAD_XDICTIONARY
360
50E3
102
}
330
1F
100
AcDbEntity
  8
文字
100
AcDbMText
 10
-1.933473424926475
 20
402.0135545158407
 30
0.0
 40
5.749724777367771
 41
146.0695976678113
 71
     1
 72
     5
  1
\ftxt.shx,gbcbig.shx;\H1x;\C1;\U+501F\U+FF08\U+901A\U+FF09\U+7528\U+4EF6\U+767B\U+8BB0
 73
     1
 44
1.0
1001
ACAD
1000
MTEXTBEGIN
1070
    73
1070
     1
1070
    44
1040
1.0
1070
    74
1070
     0
1000
MTEXTEND
  0
MTEXT
  5
405E
102
{ACAD_XDICTIONARY
360
50E5
102
}
330
1F
100
AcDbEntity
  8
文字
100
AcDbMText
 10
49.84840364926366
 20
385.165815337529
 30
0.0
 40
5.749724777367771
 41
146.0695976678113
 71
     1
 72
     5
  1
\U+56FE   
 73
     1
 44
1.0
1001
ACAD
1000
MTEXTBEGIN
1070
    73
1070
     1
1070
    44
1040
1.0
1070
    74
1070
     0
1000
MTEXTEND
  0
MTEXT
  5
405F
102
{ACAD_XDICTIONARY
360
50E7
102
}
330
1F
100
AcDbEntity
  8
文字
100
AcDbMText
 10
0.8369921512739466
 20
346.1840927050478
 30
0.0
 40
5.749724777367771
 41
146.0695976678113
 71
     1
 72
     5
  1
\U+63CF   
 73
     1
 44
1.0
1001
ACAD
1000
MTEXTBEGIN
1070
    73
1070
     1
1070
    44
1040
1.0
1070
    74
1070
     0
1000
MTEXTEND
  0
MTEXT
  5
4060
102
{ACAD_XDICTIONARY
360
50E9
102
}
330
1F
100
AcDbEntity
  8
文字
100
AcDbMText
 10
49.84840364926366
 20
346.1840927050478
 30
0.0
 40
5.749724777367771
 41
146.0695976678113
 71
     1
 72
     5
  1
\U+6821   
 73
     1
 44
1.0
1001
ACAD
1000
MTEXTBEGIN
1070
    73
1070
     1
1070
    44
1040
1.0
1070
    74
1070
     0
1000
MTEXTEND
  0
MTEXT
  5
4061
102
{ACAD_XDICTIONARY
360
50EB
102
}
330
1F
100
AcDbEntity
  8
文字
100
AcDbMText
 10
12.53630230352272
 20
306.055248593691
 30
0.0
 40
5.749724777367771
 41
146.0695976678113
 71
     1
 72
     5
  1
\U+5E95
 73
     1
 44
1.0
1001
ACAD
1000
MTEXTBEGIN
1070
    73
1070
     1
1070
    44
1040
1.0
1070
    74
1070
     0
1000
MTEXTEND
  0
MTEXT
  5
4062
102
{ACAD_XDICTIONARY
360
50ED
102
}
330
1F
100
AcDbEntity
  8
文字
100
AcDbMText
 10
26.02992959361108
 20
305.9366414077197
 30
0.0
 40
5.749724777367771
 41
146.0695976678113
 71
     1
 72
     5
  1
\U+56FE
 73
     1
 44
1.0
1001
ACAD
1000
MTEXTBEGIN
1070
    73
1070
     1
1070
    44
1040
1.0
1070
    74
1070
     0
1000
MTEXTEND
  0
MTEXT
  5
4063
102
{ACAD_XDICTIONARY
360
50EF
102
}
330
1F
100
AcDbEntity
  8
文字
100
AcDbMText
 10
38.58821795816417
 20
305.9366414077197
 30
0.0
 40
5.749724777367771
 41
146.0695976678113
 71
     1
 72
     5
  1
\U+603B
 73
     1
 44
1.0
1001
ACAD
1000
MTEXTBEGIN
1070
    73
1070
     1
1070
    44
1040
1.0
1070
    74
1070
     0
1000
MTEXTEND
  0
MTEXT
  5
4064
102
{ACAD_XDICTIONARY
360
50F1
102
}
330
1F
100
AcDbEntity
  8
文字
100
AcDbMText
 10
51.1110655250231
 20
305.9366414077197
 30
0.0
 40
5.749724777367771
 41
146.0695976678113
 71
     1
 72
     5
  1
\U+53F7
 73
     1
 44
1.0
1001
ACAD
1000
MTEXTBEGIN
1070
    73
1070
     1
1070
    44
1040
1.0
1070
    74
1070
     0
1000
MTEXTEND
  0
MTEXT
  5
4065
102
{ACAD_XDICTIONARY
360
50F3
102
}
330
1F
100
AcDbEntity
  8
文字
100
AcDbMText
 10
17.5605129858763
 20
268.4054405216035
 30
0.0
 40
5.749724777367771
 41
146.0695976678113
 71
     1
 72
     5
  1
\U+56FE
 73
     1
 44
1.0
1001
ACAD
1000
MTEXTBEGIN
1070
    73
1070
     1
1070
    44
1040
1.0
1070
    74
1070
     0
1000
MTEXTEND
  0
MTEXT
  5
4066
102
{ACAD_XDICTIONARY
360
50F5
102
}
330
1F
100
AcDbEntity
  8
文字
100
AcDbMText
 10
32.97042462660505
 20
268.4054405216035
 30
0.0
 40
5.749724777367771
 41
146.0695976678113
 71
     1
 72
     5
  1
\U+603B
 73
     1
 44
1.0
1001
ACAD
1000
MTEXTBEGIN
1070
    73
1070
     1
1070
    44
1040
1.0
1070
    74
1070
     0
1000
MTEXTEND
  0
MTEXT
  5
4067
102
{ACAD_XDICTIONARY
360
50F7
102
}
330
1F
100
AcDbEntity
  8
文字
100
AcDbMText
 10
49.58895567822846
 20
268.4054405216035
 30
0.0
 40
5.749724777367771
 41
146.0695976678113
 71
     1
 72
     5
  1
\U+53F7
 73
     1
 44
1.0
1001
ACAD
1000
MTEXTBEGIN
1070
    73
1070
     1
1070
    44
1040
1.0
1070
    74
1070
     0
1000
MTEXTEND
  0
MTEXT
  5
4068
102
{ACAD_XDICTIONARY
360
50F9
102
}
330
1F
100
AcDbEntity
  8
文字
100
AcDbMText
 10
49.71230267350131
 20
228.6930809581986
 30
0.0
 40
5.749724777367771
 41
146.0695976678113
 71
     1
 72
     5
  1
\U+5B57  
 73
     1
 44
1.0
1001
ACAD
1000
MTEXTBEGIN
1070
    73
1070
     1
1070
    44
1040
1.0
1070
    74
1070
     0
1000
MTEXTEND
  0
MTEXT
  5
4069
102
{ACAD_XDICTIONARY
360
50FB
102
}
330
1F
100
AcDbEntity
  8
文字
100
AcDbMText
 10
48.71804041468599
 20
190.0606389366525
 30
0.0
 40
5.749724777367771
 41
146.0695976678113
 71
     1
 72
     5
  1
\U+671F  
 73
     1
 44
1.0
1001
ACAD
1000
MTEXTBEGIN
1070
    73
1070
     1
1070
    44
1040
1.0
1070
    74
1070
     0
1000
MTEXTEND
  0
MTEXT
  5
406A
330
1F
100
AcDbEntity
  8
文字
100
AcDbMText
 10
1035.44715458646
 20
188.2057313529455
 30
0.0
 40
19.0838404135251
 41
378.9190278639233
 71
     1
 72
     5
  1
\fNSimSun|b0|i0|c134|p49;\C1;1b1
  7
样式 8
 73
     1
 44
1.0
1001
ACAD
1000
MTEXTBEGIN
1070
    73
1070
     1
1070
    44
1040
1.0
1070
    74
1070
     0
1000
MTEXTEND
  0
LINE
  5
406B
330
1F
100
AcDbEntity
  8
粗实线
100
AcDbLine
 10
643.3059667039365
 20
282.9781905642304
 30
0.0
 11
643.3059667039365
 21
155.9734655899569
 31
0.0
  0
MTEXT
  5
406C
330
1F
100
AcDbEntity
  8
文字
100
AcDbMText
 10
974.0471119724199
 20
312.7012914659086
 30
0.0
 40
13.25266695383688
 41
263.1382137943912
 71
     1
 72
     5
  1
\fSimSun|b0|i0|c134|p2;\H1x;\C1;虚线为打孔线
  7
样式 8
 73
     1
 44
1.0
1001
ACAD
1000
MTEXTBEGIN
1070
    73
1070
     1
1070
    44
1040
1.0
1070
    74
1070
     0
1000
MTEXTEND
  0
LWPOLYLINE
  5
46B0
330
1F
100
AcDbEntity
  8
虚线
 48
2.0
100
AcDbPolyline
 90
        8
 70
     1
 43
0.0
 10
316.8084502405855
 20
605.9055586864488
 42
0.0596027624984639
 10
317.7796741315906
 20
403.9758632116209
 42
0.3534680416605499
 10
408.2369365850063
 20
316.717518297497
 42
0.0439672072615888
 10
759.2959571088904
 20
316.7175182974897
 42
0.3534680416605511
 10
849.7532195623062
 20
403.9758632116209
 42
0.0596027624984638
 10
850.7244434533095
 20
605.9055586864415
 42
0.3488288713530629
 10
674.7824433867699
 20
781.8056681520756
 42
0.0570702731901691
 10
492.7504503071268
 20
781.8056681520756
 42
0.3488288713530622
  0
LWPOLYLINE
  5
46B1
330
1F
100
AcDbEntity
  8
虚线
 48
2.0
100
AcDbPolyline
 90
        8
 70
     1
 43
0.0
 10
323.117048215232
 20
605.181616980044
 42
0.0596027624984639
 10
324.0810164924642
 20
404.7604551125841
 42
0.3534680600522435
 10
408.7942488808094
 20
323.0430145630017
 42
0.0439672064921217
 10
758.7386509138086
 20
323.0430151005057
 42
0.3534680416605511
 10
843.4518772014325
 20
404.7604551125841
 42
0.0596027624984638
 10
844.4158454786629
 20
605.1816169800368
 42
0.3488288713530629
 10
674.0600039142354
 20
775.496897970137
 42
0.0570702731901691
 10
493.4728897796612
 20
775.496897970137
 42
0.3488288713530622
  0
LWPOLYLINE
  5
46B2
330
1F
100
AcDbEntity
  8
粗实线
100
AcDbPolyline
 90
        8
 70
     1
 43
0.0
 10
310.4998522659371
 20
606.6295003928535
 42
0.0596027624984639
 10
311.478331770717
 20
403.1912713106503
 42
0.3534680416605499
 10
407.6796303899246
 20
310.392021494481
 42
0.0439672072615888
 10
759.8532633039722
 20
310.392021494481
 42
0.3534680416605511
 10
856.0545619231797
 20
403.1912713106576
 42
0.0596027624984638
 10
857.0330414279579
 20
606.6295003928462
 42
0.3488288713530629
 10
675.5048828593044
 20
788.1144383340142
 42
0.0570702731901691
 10
492.0280108345923
 20
788.1144383340142
 42
0.3488288713530622
  0
DIMENSION
  5
477D
330
1F
100
AcDbEntity
  8
标注
100
AcDbDimension
  2
*D1
 10
311.2664468469479
 20
855.861163233949
 30
0.0
 11
584.0329343690282
 21
855.861163233949
 31
0.0
 70
   160
  1
{\fArial|b0|i0|c0|p34;<>}
 71
     5
 42
545.0
  3
英寸
100
AcDbAlignedDimension
 13
856.2664468469479
 23
781.5
 33
0.0
 14
311.2664468469479
 24
795.5
 34
0.0
100
AcDbRotatedDimension
1001
ACAD
1000
DSTYLE
1002
{
1070
    41
1040
8.0
1002
}
  0
DIMENSION
  5
477E
330
1F
100
AcDbEntity
  8
标注
100
AcDbDimension
  2
*D2
 10
234.0377399689496
 20
308.9999759392815
 30
0.0
 11
234.0377399689496
 21
547.9999759392801
 31
0.0
 70
   160
  1
{\fArial|b0|i0|c0|p34;<>}
 71
     5
 42
477.9999999999971
  3
英寸
100
AcDbAlignedDimension
 13
313.0
 23
786.9999759392786
 33
0.0
 14
309.5
 24
308.9999759392815
 34
0.0
 50
90.0
100
AcDbRotatedDimension
1001
ACAD
1000
DSTYLE
1002
{
1070
    41
1040
8.0
1002
}
  0
DIMENSION
  5
477F
330
1F
100
AcDbEntity
  8
标注
100
AcDbDimension
  2
*D3
 10
304.9164468469471
 20
889.3611632339489
 30
0.0
 11
584.033116261693
 21
889.3611632339489
 31
0.0
 70
   160
  1
{\fArial|b0|i0|c0|p34;<>}
 71
     5
 42
557.7000000000009
  3
英寸
100
AcDbAlignedDimension
 13
862.6164468469481
 23
783.4999999999999
 33
0.0
 14
304.9164468469471
 24
799.5
 34
0.0
100
AcDbRotatedDimension
1001
ACAD
1000
DSTYLE
1002
{
1070
    41
1040
8.0
1002
}
  0
DIMENSION
  5
4780
330
1F
100
AcDbEntity
  8
标注
100
AcDbDimension
  2
*D4
 10
203.0377399689496
 20
302.6499759392818
 30
0.0
 11
203.0377399689496
 21
547.9999759392801
 31
0.0
 70
   160
  1
{\fArial|b0|i0|c0|p34;<>}
 71
     5
 42
490.6999999999964
  3
英寸
100
AcDbAlignedDimension
 13
313.0
 23
793.3499759392782
 33
0.0
 14
311.0
 24
302.6499759392818
 34
0.0
 50
90.0
100
AcDbRotatedDimension
1001
ACAD
1000
DSTYLE
1002
{
1070
    41
1040
8.0
1002
}
  0
DIMENSION
  5
4781
330
1F
100
AcDbEntity
  8
标注
100
AcDbDimension
  2
*D5
 10
317.6164468469474
 20
824.8611632339489
 30
0.0
 11
583.7664468469479
 21
824.8611632339489
 31
0.0
 70
   160
  1
{\fArial|b0|i0|c0|p34;<>}
 71
     5
 42
532.3000000000011
  3
英寸
100
AcDbAlignedDimension
 13
849.9164468469484
 23
783.4999999999999
 33
0.0
 14
317.6164468469474
 24
797.0
 34
0.0
100
AcDbRotatedDimension
1001
ACAD
1000
DSTYLE
1002
{
1070
    41
1040
8.0
1002
}
  0
DIMENSION
  5
4782
330
1F
100
AcDbEntity
  8
标注
100
AcDbDimension
  2
*D6
 10
262.0377399689496
 20
315.3499759392805
 30
0.0
 11
262.0377399689496
 21
547.9999759392799
 31
0.0
 70
   160
  1
{\fArial|b0|i0|c0|p34;<>}
 71
     5
 42
465.2999999999988
  3
英寸
100
AcDbAlignedDimension
 13
311.5
 23
780.6499759392793
 33
0.0
 14
306.5
 24
315.3499759392805
 34
0.0
 50
90.0
100
AcDbRotatedDimension
1001
ACAD
1000
DSTYLE
1002
{
1070
    41
1040
8.0
1002
}
  0
DIMENSION
  5
489C
330
1F
100
AcDbEntity
  8
标注
100
AcDbDimension
  2
*D7
 10
856.2664468469458
 20
486.5
 30
0.0
 11
778.5
 21
486.5
 31
0.0
 70
   160
  1
{\fArial|b0|i0|c0|p34;<>}
 71
     5
 42
6.350000000002182
  3
英寸
100
AcDbAlignedDimension
 13
849.9164468469437
 23
508.9999759393069
 33
0.0
 14
856.2664468469458
 24
508.9999759392997
 34
0.0
100
AcDbRotatedDimension
1001
ACAD
1000
DSTYLE
1002
{
1070
    41
1040
8.0
1002
}
  0
DIMENSION
  5
489D
330
1F
100
AcDbEntity
  8
标注
100
AcDbDimension
  2
*D8
 10
862.6164468469481
 20
459.0
 30
0.0
 11
784.0
 21
459.0
 31
0.0
 70
   160
  1
{\fArial|b0|i0|c0|p34;<>}
 71
     5
 42
6.350000000002182
  3
英寸
100
AcDbAlignedDimension
 13
856.2664468469458
 23
508.9999759392997
 33
0.0
 14
862.6164468469481
 24
508.9999759393069
 34
0.0
100
AcDbRotatedDimension
1001
ACAD
1000
DSTYLE
1002
{
1070
    41
1040
8.0
1002
}
  0
MTEXT
  5
4B47
330
1F
100
AcDbEntity
  8
文字
100
AcDbMText
 10
945.5471119724199
 20
336.2012914659086
 30
0.0
 40
13.25266695383688
 41
263.1382137943912
 71
     1
 72
     5
  1
{\fSimSun|b0|i0|c134|p2;\C1;注：图纸上标注尺寸不用印刷}
  7
样式 8
 73
     1
 44
1.0
1001
ACAD
1000
MTEXTBEGIN
1070
    73
1070
     1
1070
    44
1040
1.0
1070
    74
1070
     0
1000
MTEXTEND
  0
DIMENSION
  5
4C6E
330
1F
100
AcDbEntity
  8
标注
100
AcDbDimension
  2
*D19
 10
652.0284442518113
 20
583.1042450988745
 30
0.0
 11
860.0
 21
674.5
 31
0.0
 70
    36
  1
2-<>
 71
     5
 42
206.3500000000019
  3
英寸
100
AcDbRadialDimension
 15
840.9410947760061
 25
666.1243208150781
 35
0.0
 40
0.0
1001
ACAD
1000
DSTYLE
1002
{
1070
    41
1040
8.0
1070
    74
1070
     1
1002
}
  0
DIMENSION
  5
4C87
330
1F
100
AcDbEntity
  8
标注
100
AcDbDimension
  2
*D18
 10
652.028444251811
 20
583.1042450988759
 30
0.0
 11
857.0
 21
710.0
 31
0.0
 70
    36
  1
2-<>
 71
     5
 42
200.0000000000005
  3
英寸
100
AcDbRadialDimension
 15
822.0782799025711
 25
688.3803268798279
 35
0.0
 40
0.0
1001
ACAD
1000
DSTYLE
1002
{
1070
    41
1040
8.0
1070
    74
1070
     1
1002
}
  0
DIMENSION
  5
4C95
330
1F
100
AcDbEntity
  8
标注
100
AcDbDimension
  2
*D17
 10
652.0284442518118
 20
583.1042450988761
 30
0.0
 11
854.0
 21
744.0
 31
0.0
 70
    36
  1
2-<>
 71
     5
 42
193.6500000000013
  3
英寸
100
AcDbRadialDimension
 15
803.4926698261994
 25
703.7645570127424
 35
0.0
 40
0.0
1001
ACAD
1000
DSTYLE
1002
{
1070
    74
1070
     1
1070
    41
1040
8.0
1002
}
  0
DIMENSION
  5
4D60
330
1F
100
AcDbEntity
  8
标注
100
AcDbDimension
  2
*D20
 10
417.0134120980986
 20
416.3316411795794
 30
0.0
 11
353.0
 21
196.0
 31
0.0
 70
    36
  1
2-<>
 71
     5
 42
106.3499999999957
  3
英寸
100
AcDbRadialDimension
 15
387.3422151585661
 25
314.2045508843274
 35
0.0
 40
0.0
1001
ACAD
1000
DSTYLE
1002
{
1070
    41
1040
8.0
1070
    74
1070
     1
1002
}
  0
DIMENSION
  5
4D6E
330
1F
100
AcDbEntity
  8
标注
100
AcDbDimension
  2
*D21
 10
417.0134120980997
 20
416.3316411795838
 30
0.0
 11
346.5
 21
227.5
 31
0.0
 70
    36
  1
2-<>
 71
     5
 42
99.99999999999792
  3
英寸
100
AcDbRadialDimension
 15
382.0309130327374
 25
322.6501341510272
 35
0.0
 40
0.0
1001
ACAD
1000
DSTYLE
1002
{
1070
    41
1040
8.0
1070
    74
1070
     1
1002
}
  0
DIMENSION
  5
4D7C
330
1F
100
AcDbEntity
  8
标注
100
AcDbDimension
  2
*D22
 10
417.0134120981021
 20
416.3316411795797
 30
0.0
 11
344.0
 21
257.5
 31
0.0
 70
    36
  1
2-<>
 71
     5
 42
93.64999999999893
  3
英寸
100
AcDbRadialDimension
 15
377.8982823345258
 25
331.2415176423655
 35
0.0
 40
0.0
1001
ACAD
1000
DSTYLE
1002
{
1070
    41
1040
8.0
1070
    74
1070
     1
1002
}
  0
ENDSEC
  0
SECTION
  2
OBJECTS
  0
DICTIONARY
  5
C
330
0
100
AcDbDictionary
281
     1
  3
ACAD_2007HEADERVARS_RT
350
50C9
  3
ACAD_COLOR
350
3513
  3
ACAD_GROUP
350
D
  3
ACAD_LAYOUT
350
1A
  3
ACAD_MATERIAL
350
350F
  3
ACAD_MLINESTYLE
350
17
  3
ACAD_PLOTSETTINGS
350
19
  3
ACAD_PLOTSTYLENAME
350
E
  3
ACAD_TABLESTYLE
350
E9
  3
ACAD_VISUALSTYLE
350
28
  3
AcDbVariableDictionary
350
366A
  3
DWGPROPS
350
50C8
  0
DICTIONARY
  5
36E2
330
2
100
AcDbDictionary
280
     1
281
     1
  3
ACAD_LAYERSTATES
360
36E3
  0
DICTIONARY
  5
50D9
330
4058
100
AcDbDictionary
280
     1
281
     1
  3
ACAD_MTEXT_RT
360
50DA
  0
DICTIONARY
  5
50DB
330
4059
100
AcDbDictionary
280
     1
281
     1
  3
ACAD_MTEXT_RT
360
50DC
  0
DICTIONARY
  5
50DD
330
405A
100
AcDbDictionary
280
     1
281
     1
  3
ACAD_MTEXT_RT
360
50DE
  0
DICTIONARY
  5
50DF
330
405B
100
AcDbDictionary
280
     1
281
     1
  3
ACAD_MTEXT_RT
360
50E0
  0
DICTIONARY
  5
50E1
330
405C
100
AcDbDictionary
280
     1
281
     1
  3
ACAD_MTEXT_RT
360
50E2
  0
DICTIONARY
  5
50E3
330
405D
100
AcDbDictionary
280
     1
281
     1
  3
ACAD_MTEXT_RT
360
50E4
  0
DICTIONARY
  5
50E5
330
405E
100
AcDbDictionary
280
     1
281
     1
  3
ACAD_MTEXT_RT
360
50E6
  0
DICTIONARY
  5
50E7
330
405F
100
AcDbDictionary
280
     1
281
     1
  3
ACAD_MTEXT_RT
360
50E8
  0
DICTIONARY
  5
50E9
330
4060
100
AcDbDictionary
280
     1
281
     1
  3
ACAD_MTEXT_RT
360
50EA
  0
DICTIONARY
  5
50EB
330
4061
100
AcDbDictionary
280
     1
281
     1
  3
ACAD_MTEXT_RT
360
50EC
  0
DICTIONARY
  5
50ED
330
4062
100
AcDbDictionary
280
     1
281
     1
  3
ACAD_MTEXT_RT
360
50EE
  0
DICTIONARY
  5
50EF
330
4063
100
AcDbDictionary
280
     1
281
     1
  3
ACAD_MTEXT_RT
360
50F0
  0
DICTIONARY
  5
50F1
330
4064
100
AcDbDictionary
280
     1
281
     1
  3
ACAD_MTEXT_RT
360
50F2
  0
DICTIONARY
  5
50F3
330
4065
100
AcDbDictionary
280
     1
281
     1
  3
ACAD_MTEXT_RT
360
50F4
  0
DICTIONARY
  5
50F5
330
4066
100
AcDbDictionary
280
     1
281
     1
  3
ACAD_MTEXT_RT
360
50F6
  0
DICTIONARY
  5
50F7
330
4067
100
AcDbDictionary
280
     1
281
     1
  3
ACAD_MTEXT_RT
360
50F8
  0
DICTIONARY
  5
50F9
330
4068
100
AcDbDictionary
280
     1
281
     1
  3
ACAD_MTEXT_RT
360
50FA
  0
DICTIONARY
  5
50FB
330
4069
100
AcDbDictionary
280
     1
281
     1
  3
ACAD_MTEXT_RT
360
50FC
  0
DICTIONARY
  5
50C9
102
{ACAD_REACTORS
330
C
102
}
330
C
100
AcDbDictionary
281
     1
  3
INTERFERECOLOR
350
50CA
  0
DICTIONARY
  5
3513
102
{ACAD_REACTORS
330
C
102
}
330
C
100
AcDbDictionary
281
     1
  0
DICTIONARY
  5
D
102
{ACAD_REACTORS
330
C
102
}
330
C
100
AcDbDictionary
281
     1
  0
DICTIONARY
  5
1A
102
{ACAD_REACTORS
330
C
102
}
330
C
100
AcDbDictionary
281
     1
  3
Layout1
350
1E
  3
Layout2
350
24
  3
Model
350
22
  0
DICTIONARY
  5
350F
102
{ACAD_REACTORS
330
C
102
}
330
C
100
AcDbDictionary
281
     1
  3
ByBlock
350
3511
  3
ByLayer
350
3510
  3
Global
350
3512
  0
DICTIONARY
  5
17
102
{ACAD_REACTORS
330
C
102
}
330
C
100
AcDbDictionary
281
     1
  3
Standard
350
18
  0
DICTIONARY
  5
19
102
{ACAD_REACTORS
330
C
102
}
330
C
100
AcDbDictionary
281
     1
  0
ACDBDICTIONARYWDFLT
  5
E
102
{ACAD_REACTORS
330
C
102
}
330
C
100
AcDbDictionary
281
     1
  3
Normal
350
F
100
AcDbDictionaryWithDefault
340
F
  0
DICTIONARY
  5
E9
102
{ACAD_REACTORS
330
C
102
}
330
C
100
AcDbDictionary
281
     1
  3
Standard
350
3514
  0
DICTIONARY
  5
28
102
{ACAD_REACTORS
330
C
102
}
330
C
100
AcDbDictionary
281
     1
  3
2dWireframe
350
2D
  3
3D Hidden
350
2F
  3
3dWireframe
350
2E
  3
Basic
350
30
  3
Brighten
350
34
  3
ColorChange
350
38
  3
Conceptual
350
32
  3
Dim
350
33
  3
Facepattern
350
37
  3
Flat
350
29
  3
FlatWithEdges
350
2A
  3
Gouraud
350
2B
  3
GouraudWithEdges
350
2C
  3
Linepattern
350
36
  3
Realistic
350
31
  3
Thicken
350
35
  0
DICTIONARY
  5
366A
102
{ACAD_REACTORS
330
C
102
}
330
C
100
AcDbDictionary
281
     1
  3
CTABLESTYLE
350
366B
  3
DGNFRAME
350
50C7
  3
DIMASSOC
350
50C6
  3
HIDETEXT
350
50C5
  3
INDEXCTL
350
50C4
  3
SORTENTS
350
50C3
  0
XRECORD
  5
50C8
102
{ACAD_REACTORS
330
C
102
}
330
C
100
AcDbXrecord
280
     1
  1
DWGPROPS COOKIE
  2

  3

  4

  6

  7

  8
Administrator
  9

300
=
301
=
302
=
303
=
304
=
305
=
306
=
307
=
308
=
309
=
 40
0.0452647106481482
 41
2455841.60680022
 42
2459756.636208993
  1

 90
        0
  0
DICTIONARY
  5
36E3
102
{ACAD_REACTORS
330
36E2
102
}
330
36E2
100
AcDbDictionary
281
     1
  0
XRECORD
  5
50DA
102
{ACAD_REACTORS
330
50D9
102
}
330
50D9
100
AcDbXrecord
280
     1
 40
2521.0
  1
日   
  0
XRECORD
  5
50DC
102
{ACAD_REACTORS
330
50DB
102
}
330
50DB
100
AcDbXrecord
280
     1
 40
2618.0
  1
签   
  0
XRECORD
  5
50DE
102
{ACAD_REACTORS
330
50DD
102
}
330
50DD
100
AcDbXrecord
280
     1
 40
1661.0
  1
底
  0
XRECORD
  5
50E0
102
{ACAD_REACTORS
330
50DF
102
}
330
50DF
100
AcDbXrecord
280
     1
 40
1671.0
  1
旧
  0
XRECORD
  5
50E2
102
{ACAD_REACTORS
330
50E1
102
}
330
50E1
100
AcDbXrecord
280
     1
 40
2618.0
  1
描   
  0
XRECORD
  5
50E4
102
{ACAD_REACTORS
330
50E3
102
}
330
50E3
100
AcDbXrecord
280
     1
 40
249260.0
  1
\ftxt.shx,gbcbig.shx;\H1x;\C1;借（通）用件登记
  0
XRECORD
  5
50E6
102
{ACAD_REACTORS
330
50E5
102
}
330
50E5
100
AcDbXrecord
280
     1
 40
2640.0
  1
图   
  0
XRECORD
  5
50E8
102
{ACAD_REACTORS
330
50E7
102
}
330
50E7
100
AcDbXrecord
280
     1
 40
2618.0
  1
描   
  0
XRECORD
  5
50EA
102
{ACAD_REACTORS
330
50E9
102
}
330
50E9
100
AcDbXrecord
280
     1
 40
2394.0
  1
校   
  0
XRECORD
  5
50EC
102
{ACAD_REACTORS
330
50EB
102
}
330
50EB
100
AcDbXrecord
280
     1
 40
1661.0
  1
底
  0
XRECORD
  5
50EE
102
{ACAD_REACTORS
330
50ED
102
}
330
50ED
100
AcDbXrecord
280
     1
 40
1776.0
  1
图
  0
XRECORD
  5
50F0
102
{ACAD_REACTORS
330
50EF
102
}
330
50EF
100
AcDbXrecord
280
     1
 40
1615.0
  1
总
  0
XRECORD
  5
50F2
102
{ACAD_REACTORS
330
50F1
102
}
330
50F1
100
AcDbXrecord
280
     1
 40
1663.0
  1
号
  0
XRECORD
  5
50F4
102
{ACAD_REACTORS
330
50F3
102
}
330
50F3
100
AcDbXrecord
280
     1
 40
1776.0
  1
图
  0
XRECORD
  5
50F6
102
{ACAD_REACTORS
330
50F5
102
}
330
50F5
100
AcDbXrecord
280
     1
 40
1615.0
  1
总
  0
XRECORD
  5
50F8
102
{ACAD_REACTORS
330
50F7
102
}
330
50F7
100
AcDbXrecord
280
     1
 40
1663.0
  1
号
  0
XRECORD
  5
50FA
102
{ACAD_REACTORS
330
50F9
102
}
330
50F9
100
AcDbXrecord
280
     1
 40
2180.0
  1
字  
  0
XRECORD
  5
50FC
102
{ACAD_REACTORS
330
50FB
102
}
330
50FB
100
AcDbXrecord
280
     1
 40
2210.0
  1
期  
  0
XRECORD
  5
50CA
102
{ACAD_REACTORS
330
50C9
102
}
330
50C9
100
AcDbXrecord
280
     1
1004
1800000001000000000000C0000000000000000000000000
  0
LAYOUT
  5
1E
102
{ACAD_XDICTIONARY
360
50CB
102
}
102
{ACAD_REACTORS
330
1A
102
}
330
1A
100
AcDbPlotSettings
  1

  2
none_device
  4

  6

 40
0.0
 41
0.0
 42
0.0
 43
0.0
 44
0.0
 45
0.0
 46
0.0
 47
0.0
 48
0.0
 49
0.0
140
0.0
141
0.0
142
1.0
143
1.0
 70
   688
 72
     0
 73
     0
 74
     5
  7

 75
    16
147
1.0
148
0.0
149
0.0
100
AcDbLayout
  1
Layout1
 70
     1
 71
     1
 10
0.0
 20
0.0
 11
12.0
 21
9.0
 12
0.0
 22
0.0
 32
0.0
 14
1.000000000000000E+20
 24
1.000000000000000E+20
 34
1.000000000000000E+20
 15
-1.000000000000000E+20
 25
-1.000000000000000E+20
 35
-1.000000000000000E+20
146
0.0
 13
0.0
 23
0.0
 33
0.0
 16
1.0
 26
0.0
 36
0.0
 17
0.0
 27
1.0
 37
0.0
 76
     0
330
1B
  0
LAYOUT
  5
24
102
{ACAD_XDICTIONARY
360
50CF
102
}
102
{ACAD_REACTORS
330
1A
102
}
330
1A
100
AcDbPlotSettings
  1

  2
none_device
  4

  6

 40
0.0
 41
0.0
 42
0.0
 43
0.0
 44
0.0
 45
0.0
 46
0.0
 47
0.0
 48
0.0
 49
0.0
140
0.0
141
0.0
142
1.0
143
1.0
 70
   688
 72
     0
 73
     0
 74
     5
  7

 75
    16
147
1.0
148
0.0
149
0.0
100
AcDbLayout
  1
Layout2
 70
     1
 71
     2
 10
0.0
 20
0.0
 11
0.0
 21
0.0
 12
0.0
 22
0.0
 32
0.0
 14
0.0
 24
0.0
 34
0.0
 15
0.0
 25
0.0
 35
0.0
146
0.0
 13
0.0
 23
0.0
 33
0.0
 16
1.0
 26
0.0
 36
0.0
 17
0.0
 27
1.0
 37
0.0
 76
     0
330
23
  0
LAYOUT
  5
22
102
{ACAD_XDICTIONARY
360
50CD
102
}
102
{ACAD_REACTORS
330
1A
102
}
330
1A
100
AcDbPlotSettings
  1

  2
Microsoft Print to PDF
  4
A4
  6

 40
3.174999952316284
 41
3.174999952316284
 42
3.175003051757812
 43
3.17498779296875
 44
210.0156707763672
 45
297.0106506347656
 46
0.0
 47
1.324303726957566
 48
1514.977480422334
 49
-1469.331395820289
140
2674.585838883062
141
-649.3226280516303
142
1.0
143
4.026249375940296
 70
  3764
 72
     1
 73
     1
 74
     4
  7
Monochrome.ctb
 75
     0
147
0.2483701099032045
148
-1514.977480422334
149
1469.331395820289
100
AcDbLayout
  1
Model
 70
     1
 71
     0
 10
0.0
 20
0.0
 11
12.0
 21
9.0
 12
0.0
 22
0.0
 32
0.0
 14
-5.522519577665804
 24
-1517.831395820289
 34
0.0
 15
2535.085838883062
 25
962.1773719483696
 35
0.0
146
0.0
 13
0.0
 23
0.0
 33
0.0
 16
1.0
 26
0.0
 36
0.0
 17
0.0
 27
1.0
 37
0.0
 76
     0
330
1F
331
27
1001
ACAD_PSEXT
1000
Microsoft Print to PDF
1000
Microsoft Print To PDF
1000
PORTPROMPT:
1000

1070
     0
  0
MATERIAL
  5
3511
102
{ACAD_XDICTIONARY
360
50D3
102
}
102
{ACAD_REACTORS
330
350F
102
}
330
350F
100
AcDbMaterial
  1
ByBlock
  0
MATERIAL
  5
3510
102
{ACAD_XDICTIONARY
360
50D1
102
}
102
{ACAD_REACTORS
330
350F
102
}
330
350F
100
AcDbMaterial
  1
ByLayer
  0
MATERIAL
  5
3512
102
{ACAD_XDICTIONARY
360
50D5
102
}
102
{ACAD_REACTORS
330
350F
102
}
330
350F
100
AcDbMaterial
  1
Global
  0
MLINESTYLE
  5
18
102
{ACAD_REACTORS
330
17
102
}
330
17
100
AcDbMlineStyle
  2
STANDARD
 70
     0
  3

 62
   256
 51
90.0
 52
90.0
 71
     2
 49
0.5
 62
   256
  6
BYLAYER
 49
-0.5
 62
   256
  6
BYLAYER
  0
ACDBPLACEHOLDER
  5
F
102
{ACAD_REACTORS
330
E
102
}
330
E
  0
TABLESTYLE
  5
3514
102
{ACAD_XDICTIONARY
360
50D7
102
}
102
{ACAD_REACTORS
330
E9
102
}
330
E9
100
AcDbTableStyle
  3
Standard
 70
     0
 71
     0
 40
0.06
 41
0.06
280
     0
281
     0
  7
Standard
140
0.18
170
     2
 62
     0
 63
     7
283
     0
274
    -2
284
     1
 64
     0
275
    -2
285
     1
 65
     0
276
    -2
286
     1
 66
     0
277
    -2
287
     1
 67
     0
278
    -2
288
     1
 68
     0
279
    -2
289
     1
 69
     0
  7
Standard
140
0.25
170
     5
 62
     0
 63
     7
283
     0
274
    -2
284
     1
 64
     0
275
    -2
285
     1
 65
     0
276
    -2
286
     1
 66
     0
277
    -2
287
     1
 67
     0
278
    -2
288
     1
 68
     0
279
    -2
289
     1
 69
     0
  7
Standard
140
0.18
170
     5
 62
     0
 63
     7
283
     0
274
    -2
284
     1
 64
     0
275
    -2
285
     1
 65
     0
276
    -2
286
     1
 66
     0
277
    -2
287
     1
 67
     0
278
    -2
288
     1
 68
     0
279
    -2
289
     1
 69
     0
  0
VISUALSTYLE
  5
2D
102
{ACAD_REACTORS
330
28
102
}
330
28
100
AcDbVisualStyle
  2
2dWireframe
 70
     4
 71
     0
 72
     2
 73
     0
 90
        0
 40
-0.6
 41
-30.0
 62
     5
 63
     7
 74
     1
 91
        4
 64
     7
 65
   257
 75
     1
175
     1
 42
1.0
 92
        0
 66
   257
 43
1.0
 76
     1
 77
     6
 78
     2
 67
     7
 79
     5
170
     0
171
     0
290
     0
174
     0
 93
        1
 44
0.0
173
     0
291
     0
 45
0.0
1001
ACAD
1000
AcDbSavedByObjectVersion
1070
     0
  0
VISUALSTYLE
  5
2F
102
{ACAD_REACTORS
330
28
102
}
330
28
100
AcDbVisualStyle
  2
3D Hidden
 70
     6
 71
     1
 72
     2
 73
     2
 90
        0
 40
-0.6
 41
-30.0
 62
     5
 63
     7
 74
     2
 91
        2
 64
     7
 65
   257
 75
     2
175
     1
 42
40.0
 92
        0
 66
   257
 43
1.0
 76
     1
 77
     6
 78
     2
 67
     7
 79
     3
170
     0
171
     0
290
     0
174
     0
 93
        1
 44
0.0
173
     0
291
     0
 45
0.0
1001
ACAD
1000
AcDbSavedByObjectVersion
1070
     0
  0
VISUALSTYLE
  5
2E
102
{ACAD_REACTORS
330
28
102
}
330
28
100
AcDbVisualStyle
  2
3dWireframe
 70
     5
 71
     0
 72
     2
 73
     0
 90
        0
 40
-0.6
 41
-30.0
 62
     5
 63
     7
 74
     1
 91
        4
 64
     7
 65
   257
 75
     1
175
     1
 42
1.0
 92
        0
 66
   257
 43
1.0
 76
     1
 77
     6
 78
     2
 67
     7
 79
     5
170
     0
171
     0
290
     0
174
     0
 93
        1
 44
0.0
173
     0
291
     0
 45
0.0
1001
ACAD
1000
AcDbSavedByObjectVersion
1070
     0
  0
VISUALSTYLE
  5
30
102
{ACAD_REACTORS
330
28
102
}
330
28
100
AcDbVisualStyle
  2
Basic
 70
     7
 71
     1
 72
     0
 73
     1
 90
        0
 40
-0.6
 41
-30.0
 62
     5
 63
     7
 74
     0
 91
        4
 64
     7
 65
   257
 75
     1
175
     1
 42
1.0
 92
        8
 66
     7
 43
1.0
 76
     1
 77
     6
 78
     2
 67
     7
 79
     5
170
     0
171
     0
290
     0
174
     0
 93
        1
 44
0.0
173
     0
291
     1
 45
0.0
1001
ACAD
1000
AcDbSavedByObjectVersion
1070
     0
  0
VISUALSTYLE
  5
34
102
{ACAD_REACTORS
330
28
102
}
330
28
100
AcDbVisualStyle
  2
Brighten
 70
    12
 71
     2
 72
     2
 73
     0
 90
        0
 40
-0.6
 41
-30.0
 62
     5
 63
     7
 74
     1
 91
        4
 64
     7
 65
   257
 75
     1
175
     1
 42
1.0
 92
        8
 66
     7
 43
1.0
 76
     1
 77
     6
 78
     2
 67
     7
 79
     5
170
     0
171
     0
290
     0
174
     0
 93
        1
 44
50.0
173
     0
291
     1
 45
0.0
1001
ACAD
1000
AcDbSavedByObjectVersion
1070
     0
  0
VISUALSTYLE
  5
38
102
{ACAD_REACTORS
330
28
102
}
330
28
100
AcDbVisualStyle
  2
ColorChange
 70
    16
 71
     2
 72
     2
 73
     3
 90
        0
 40
-0.6
 41
-30.0
 62
     5
 63
     8
 74
     1
 91
        4
 64
     7
 65
   257
 75
     1
175
     1
 42
1.0
 92
        8
 66
     8
 43
1.0
 76
     1
 77
     6
 78
     2
 67
     7
 79
     5
170
     0
171
     0
290
     0
174
     0
 93
        1
 44
0.0
173
     0
291
     1
 45
0.0
1001
ACAD
1000
AcDbSavedByObjectVersion
1070
     0
  0
VISUALSTYLE
  5
32
102
{ACAD_REACTORS
330
28
102
}
330
28
100
AcDbVisualStyle
  2
Conceptual
 70
     9
 71
     3
 72
     2
 73
     0
 90
        0
 40
-0.6
 41
-30.0
 62
     5
 63
     7
 74
     2
 91
        2
 64
     7
 65
   257
 75
     1
175
     1
 42
40.0
 92
        8
 66
     7
 43
1.0
 76
     1
 77
     6
 78
     2
 67
     7
 79
     3
170
     0
171
     0
290
     0
174
     0
 93
        1
 44
0.0
173
     0
291
     0
 45
0.0
1001
ACAD
1000
AcDbSavedByObjectVersion
1070
     0
  0
VISUALSTYLE
  5
33
102
{ACAD_REACTORS
330
28
102
}
330
28
100
AcDbVisualStyle
  2
Dim
 70
    11
 71
     2
 72
     2
 73
     0
 90
        0
 40
-0.6
 41
-30.0
 62
     5
 63
     7
 74
     1
 91
        4
 64
     7
 65
   257
 75
     1
175
     1
 42
1.0
 92
        8
 66
     7
 43
1.0
 76
     1
 77
     6
 78
     2
 67
     7
 79
     5
170
     0
171
     0
290
     0
174
     0
 93
        1
 44
-50.0
173
     0
291
     1
 45
0.0
1001
ACAD
1000
AcDbSavedByObjectVersion
1070
     0
  0
VISUALSTYLE
  5
37
102
{ACAD_REACTORS
330
28
102
}
330
28
100
AcDbVisualStyle
  2
Facepattern
 70
    15
 71
     2
 72
     2
 73
     0
 90
        0
 40
-0.6
 41
-30.0
 62
     5
 63
     7
 74
     1
 91
        4
 64
     7
 65
   257
 75
     1
175
     1
 42
1.0
 92
        8
 66
     7
 43
1.0
 76
     1
 77
     6
 78
     2
 67
     7
 79
     5
170
     0
171
     0
290
     0
174
     0
 93
        1
 44
0.0
173
     0
291
     1
 45
0.0
1001
ACAD
1000
AcDbSavedByObjectVersion
1070
     0
  0
VISUALSTYLE
  5
29
102
{ACAD_REACTORS
330
28
102
}
330
28
100
AcDbVisualStyle
  2
Flat
 70
     0
 71
     2
 72
     1
 73
     1
 90
        2
 40
-0.6
 41
30.0
 62
     5
 63
     7
 74
     0
 91
        4
 64
     7
 65
   257
 75
     1
175
     1
 42
1.0
 92
        8
 66
     7
 43
1.0
 76
     1
 77
     6
 78
     2
 67
     7
 79
     5
170
     0
171
     0
290
     0
174
     0
 93
       13
 44
0.0
173
     0
291
     1
 45
0.0
1001
ACAD
1000
AcDbSavedByObjectVersion
1070
     0
  0
VISUALSTYLE
  5
2A
102
{ACAD_REACTORS
330
28
102
}
330
28
100
AcDbVisualStyle
  2
FlatWithEdges
 70
     1
 71
     2
 72
     1
 73
     1
 90
        2
 40
-0.6
 41
30.0
 62
     5
 63
     7
 74
     1
 91
        4
 64
     7
 65
   257
 75
     1
175
     1
 42
1.0
 92
        0
 66
   257
 43
1.0
 76
     1
 77
     6
 78
     2
 67
     7
 79
     5
170
     0
171
     0
290
     0
174
     0
 93
       13
 44
0.0
173
     0
291
     1
 45
0.0
1001
ACAD
1000
AcDbSavedByObjectVersion
1070
     0
  0
VISUALSTYLE
  5
2B
102
{ACAD_REACTORS
330
28
102
}
330
28
100
AcDbVisualStyle
  2
Gouraud
 70
     2
 71
     2
 72
     2
 73
     1
 90
        2
 40
-0.6
 41
30.0
 62
     5
 63
     7
 74
     0
 91
        4
 64
     7
 65
   257
 75
     1
175
     1
 42
1.0
 92
        0
 66
     7
 43
1.0
 76
     1
 77
     6
 78
     2
 67
     7
 79
     5
170
     0
171
     0
290
     0
174
     0
 93
       13
 44
0.0
173
     0
291
     1
 45
0.0
1001
ACAD
1000
AcDbSavedByObjectVersion
1070
     0
  0
VISUALSTYLE
  5
2C
102
{ACAD_REACTORS
330
28
102
}
330
28
100
AcDbVisualStyle
  2
GouraudWithEdges
 70
     3
 71
     2
 72
     2
 73
     1
 90
        2
 40
-0.6
 41
30.0
 62
     5
 63
     7
 74
     1
 91
        4
 64
     7
 65
   257
 75
     1
175
     1
 42
1.0
 92
        0
 66
   257
 43
1.0
 76
     1
 77
     6
 78
     2
 67
     7
 79
     5
170
     0
171
     0
290
     0
174
     0
 93
       13
 44
0.0
173
     0
291
     1
 45
0.0
1001
ACAD
1000
AcDbSavedByObjectVersion
1070
     0
  0
VISUALSTYLE
  5
36
102
{ACAD_REACTORS
330
28
102
}
330
28
100
AcDbVisualStyle
  2
Linepattern
 70
    14
 71
     2
 72
     2
 73
     0
 90
        0
 40
-0.6
 41
-30.0
 62
     5
 63
     7
 74
     1
 91
        4
 64
     7
 65
   257
 75
     7
175
     7
 42
1.0
 92
        8
 66
     7
 43
1.0
 76
     1
 77
     6
 78
     2
 67
     7
 79
     5
170
     0
171
     0
290
     0
174
     0
 93
        1
 44
0.0
173
     0
291
     1
 45
0.0
1001
ACAD
1000
AcDbSavedByObjectVersion
1070
     0
  0
VISUALSTYLE
  5
31
102
{ACAD_REACTORS
330
28
102
}
330
28
100
AcDbVisualStyle
  2
Realistic
 70
     8
 71
     2
 72
     2
 73
     0
 90
        0
 40
-0.6
 41
-30.0
 62
     5
 63
     7
 74
     1
 91
        0
 64
     7
 65
   257
 75
     1
175
     1
 42
1.0
 92
        8
 66
     8
 43
1.0
 76
     1
 77
     6
 78
     2
 67
     7
 79
     5
170
     0
171
     0
290
     0
174
     0
 93
       13
 44
0.0
173
     0
291
     0
 45
0.0
1001
ACAD
1000
AcDbSavedByObjectVersion
1070
     0
  0
VISUALSTYLE
  5
35
102
{ACAD_REACTORS
330
28
102
}
330
28
100
AcDbVisualStyle
  2
Thicken
 70
    13
 71
     2
 72
     2
 73
     0
 90
        0
 40
-0.6
 41
-30.0
 62
     5
 63
     7
 74
     1
 91
        4
 64
     7
 65
   257
 75
     1
175
     1
 42
1.0
 92
       12
 66
     7
 43
1.0
 76
     1
 77
     6
 78
     2
 67
     7
 79
     5
170
     0
171
     0
290
     0
174
     0
 93
        1
 44
0.0
173
     0
291
     1
 45
0.0
1001
ACAD
1000
AcDbSavedByObjectVersion
1070
     0
  0
DICTIONARYVAR
  5
366B
102
{ACAD_REACTORS
330
366A
102
}
330
366A
100
DictionaryVariables
280
     0
  1
STANDARD
  0
DICTIONARYVAR
  5
50C7
102
{ACAD_REACTORS
330
366A
102
}
330
366A
100
DictionaryVariables
280
     0
  1
2
  0
DICTIONARYVAR
  5
50C6
102
{ACAD_REACTORS
330
366A
102
}
330
366A
100
DictionaryVariables
280
     0
  1
2
  0
DICTIONARYVAR
  5
50C5
102
{ACAD_REACTORS
330
366A
102
}
330
366A
100
DictionaryVariables
280
     0
  1
1
  0
DICTIONARYVAR
  5
50C4
102
{ACAD_REACTORS
330
366A
102
}
330
366A
100
DictionaryVariables
280
     0
  1
0
  0
DICTIONARYVAR
  5
50C3
102
{ACAD_REACTORS
330
366A
102
}
330
366A
100
DictionaryVariables
280
     0
  1
127
  0
DICTIONARY
  5
50CB
330
1E
100
AcDbDictionary
280
     1
281
     1
  3
ACAD_XREC_ROUNDTRIP
360
50CC
  0
DICTIONARY
  5
50CF
330
24
100
AcDbDictionary
280
     1
281
     1
  3
ACAD_XREC_ROUNDTRIP
360
50D0
  0
DICTIONARY
  5
50CD
330
22
100
AcDbDictionary
280
     1
281
     1
  3
ACAD_XREC_ROUNDTRIP
360
50CE
  0
DICTIONARY
  5
50D3
330
3511
100
AcDbDictionary
280
     1
281
     1
  3
ACAD_XREC_ROUNDTRIP
360
50D4
  0
DICTIONARY
  5
50D1
330
3510
100
AcDbDictionary
280
     1
281
     1
  3
ACAD_XREC_ROUNDTRIP
360
50D2
  0
DICTIONARY
  5
50D5
330
3512
100
AcDbDictionary
280
     1
281
     1
  3
ACAD_XREC_ROUNDTRIP
360
50D6
  0
DICTIONARY
  5
50D7
330
3514
100
AcDbDictionary
280
     1
281
     1
  3
ACAD_XREC_ROUNDTRIP
360
50D8
  0
XRECORD
  5
50CC
102
{ACAD_REACTORS
330
50CB
102
}
330
50CB
100
AcDbXrecord
280
     1
102
SHADEPLOT
 70
     0
102
SHADEPLOTRESLEVEL
 70
     2
102
SHADEPLOTCUSTOMDPI
 70
   300
  0
XRECORD
  5
50D0
102
{ACAD_REACTORS
330
50CF
102
}
330
50CF
100
AcDbXrecord
280
     1
102
SHADEPLOT
 70
     0
102
SHADEPLOTRESLEVEL
 70
     2
102
SHADEPLOTCUSTOMDPI
 70
   300
  0
XRECORD
  5
50CE
102
{ACAD_REACTORS
330
50CD
102
}
330
50CD
100
AcDbXrecord
280
     1
102
SHADEPLOT
 70
     0
102
SHADEPLOTRESLEVEL
 70
     2
102
SHADEPLOTCUSTOMDPI
 70
   300
  0
XRECORD
  5
50D4
102
{ACAD_REACTORS
330
50D3
102
}
330
50D3
100
AcDbXrecord
280
     1
102
MATERIAL
148
0.0
149
0.0
149
0.0
 93
        0
 94
       63
282
     0
 72
     1
 77
     1
171
     1
175
     1
179
     1
273
     0
  0
XRECORD
  5
50D2
102
{ACAD_REACTORS
330
50D1
102
}
330
50D1
100
AcDbXrecord
280
     1
102
MATERIAL
148
0.0
149
0.0
149
0.0
 93
        0
 94
       63
282
     0
 72
     1
 77
     1
171
     1
175
     1
179
     1
273
     0
  0
XRECORD
  5
50D6
102
{ACAD_REACTORS
330
50D5
102
}
330
50D5
100
AcDbXrecord
280
     1
102
MATERIAL
148
0.0
149
0.0
149
0.0
 93
        0
 94
       63
282
     0
 72
     1
 77
     1
171
     1
175
     1
179
     1
273
     0
  0
XRECORD
  5
50D8
102
{ACAD_REACTORS
330
50D7
102
}
330
50D7
100
AcDbXrecord
280
     1
102
ACAD_ROUNDTRIP_PRE2007_TABLESTYLE
 90
      512
 91
        0
  1

 92
      512
 93
        0
  2

 94
      512
 95
        0
  3

  0
ENDSEC
  0
EOF
