  0
SECTION
  2
HEADER
  9
$ACADVER
  1
AC1015
  9
$ACADMAINTVER
 70
    20
  9
$DWGCODEPAGE
  3
ANSI_936
  9
$INSBASE
 10
0.0
 20
0.0
 30
0.0
  9
$EXTMIN
 10
-429.0
 20
144.2267790832835
 30
0.0
  9
$EXTMAX
 10
3964.162629486022
 20
1211.680175435424
 30
0.0
  9
$LIMMIN
 10
0.0
 20
0.0
  9
$LIMMAX
 10
12.0
 20
9.0
  9
$ORTHOMODE
 70
     0
  9
$REGENMODE
 70
     1
  9
$FILLMODE
 70
     1
  9
$QTEXTMODE
 70
     0
  9
$MIRRTEXT
 70
     1
  9
$LTSCALE
 40
1.0
  9
$ATTMODE
 70
     1
  9
$TEXTSIZE
 40
0.2
  9
$TRACEWID
 40
0.05
  9
$TEXTSTYLE
  7
Standard
  9
$CLAYER
  8
0
  9
$CELTYPE
  6
ByLayer
  9
$CECOLOR
 62
   256
  9
$CELTSCALE
 40
1.0
  9
$DISPSILH
 70
     0
  9
$DIMSCALE
 40
1.0
  9
$DIMASZ
 40
0.18
  9
$DIMEXO
 40
0.0625
  9
$DIMDLI
 40
0.38
  9
$DIMRND
 40
0.0
  9
$DIMDLE
 40
0.0
  9
$DIMEXE
 40
0.18
  9
$DIMTP
 40
0.0
  9
$DIMTM
 40
0.0
  9
$DIMTXT
 40
0.18
  9
$DIMCEN
 40
0.09
  9
$DIMTSZ
 40
0.0
  9
$DIMTOL
 70
     0
  9
$DIMLIM
 70
     0
  9
$DIMTIH
 70
     1
  9
$DIMTOH
 70
     1
  9
$DIMSE1
 70
     0
  9
$DIMSE2
 70
     0
  9
$DIMTAD
 70
     0
  9
$DIMZIN
 70
     0
  9
$DIMBLK
  1

  9
$DIMASO
 70
     1
  9
$DIMSHO
 70
     1
  9
$DIMPOST
  1

  9
$DIMAPOST
  1

  9
$DIMALT
 70
     0
  9
$DIMALTD
 70
     2
  9
$DIMALTF
 40
25.4
  9
$DIMLFAC
 40
1.0
  9
$DIMTOFL
 70
     0
  9
$DIMTVP
 40
0.0
  9
$DIMTIX
 70
     0
  9
$DIMSOXD
 70
     0
  9
$DIMSAH
 70
     0
  9
$DIMBLK1
  1

  9
$DIMBLK2
  1

  9
$DIMSTYLE
  2
Standard
  9
$DIMCLRD
 70
     0
  9
$DIMCLRE
 70
     0
  9
$DIMCLRT
 70
     0
  9
$DIMTFAC
 40
1.0
  9
$DIMGAP
 40
0.09
  9
$DIMJUST
 70
     0
  9
$DIMSD1
 70
     0
  9
$DIMSD2
 70
     0
  9
$DIMTOLJ
 70
     1
  9
$DIMTZIN
 70
     0
  9
$DIMALTZ
 70
     0
  9
$DIMALTTZ
 70
     0
  9
$DIMUPT
 70
     0
  9
$DIMDEC
 70
     4
  9
$DIMTDEC
 70
     4
  9
$DIMALTU
 70
     2
  9
$DIMALTTD
 70
     2
  9
$DIMTXSTY
  7
Standard
  9
$DIMAUNIT
 70
     0
  9
$DIMADEC
 70
     0
  9
$DIMALTRND
 40
0.0
  9
$DIMAZIN
 70
     0
  9
$DIMDSEP
 70
    46
  9
$DIMATFIT
 70
     3
  9
$DIMFRAC
 70
     0
  9
$DIMLDRBLK
  1

  9
$DIMLUNIT
 70
     2
  9
$DIMLWD
 70
    -2
  9
$DIMLWE
 70
    -2
  9
$DIMTMOVE
 70
     0
  9
$LUNITS
 70
     2
  9
$LUPREC
 70
     4
  9
$SKETCHINC
 40
0.1
  9
$FILLETRAD
 40
0.0
  9
$AUNITS
 70
     0
  9
$AUPREC
 70
     0
  9
$MENU
  1
.
  9
$ELEVATION
 40
0.0
  9
$PELEVATION
 40
0.0
  9
$THICKNESS
 40
0.0
  9
$LIMCHECK
 70
     0
  9
$CHAMFERA
 40
0.5
  9
$CHAMFERB
 40
0.5
  9
$CHAMFERC
 40
1.0
  9
$CHAMFERD
 40
0.0
  9
$SKPOLY
 70
     0
  9
$TDCREATE
 40
2455841.606800220
  9
$TDUCREATE
 40
2455841.273466887
  9
$TDUPDATE
 40
2459756.632560440
  9
$TDUUPDATE
 40
2459756.299227107
  9
$TDINDWG
 40
0.0356008796
  9
$TDUSRTIMER
 40
0.0356008796
  9
$USRTIMER
 70
     1
  9
$ANGBASE
 50
0.0
  9
$ANGDIR
 70
     0
  9
$PDMODE
 70
     0
  9
$PDSIZE
 40
0.0
  9
$PLINEWID
 40
0.0
  9
$SPLFRAME
 70
     0
  9
$SPLINETYPE
 70
     6
  9
$SPLINESEGS
 70
     8
  9
$HANDSEED
  5
55AB
  9
$SURFTAB1
 70
     6
  9
$SURFTAB2
 70
     6
  9
$SURFTYPE
 70
     6
  9
$SURFU
 70
     6
  9
$SURFV
 70
     6
  9
$UCSBASE
  2

  9
$UCSNAME
  2

  9
$UCSORG
 10
0.0
 20
0.0
 30
0.0
  9
$UCSXDIR
 10
1.0
 20
0.0
 30
0.0
  9
$UCSYDIR
 10
0.0
 20
1.0
 30
0.0
  9
$UCSORTHOREF
  2

  9
$UCSORTHOVIEW
 70
     0
  9
$UCSORGTOP
 10
0.0
 20
0.0
 30
0.0
  9
$UCSORGBOTTOM
 10
0.0
 20
0.0
 30
0.0
  9
$UCSORGLEFT
 10
0.0
 20
0.0
 30
0.0
  9
$UCSORGRIGHT
 10
0.0
 20
0.0
 30
0.0
  9
$UCSORGFRONT
 10
0.0
 20
0.0
 30
0.0
  9
$UCSORGBACK
 10
0.0
 20
0.0
 30
0.0
  9
$PUCSBASE
  2

  9
$PUCSNAME
  2

  9
$PUCSORG
 10
0.0
 20
0.0
 30
0.0
  9
$PUCSXDIR
 10
1.0
 20
0.0
 30
0.0
  9
$PUCSYDIR
 10
0.0
 20
1.0
 30
0.0
  9
$PUCSORTHOREF
  2

  9
$PUCSORTHOVIEW
 70
     0
  9
$PUCSORGTOP
 10
0.0
 20
0.0
 30
0.0
  9
$PUCSORGBOTTOM
 10
0.0
 20
0.0
 30
0.0
  9
$PUCSORGLEFT
 10
0.0
 20
0.0
 30
0.0
  9
$PUCSORGRIGHT
 10
0.0
 20
0.0
 30
0.0
  9
$PUCSORGFRONT
 10
0.0
 20
0.0
 30
0.0
  9
$PUCSORGBACK
 10
0.0
 20
0.0
 30
0.0
  9
$USERI1
 70
     0
  9
$USERI2
 70
     0
  9
$USERI3
 70
     0
  9
$USERI4
 70
     0
  9
$USERI5
 70
     0
  9
$USERR1
 40
0.0
  9
$USERR2
 40
0.0
  9
$USERR3
 40
0.0
  9
$USERR4
 40
0.0
  9
$USERR5
 40
0.0
  9
$WORLDVIEW
 70
     1
  9
$SHADEDGE
 70
     3
  9
$SHADEDIF
 70
    70
  9
$TILEMODE
 70
     1
  9
$MAXACTVP
 70
    64
  9
$PINSBASE
 10
0.0
 20
0.0
 30
0.0
  9
$PLIMCHECK
 70
     0
  9
$PEXTMIN
 10
1.000000000000000E+20
 20
1.000000000000000E+20
 30
1.000000000000000E+20
  9
$PEXTMAX
 10
-1.000000000000000E+20
 20
-1.000000000000000E+20
 30
-1.000000000000000E+20
  9
$PLIMMIN
 10
0.0
 20
0.0
  9
$PLIMMAX
 10
12.0
 20
9.0
  9
$UNITMODE
 70
     0
  9
$VISRETAIN
 70
     1
  9
$PLINEGEN
 70
     0
  9
$PSLTSCALE
 70
     1
  9
$TREEDEPTH
 70
  3020
  9
$CMLSTYLE
  2
Standard
  9
$CMLJUST
 70
     0
  9
$CMLSCALE
 40
1.0
  9
$PROXYGRAPHICS
 70
     1
  9
$MEASUREMENT
 70
     0
  9
$CELWEIGHT
370
    -1
  9
$ENDCAPS
280
     0
  9
$JOINSTYLE
280
     0
  9
$LWDISPLAY
290
     0
  9
$INSUNITS
 70
     1
  9
$HYPERLINKBASE
  1

  9
$STYLESHEET
  1
Monochrome.ctb
  9
$XEDIT
290
     1
  9
$CEPSNTYPE
380
     0
  9
$PSTYLEMODE
290
     1
  9
$FINGERPRINTGUID
  2
{168A8766-4015-4ABD-915A-AD1ECBE2E3C2}
  9
$VERSIONGUID
  2
{AFEFB80D-2A7C-4520-80AE-789B40897A0B}
  9
$EXTNAMES
290
     1
  9
$PSVPSCALE
 40
0.0
  9
$OLESTARTUP
290
     0
  0
ENDSEC
  0
SECTION
  2
CLASSES
  0
CLASS
  1
ACDBDICTIONARYWDFLT
  2
AcDbDictionaryWithDefault
  3
ObjectDBX Classes
 90
        0
280
     0
281
     0
  0
CLASS
  1
VISUALSTYLE
  2
AcDbVisualStyle
  3
ObjectDBX Classes
 90
     4095
280
     0
281
     0
  0
CLASS
  1
DIMASSOC
  2
AcDbDimAssoc
  3
"AcDbDimAssoc|Product Desc:     AcDim ARX App For Dimension|Company:          Autodesk, Inc.|WEB Address:      www.autodesk.com"
 90
    32768
280
     0
281
     0
  0
CLASS
  1
MATERIAL
  2
AcDbMaterial
  3
ObjectDBX Classes
 90
     1024
280
     0
281
     0
  0
CLASS
  1
TABLESTYLE
  2
AcDbTableStyle
  3
ObjectDBX Classes
 90
     4095
280
     0
281
     0
  0
CLASS
  1
DICTIONARYVAR
  2
AcDbDictionaryVar
  3
ObjectDBX Classes
 90
        0
280
     0
281
     0
  0
CLASS
  1
SORTENTSTABLE
  2
AcDbSortentsTable
  3
ObjectDBX Classes
 90
    32768
280
     0
281
     0
  0
CLASS
  1
IMAGEDEF_REACTOR
  2
AcDbRasterImageDefReactor
  3
ISM
 90
    32769
280
     0
281
     0
  0
CLASS
  1
IMAGEDEF
  2
AcDbRasterImageDef
  3
ISM
 90
        0
280
     0
281
     0
  0
CLASS
  1
IMAGE
  2
AcDbRasterImage
  3
ISM
 90
    34943
280
     0
281
     1
  0
CLASS
  1
RASTERVARIABLES
  2
AcDbRasterVariables
  3
ISM
 90
        0
280
     0
281
     0
  0
CLASS
  1
ACDBPLACEHOLDER
  2
AcDbPlaceHolder
  3
ObjectDBX Classes
 90
        0
280
     0
281
     0
  0
CLASS
  1
LAYOUT
  2
AcDbLayout
  3
ObjectDBX Classes
 90
        0
280
     0
281
     0
  0
ENDSEC
  0
SECTION
  2
TABLES
  0
TABLE
  2
VPORT
  5
8
330
0
100
AcDbSymbolTable
 70
     1
  0
VPORT
  5
27
330
8
100
AcDbSymbolTableRecord
100
AcDbViewportTableRecord
  2
*Active
 70
     0
 10
0.0
 20
0.0
 11
1.0
 21
1.0
 12
3538.36346886241
 22
569.4449266767578
 13
0.0
 23
0.0
 14
0.5
 24
0.5
 15
0.5
 25
0.5
 16
0.0
 26
0.0
 36
1.0
 17
0.0
 27
0.0
 37
0.0
 40
1104.002451406404
 41
2.294999999999999
 42
50.0
 43
0.0
 44
0.0
 50
0.0
 51
0.0
 71
     0
 72
   100
 73
     1
 74
     3
 75
     1
 76
     0
 77
     0
 78
     0
281
     0
 65
     1
110
0.0
120
0.0
130
0.0
111
1.0
121
0.0
131
0.0
112
0.0
122
1.0
132
0.0
 79
     0
146
0.0
  0
ENDTAB
  0
TABLE
  2
LTYPE
  5
5
330
0
100
AcDbSymbolTable
 70
     6
  0
LTYPE
  5
14
330
5
100
AcDbSymbolTableRecord
100
AcDbLinetypeTableRecord
  2
ByBlock
 70
     0
  3

 72
    65
 73
     0
 40
0.0
  0
LTYPE
  5
15
330
5
100
AcDbSymbolTableRecord
100
AcDbLinetypeTableRecord
  2
ByLayer
 70
     0
  3

 72
    65
 73
     0
 40
0.0
  0
LTYPE
  5
16
330
5
100
AcDbSymbolTableRecord
100
AcDbLinetypeTableRecord
  2
Continuous
 70
     0
  3
Solid line
 72
    65
 73
     0
 40
0.0
  0
LTYPE
  5
5B
330
5
100
AcDbSymbolTableRecord
100
AcDbLinetypeTableRecord
  2
CENTERX2
 70
     0
  3
Center (2x) ________  __  ________  __  _____
 72
    65
 73
     4
 40
101.6
 49
63.5
 74
     4
 75
     0
340
0
 46
1.0
 50
0.0
 44
0.0
 45
0.0
 49
-12.7
 74
     4
 75
     0
340
0
 46
1.0
 50
0.0
 44
0.0
 45
0.0
 49
12.7
 74
     4
 75
     0
340
0
 46
1.0
 50
0.0
 44
0.0
 45
0.0
 49
-12.7
 74
     4
 75
     0
340
0
 46
1.0
 50
0.0
 44
0.0
 45
0.0
  0
LTYPE
  5
192
330
5
100
AcDbSymbolTableRecord
100
AcDbLinetypeTableRecord
  2
CENTER
 70
     0
  3
Center ____ _ ____ _ ____ _ ____ _ ____ _ ____
 72
    65
 73
     4
 40
50.8
 49
31.75
 74
     4
 75
     0
340
0
 46
1.0
 50
0.0
 44
0.0
 45
0.0
 49
-6.349999999999999
 74
     4
 75
     0
340
0
 46
1.0
 50
0.0
 44
0.0
 45
0.0
 49
6.349999999999999
 74
     4
 75
     0
340
0
 46
1.0
 50
0.0
 44
0.0
 45
0.0
 49
-6.349999999999999
 74
     4
 75
     0
340
0
 46
1.0
 50
0.0
 44
0.0
 45
0.0
  0
LTYPE
  5
112E
330
5
100
AcDbSymbolTableRecord
100
AcDbLinetypeTableRecord
  2
DASHED
 70
     0
  3
Dashed __ __ __ __ __ __ __ __ __ __ __ __ __ _
 72
    65
 73
     2
 40
19.05
 49
12.7
 74
     4
 75
     0
340
0
 46
1.0
 50
0.0
 44
0.0
 45
0.0
 49
-6.349999999999999
 74
     4
 75
     0
340
0
 46
1.0
 50
0.0
 44
0.0
 45
0.0
  0
LTYPE
  5
121B
330
5
100
AcDbSymbolTableRecord
100
AcDbLinetypeTableRecord
  2
ACAD_ISO02W100
 70
     0
  3
ISO dash __ __ __ __ __ __ __ __ __ __ __ __ __
 72
    65
 73
     2
 40
15.0
 49
12.0
 74
     4
 75
     0
340
0
 46
1.0
 50
0.0
 44
0.0
 45
0.0
 49
-3.0
 74
     4
 75
     0
340
0
 46
1.0
 50
0.0
 44
0.0
 45
0.0
  0
LTYPE
  5
121C
330
5
100
AcDbSymbolTableRecord
100
AcDbLinetypeTableRecord
  2
DIVIDE
 70
     0
  3
Divide ____ . . ____ . . ____ . . ____ . . ____
 72
    65
 73
     6
 40
31.75
 49
12.7
 74
     4
 75
     0
340
0
 46
1.0
 50
0.0
 44
0.0
 45
0.0
 49
-6.349999999999999
 74
     4
 75
     0
340
0
 46
1.0
 50
0.0
 44
0.0
 45
0.0
 49
0.0
 74
     4
 75
     0
340
0
 46
1.0
 50
0.0
 44
0.0
 45
0.0
 49
-6.349999999999999
 74
     4
 75
     0
340
0
 46
1.0
 50
0.0
 44
0.0
 45
0.0
 49
0.0
 74
     4
 75
     0
340
0
 46
1.0
 50
0.0
 44
0.0
 45
0.0
 49
-6.349999999999999
 74
     4
 75
     0
340
0
 46
1.0
 50
0.0
 44
0.0
 45
0.0
  0
ENDTAB
  0
TABLE
  2
LAYER
  5
2
102
{ACAD_XDICTIONARY
360
36E2
102
}
330
0
100
AcDbSymbolTable
 70
    18
  0
LAYER
  5
10
330
2
100
AcDbSymbolTableRecord
100
AcDbLayerTableRecord
  2
0
 70
     0
 62
     7
  6
Continuous
370
    -3
390
F
  0
LAYER
  5
5C
330
2
100
AcDbSymbolTableRecord
100
AcDbLayerTableRecord
  2
粗实线
 70
     0
 62
     7
  6
Continuous
370
    30
390
F
1001
AcAecLayerStandard
1000

1000

  0
LAYER
  5
5D
330
2
100
AcDbSymbolTableRecord
100
AcDbLayerTableRecord
  2
中心线
 70
     0
 62
     1
  6
CENTERX2
370
    15
390
F
1001
AcAecLayerStandard
1000

1000

  0
LAYER
  5
5E
330
2
100
AcDbSymbolTableRecord
100
AcDbLayerTableRecord
  2
标注
 70
     0
 62
     4
  6
Continuous
370
    15
390
F
1001
AcAecLayerStandard
1000

1000

  0
LAYER
  5
5F
330
2
100
AcDbSymbolTableRecord
100
AcDbLayerTableRecord
  2
Defpoints
 70
     0
 62
     7
  6
Continuous
290
     0
370
    -3
390
F
  0
LAYER
  5
118
330
2
100
AcDbSymbolTableRecord
100
AcDbLayerTableRecord
  2
图层1粗线
 70
     0
 62
     7
  6
Continuous
370
    -3
390
F
1001
AcAecLayerStandard
1000

1000

  0
LAYER
  5
193
330
2
100
AcDbSymbolTableRecord
100
AcDbLayerTableRecord
  2
细实线
 70
     0
 62
     3
  6
Continuous
370
    15
390
F
1001
AcAecLayerStandard
1000

1000

  0
LAYER
  5
357
330
2
100
AcDbSymbolTableRecord
100
AcDbLayerTableRecord
  2
图层2
 70
     0
 62
     7
  6
Continuous
370
    30
390
F
1001
AcAecLayerStandard
1000

1000

  0
LAYER
  5
358
330
2
100
AcDbSymbolTableRecord
100
AcDbLayerTableRecord
  2
图层3
 70
     0
 62
     7
  6
Continuous
370
    18
390
F
1001
AcAecLayerStandard
1000

1000

  0
LAYER
  5
4E7
330
2
100
AcDbSymbolTableRecord
100
AcDbLayerTableRecord
  2
文字
 70
     0
 62
     1
  6
Continuous
370
    15
390
F
1001
AcAecLayerStandard
1000

1000

  0
LAYER
  5
4E8
330
2
100
AcDbSymbolTableRecord
100
AcDbLayerTableRecord
  2
不可见
 70
     0
 62
     2
  6
Continuous
290
     0
370
    15
390
F
1001
AcAecLayerStandard
1000

1000

  0
LAYER
  5
4E9
330
2
100
AcDbSymbolTableRecord
100
AcDbLayerTableRecord
  2
图层2细线
 70
     0
 62
     3
  6
Continuous
370
    -3
390
F
1001
AcAecLayerStandard
1000

1000

  0
LAYER
  5
4EA
330
2
100
AcDbSymbolTableRecord
100
AcDbLayerTableRecord
  2
图框线
 70
     0
 62
     7
  6
Continuous
370
    13
390
F
1001
AcAecLayerStandard
1000

1000

  0
LAYER
  5
4EB
330
2
100
AcDbSymbolTableRecord
100
AcDbLayerTableRecord
  2
图层 1
 70
     0
 62
     7
  6
Continuous
370
    -3
390
F
  0
LAYER
  5
112F
330
2
100
AcDbSymbolTableRecord
100
AcDbLayerTableRecord
  2
图层1
 70
     0
 62
     7
  6
DASHED
370
    25
390
F
1001
AcAecLayerStandard
1000

1000

  0
LAYER
  5
121D
330
2
100
AcDbSymbolTableRecord
100
AcDbLayerTableRecord
  2
虚线
 70
     0
 62
     2
  6
ACAD_ISO02W100
370
    15
390
F
1001
AcAecLayerStandard
1000

1000

  0
LAYER
  5
121E
330
2
100
AcDbSymbolTableRecord
100
AcDbLayerTableRecord
  2
剖切线
 70
     0
 62
   241
  6
Continuous
370
    15
390
F
1001
AcAecLayerStandard
1000

1000

  0
LAYER
  5
501C
330
2
100
AcDbSymbolTableRecord
100
AcDbLayerTableRecord
  2
点划线
 70
     0
 62
     4
  6
CENTERX2
370
    13
390
F
1001
AcAecLayerStandard
1000

1000

  0
ENDTAB
  0
TABLE
  2
STYLE
  5
3
330
0
100
AcDbSymbolTable
 70
     5
  0
STYLE
  5
11
330
3
100
AcDbSymbolTableRecord
100
AcDbTextStyleTableRecord
  2
Standard
 70
     0
 40
0.0
 41
1.0
 50
0.0
 71
     0
 42
0.2
  3
txt
  4

  0
STYLE
  5
5A
330
3
100
AcDbSymbolTableRecord
100
AcDbTextStyleTableRecord
  2
样式 8
 70
     0
 40
10.0
 41
0.7
 50
0.0
 71
     0
 42
10.0
  3
txt.shx
  4
gbcbig.shx
  0
STYLE
  5
117
330
3
100
AcDbSymbolTableRecord
100
AcDbTextStyleTableRecord
  2
样式 1
 70
     0
 40
5.0
 41
1.0
 50
0.0
 71
     0
 42
5.0
  3
txt.shx
  4
gbcbig.shx
  0
STYLE
  5
356
330
3
100
AcDbSymbolTableRecord
100
AcDbTextStyleTableRecord
  2
样式 2
 70
     0
 40
0.0
 41
0.35
 50
0.0
 71
     0
 42
2.5
  3
txt.shx
  4
gbcbig.shx
  0
STYLE
  5
4E6
330
3
100
AcDbSymbolTableRecord
100
AcDbTextStyleTableRecord
  2
样式 3
 70
     0
 40
3.5
 41
0.7
 50
0.0
 71
     0
 42
5.0
  3
txt.shx
  4
gbcbig.shx
  0
ENDTAB
  0
TABLE
  2
VIEW
  5
6
330
0
100
AcDbSymbolTable
 70
     0
  0
ENDTAB
  0
TABLE
  2
UCS
  5
7
330
0
100
AcDbSymbolTable
 70
     0
  0
ENDTAB
  0
TABLE
  2
APPID
  5
9
330
0
100
AcDbSymbolTable
 70
    46
  0
APPID
  5
12
330
9
100
AcDbSymbolTableRecord
100
AcDbRegAppTableRecord
  2
ACAD
 70
     0
  0
APPID
  5
3B
330
9
100
AcDbSymbolTableRecord
100
AcDbRegAppTableRecord
  2
ACAD_PSEXT
 70
     0
  0
APPID
  5
3C
330
9
100
AcDbSymbolTableRecord
100
AcDbRegAppTableRecord
  2
AcAecLayerStandard
 70
     0
  0
APPID
  5
3D
330
9
100
AcDbSymbolTableRecord
100
AcDbRegAppTableRecord
  2
ACAD_DSTYLE_DIMTEXT_FILL
 70
     0
  0
APPID
  5
3E
330
9
100
AcDbSymbolTableRecord
100
AcDbRegAppTableRecord
  2
DCO15
 70
     0
  0
APPID
  5
3F
330
9
100
AcDbSymbolTableRecord
100
AcDbRegAppTableRecord
  2
ACAD_DSTYLE_DIMEXT_LENGTH
 70
     0
  0
APPID
  5
40
330
9
100
AcDbSymbolTableRecord
100
AcDbRegAppTableRecord
  2
ACAD_DSTYLE_DIMEXT_ENABLED
 70
     0
  0
APPID
  5
41
330
9
100
AcDbSymbolTableRecord
100
AcDbRegAppTableRecord
  2
ACAD_DSTYLE_DIM_LINETYPE
 70
     0
  0
APPID
  5
42
330
9
100
AcDbSymbolTableRecord
100
AcDbRegAppTableRecord
  2
ACAD_DSTYLE_DIM_EXT1_LINETYPE
 70
     0
  0
APPID
  5
43
330
9
100
AcDbSymbolTableRecord
100
AcDbRegAppTableRecord
  2
ACAD_DSTYLE_DIM_EXT2_LINETYPE
 70
     0
  0
APPID
  5
44
330
9
100
AcDbSymbolTableRecord
100
AcDbRegAppTableRecord
  2
ACAD_EXEMPT_FROM_CAD_STANDARDS
 70
     0
  0
APPID
  5
45
330
9
100
AcDbSymbolTableRecord
100
AcDbRegAppTableRecord
  2
AcadAnnoPO
 70
     0
  0
APPID
  5
46
330
9
100
AcDbSymbolTableRecord
100
AcDbRegAppTableRecord
  2
AcadAnnotative
 70
     0
  0
APPID
  5
47
330
9
100
AcDbSymbolTableRecord
100
AcDbRegAppTableRecord
  2
ACAD_DSTYLE_DIMJAG
 70
     0
  0
APPID
  5
48
330
9
100
AcDbSymbolTableRecord
100
AcDbRegAppTableRecord
  2
ACAD_DSTYLE_DIMTALN
 70
     0
  0
APPID
  5
49
330
9
100
AcDbSymbolTableRecord
100
AcDbRegAppTableRecord
  2
ACAD_MLEADERVER
 70
     0
  0
APPID
  5
4A
330
9
100
AcDbSymbolTableRecord
100
AcDbRegAppTableRecord
  2
ACAD_DSTYLE_DIMRADIAL_EXTENSION
 70
     0
  0
APPID
  5
4B
330
9
100
AcDbSymbolTableRecord
100
AcDbRegAppTableRecord
  2
ACAD_DSTYLE_DIMBREAK
 70
     0
  0
APPID
  5
4C
330
9
100
AcDbSymbolTableRecord
100
AcDbRegAppTableRecord
  2
ACAD_DSTYLE_DIMARC_LENGTH_SYMBOL
 70
     0
  0
APPID
  5
4D
330
9
100
AcDbSymbolTableRecord
100
AcDbRegAppTableRecord
  2
ACAD_DSTYLE_DIMJOGGED_JOGANGLE_SYMBOL
 70
     0
  0
APPID
  5
4E
330
9
100
AcDbSymbolTableRecord
100
AcDbRegAppTableRecord
  2
MCAD_NO_VIS
 70
     0
  0
APPID
  5
4F
330
9
100
AcDbSymbolTableRecord
100
AcDbRegAppTableRecord
  2
ACAD_TEMP_GRAPHIC
 70
     0
  0
APPID
  5
50
330
9
100
AcDbSymbolTableRecord
100
AcDbRegAppTableRecord
  2
AD_DRAW
 70
     0
  0
APPID
  5
51
330
9
100
AcDbSymbolTableRecord
100
AcDbRegAppTableRecord
  2
ACATTRIBSERVICES
 70
     0
  0
APPID
  5
52
330
9
100
AcDbSymbolTableRecord
100
AcDbRegAppTableRecord
  2
DESIGNERASSEMBLIES
 70
     0
  0
APPID
  5
53
330
9
100
AcDbSymbolTableRecord
100
AcDbRegAppTableRecord
  2
ACADM_DIM_EDIT
 70
     0
  0
APPID
  5
54
330
9
100
AcDbSymbolTableRecord
100
AcDbRegAppTableRecord
  2
AMDT_DM_ADJ
 70
     0
  0
APPID
  5
55
330
9
100
AcDbSymbolTableRecord
100
AcDbRegAppTableRecord
  2
GENIUS_GENODEF_13
 70
     0
  0
APPID
  5
56
330
9
100
AcDbSymbolTableRecord
100
AcDbRegAppTableRecord
  2
GENIUS_GENOBJ-N-FIL_13
 70
     0
  0
APPID
  5
57
330
9
100
AcDbSymbolTableRecord
100
AcDbRegAppTableRecord
  2
ACAD_DIMASSOC_CALC_DIMLFAC
 70
     0
  0
APPID
  5
58
330
9
100
AcDbSymbolTableRecord
100
AcDbRegAppTableRecord
  2
ACAD_DIMASSOC_DIMLFAC
 70
     0
  0
APPID
  5
59
330
9
100
AcDbSymbolTableRecord
100
AcDbRegAppTableRecord
  2
ACAD_DIMASSOC_OVERRIDDEN_DIMLFAC
 70
     0
  0
APPID
  5
4E5
330
9
100
AcDbSymbolTableRecord
100
AcDbRegAppTableRecord
  2
CAXA
 70
     0
  0
APPID
  5
1BF7
330
9
100
AcDbSymbolTableRecord
100
AcDbRegAppTableRecord
  2
AVE_RENDER
 70
     0
  0
APPID
  5
1BF8
330
9
100
AcDbSymbolTableRecord
100
AcDbRegAppTableRecord
  2
AVE_ENTITY_MATERIAL
 70
     0
  0
APPID
  5
1BF9
330
9
100
AcDbSymbolTableRecord
100
AcDbRegAppTableRecord
  2
AVE_FINISH
 70
     0
  0
APPID
  5
1BFA
330
9
100
AcDbSymbolTableRecord
100
AcDbRegAppTableRecord
  2
AVE_MATERIAL
 70
     0
  0
APPID
  5
1BFB
330
9
100
AcDbSymbolTableRecord
100
AcDbRegAppTableRecord
  2
AVE_GLOBAL
 70
     0
  0
APPID
  5
1BFC
330
9
100
AcDbSymbolTableRecord
100
AcDbRegAppTableRecord
  2
GENIUS_GENBLLY_14
 70
     0
  0
APPID
  5
1BFD
330
9
100
AcDbSymbolTableRecord
100
AcDbRegAppTableRecord
  2
ODA
 70
     0
  0
APPID
  5
1BFE
330
9
100
AcDbSymbolTableRecord
100
AcDbRegAppTableRecord
  2
RAK
 70
     0
  0
APPID
  5
1BFF
330
9
100
AcDbSymbolTableRecord
100
AcDbRegAppTableRecord
  2
AcDbDynamicBlockGUID
 70
     0
  0
APPID
  5
1C00
330
9
100
AcDbSymbolTableRecord
100
AcDbRegAppTableRecord
  2
AcDbBlockRepETag
 70
     0
  0
APPID
  5
1C01
330
9
100
AcDbSymbolTableRecord
100
AcDbRegAppTableRecord
  2
ACAUTHENVIRON
 70
     0
  0
APPID
  5
1C02
330
9
100
AcDbSymbolTableRecord
100
AcDbRegAppTableRecord
  2
AcDbDynamicBlockTrueName
 70
     0
  0
APPID
  5
501B
330
9
100
AcDbSymbolTableRecord
100
AcDbRegAppTableRecord
  2
AcDbAttr
 70
     0
  0
ENDTAB
  0
TABLE
  2
DIMSTYLE
  5
A
330
0
100
AcDbSymbolTable
 70
     6
100
AcDbDimStyleTable
 71
     0
  0
DIMSTYLE
105
25
330
A
100
AcDbSymbolTableRecord
100
AcDbDimStyleTableRecord
  2
Standard
 70
     0
340
11
  0
DIMSTYLE
105
60
330
A
100
AcDbSymbolTableRecord
100
AcDbDimStyleTableRecord
  2
副本 (3) ISO-25 4
 70
     0
 41
14.0
 42
0.0
 43
10.0
 44
6.0
 73
     0
 74
     0
 77
     1
 78
     8
140
20.0
141
7.5
143
0.03937007874016
147
1.5
171
     3
172
     1
271
     1
272
     1
274
     3
283
     0
284
     8
340
11
  0
DIMSTYLE
105
119
330
A
100
AcDbSymbolTableRecord
100
AcDbDimStyleTableRecord
  2
副本 ISO-25
 70
     0
 41
12.0
 42
0.0
 43
10.0
 44
5.0
 73
     0
 74
     0
 77
     1
 78
     8
140
18.0
141
1.5
143
0.03937007874016
147
1.5
171
     3
172
     1
271
     1
272
     1
274
     3
278
    44
283
     0
284
     8
340
11
  0
DIMSTYLE
105
359
330
A
100
AcDbSymbolTableRecord
100
AcDbDimStyleTableRecord
  2
ISO-25
 70
     0
 41
17.0
 42
3.0
 43
3.75
 44
1.25
 73
     0
 77
     1
 78
     8
140
19.0
141
80.0
143
0.03937007874016
147
7.0
170
     1
171
     3
172
     1
271
     2
272
     2
273
     7
274
     3
283
     0
284
     8
340
11
  0
DIMSTYLE
105
4EC
330
A
100
AcDbSymbolTableRecord
100
AcDbDimStyleTableRecord
  2
英寸
 70
     0
 41
12.0
 42
0.0
 43
10.0
 44
3.75
 73
     0
 74
     0
 77
     1
 78
     8
140
16.0
141
7.5
143
0.03937007874016
147
2.0
170
     1
171
     3
172
     1
179
     1
271
     1
272
     1
273
     7
274
     3
283
     0
284
     8
340
11
  0
DIMSTYLE
105
4E49
330
A
100
AcDbSymbolTableRecord
100
AcDbDimStyleTableRecord
  2
LXF
 70
     0
 41
18.0
 42
0.0
 43
10.0
 44
2.5
 73
     0
 74
     0
 77
     1
 78
     8
140
20.0
141
0.0
143
0.03937007874016
147
3.0
171
     3
172
     1
178
     6
179
     1
271
     1
272
     1
274
     3
283
     0
284
     8
340
11
  0
ENDTAB
  0
TABLE
  2
BLOCK_RECORD
  5
1
330
0
100
AcDbSymbolTable
 70
    15
  0
BLOCK_RECORD
  5
1F
330
1
100
AcDbSymbolTableRecord
100
AcDbBlockTableRecord
  2
*Model_Space
340
22
  0
BLOCK_RECORD
  5
1B
330
1
100
AcDbSymbolTableRecord
100
AcDbBlockTableRecord
  2
*Paper_Space
340
1E
  0
BLOCK_RECORD
  5
23
330
1
100
AcDbSymbolTableRecord
100
AcDbBlockTableRecord
  2
*Paper_Space0
340
24
  0
BLOCK_RECORD
  5
50B0
330
1
100
AcDbSymbolTableRecord
100
AcDbBlockTableRecord
  2
*D1
340
0
  0
BLOCK_RECORD
  5
50BD
330
1
100
AcDbSymbolTableRecord
100
AcDbBlockTableRecord
  2
*D2
340
0
  0
BLOCK_RECORD
  5
50CA
330
1
100
AcDbSymbolTableRecord
100
AcDbBlockTableRecord
  2
*D3
340
0
  0
BLOCK_RECORD
  5
5204
330
1
100
AcDbSymbolTableRecord
100
AcDbBlockTableRecord
  2
*D4
340
0
  0
BLOCK_RECORD
  5
5212
330
1
100
AcDbSymbolTableRecord
100
AcDbBlockTableRecord
  2
*D5
340
0
  0
BLOCK_RECORD
  5
5224
330
1
100
AcDbSymbolTableRecord
100
AcDbBlockTableRecord
  2
*D6
340
0
  0
BLOCK_RECORD
  5
5249
330
1
100
AcDbSymbolTableRecord
100
AcDbBlockTableRecord
  2
*D7
340
0
  0
BLOCK_RECORD
  5
5289
330
1
100
AcDbSymbolTableRecord
100
AcDbBlockTableRecord
  2
*D8
340
0
  0
BLOCK_RECORD
  5
5299
330
1
100
AcDbSymbolTableRecord
100
AcDbBlockTableRecord
  2
*D9
340
0
  0
BLOCK_RECORD
  5
54AA
330
1
100
AcDbSymbolTableRecord
100
AcDbBlockTableRecord
  2
*D10
340
0
  0
BLOCK_RECORD
  5
54B6
330
1
100
AcDbSymbolTableRecord
100
AcDbBlockTableRecord
  2
*D11
340
0
  0
BLOCK_RECORD
  5
54C2
330
1
100
AcDbSymbolTableRecord
100
AcDbBlockTableRecord
  2
*D12
340
0
  0
BLOCK_RECORD
  5
551E
330
1
100
AcDbSymbolTableRecord
100
AcDbBlockTableRecord
  2
*D13
340
0
  0
BLOCK_RECORD
  5
552D
330
1
100
AcDbSymbolTableRecord
100
AcDbBlockTableRecord
  2
*D14
340
0
  0
ENDTAB
  0
ENDSEC
  0
SECTION
  2
BLOCKS
  0
BLOCK
  5
20
330
1F
100
AcDbEntity
  8
0
100
AcDbBlockBegin
  2
*Model_Space
 70
     0
 10
0.0
 20
0.0
 30
0.0
  3
*Model_Space
  1

  0
ENDBLK
  5
21
330
1F
100
AcDbEntity
  8
0
100
AcDbBlockEnd
  0
BLOCK
  5
1C
330
1B
100
AcDbEntity
 67
     1
  8
0
100
AcDbBlockBegin
  2
*Paper_Space
 70
     0
 10
0.0
 20
0.0
 30
0.0
  3
*Paper_Space
  1

  0
ENDBLK
  5
1D
330
1B
100
AcDbEntity
 67
     1
  8
0
100
AcDbBlockEnd
  0
BLOCK
  5
39
330
23
100
AcDbEntity
 67
     1
  8
0
100
AcDbBlockBegin
  2
*Paper_Space0
 70
     0
 10
0.0
 20
0.0
 30
0.0
  3
*Paper_Space0
  1

  0
ENDBLK
  5
3A
330
23
100
AcDbEntity
 67
     1
  8
0
100
AcDbBlockEnd
  0
BLOCK
  5
50B1
330
50B0
100
AcDbEntity
  8
0
100
AcDbBlockBegin
  2
*D1
 70
     1
 10
0.0
 20
0.0
 30
0.0
  3
*D1
  1

  0
POINT
  5
50A7
330
50B0
100
AcDbEntity
  8
Defpoints
  6
ByBlock
100
AcDbPoint
 10
826.7218004036708
 20
669.6359666190278
 30
0.0
  0
POINT
  5
50A8
330
50B0
100
AcDbEntity
  8
Defpoints
  6
ByBlock
100
AcDbPoint
 10
429.0218004036709
 20
673.1561108410451
 30
0.0
  0
LINE
  5
50A9
330
50B0
100
AcDbEntity
  8
标注
  6
ByBlock
 62
     0
370
    -2
100
AcDbLine
 10
826.7218004036708
 20
669.6359666190278
 30
0.0
 11
826.7218004036708
 21
758.8202786802717
 31
0.0
  0
LINE
  5
50AA
330
50B0
100
AcDbEntity
  8
标注
  6
ByBlock
 62
     0
370
    -2
100
AcDbLine
 10
429.0218004036709
 20
673.1561108410451
 30
0.0
 11
429.0218004036709
 21
758.8202786802717
 31
0.0
  0
LINE
  5
50AB
330
50B0
100
AcDbEntity
  8
标注
  6
ByBlock
 62
     0
370
     0
100
AcDbLine
 10
821.7218004036707
 20
755.0702786802717
 30
0.0
 11
434.021800403671
 21
755.0702786802717
 31
0.0
  0
SOLID
  5
50AC
330
50B0
100
AcDbEntity
  8
标注
  6
ByBlock
 62
     0
100
AcDbTrace
 10
826.7218004036708
 20
755.0702786802717
 30
0.0
 11
821.7218004036707
 21
755.9036120136052
 31
0.0
 12
821.7218004036707
 22
754.2369453469382
 32
0.0
 13
821.7218004036707
 23
754.2369453469382
 33
0.0
  0
SOLID
  5
50AD
330
50B0
100
AcDbEntity
  8
标注
  6
ByBlock
 62
     0
100
AcDbTrace
 10
429.0218004036709
 20
755.0702786802717
 30
0.0
 11
434.021800403671
 21
755.9036120136052
 31
0.0
 12
434.021800403671
 22
754.2369453469382
 32
0.0
 13
434.021800403671
 23
754.2369453469382
 33
0.0
  0
MTEXT
  5
50AE
330
50B0
100
AcDbEntity
  8
标注
  6
ByBlock
 62
     0
100
AcDbMText
 10
627.8718004036711
 20
763.628941708921
 30
0.0
 40
10.0
 41
0.0
 71
     5
 72
     1
  1
\A0;{\fArial|b0|i0|c0|p34;397.7 [15 5/8]}
 73
     1
 44
1.0
1001
ACAD
1000
MTEXTBEGIN
1070
    73
1070
     1
1070
    44
1040
1.0
1070
    74
1070
     0
1000
MTEXTEND
  0
ENDBLK
  5
50B2
330
50B0
100
AcDbEntity
  8
0
100
AcDbBlockEnd
  0
BLOCK
  5
50BE
330
50BD
100
AcDbEntity
  8
0
100
AcDbBlockBegin
  2
*D2
 70
     1
 10
0.0
 20
0.0
 30
0.0
  3
*D2
  1

  0
POINT
  5
50B4
330
50BD
100
AcDbEntity
  8
Defpoints
  6
ByBlock
100
AcDbPoint
 10
820.3718004036709
 20
672.3713227658972
 30
0.0
  0
POINT
  5
50B5
330
50BD
100
AcDbEntity
  8
Defpoints
  6
ByBlock
100
AcDbPoint
 10
435.3718004036709
 20
675.5148516363244
 30
0.0
  0
LINE
  5
50B6
330
50BD
100
AcDbEntity
  8
标注
  6
ByBlock
 62
     0
370
    -2
100
AcDbLine
 10
820.3718004036709
 20
672.3713227658972
 30
0.0
 11
820.3718004036709
 21
736.8202786802717
 31
0.0
  0
LINE
  5
50B7
330
50BD
100
AcDbEntity
  8
标注
  6
ByBlock
 62
     0
370
    -2
100
AcDbLine
 10
435.3718004036709
 20
675.5148516363244
 30
0.0
 11
435.3718004036709
 21
736.8202786802717
 31
0.0
  0
LINE
  5
50B8
330
50BD
100
AcDbEntity
  8
标注
  6
ByBlock
 62
     0
370
     0
100
AcDbLine
 10
815.371800403671
 20
733.0702786802717
 30
0.0
 11
440.3718004036709
 21
733.0702786802717
 31
0.0
  0
SOLID
  5
50B9
330
50BD
100
AcDbEntity
  8
标注
  6
ByBlock
 62
     0
100
AcDbTrace
 10
820.3718004036709
 20
733.0702786802717
 30
0.0
 11
815.371800403671
 21
733.9036120136052
 31
0.0
 12
815.371800403671
 22
732.2369453469382
 32
0.0
 13
815.371800403671
 23
732.2369453469382
 33
0.0
  0
SOLID
  5
50BA
330
50BD
100
AcDbEntity
  8
标注
  6
ByBlock
 62
     0
100
AcDbTrace
 10
435.3718004036709
 20
733.0702786802717
 30
0.0
 11
440.3718004036709
 21
733.9036120136052
 31
0.0
 12
440.3718004036709
 22
732.2369453469382
 32
0.0
 13
440.3718004036709
 23
732.2369453469382
 33
0.0
  0
MTEXT
  5
50BB
330
50BD
100
AcDbEntity
  8
标注
  6
ByBlock
 62
     0
100
AcDbMText
 10
627.8718108416535
 20
741.628941708921
 30
0.0
 40
10.0
 41
0.0
 71
     5
 72
     1
  1
\A0;{\fArial|b0|i0|c0|p34;385 [15 1/8]}
 73
     1
 44
1.0
1001
ACAD
1000
MTEXTBEGIN
1070
    73
1070
     1
1070
    44
1040
1.0
1070
    74
1070
     0
1000
MTEXTEND
  0
ENDBLK
  5
50BF
330
50BD
100
AcDbEntity
  8
0
100
AcDbBlockEnd
  0
BLOCK
  5
50CB
330
50CA
100
AcDbEntity
  8
0
100
AcDbBlockBegin
  2
*D3
 70
     1
 10
0.0
 20
0.0
 30
0.0
  3
*D3
  1

  0
POINT
  5
50C1
330
50CA
100
AcDbEntity
  8
Defpoints
  6
ByBlock
100
AcDbPoint
 10
814.0218004036709
 20
672.0114074834144
 30
0.0
  0
POINT
  5
50C2
330
50CA
100
AcDbEntity
  8
Defpoints
  6
ByBlock
100
AcDbPoint
 10
441.7218004036708
 20
676.1045368351442
 30
0.0
  0
LINE
  5
50C3
330
50CA
100
AcDbEntity
  8
标注
  6
ByBlock
 62
     0
370
    -2
100
AcDbLine
 10
814.0218004036709
 20
672.0114074834144
 30
0.0
 11
814.0218004036709
 21
714.5890423111556
 31
0.0
  0
LINE
  5
50C4
330
50CA
100
AcDbEntity
  8
标注
  6
ByBlock
 62
     0
370
    -2
100
AcDbLine
 10
441.7218004036708
 20
676.1045368351442
 30
0.0
 11
441.7218004036708
 21
714.5890423111556
 31
0.0
  0
LINE
  5
50C5
330
50CA
100
AcDbEntity
  8
标注
  6
ByBlock
 62
     0
370
     0
100
AcDbLine
 10
809.021800403671
 20
710.8390423111557
 30
0.0
 11
446.7218004036708
 21
710.8390423111557
 31
0.0
  0
SOLID
  5
50C6
330
50CA
100
AcDbEntity
  8
标注
  6
ByBlock
 62
     0
100
AcDbTrace
 10
814.0218004036709
 20
710.8390423111557
 30
0.0
 11
809.021800403671
 21
711.6723756444891
 31
0.0
 12
809.021800403671
 22
710.0057089778222
 32
0.0
 13
809.021800403671
 23
710.0057089778222
 33
0.0
  0
SOLID
  5
50C7
330
50CA
100
AcDbEntity
  8
标注
  6
ByBlock
 62
     0
100
AcDbTrace
 10
441.7218004036708
 20
710.8390423111557
 30
0.0
 11
446.7218004036708
 21
711.6723756444891
 31
0.0
 12
446.7218004036708
 22
710.0057089778222
 32
0.0
 13
446.7218004036708
 23
710.0057089778222
 33
0.0
  0
MTEXT
  5
50C8
330
50CA
100
AcDbEntity
  8
标注
  6
ByBlock
 62
     0
100
AcDbMText
 10
627.8718108416553
 20
719.397705339805
 30
0.0
 40
10.0
 41
0.0
 71
     5
 72
     1
  1
\A0;{\fArial|b0|i0|c0|p34;372.3 [14 5/8]}
 73
     1
 44
1.0
1001
ACAD
1000
MTEXTBEGIN
1070
    73
1070
     1
1070
    44
1040
1.0
1070
    74
1070
     0
1000
MTEXTEND
  0
ENDBLK
  5
50CC
330
50CA
100
AcDbEntity
  8
0
100
AcDbBlockEnd
  0
BLOCK
  5
5205
330
5204
100
AcDbEntity
  8
0
100
AcDbBlockBegin
  2
*D4
 70
     1
 10
0.0
 20
0.0
 30
0.0
  3
*D4
  1

  0
POINT
  5
51FB
330
5204
100
AcDbEntity
  8
Defpoints
  6
ByBlock
100
AcDbPoint
 10
-417.628199596329
 20
1129.904861386858
 30
0.0
  0
POINT
  5
51FC
330
5204
100
AcDbEntity
  8
Defpoints
  6
ByBlock
100
AcDbPoint
 10
32.37180040366911
 20
1129.904861386858
 30
0.0
  0
LINE
  5
51FD
330
5204
100
AcDbEntity
  8
标注
  6
ByBlock
 62
     0
370
    -2
100
AcDbLine
 10
-417.628199596329
 20
1129.904861386858
 30
0.0
 11
-417.628199596329
 21
1197.430175435424
 31
0.0
  0
LINE
  5
51FE
330
5204
100
AcDbEntity
  8
标注
  6
ByBlock
 62
     0
370
    -2
100
AcDbLine
 10
32.37180040366911
 20
1129.904861386858
 30
0.0
 11
32.37180040366911
 21
1197.430175435424
 31
0.0
  0
LINE
  5
51FF
330
5204
100
AcDbEntity
  8
标注
  6
ByBlock
 62
     0
370
    -2
100
AcDbLine
 10
-407.628199596329
 20
1196.180175435423
 30
0.0
 11
22.37180040366911
 21
1196.180175435423
 31
0.0
  0
SOLID
  5
5200
330
5204
100
AcDbEntity
  8
标注
  6
ByBlock
 62
     0
100
AcDbTrace
 10
-417.628199596329
 20
1196.180175435423
 30
0.0
 11
-407.628199596329
 21
1194.513508768759
 31
0.0
 12
-407.628199596329
 22
1197.846842102088
 32
0.0
 13
-407.628199596329
 23
1197.846842102088
 33
0.0
  0
SOLID
  5
5201
330
5204
100
AcDbEntity
  8
标注
  6
ByBlock
 62
     0
100
AcDbTrace
 10
32.37180040366911
 20
1196.180175435423
 30
0.0
 11
22.37180040366911
 21
1194.513508768759
 31
0.0
 12
22.37180040366911
 22
1197.846842102088
 32
0.0
 13
22.37180040366911
 23
1197.846842102088
 33
0.0
  0
MTEXT
  5
5202
330
5204
100
AcDbEntity
  8
标注
  6
ByBlock
 62
     0
100
AcDbMText
 10
-192.628199596329
 20
1205.180175435424
 30
0.0
 40
13.0
 41
0.0
 71
     5
 72
     1
  1
\A0;\ftxt.shx,gbcbig.shx;%%C450
 73
     1
 44
1.0
1001
ACAD
1000
MTEXTBEGIN
1070
    73
1070
     1
1070
    44
1040
1.0
1070
    74
1070
     0
1000
MTEXTEND
  0
ENDBLK
  5
5206
330
5204
100
AcDbEntity
  8
0
100
AcDbBlockEnd
  0
BLOCK
  5
5213
330
5212
100
AcDbEntity
  8
0
100
AcDbBlockBegin
  2
*D5
 70
     1
 10
0.0
 20
0.0
 30
0.0
  3
*D5
  1

  0
POINT
  5
5209
330
5212
100
AcDbEntity
  8
Defpoints
  6
ByBlock
100
AcDbPoint
 10
-390.1281996018879
 20
1134.404861386858
 30
0.0
  0
POINT
  5
520A
330
5212
100
AcDbEntity
  8
Defpoints
  6
ByBlock
100
AcDbPoint
 10
4.871800409227944
 20
1134.404861386858
 30
0.0
  0
LINE
  5
520B
330
5212
100
AcDbEntity
  8
标注
  6
ByBlock
 62
     0
370
    -2
100
AcDbLine
 10
-390.1281996018879
 20
1134.404861386858
 30
0.0
 11
-390.1281996018879
 21
1165.392466606609
 31
0.0
  0
LINE
  5
520C
330
5212
100
AcDbEntity
  8
标注
  6
ByBlock
 62
     0
370
    -2
100
AcDbLine
 10
4.871800409227944
 20
1134.404861386858
 30
0.0
 11
4.871800409227944
 21
1165.392466606609
 31
0.0
  0
LINE
  5
520D
330
5212
100
AcDbEntity
  8
标注
  6
ByBlock
 62
     0
370
    -2
100
AcDbLine
 10
-380.1281996018879
 20
1164.142466606608
 30
0.0
 11
-5.128199590772055
 21
1164.142466606608
 31
0.0
  0
SOLID
  5
520E
330
5212
100
AcDbEntity
  8
标注
  6
ByBlock
 62
     0
100
AcDbTrace
 10
-390.1281996018879
 20
1164.142466606608
 30
0.0
 11
-380.1281996018879
 21
1162.475799939944
 31
0.0
 12
-380.1281996018879
 22
1165.809133273273
 32
0.0
 13
-380.1281996018879
 23
1165.809133273273
 33
0.0
  0
SOLID
  5
520F
330
5212
100
AcDbEntity
  8
标注
  6
ByBlock
 62
     0
100
AcDbTrace
 10
4.871800409227944
 20
1164.142466606608
 30
0.0
 11
-5.128199590772055
 21
1162.475799939944
 31
0.0
 12
-5.128199590772055
 22
1165.809133273273
 32
0.0
 13
-5.128199590772055
 23
1165.809133273273
 33
0.0
  0
MTEXT
  5
5210
330
5212
100
AcDbEntity
  8
标注
  6
ByBlock
 62
     0
100
AcDbMText
 10
-192.628199596329
 20
1173.142466606608
 30
0.0
 40
13.0
 41
0.0
 71
     5
 72
     1
  1
\ftxt.shx,gbcbig.shx;%%C385
 73
     1
 44
1.0
1001
ACAD
1000
MTEXTBEGIN
1070
    73
1070
     1
1070
    44
1040
1.0
1070
    74
1070
     0
1000
MTEXTEND
  0
ENDBLK
  5
5214
330
5212
100
AcDbEntity
  8
0
100
AcDbBlockEnd
  0
BLOCK
  5
5225
330
5224
100
AcDbEntity
  8
0
100
AcDbBlockBegin
  2
*D6
 70
     1
 10
0.0
 20
0.0
 30
0.0
  3
*D6
  1

  0
POINT
  5
521B
330
5224
100
AcDbEntity
  8
Defpoints
  6
ByBlock
100
AcDbPoint
 10
-94.62819959633089
 20
524.7762152362484
 30
0.0
  0
POINT
  5
521C
330
5224
100
AcDbEntity
  8
Defpoints
  6
ByBlock
100
AcDbPoint
 10
32.37180040366911
 20
598.9778550164847
 30
0.0
  0
LINE
  5
521D
330
5224
100
AcDbEntity
  8
标注
  6
ByBlock
 62
     0
370
    -2
100
AcDbLine
 10
-94.62819959633089
 20
524.7762152362484
 30
0.0
 11
-94.62819959633089
 21
519.4340172362499
 31
0.0
  0
LINE
  5
521E
330
5224
100
AcDbEntity
  8
标注
  6
ByBlock
 62
     0
370
    -2
100
AcDbLine
 10
32.37180040366911
 20
598.9778550164847
 30
0.0
 11
32.37180040366911
 21
519.4340172362499
 31
0.0
  0
LINE
  5
521F
330
5224
100
AcDbEntity
  8
标注
  6
ByBlock
 62
     0
370
    -2
100
AcDbLine
 10
-84.62819959633089
 20
520.6840172362499
 30
0.0
 11
22.37180040366911
 21
520.6840172362499
 31
0.0
  0
SOLID
  5
5220
330
5224
100
AcDbEntity
  8
标注
  6
ByBlock
 62
     0
100
AcDbTrace
 10
-94.62819959633089
 20
520.6840172362499
 30
0.0
 11
-84.62819959633089
 21
519.0173505695857
 31
0.0
 12
-84.62819959633089
 22
522.3506839029141
 32
0.0
 13
-84.62819959633089
 23
522.3506839029141
 33
0.0
  0
SOLID
  5
5221
330
5224
100
AcDbEntity
  8
标注
  6
ByBlock
 62
     0
100
AcDbTrace
 10
32.37180040366911
 20
520.6840172362499
 30
0.0
 11
22.37180040366911
 21
519.0173505695857
 31
0.0
 12
22.37180040366911
 22
522.3506839029141
 32
0.0
 13
22.37180040366911
 23
522.3506839029141
 33
0.0
  0
MTEXT
  5
5222
330
5224
100
AcDbEntity
  8
标注
  6
ByBlock
 62
     0
100
AcDbMText
 10
-31.26784669442713
 20
529.6840172362499
 30
0.0
 40
13.0
 41
0.0
 71
     5
 72
     1
  1
\ftxt.shx,gbcbig.shx;152.5
 73
     1
 44
1.0
1001
ACAD
1000
MTEXTBEGIN
1070
    73
1070
     1
1070
    44
1040
1.0
1070
    74
1070
     0
1000
MTEXTEND
  0
ENDBLK
  5
5226
330
5224
100
AcDbEntity
  8
0
100
AcDbBlockEnd
  0
BLOCK
  5
524A
330
5249
100
AcDbEntity
  8
0
100
AcDbBlockBegin
  2
*D7
 70
     1
 10
0.0
 20
0.0
 30
0.0
  3
*D7
  1

  0
POINT
  5
5240
330
5249
100
AcDbEntity
  8
Defpoints
  6
ByBlock
100
AcDbPoint
 10
27.37180040366911
 20
1134.404861386858
 30
0.0
  0
POINT
  5
5241
330
5249
100
AcDbEntity
  8
Defpoints
  6
ByBlock
100
AcDbPoint
 10
-35.35976815724462
 20
939.3899931344277
 30
0.0
  0
LINE
  5
5242
330
5249
100
AcDbEntity
  8
标注
  6
ByBlock
 62
     0
370
    -2
100
AcDbLine
 10
27.37180040366911
 20
1134.404861386858
 30
0.0
 11
85.9459387631341
 21
1134.404861386858
 31
0.0
  0
LINE
  5
5243
330
5249
100
AcDbEntity
  8
标注
  6
ByBlock
 62
     0
370
    -2
100
AcDbLine
 10
-35.35976815724462
 20
939.3899931344277
 30
0.0
 11
85.9459387631341
 21
939.3899931344277
 31
0.0
  0
LINE
  5
5244
330
5249
100
AcDbEntity
  8
标注
  6
ByBlock
 62
     0
370
    -2
100
AcDbLine
 10
84.6959387631341
 20
1124.404861386858
 30
0.0
 11
84.6959387631341
 21
949.3899931344277
 31
0.0
  0
SOLID
  5
5245
330
5249
100
AcDbEntity
  8
标注
  6
ByBlock
 62
     0
100
AcDbTrace
 10
84.6959387631341
 20
1134.404861386858
 30
0.0
 11
83.02927209646624
 21
1124.404861386858
 31
0.0
 12
86.36260542980199
 22
1124.404861386858
 32
0.0
 13
86.36260542980199
 23
1124.404861386858
 33
0.0
  0
SOLID
  5
5246
330
5249
100
AcDbEntity
  8
标注
  6
ByBlock
 62
     0
100
AcDbTrace
 10
84.6959387631341
 20
939.3899931344277
 30
0.0
 11
83.02927209646624
 21
949.3899931344277
 31
0.0
 12
86.36260542980199
 22
949.3899931344277
 32
0.0
 13
86.36260542980199
 23
949.3899931344277
 33
0.0
  0
MTEXT
  5
5247
330
5249
100
AcDbEntity
  8
标注
  6
ByBlock
 62
     0
100
AcDbMText
 10
75.69593876313411
 20
1037.69737495287
 30
0.0
 40
13.0
 41
0.0
 71
     5
 72
     1
  1
\ftxt.shx,gbcbig.shx;200
 11
0.0
 21
1.0
 31
0.0
 73
     1
 44
1.0
1001
ACAD
1000
MTEXTBEGIN
1070
    73
1070
     1
1070
    44
1040
1.0
1070
    74
1070
     0
1000
MTEXTEND
  0
ENDBLK
  5
524B
330
5249
100
AcDbEntity
  8
0
100
AcDbBlockEnd
  0
BLOCK
  5
528A
330
5289
100
AcDbEntity
  8
0
100
AcDbBlockBegin
  2
*D8
 70
     1
 10
0.0
 20
0.0
 30
0.0
  3
*D8
  1

  0
POINT
  5
527D
330
5289
100
AcDbEntity
  8
Defpoints
  6
ByBlock
100
AcDbPoint
 10
820.3718004036685
 20
480.4778620356144
 30
0.0
  0
POINT
  5
527E
330
5289
100
AcDbEntity
  8
Defpoints
  6
ByBlock
100
AcDbPoint
 10
826.7218004036708
 20
480.4778620356217
 30
0.0
  0
LINE
  5
527F
330
5289
100
AcDbEntity
  8
标注
  6
ByBlock
 62
     0
370
    -2
100
AcDbLine
 10
820.3718004036685
 20
480.4778620356144
 30
0.0
 11
820.3718004036685
 21
446.25
 31
0.0
  0
LINE
  5
5280
330
5289
100
AcDbEntity
  8
标注
  6
ByBlock
 62
     0
370
    -2
100
AcDbLine
 10
826.7218004036708
 20
480.4778620356217
 30
0.0
 11
826.7218004036708
 21
446.25
 31
0.0
  0
LINE
  5
5281
330
5289
100
AcDbEntity
  8
标注
  6
ByBlock
 62
     0
370
     0
100
AcDbLine
 10
815.3718004036687
 20
450.0
 30
0.0
 11
810.3718004036686
 21
450.0
 31
0.0
  0
LINE
  5
5282
330
5289
100
AcDbEntity
  8
标注
  6
ByBlock
 62
     0
370
     0
100
AcDbLine
 10
887.2885402455661
 20
450.0
 30
0.0
 11
831.7218004036709
 21
450.0
 31
0.0
  0
SOLID
  5
5283
330
5289
100
AcDbEntity
  8
标注
  6
ByBlock
 62
     0
100
AcDbTrace
 10
820.3718004036685
 20
450.0
 30
0.0
 11
815.3718004036687
 21
449.1666666666665
 31
0.0
 12
815.3718004036687
 22
450.8333333333334
 32
0.0
 13
815.3718004036687
 23
450.8333333333334
 33
0.0
  0
SOLID
  5
5284
330
5289
100
AcDbEntity
  8
标注
  6
ByBlock
 62
     0
100
AcDbTrace
 10
826.7218004036708
 20
450.0
 30
0.0
 11
831.7218004036709
 21
449.1666666666665
 31
0.0
 12
831.7218004036709
 22
450.8333333333334
 32
0.0
 13
831.7218004036709
 23
450.8333333333334
 33
0.0
  0
LINE
  5
5285
330
5289
100
AcDbEntity
  8
标注
  6
ByBlock
 62
     0
370
     0
100
AcDbLine
 10
820.3718004036685
 20
450.0
 30
0.0
 11
826.7218004036708
 21
450.0
 31
0.0
  0
LINE
  5
5286
330
5289
100
AcDbEntity
  8
标注
  6
ByBlock
 62
     0
370
     0
100
AcDbLine
 10
820.3718004036685
 20
480.4778620356144
 30
0.0
 11
820.3718004036685
 21
480.4778620356144
 31
0.0
  0
MTEXT
  5
5287
330
5289
100
AcDbEntity
  8
标注
  6
ByBlock
 62
     0
100
AcDbMText
 10
860.5
 20
458.5586630286494
 30
0.0
 40
10.0
 41
0.0
 71
     5
 72
     1
  1
\A0;{\fArial|b0|i0|c0|p34;6.4 [1/4]}
 73
     1
 44
1.0
1001
ACAD
1000
MTEXTBEGIN
1070
    73
1070
     1
1070
    44
1040
1.0
1070
    74
1070
     0
1000
MTEXTEND
  0
ENDBLK
  5
528B
330
5289
100
AcDbEntity
  8
0
100
AcDbBlockEnd
  0
BLOCK
  5
529A
330
5299
100
AcDbEntity
  8
0
100
AcDbBlockBegin
  2
*D9
 70
     1
 10
0.0
 20
0.0
 30
0.0
  3
*D9
  1

  0
POINT
  5
528D
330
5299
100
AcDbEntity
  8
Defpoints
  6
ByBlock
100
AcDbPoint
 10
814.0218004036665
 20
480.4778620356217
 30
0.0
  0
POINT
  5
528E
330
5299
100
AcDbEntity
  8
Defpoints
  6
ByBlock
100
AcDbPoint
 10
820.3718004036685
 20
480.4778620356144
 30
0.0
  0
LINE
  5
528F
330
5299
100
AcDbEntity
  8
标注
  6
ByBlock
 62
     0
370
    -2
100
AcDbLine
 10
814.0218004036665
 20
480.4778620356217
 30
0.0
 11
814.0218004036665
 21
467.75
 31
0.0
  0
LINE
  5
5290
330
5299
100
AcDbEntity
  8
标注
  6
ByBlock
 62
     0
370
    -2
100
AcDbLine
 10
820.3718004036685
 20
480.4778620356144
 30
0.0
 11
820.3718004036685
 21
467.75
 31
0.0
  0
LINE
  5
5291
330
5299
100
AcDbEntity
  8
标注
  6
ByBlock
 62
     0
370
     0
100
AcDbLine
 10
809.0218004036664
 20
471.4999999999999
 30
0.0
 11
804.0218004036665
 21
471.4999999999999
 31
0.0
  0
LINE
  5
5292
330
5299
100
AcDbEntity
  8
标注
  6
ByBlock
 62
     0
370
     0
100
AcDbLine
 10
886.2885402455662
 20
471.4999999999999
 30
0.0
 11
825.3718004036686
 21
471.4999999999999
 31
0.0
  0
SOLID
  5
5293
330
5299
100
AcDbEntity
  8
标注
  6
ByBlock
 62
     0
100
AcDbTrace
 10
814.0218004036665
 20
471.4999999999999
 30
0.0
 11
809.0218004036664
 21
470.6666666666665
 31
0.0
 12
809.0218004036664
 22
472.3333333333335
 32
0.0
 13
809.0218004036664
 23
472.3333333333335
 33
0.0
  0
SOLID
  5
5294
330
5299
100
AcDbEntity
  8
标注
  6
ByBlock
 62
     0
100
AcDbTrace
 10
820.3718004036685
 20
471.4999999999999
 30
0.0
 11
825.3718004036686
 21
470.6666666666665
 31
0.0
 12
825.3718004036686
 22
472.3333333333335
 32
0.0
 13
825.3718004036686
 23
472.3333333333335
 33
0.0
  0
LINE
  5
5295
330
5299
100
AcDbEntity
  8
标注
  6
ByBlock
 62
     0
370
     0
100
AcDbLine
 10
814.0218004036665
 20
471.4999999999999
 30
0.0
 11
820.3718004036685
 21
471.4999999999999
 31
0.0
  0
LINE
  5
5296
330
5299
100
AcDbEntity
  8
标注
  6
ByBlock
 62
     0
370
     0
100
AcDbLine
 10
814.0218004036665
 20
480.4778620356217
 30
0.0
 11
814.0218004036665
 21
480.4778620356217
 31
0.0
  0
MTEXT
  5
5297
330
5299
100
AcDbEntity
  8
标注
  6
ByBlock
 62
     0
100
AcDbMText
 10
859.5
 20
480.0586630286494
 30
0.0
 40
10.0
 41
0.0
 71
     5
 72
     1
  1
\A0;{\fArial|b0|i0|c0|p34;6.4 [1/4]}
 73
     1
 44
1.0
1001
ACAD
1000
MTEXTBEGIN
1070
    73
1070
     1
1070
    44
1040
1.0
1070
    74
1070
     0
1000
MTEXTEND
  0
ENDBLK
  5
529B
330
5299
100
AcDbEntity
  8
0
100
AcDbBlockEnd
  0
BLOCK
  5
54AB
330
54AA
100
AcDbEntity
  8
0
100
AcDbBlockBegin
  2
*D10
 70
     1
 10
0.0
 20
0.0
 30
0.0
  3
*D10
  1

  0
POINT
  5
54AC
330
54AA
100
AcDbEntity
  8
Defpoints
  6
ByBlock
100
AcDbPoint
 10
3643.5
 20
672.0362347669746
 30
0.0
  0
POINT
  5
54AD
330
54AA
100
AcDbEntity
  8
Defpoints
  6
ByBlock
100
AcDbPoint
 10
3237.5
 20
673.9797839266683
 30
0.0
  0
LINE
  5
54AE
330
54AA
100
AcDbEntity
  8
标注
  6
ByBlock
 62
     0
370
    -2
100
AcDbLine
 10
3643.5
 20
672.0362347669746
 30
0.0
 11
3643.5
 21
735.342423663787
 31
0.0
  0
LINE
  5
54AF
330
54AA
100
AcDbEntity
  8
标注
  6
ByBlock
 62
     0
370
    -2
100
AcDbLine
 10
3237.5
 20
673.9797839266683
 30
0.0
 11
3237.5
 21
735.342423663787
 31
0.0
  0
LINE
  5
54B0
330
54AA
100
AcDbEntity
  8
标注
  6
ByBlock
 62
     0
370
     0
100
AcDbLine
 10
3638.5
 20
731.592423663787
 30
0.0
 11
3242.5
 21
731.592423663787
 31
0.0
  0
SOLID
  5
54B1
330
54AA
100
AcDbEntity
  8
标注
  6
ByBlock
 62
     0
100
AcDbTrace
 10
3643.5
 20
731.592423663787
 30
0.0
 11
3638.5
 21
732.4257569971205
 31
0.0
 12
3638.5
 22
730.7590903304535
 32
0.0
 13
3638.5
 23
730.7590903304535
 33
0.0
  0
SOLID
  5
54B2
330
54AA
100
AcDbEntity
  8
标注
  6
ByBlock
 62
     0
100
AcDbTrace
 10
3237.5
 20
731.592423663787
 30
0.0
 11
3242.5
 21
732.4257569971205
 31
0.0
 12
3242.5
 22
730.7590903304535
 32
0.0
 13
3242.5
 23
730.7590903304535
 33
0.0
  0
MTEXT
  5
54B3
330
54AA
100
AcDbEntity
  8
标注
  6
ByBlock
 62
     0
100
AcDbMText
 10
3440.500010437983
 20
740.0214823268156
 30
0.0
 40
10.0
 41
0.0
 71
     5
 72
     1
  1
\A0;{\fArial|b0|i0|c0|p34;406 [16]}
 73
     1
 44
1.0
1001
ACAD
1000
MTEXTBEGIN
1070
    73
1070
     1
1070
    44
1040
1.0
1070
    74
1070
     0
1000
MTEXTEND
  0
ENDBLK
  5
54B4
330
54AA
100
AcDbEntity
  8
0
100
AcDbBlockEnd
  0
BLOCK
  5
54B7
330
54B6
100
AcDbEntity
  8
0
100
AcDbBlockBegin
  2
*D11
 70
     1
 10
0.0
 20
0.0
 30
0.0
  3
*D11
  1

  0
POINT
  5
54B8
330
54B6
100
AcDbEntity
  8
Defpoints
  6
ByBlock
100
AcDbPoint
 10
3649.85
 20
669.0362691401047
 30
0.0
  0
POINT
  5
54B9
330
54B6
100
AcDbEntity
  8
Defpoints
  6
ByBlock
100
AcDbPoint
 10
3231.15
 20
671.703024299133
 30
0.0
  0
LINE
  5
54BA
330
54B6
100
AcDbEntity
  8
标注
  6
ByBlock
 62
     0
370
    -2
100
AcDbLine
 10
3649.85
 20
669.0362691401047
 30
0.0
 11
3649.85
 21
757.342423663787
 31
0.0
  0
LINE
  5
54BB
330
54B6
100
AcDbEntity
  8
标注
  6
ByBlock
 62
     0
370
    -2
100
AcDbLine
 10
3231.15
 20
671.703024299133
 30
0.0
 11
3231.15
 21
757.342423663787
 31
0.0
  0
LINE
  5
54BC
330
54B6
100
AcDbEntity
  8
标注
  6
ByBlock
 62
     0
370
     0
100
AcDbLine
 10
3644.85
 20
753.592423663787
 30
0.0
 11
3236.15
 21
753.592423663787
 31
0.0
  0
SOLID
  5
54BD
330
54B6
100
AcDbEntity
  8
标注
  6
ByBlock
 62
     0
100
AcDbTrace
 10
3649.85
 20
753.592423663787
 30
0.0
 11
3644.85
 21
754.4257569971205
 31
0.0
 12
3644.85
 22
752.7590903304535
 32
0.0
 13
3644.85
 23
752.7590903304535
 33
0.0
  0
SOLID
  5
54BE
330
54B6
100
AcDbEntity
  8
标注
  6
ByBlock
 62
     0
100
AcDbTrace
 10
3231.15
 20
753.592423663787
 30
0.0
 11
3236.15
 21
754.4257569971205
 31
0.0
 12
3236.15
 22
752.7590903304535
 32
0.0
 13
3236.15
 23
752.7590903304535
 33
0.0
  0
MTEXT
  5
54BF
330
54B6
100
AcDbEntity
  8
标注
  6
ByBlock
 62
     0
100
AcDbMText
 10
3440.5
 20
762.1510866924364
 30
0.0
 40
10.0
 41
0.0
 71
     5
 72
     1
  1
\A0;{\fArial|b0|i0|c0|p34;418.7 [16 1/2]}
 73
     1
 44
1.0
1001
ACAD
1000
MTEXTBEGIN
1070
    73
1070
     1
1070
    44
1040
1.0
1070
    74
1070
     0
1000
MTEXTEND
  0
ENDBLK
  5
54C0
330
54B6
100
AcDbEntity
  8
0
100
AcDbBlockEnd
  0
BLOCK
  5
54C3
330
54C2
100
AcDbEntity
  8
0
100
AcDbBlockBegin
  2
*D12
 70
     1
 10
0.0
 20
0.0
 30
0.0
  3
*D12
  1

  0
POINT
  5
54C4
330
54C2
100
AcDbEntity
  8
Defpoints
  6
ByBlock
100
AcDbPoint
 10
3637.15
 20
669.8934021763532
 30
0.0
  0
POINT
  5
54C5
330
54C2
100
AcDbEntity
  8
Defpoints
  6
ByBlock
100
AcDbPoint
 10
3243.85
 20
674.7833461481514
 30
0.0
  0
LINE
  5
54C6
330
54C2
100
AcDbEntity
  8
标注
  6
ByBlock
 62
     0
370
    -2
100
AcDbLine
 10
3637.15
 20
669.8934021763532
 30
0.0
 11
3637.15
 21
713.111187294671
 31
0.0
  0
LINE
  5
54C7
330
54C2
100
AcDbEntity
  8
标注
  6
ByBlock
 62
     0
370
    -2
100
AcDbLine
 10
3243.85
 20
674.7833461481514
 30
0.0
 11
3243.85
 21
713.111187294671
 31
0.0
  0
LINE
  5
54C8
330
54C2
100
AcDbEntity
  8
标注
  6
ByBlock
 62
     0
370
     0
100
AcDbLine
 10
3632.15
 20
709.361187294671
 30
0.0
 11
3248.85
 21
709.361187294671
 31
0.0
  0
SOLID
  5
54C9
330
54C2
100
AcDbEntity
  8
标注
  6
ByBlock
 62
     0
100
AcDbTrace
 10
3637.15
 20
709.361187294671
 30
0.0
 11
3632.15
 21
710.1945206280045
 31
0.0
 12
3632.15
 22
708.5278539613375
 32
0.0
 13
3632.15
 23
708.5278539613375
 33
0.0
  0
SOLID
  5
54CA
330
54C2
100
AcDbEntity
  8
标注
  6
ByBlock
 62
     0
100
AcDbTrace
 10
3243.85
 20
709.361187294671
 30
0.0
 11
3248.85
 21
710.1945206280045
 31
0.0
 12
3248.85
 22
708.5278539613375
 32
0.0
 13
3248.85
 23
708.5278539613375
 33
0.0
  0
MTEXT
  5
54CB
330
54C2
100
AcDbEntity
  8
标注
  6
ByBlock
 62
     0
100
AcDbMText
 10
3440.500010437985
 20
717.9198503233203
 30
0.0
 40
10.0
 41
0.0
 71
     5
 72
     1
  1
\A0;{\fArial|b0|i0|c0|p34;393.3 [15 1/2]}
 73
     1
 44
1.0
1001
ACAD
1000
MTEXTBEGIN
1070
    73
1070
     1
1070
    44
1040
1.0
1070
    74
1070
     0
1000
MTEXTEND
  0
ENDBLK
  5
54CC
330
54C2
100
AcDbEntity
  8
0
100
AcDbBlockEnd
  0
BLOCK
  5
551F
330
551E
100
AcDbEntity
  8
0
100
AcDbBlockBegin
  2
*D13
 70
     1
 10
0.0
 20
0.0
 30
0.0
  3
*D13
  1

  0
POINT
  5
5520
330
551E
100
AcDbEntity
  8
Defpoints
  6
ByBlock
100
AcDbPoint
 10
3637.15
 20
479.0
 30
0.0
  0
POINT
  5
5521
330
551E
100
AcDbEntity
  8
Defpoints
  6
ByBlock
100
AcDbPoint
 10
3643.500000000003
 20
478.9999999999927
 30
0.0
  0
LINE
  5
5522
330
551E
100
AcDbEntity
  8
标注
  6
ByBlock
 62
     0
370
    -2
100
AcDbLine
 10
3637.15
 20
479.0
 30
0.0
 11
3637.15
 21
466.2721379643782
 31
0.0
  0
LINE
  5
5523
330
551E
100
AcDbEntity
  8
标注
  6
ByBlock
 62
     0
370
    -2
100
AcDbLine
 10
3643.500000000003
 20
478.9999999999927
 30
0.0
 11
3643.500000000003
 21
466.2721379643782
 31
0.0
  0
LINE
  5
5524
330
551E
100
AcDbEntity
  8
标注
  6
ByBlock
 62
     0
370
     0
100
AcDbLine
 10
3632.15
 20
470.0221379643783
 30
0.0
 11
3627.15
 21
470.0221379643783
 31
0.0
  0
LINE
  5
5525
330
551E
100
AcDbEntity
  8
标注
  6
ByBlock
 62
     0
370
     0
100
AcDbLine
 10
3709.416739841901
 20
470.0221379643783
 30
0.0
 11
3648.500000000002
 21
470.0221379643783
 31
0.0
  0
SOLID
  5
5526
330
551E
100
AcDbEntity
  8
标注
  6
ByBlock
 62
     0
100
AcDbTrace
 10
3637.15
 20
470.0221379643783
 30
0.0
 11
3632.15
 21
469.1888046310447
 31
0.0
 12
3632.15
 22
470.8554712977117
 32
0.0
 13
3632.15
 23
470.8554712977117
 33
0.0
  0
SOLID
  5
5527
330
551E
100
AcDbEntity
  8
标注
  6
ByBlock
 62
     0
100
AcDbTrace
 10
3643.500000000003
 20
470.0221379643783
 30
0.0
 11
3648.500000000002
 21
469.1888046310447
 31
0.0
 12
3648.500000000002
 22
470.8554712977117
 32
0.0
 13
3648.500000000002
 23
470.8554712977117
 33
0.0
  0
LINE
  5
5528
330
551E
100
AcDbEntity
  8
标注
  6
ByBlock
 62
     0
370
     0
100
AcDbLine
 10
3637.15
 20
470.0221379643783
 30
0.0
 11
3643.500000000003
 21
470.0221379643783
 31
0.0
  0
LINE
  5
5529
330
551E
100
AcDbEntity
  8
标注
  6
ByBlock
 62
     0
370
     0
100
AcDbLine
 10
3637.15
 20
479.0
 30
0.0
 11
3637.15
 21
479.0
 31
0.0
  0
MTEXT
  5
552A
330
551E
100
AcDbEntity
  8
标注
  6
ByBlock
 62
     0
100
AcDbMText
 10
3682.628199596333
 20
478.5808009930276
 30
0.0
 40
10.0
 41
0.0
 71
     5
 72
     1
  1
\A0;{\fArial|b0|i0|c0|p34;6.4 [1/4]}
 73
     1
 44
1.0
1001
ACAD
1000
MTEXTBEGIN
1070
    73
1070
     1
1070
    44
1040
1.0
1070
    74
1070
     0
1000
MTEXTEND
  0
ENDBLK
  5
552B
330
551E
100
AcDbEntity
  8
0
100
AcDbBlockEnd
  0
BLOCK
  5
552E
330
552D
100
AcDbEntity
  8
0
100
AcDbBlockBegin
  2
*D14
 70
     1
 10
0.0
 20
0.0
 30
0.0
  3
*D14
  1

  0
POINT
  5
552F
330
552D
100
AcDbEntity
  8
Defpoints
  6
ByBlock
100
AcDbPoint
 10
3643.500000000003
 20
478.9999999999927
 30
0.0
  0
POINT
  5
5530
330
552D
100
AcDbEntity
  8
Defpoints
  6
ByBlock
100
AcDbPoint
 10
3649.850000000004
 20
479.0
 30
0.0
  0
LINE
  5
5531
330
552D
100
AcDbEntity
  8
标注
  6
ByBlock
 62
     0
370
    -2
100
AcDbLine
 10
3643.500000000003
 20
478.9999999999927
 30
0.0
 11
3643.500000000003
 21
444.7721379643782
 31
0.0
  0
LINE
  5
5532
330
552D
100
AcDbEntity
  8
标注
  6
ByBlock
 62
     0
370
    -2
100
AcDbLine
 10
3649.850000000004
 20
479.0
 30
0.0
 11
3649.850000000004
 21
444.7721379643782
 31
0.0
  0
LINE
  5
5533
330
552D
100
AcDbEntity
  8
标注
  6
ByBlock
 62
     0
370
     0
100
AcDbLine
 10
3638.500000000003
 20
448.5221379643782
 30
0.0
 11
3633.500000000002
 21
448.5221379643782
 31
0.0
  0
LINE
  5
5534
330
552D
100
AcDbEntity
  8
标注
  6
ByBlock
 62
     0
370
     0
100
AcDbLine
 10
3710.4167398419
 20
448.5221379643782
 30
0.0
 11
3654.850000000005
 21
448.5221379643782
 31
0.0
  0
SOLID
  5
5535
330
552D
100
AcDbEntity
  8
标注
  6
ByBlock
 62
     0
100
AcDbTrace
 10
3643.500000000003
 20
448.5221379643782
 30
0.0
 11
3638.500000000003
 21
447.6888046310447
 31
0.0
 12
3638.500000000003
 22
449.3554712977117
 32
0.0
 13
3638.500000000003
 23
449.3554712977117
 33
0.0
  0
SOLID
  5
5536
330
552D
100
AcDbEntity
  8
标注
  6
ByBlock
 62
     0
100
AcDbTrace
 10
3649.850000000004
 20
448.5221379643782
 30
0.0
 11
3654.850000000005
 21
447.6888046310447
 31
0.0
 12
3654.850000000005
 22
449.3554712977117
 32
0.0
 13
3654.850000000005
 23
449.3554712977117
 33
0.0
  0
LINE
  5
5537
330
552D
100
AcDbEntity
  8
标注
  6
ByBlock
 62
     0
370
     0
100
AcDbLine
 10
3643.500000000003
 20
448.5221379643782
 30
0.0
 11
3649.850000000004
 21
448.5221379643782
 31
0.0
  0
LINE
  5
5538
330
552D
100
AcDbEntity
  8
标注
  6
ByBlock
 62
     0
370
     0
100
AcDbLine
 10
3643.500000000003
 20
478.9999999999927
 30
0.0
 11
3643.500000000003
 21
478.9999999999927
 31
0.0
  0
MTEXT
  5
5539
330
552D
100
AcDbEntity
  8
标注
  6
ByBlock
 62
     0
100
AcDbMText
 10
3683.628199596334
 20
457.0808009930276
 30
0.0
 40
10.0
 41
0.0
 71
     5
 72
     1
  1
\A0;{\fArial|b0|i0|c0|p34;6.4 [1/4]}
 73
     1
 44
1.0
1001
ACAD
1000
MTEXTBEGIN
1070
    73
1070
     1
1070
    44
1040
1.0
1070
    74
1070
     0
1000
MTEXTEND
  0
ENDBLK
  5
553A
330
552D
100
AcDbEntity
  8
0
100
AcDbBlockEnd
  0
ENDSEC
  0
SECTION
  2
ENTITIES
  0
LINE
  5
4915
330
1F
100
AcDbEntity
  8
粗实线
100
AcDbLine
 10
1140.138700860353
 20
157.1003631291075
 30
0.0
 11
729.8924558041209
 21
157.1003631291075
 31
0.0
  0
LINE
  5
4916
330
1F
100
AcDbEntity
  8
图框线
100
AcDbLine
 10
1003.389952508268
 20
261.9410701990373
 30
0.0
 11
1003.389952508268
 21
157.1003631291075
 31
0.0
  0
LINE
  5
4917
330
1F
100
AcDbEntity
  8
图框线
100
AcDbLine
 10
866.6412041561848
 20
261.9410701990373
 30
0.0
 11
866.6412041561848
 21
157.1003631291075
 31
0.0
  0
LINE
  5
4918
330
1F
100
AcDbEntity
  8
图框线
100
AcDbLine
 10
883.7347977002185
 20
198.124987634731
 30
0.0
 11
883.7347977002185
 21
173.054383770192
 31
0.0
  0
LINE
  5
4919
330
1F
100
AcDbEntity
  8
图框线
100
AcDbLine
 10
900.8283912442145
 20
198.124987634731
 30
0.0
 11
900.8283912442145
 21
173.054383770192
 31
0.0
  0
LINE
  5
491A
330
1F
100
AcDbEntity
  8
图框线
100
AcDbLine
 10
935.0155783322179
 20
173.054383770192
 30
0.0
 11
935.0155783322179
 21
157.1003631291075
 31
0.0
  0
LINE
  5
491B
330
1F
100
AcDbEntity
  8
图框线
100
AcDbLine
 10
917.9219847882118
 20
211.7998624699489
 30
0.0
 11
917.9219847882118
 21
173.054383770192
 31
0.0
  0
LINE
  5
491C
330
1F
100
AcDbEntity
  8
图框线
100
AcDbLine
 10
945.2717344586352
 20
211.7998624699489
 30
0.0
 11
945.2717344586352
 21
173.054383770192
 31
0.0
  0
LINE
  5
491D
330
1F
100
AcDbEntity
  8
图框线
100
AcDbLine
 10
976.0402028378484
 20
211.7998624699489
 30
0.0
 11
976.0402028378484
 21
173.054383770192
 31
0.0
  0
LINE
  5
491E
330
1F
100
AcDbEntity
  8
粗实线
100
AcDbLine
 10
1140.138700860353
 20
157.1003631291075
 30
0.0
 11
729.8924558041209
 21
157.1003631291075
 31
0.0
  0
LINE
  5
491F
330
1F
100
AcDbEntity
  8
粗实线
100
AcDbLine
 10
1140.138700860353
 20
261.9410701990373
 30
0.0
 11
729.8924558041209
 21
261.9410701990373
 31
0.0
  0
LINE
  5
4920
330
1F
100
AcDbEntity
  8
图框线
100
AcDbLine
 10
1003.389952508268
 20
211.7998624699489
 30
0.0
 11
729.8924558041209
 21
211.7998624699489
 31
0.0
  0
LINE
  5
4921
330
1F
100
AcDbEntity
  8
图框线
100
AcDbLine
 10
866.6412041561848
 20
221.8281040157643
 30
0.0
 11
729.8924558041209
 21
221.8281040157643
 31
0.0
  0
LINE
  5
4922
330
1F
100
AcDbEntity
  8
图框线
100
AcDbLine
 10
866.6412041561848
 20
231.8563455615768
 30
0.0
 11
729.8924558041209
 21
231.8563455615768
 31
0.0
  0
LINE
  5
4923
330
1F
100
AcDbEntity
  8
图框线
100
AcDbLine
 10
866.6412041561848
 20
241.884587107399
 30
0.0
 11
729.8924558041209
 21
241.884587107399
 31
0.0
  0
LINE
  5
4924
330
1F
100
AcDbEntity
  8
图框线
100
AcDbLine
 10
866.6412041561848
 20
251.9128286532222
 30
0.0
 11
729.8924558041209
 21
251.9128286532222
 31
0.0
  0
LINE
  5
4925
330
1F
100
AcDbEntity
  8
图框线
100
AcDbLine
 10
1003.389952508268
 20
198.124987634731
 30
0.0
 11
729.8924558041209
 21
198.124987634731
 31
0.0
  0
LINE
  5
4926
330
1F
100
AcDbEntity
  8
图框线
100
AcDbLine
 10
1003.389952508268
 20
184.4501127995209
 30
0.0
 11
729.8924558041209
 21
184.4501127995209
 31
0.0
  0
LINE
  5
4927
330
1F
100
AcDbEntity
  8
图框线
100
AcDbLine
 10
866.6412041561848
 20
170.7752379643142
 30
0.0
 11
729.8924558041209
 21
170.7752379643142
 31
0.0
  0
LINE
  5
4928
330
1F
100
AcDbEntity
  8
图框线
100
AcDbLine
 10
1003.389952508268
 20
198.124987634731
 30
0.0
 11
866.6412041561848
 21
198.124987634731
 31
0.0
  0
LINE
  5
4929
330
1F
100
AcDbEntity
  8
图框线
100
AcDbLine
 10
1003.389952508268
 20
184.4501127995209
 30
0.0
 11
866.6412041561848
 21
184.4501127995209
 31
0.0
  0
LINE
  5
492A
330
1F
100
AcDbEntity
  8
图框线
100
AcDbLine
 10
1003.389952508268
 20
173.054383770192
 30
0.0
 11
866.6412041561848
 21
173.054383770192
 31
0.0
  0
LINE
  5
492B
330
1F
100
AcDbEntity
  8
图框线
100
AcDbLine
 10
1140.138700860353
 20
225.4747373051487
 30
0.0
 11
1003.389952508268
 21
225.4747373051487
 31
0.0
  0
LINE
  5
492C
330
1F
100
AcDbEntity
  8
图框线
100
AcDbLine
 10
1140.138700860353
 20
191.287550217115
 30
0.0
 11
1003.389952508268
 21
191.287550217115
 31
0.0
  0
LINE
  5
492D
330
1F
100
AcDbEntity
  8
图框线
100
AcDbLine
 10
748.1256222510523
 20
211.7998624699306
 30
0.0
 11
748.1256222510523
 21
261.9410701990373
 31
0.0
  0
LINE
  5
492E
330
1F
100
AcDbEntity
  8
图框线
100
AcDbLine
 10
766.3587886979942
 20
211.7998624699306
 30
0.0
 11
766.3587886979942
 21
261.9410701990373
 31
0.0
  0
LINE
  5
492F
330
1F
100
AcDbEntity
  8
图框线
100
AcDbLine
 10
805.104267397766
 20
211.7998624699489
 30
0.0
 11
805.104267397766
 21
261.9410701990373
 31
0.0
  0
LINE
  5
4930
330
1F
100
AcDbEntity
  8
图框线
100
AcDbLine
 10
839.2914544857745
 20
211.7998624699489
 30
0.0
 11
839.2914544857745
 21
261.9410701990373
 31
0.0
  0
LINE
  5
4931
330
1F
100
AcDbEntity
  8
图框线
100
AcDbLine
 10
757.2422054745285
 20
157.1003631291075
 30
0.0
 11
757.2422054745285
 21
211.7998624699306
 31
0.0
  0
LINE
  5
4932
330
1F
100
AcDbEntity
  8
图框线
100
AcDbLine
 10
798.2668299801558
 20
157.1003631291075
 30
0.0
 11
798.2668299801558
 21
211.7998624699489
 31
0.0
  0
LINE
  5
4933
330
1F
100
AcDbEntity
  8
图框线
100
AcDbLine
 10
825.6165796505648
 20
157.1003631291075
 30
0.0
 11
825.6165796505648
 21
211.7998624699489
 31
0.0
  0
MTEXT
  5
4934
330
1F
100
AcDbEntity
  8
文字
100
AcDbMText
 10
733.3768058269876
 20
219.6420777390599
 30
0.0
 40
4.626614576270346
 41
29.73177430624501
 71
     1
 72
     5
  1
{\fSimSun|b0|i0|c134|p2;标记}
 73
     1
 44
1.0
1001
ACAD
1000
MTEXTBEGIN
1070
    73
1070
     1
1070
    44
1040
1.0
1070
    74
1070
     0
1000
MTEXTEND
  0
MTEXT
  5
4935
330
1F
100
AcDbEntity
  8
文字
100
AcDbMText
 10
751.2222120421314
 20
219.5878942816581
 30
0.0
 40
4.626614576270346
 41
29.73177430624501
 71
     1
 72
     5
  1
{\fSimSun|b0|i0|c134|p2;处数}
 73
     1
 44
1.0
1001
ACAD
1000
MTEXTBEGIN
1070
    73
1070
     1
1070
    44
1040
1.0
1070
    74
1070
     0
1000
MTEXTEND
  0
MTEXT
  5
4936
330
1F
100
AcDbEntity
  8
文字
100
AcDbMText
 10
773.3428178035937
 20
219.008727587236
 30
0.0
 40
3.701291661016277
 41
63.22148473007572
 71
     1
 72
     5
  1
{\fSimSun|b0|i0|c134|p2;\C1;更改文件号}
 73
     1
 44
1.0
1001
ACAD
1000
MTEXTBEGIN
1070
    73
1070
     1
1070
    44
1040
1.0
1070
    74
1070
     0
1000
MTEXTEND
  0
MTEXT
  5
4937
330
1F
100
AcDbEntity
  8
文字
100
AcDbMText
 10
815.052405476292
 20
219.926750884065
 30
0.0
 40
4.626614576270346
 41
29.73177430624501
 71
     1
 72
     5
  1
{\fSimSun|b0|i0|c134|p2;签名}
 73
     1
 44
1.0
1001
ACAD
1000
MTEXTBEGIN
1070
    73
1070
     1
1070
    44
1040
1.0
1070
    74
1070
     0
1000
MTEXTEND
  0
MTEXT
  5
4938
330
1F
100
AcDbEntity
  8
文字
100
AcDbMText
 10
847.8273221754664
 20
219.6543325650699
 30
0.0
 40
4.626614576270346
 41
29.73177430624501
 71
     1
 72
     5
  1
{\fSimSun|b0|i0|c134|p2;日期}
 73
     1
 44
1.0
1001
ACAD
1000
MTEXTBEGIN
1070
    73
1070
     1
1070
    44
1040
1.0
1070
    74
1070
     0
1000
MTEXTEND
  0
MTEXT
  5
4939
330
1F
100
AcDbEntity
  8
文字
100
AcDbMText
 10
735.8043373090262
 20
208.2375752860195
 30
0.0
 40
5.78326822033793
 41
37.16471788280627
 71
     1
 72
     5
  1
{\fSimSun|b0|i0|c134|p2;设计}
 73
     1
 44
1.0
1001
ACAD
1000
MTEXTBEGIN
1070
    73
1070
     1
1070
    44
1040
1.0
1070
    74
1070
     0
1000
MTEXTEND
  0
MTEXT
  5
493A
330
1F
100
AcDbEntity
  8
文字
100
AcDbMText
 10
735.8043373090262
 20
194.4696870681482
 30
0.0
 40
5.78326822033793
 41
37.16471788280627
 71
     1
 72
     5
  1
{\fSimSun|b0|i0|c134|p2;校对}
 73
     1
 44
1.0
1001
ACAD
1000
MTEXTBEGIN
1070
    73
1070
     1
1070
    44
1040
1.0
1070
    74
1070
     0
1000
MTEXTEND
  0
MTEXT
  5
493B
330
1F
100
AcDbEntity
  8
文字
100
AcDbMText
 10
735.8043373090262
 20
180.8367780529686
 30
0.0
 40
5.78326822033793
 41
37.16471788280627
 71
     1
 72
     5
  1
{\fSimSun|b0|i0|c134|p2;会签}
 73
     1
 44
1.0
1001
ACAD
1000
MTEXTBEGIN
1070
    73
1070
     1
1070
    44
1040
1.0
1070
    74
1070
     0
1000
MTEXTEND
  0
MTEXT
  5
493C
330
1F
100
AcDbEntity
  8
文字
100
AcDbMText
 10
735.8043373090262
 20
167.3518625852999
 30
0.0
 40
5.78326822033793
 41
37.16471788280627
 71
     1
 72
     5
  1
{\fSimSun|b0|i0|c134|p2;工艺}
 73
     1
 44
1.0
1001
ACAD
1000
MTEXTBEGIN
1070
    73
1070
     1
1070
    44
1040
1.0
1070
    74
1070
     0
1000
MTEXTEND
  0
MTEXT
  5
493D
330
1F
100
AcDbEntity
  8
文字
100
AcDbMText
 10
804.0848353906758
 20
193.6560251121064
 30
0.0
 40
5.78326822033793
 41
37.16471788280627
 71
     1
 72
     5
  1
{\fSimSun|b0|i0|c134|p2;批准}
 73
     1
 44
1.0
1001
ACAD
1000
MTEXTBEGIN
1070
    73
1070
     1
1070
    44
1040
1.0
1070
    74
1070
     0
1000
MTEXTEND
  0
MTEXT
  5
493E
330
1F
100
AcDbEntity
  8
文字
100
AcDbMText
 10
805.3173616716046
 20
166.5382111942814
 30
0.0
 40
5.78326822033793
 41
37.16471788280627
 71
     1
 72
     5
  1
{\fSimSun|b0|i0|c134|p2;日期}
 73
     1
 44
1.0
1001
ACAD
1000
MTEXTBEGIN
1070
    73
1070
     1
1070
    44
1040
1.0
1070
    74
1070
     0
1000
MTEXTEND
  0
MTEXT
  5
493F
330
1F
100
AcDbEntity
  8
文字
100
AcDbMText
 10
876.6352903383703
 20
208.3502515704069
 30
0.0
 40
5.78326822033793
 41
37.16471788280627
 71
     1
 72
     5
  1
{\fSimSun|b0|i0|c134|p2;图样标记}
 73
     1
 44
1.0
1001
ACAD
1000
MTEXTBEGIN
1070
    73
1070
     1
1070
    44
1040
1.0
1070
    74
1070
     0
1000
MTEXTEND
  0
MTEXT
  5
4940
330
1F
100
AcDbEntity
  8
文字
100
AcDbMText
 10
885.7311232409546
 20
167.8458234174862
 30
0.0
 40
5.78326822033793
 41
37.16471788280627
 71
     1
 72
     5
  1
{\fSimSun|b0|i0|c134|p2;共  页}
 73
     1
 44
1.0
1001
ACAD
1000
MTEXTBEGIN
1070
    73
1070
     1
1070
    44
1040
1.0
1070
    74
1070
     0
1000
MTEXTEND
  0
MTEXT
  5
4941
330
1F
100
AcDbEntity
  8
文字
100
AcDbMText
 10
925.0132742582325
 20
208.2983085401139
 30
0.0
 40
5.78326822033793
 41
37.16471788280627
 71
     1
 72
     5
  1
{\fSimSun|b0|i0|c134|p2;数量}
 73
     1
 44
1.0
1001
ACAD
1000
MTEXTBEGIN
1070
    73
1070
     1
1070
    44
1040
1.0
1070
    74
1070
     0
1000
MTEXTEND
  0
MTEXT
  5
4942
330
1F
100
AcDbEntity
  8
文字
100
AcDbMText
 10
949.3118584630659
 20
207.9221514503082
 30
0.0
 40
5.78326822033793
 41
37.16471788280627
 71
     1
 72
     5
  1
{\fSimSun|b0|i0|c134|p2;重量}
 73
     1
 44
1.0
1001
ACAD
1000
MTEXTBEGIN
1070
    73
1070
     1
1070
    44
1040
1.0
1070
    74
1070
     0
1000
MTEXTEND
  0
MTEXT
  5
4943
330
1F
100
AcDbEntity
  8
文字
100
AcDbMText
 10
982.5554698418978
 20
208.2230750091503
 30
0.0
 40
5.78326822033793
 41
37.16471788280627
 71
     1
 72
     5
  1
{\fSimSun|b0|i0|c134|p2;比例}
 73
     1
 44
1.0
1001
ACAD
1000
MTEXTBEGIN
1070
    73
1070
     1
1070
    44
1040
1.0
1070
    74
1070
     0
1000
MTEXTEND
  0
MTEXT
  5
4944
330
1F
100
AcDbEntity
  8
文字
100
AcDbMText
 10
966.9398502548487
 20
207.3220252406465
 30
0.0
 40
6.72147447900137
 41
133.4581782391313
 71
     1
 72
     5
  1
{\fArial|b0|i0|c0|p34;kg}
  7
样式 8
 73
     1
 44
1.0
1001
ACAD
1000
MTEXTBEGIN
1070
    73
1070
     1
1070
    44
1040
1.0
1070
    74
1070
     0
1000
MTEXTEND
  0
MTEXT
  5
4945
330
1F
100
AcDbEntity
  8
文字
100
AcDbMText
 10
954.6263145320493
 20
167.8458234174862
 30
0.0
 40
5.78326822033793
 41
37.16471788280627
 71
     1
 72
     5
  1
{\fSimSun|b0|i0|c134|p2;第  页}
 73
     1
 44
1.0
1001
ACAD
1000
MTEXTBEGIN
1070
    73
1070
     1
1070
    44
1040
1.0
1070
    74
1070
     0
1000
MTEXTEND
  0
MTEXT
  5
4946
330
1F
100
AcDbEntity
  8
文字
100
AcDbMText
 10
1010.071134382542
 20
246.0882969871219
 30
0.0
 40
8.401843098751712
 41
166.8227227989141
 71
     1
 72
     5
  1
{\fSimSun|b0|i0|c134|p2;\C1;泰捷不锈钢制品（泰国）有限公司}
  7
样式 8
 73
     1
 44
1.0
1001
ACAD
1000
MTEXTBEGIN
1070
    73
1070
     1
1070
    44
1040
1.0
1070
    74
1070
     0
1000
MTEXTEND
  0
MTEXT
  5
4947
330
1F
100
AcDbEntity
  8
文字
100
AcDbMText
 10
1022.468383709028
 20
215.8637353229847
 30
0.0
 40
10.93989986816629
 41
217.2170869777526
 71
     1
 72
     5
  1
\fSimSun|b0|i0|c134|p2;\H1x;\C1;开孔纸板（FD1065）
  7
样式 8
 73
     1
 44
1.0
1001
ACAD
1000
MTEXTBEGIN
1070
    73
1070
     1
1070
    44
1040
1.0
1070
    74
1070
     0
1000
MTEXTEND
  0
LINE
  5
4948
330
1F
100
AcDbEntity
  8
不可见
100
AcDbLine
 10
1151.534429889693
 20
822.6109384425592
 30
0.0
 11
1151.534429889693
 21
145.7046340997682
 31
0.0
  0
LINE
  5
4949
330
1F
100
AcDbEntity
  8
粗实线
100
AcDbLine
 10
1140.138700860353
 20
811.2152094132323
 30
0.0
 11
1140.138700860353
 21
157.1003631291075
 31
0.0
  0
LINE
  5
494A
330
1F
100
AcDbEntity
  8
不可见
100
AcDbLine
 10
1151.534429889693
 20
145.7046340997682
 30
0.0
 11
194.2931914251422
 21
145.7046340997682
 31
0.0
  0
LINE
  5
494B
330
1F
100
AcDbEntity
  8
粗实线
100
AcDbLine
 10
1140.138700860353
 20
157.1003631291075
 30
0.0
 11
251.2718365718307
 21
157.1003631291075
 31
0.0
  0
LINE
  5
494C
330
1F
100
AcDbEntity
  8
粗实线
100
AcDbLine
 10
1140.138700860353
 20
157.1003631291075
 30
0.0
 11
251.2718365718307
 21
157.1003631291075
 31
0.0
  0
MTEXT
  5
494D
330
1F
100
AcDbEntity
  8
文字
100
AcDbMText
 10
904.3220358213169
 20
239.3599657253606
 30
0.0
 40
10.93989986816629
 41
217.2170869777526
 71
     1
 72
     5
  1
{\fSimSun|b0|i0|c0|p2;\C1;0.3\fSimSun|b0|i0|c134|p2;mm厚白纸板}
  7
样式 8
 73
     1
 44
1.0
1001
ACAD
1000
MTEXTBEGIN
1070
    73
1070
     1
1070
    44
1040
1.0
1070
    74
1070
     0
1000
MTEXTEND
  0
MTEXT
  5
494E
330
1F
100
AcDbEntity
  8
文字
100
AcDbMText
 10
872.6218239177851
 20
256.3853219154692
 30
0.0
 40
10.93989986816629
 41
217.2170869777526
 71
     1
 72
     5
  1
{\fSimSun|b0|i0|c134|p2;材料:}
  7
样式 8
 73
     1
 44
1.0
1001
ACAD
1000
MTEXTBEGIN
1070
    73
1070
     1
1070
    44
1040
1.0
1070
    74
1070
     0
1000
MTEXTEND
  0
MTEXT
  5
494F
330
1F
100
AcDbEntity
  8
文字
100
AcDbMText
 10
804.0848353906758
 20
207.3665617574556
 30
0.0
 40
5.78326822033793
 41
37.16471788280627
 71
     1
 72
     5
  1
{\fSimSun|b0|i0|c134|p2;审核}
 73
     1
 44
1.0
1001
ACAD
1000
MTEXTBEGIN
1070
    73
1070
     1
1070
    44
1040
1.0
1070
    74
1070
     0
1000
MTEXTEND
  0
LINE
  5
4950
330
1F
100
AcDbEntity
  8
不可见
100
AcDbLine
 10
194.2931914251422
 20
822.6109384425592
 30
0.0
 11
1151.534429889693
 21
822.6109384425592
 31
0.0
  0
LINE
  5
4951
330
1F
100
AcDbEntity
  8
粗实线
100
AcDbLine
 10
251.2718365718307
 20
811.2152094132172
 30
0.0
 11
1140.138700860353
 21
811.2152094132172
 31
0.0
  0
LINE
  5
4952
330
1F
100
AcDbEntity
  8
不可见
100
AcDbLine
 10
194.2931914251422
 20
145.7046340997682
 30
0.0
 11
194.2931914251422
 21
822.6109384425592
 31
0.0
  0
LINE
  5
4953
330
1F
100
AcDbEntity
  8
粗实线
100
AcDbLine
 10
251.2718365718307
 20
157.1003631291075
 30
0.0
 11
251.2718365718307
 21
811.2152094132172
 31
0.0
  0
LINE
  5
4954
330
1F
100
AcDbEntity
  8
粗实线
100
AcDbLine
 10
251.2718365718307
 20
787.5798303825432
 30
0.0
 11
363.641712989457
 21
787.5798303825432
 31
0.0
  0
LINE
  5
4955
330
1F
100
AcDbEntity
  8
粗实线
100
AcDbLine
 10
363.641712989457
 20
787.5798303825432
 30
0.0
 11
363.641712989457
 21
811.2152094132172
 31
0.0
  0
LINE
  5
4956
330
1F
100
AcDbEntity
  8
图框线
100
AcDbLine
 10
251.2718365718307
 20
175.333529576048
 30
0.0
 11
194.2931914251422
 21
175.333529576048
 31
0.0
  0
LINE
  5
4957
330
1F
100
AcDbEntity
  8
图框线
100
AcDbLine
 10
251.2718365718307
 20
189.008404411266
 30
0.0
 11
194.2931914251422
 21
189.008404411266
 31
0.0
  0
LINE
  5
4958
330
1F
100
AcDbEntity
  8
图框线
100
AcDbLine
 10
251.2718365718307
 20
207.2415708581994
 30
0.0
 11
194.2931914251422
 21
207.2415708581994
 31
0.0
  0
LINE
  5
4959
330
1F
100
AcDbEntity
  8
图框线
100
AcDbLine
 10
251.2718365718307
 20
220.9164456934096
 30
0.0
 11
194.2931914251422
 21
220.9164456934096
 31
0.0
  0
LINE
  5
495A
330
1F
100
AcDbEntity
  8
图框线
100
AcDbLine
 10
251.2718365718307
 20
239.1496121403518
 30
0.0
 11
194.2931914251422
 21
239.1496121403518
 31
0.0
  0
LINE
  5
495B
330
1F
100
AcDbEntity
  8
图框线
100
AcDbLine
 10
251.2718365718307
 20
252.8244869755549
 30
0.0
 11
194.2931914251422
 21
252.8244869755549
 31
0.0
  0
LINE
  5
495C
330
1F
100
AcDbEntity
  8
图框线
100
AcDbLine
 10
251.2718365718307
 20
271.0576534225102
 30
0.0
 11
194.2931914251422
 21
271.0576534225102
 31
0.0
  0
LINE
  5
495D
330
1F
100
AcDbEntity
  8
图框线
100
AcDbLine
 10
251.2718365718307
 20
284.7325282577125
 30
0.0
 11
194.2931914251422
 21
284.7325282577125
 31
0.0
  0
LINE
  5
495E
330
1F
100
AcDbEntity
  8
图框线
100
AcDbLine
 10
251.2718365718307
 20
302.9656947046688
 30
0.0
 11
194.2931914251422
 21
302.9656947046688
 31
0.0
  0
LINE
  5
495F
330
1F
100
AcDbEntity
  8
图框线
100
AcDbLine
 10
251.2718365718307
 20
316.6405695398823
 30
0.0
 11
194.2931914251422
 21
316.6405695398823
 31
0.0
  0
LINE
  5
4960
330
1F
100
AcDbEntity
  8
图框线
100
AcDbLine
 10
251.2718365718307
 20
334.8737359868044
 30
0.0
 11
194.2931914251422
 21
334.8737359868044
 31
0.0
  0
LINE
  5
4961
330
1F
100
AcDbEntity
  8
图框线
100
AcDbLine
 10
251.2718365718307
 20
348.5486108220154
 30
0.0
 11
194.2931914251422
 21
348.5486108220154
 31
0.0
  0
LINE
  5
4962
330
1F
100
AcDbEntity
  8
图框线
100
AcDbLine
 10
251.2718365718307
 20
362.2234856572185
 30
0.0
 11
194.2931914251422
 21
362.2234856572185
 31
0.0
  0
LINE
  5
4963
330
1F
100
AcDbEntity
  8
图框线
100
AcDbLine
 10
251.2718365718307
 20
157.1003631291075
 30
0.0
 11
194.2931914251422
 21
157.1003631291075
 31
0.0
  0
MTEXT
  5
4964
102
{ACAD_XDICTIONARY
360
555F
102
}
330
1F
100
AcDbEntity
  8
文字
100
AcDbMText
 10
200.4002280358452
 20
185.2388702311601
 30
0.0
 40
4.746321140720063
 41
120.5785052801427
 71
     1
 72
     5
  1
\U+65E5   
 73
     1
 44
1.0
1001
ACAD
1000
MTEXTBEGIN
1070
    73
1070
     1
1070
    44
1040
1.0
1070
    74
1070
     0
1000
MTEXTEND
  0
MTEXT
  5
4965
102
{ACAD_XDICTIONARY
360
5561
102
}
330
1F
100
AcDbEntity
  8
文字
100
AcDbMText
 10
200.4002280358452
 20
217.1294360207195
 30
0.0
 40
4.746321140720063
 41
120.5785052801427
 71
     1
 72
     5
  1
\U+7B7E   
 73
     1
 44
1.0
1001
ACAD
1000
MTEXTBEGIN
1070
    73
1070
     1
1070
    44
1040
1.0
1070
    74
1070
     0
1000
MTEXTEND
  0
MTEXT
  5
4966
102
{ACAD_XDICTIONARY
360
5563
102
}
330
1F
100
AcDbEntity
  8
文字
100
AcDbMText
 10
200.4002280358452
 20
249.9114593421826
 30
0.0
 40
4.746321140720063
 41
120.5785052801427
 71
     1
 72
     5
  1
\U+5E95
 73
     1
 44
1.0
1001
ACAD
1000
MTEXTBEGIN
1070
    73
1070
     1
1070
    44
1040
1.0
1070
    74
1070
     0
1000
MTEXTEND
  0
MTEXT
  5
4967
102
{ACAD_XDICTIONARY
360
5565
102
}
330
1F
100
AcDbEntity
  8
文字
100
AcDbMText
 10
200.4002280358452
 20
280.8929652576598
 30
0.0
 40
4.746321140720063
 41
120.5785052801427
 71
     1
 72
     5
  1
\U+65E7
 73
     1
 44
1.0
1001
ACAD
1000
MTEXTBEGIN
1070
    73
1070
     1
1070
    44
1040
1.0
1070
    74
1070
     0
1000
MTEXTEND
  0
MTEXT
  5
4968
102
{ACAD_XDICTIONARY
360
5567
102
}
330
1F
100
AcDbEntity
  8
文字
100
AcDbMText
 10
199.5428835638914
 20
346.2955919477317
 30
0.0
 40
4.746321140720063
 41
120.5785052801427
 71
     1
 72
     5
  1
\U+63CF   
 73
     1
 44
1.0
1001
ACAD
1000
MTEXTBEGIN
1070
    73
1070
     1
1070
    44
1040
1.0
1070
    74
1070
     0
1000
MTEXTEND
  0
MTEXT
  5
4969
102
{ACAD_XDICTIONARY
360
5569
102
}
330
1F
100
AcDbEntity
  8
文字
100
AcDbMText
 10
197.2559011702791
 20
360.2031760029057
 30
0.0
 40
4.746321140720063
 41
120.5785052801427
 71
     1
 72
     5
  1
\ftxt.shx,gbcbig.shx;\H1x;\C1;\U+501F\U+FF08\U+901A\U+FF09\U+7528\U+4EF6\U+767B\U+8BB0
 73
     1
 44
1.0
1001
ACAD
1000
MTEXTBEGIN
1070
    73
1070
     1
1070
    44
1040
1.0
1070
    74
1070
     0
1000
MTEXTEND
  0
MTEXT
  5
496A
102
{ACAD_XDICTIONARY
360
556B
102
}
330
1F
100
AcDbEntity
  8
文字
100
AcDbMText
 10
240.0011502699953
 20
346.2955919477317
 30
0.0
 40
4.746321140720063
 41
120.5785052801427
 71
     1
 72
     5
  1
\U+56FE   
 73
     1
 44
1.0
1001
ACAD
1000
MTEXTBEGIN
1070
    73
1070
     1
1070
    44
1040
1.0
1070
    74
1070
     0
1000
MTEXTEND
  0
MTEXT
  5
496B
102
{ACAD_XDICTIONARY
360
556D
102
}
330
1F
100
AcDbEntity
  8
文字
100
AcDbMText
 10
199.5428835638914
 20
314.1166996709202
 30
0.0
 40
4.746321140720063
 41
120.5785052801427
 71
     1
 72
     5
  1
\U+63CF   
 73
     1
 44
1.0
1001
ACAD
1000
MTEXTBEGIN
1070
    73
1070
     1
1070
    44
1040
1.0
1070
    74
1070
     0
1000
MTEXTEND
  0
MTEXT
  5
496C
102
{ACAD_XDICTIONARY
360
556F
102
}
330
1F
100
AcDbEntity
  8
文字
100
AcDbMText
 10
240.0011502699953
 20
314.1166996709202
 30
0.0
 40
4.746321140720063
 41
120.5785052801427
 71
     1
 72
     5
  1
\U+6821   
 73
     1
 44
1.0
1001
ACAD
1000
MTEXTBEGIN
1070
    73
1070
     1
1070
    44
1040
1.0
1070
    74
1070
     0
1000
MTEXTEND
  0
MTEXT
  5
496D
102
{ACAD_XDICTIONARY
360
5571
102
}
330
1F
100
AcDbEntity
  8
文字
100
AcDbMText
 10
209.2005081037704
 20
280.9908739082501
 30
0.0
 40
4.746321140720063
 41
120.5785052801427
 71
     1
 72
     5
  1
\U+5E95
 73
     1
 44
1.0
1001
ACAD
1000
MTEXTBEGIN
1070
    73
1070
     1
1070
    44
1040
1.0
1070
    74
1070
     0
1000
MTEXTEND
  0
MTEXT
  5
496E
102
{ACAD_XDICTIONARY
360
5573
102
}
330
1F
100
AcDbEntity
  8
文字
100
AcDbMText
 10
220.3393175167084
 20
280.8929652576598
 30
0.0
 40
4.746321140720063
 41
120.5785052801427
 71
     1
 72
     5
  1
\U+56FE
 73
     1
 44
1.0
1001
ACAD
1000
MTEXTBEGIN
1070
    73
1070
     1
1070
    44
1040
1.0
1070
    74
1070
     0
1000
MTEXTEND
  0
MTEXT
  5
496F
102
{ACAD_XDICTIONARY
360
5575
102
}
330
1F
100
AcDbEntity
  8
文字
100
AcDbMText
 10
230.7060171178019
 20
280.8929652576598
 30
0.0
 40
4.746321140720063
 41
120.5785052801427
 71
     1
 72
     5
  1
\U+603B
 73
     1
 44
1.0
1001
ACAD
1000
MTEXTBEGIN
1070
    73
1070
     1
1070
    44
1040
1.0
1070
    74
1070
     0
1000
MTEXTEND
  0
MTEXT
  5
4970
102
{ACAD_XDICTIONARY
360
5577
102
}
330
1F
100
AcDbEntity
  8
文字
100
AcDbMText
 10
241.0434608129432
 20
280.8929652576598
 30
0.0
 40
4.746321140720063
 41
120.5785052801427
 71
     1
 72
     5
  1
\U+53F7
 73
     1
 44
1.0
1001
ACAD
1000
MTEXTBEGIN
1070
    73
1070
     1
1070
    44
1040
1.0
1070
    74
1070
     0
1000
MTEXTEND
  0
MTEXT
  5
4971
102
{ACAD_XDICTIONARY
360
5579
102
}
330
1F
100
AcDbEntity
  8
文字
100
AcDbMText
 10
213.3479270325775
 20
249.9114593421826
 30
0.0
 40
4.746321140720063
 41
120.5785052801427
 71
     1
 72
     5
  1
\U+56FE
 73
     1
 44
1.0
1001
ACAD
1000
MTEXTBEGIN
1070
    73
1070
     1
1070
    44
1040
1.0
1070
    74
1070
     0
1000
MTEXTEND
  0
MTEXT
  5
4972
102
{ACAD_XDICTIONARY
360
557B
102
}
330
1F
100
AcDbEntity
  8
文字
100
AcDbMText
 10
226.0686036265109
 20
249.9114593421826
 30
0.0
 40
4.746321140720063
 41
120.5785052801427
 71
     1
 72
     5
  1
\U+603B
 73
     1
 44
1.0
1001
ACAD
1000
MTEXTBEGIN
1070
    73
1070
     1
1070
    44
1040
1.0
1070
    74
1070
     0
1000
MTEXTEND
  0
MTEXT
  5
4973
102
{ACAD_XDICTIONARY
360
557D
102
}
330
1F
100
AcDbEntity
  8
文字
100
AcDbMText
 10
239.7869794292125
 20
249.9114593421826
 30
0.0
 40
4.746321140720063
 41
120.5785052801427
 71
     1
 72
     5
  1
\U+53F7
 73
     1
 44
1.0
1001
ACAD
1000
MTEXTBEGIN
1070
    73
1070
     1
1070
    44
1040
1.0
1070
    74
1070
     0
1000
MTEXTEND
  0
MTEXT
  5
4974
102
{ACAD_XDICTIONARY
360
557F
102
}
330
1F
100
AcDbEntity
  8
文字
100
AcDbMText
 10
239.8888007291832
 20
217.1294360207195
 30
0.0
 40
4.746321140720063
 41
120.5785052801427
 71
     1
 72
     5
  1
\U+5B57  
 73
     1
 44
1.0
1001
ACAD
1000
MTEXTBEGIN
1070
    73
1070
     1
1070
    44
1040
1.0
1070
    74
1070
     0
1000
MTEXTEND
  0
MTEXT
  5
4975
102
{ACAD_XDICTIONARY
360
5581
102
}
330
1F
100
AcDbEntity
  8
文字
100
AcDbMText
 10
239.0680504913612
 20
185.2388702311601
 30
0.0
 40
4.746321140720063
 41
120.5785052801427
 71
     1
 72
     5
  1
\U+671F  
 73
     1
 44
1.0
1001
ACAD
1000
MTEXTBEGIN
1070
    73
1070
     1
1070
    44
1040
1.0
1070
    74
1070
     0
1000
MTEXTEND
  0
MTEXT
  5
4976
330
1F
100
AcDbEntity
  8
文字
100
AcDbMText
 10
1055.801176565021
 20
179.4030609327815
 30
0.0
 40
14.22186982861618
 41
282.3822130710785
 71
     1
 72
     5
  1
\fNSimSun|b0|i0|c134|p49;\H1x;\C1;1b20
  7
样式 8
 73
     1
 44
1.0
1001
ACAD
1000
MTEXTBEGIN
1070
    73
1070
     1
1070
    44
1040
1.0
1070
    74
1070
     0
1000
MTEXTEND
  0
LINE
  5
4977
330
1F
100
AcDbEntity
  8
粗实线
100
AcDbLine
 10
729.8924558041209
 20
261.9410701990373
 30
0.0
 11
729.8924558041209
 21
157.1003631291075
 31
0.0
  0
MTEXT
  5
4978
330
1F
100
AcDbEntity
  8
文字
100
AcDbMText
 10
979.3884913413162
 20
286.4770936853607
 30
0.0
 40
10.93989986816629
 41
217.2170869777526
 71
     1
 72
     5
  1
{\fSimSun|b0|i0|c134|p2;\C1;注：图纸上标注尺寸不用印刷}
  7
样式 8
 73
     1
 44
1.0
1001
ACAD
1000
MTEXTBEGIN
1070
    73
1070
     1
1070
    44
1040
1.0
1070
    74
1070
     0
1000
MTEXTEND
  0
CIRCLE
  5
504F
330
1F
100
AcDbEntity
  8
虚线
 48
2.0
100
AcDbCircle
 10
627.8718004036709
 20
480.4778550164846
 30
0.0
 40
192.5
  0
CIRCLE
  5
5050
330
1F
100
AcDbEntity
  8
粗实线
100
AcDbCircle
 10
627.8718004036709
 20
480.4778550164846
 30
0.0
 40
198.85
  0
CIRCLE
  5
5051
330
1F
100
AcDbEntity
  8
虚线
 48
2.0
100
AcDbCircle
 10
627.8718004036709
 20
480.4778550164846
 30
0.0
 40
186.15
  0
DIMENSION
  5
5052
330
1F
100
AcDbEntity
  8
标注
100
AcDbDimension
  2
*D2
 10
435.3718004036709
 20
733.0702786802717
 30
0.0
 11
627.8718108416535
 21
733.0702786802717
 31
0.0
 70
   160
  1
{\fArial|b0|i0|c0|p34;<>}
 71
     5
 42
385.0
  3
英寸
100
AcDbAlignedDimension
 13
820.3718004036709
 23
672.3713227658972
 33
0.0
 14
435.3718004036709
 24
675.5148516363244
 34
0.0
100
AcDbRotatedDimension
1001
ACAD
1000
DSTYLE
1002
{
1070
    41
1040
5.0
1070
   140
1040
10.0
1070
   371
1070
     0
1002
}
  0
DIMENSION
  5
505F
330
1F
100
AcDbEntity
  8
标注
100
AcDbDimension
  2
*D1
 10
429.0218004036709
 20
755.0702786802717
 30
0.0
 11
627.8718004036711
 21
755.0702786802717
 31
0.0
 70
   160
  1
{\fArial|b0|i0|c0|p34;<>}
 71
     5
 42
397.6999999999998
  3
英寸
100
AcDbAlignedDimension
 13
826.7218004036708
 23
669.6359666190278
 33
0.0
 14
429.0218004036709
 24
673.1561108410451
 34
0.0
100
AcDbRotatedDimension
1001
ACAD
1000
DSTYLE
1002
{
1070
    41
1040
5.0
1070
   140
1040
10.0
1070
   371
1070
     0
1002
}
  0
DIMENSION
  5
506C
330
1F
100
AcDbEntity
  8
标注
100
AcDbDimension
  2
*D3
 10
441.7218004036708
 20
710.8390423111557
 30
0.0
 11
627.8718108416553
 21
710.8390423111557
 31
0.0
 70
   160
  1
{\fArial|b0|i0|c0|p34;<>}
 71
     5
 42
372.3000000000002
  3
英寸
100
AcDbAlignedDimension
 13
814.0218004036709
 23
672.0114074834144
 33
0.0
 14
441.7218004036708
 24
676.1045368351442
 34
0.0
100
AcDbRotatedDimension
1001
ACAD
1000
DSTYLE
1002
{
1070
    41
1040
5.0
1070
   140
1040
10.0
1070
   371
1070
     0
1002
}
  0
HATCH
  5
50CD
330
1F
100
AcDbEntity
  8
剖切线
100
AcDbHatch
 10
0.0
 20
0.0
 30
0.0
210
0.0
220
0.0
230
1.0
  2
ANSI37
 70
     0
 71
     0
 91
        2
 92
        7
 72
     0
 73
     1
 93
        6
 10
663.9100023680112
 20
600.4285673872509
 10
662.4066216320134
 20
600.4285673872509
 10
662.4066216320134
 20
584.5453925159599
 10
661.2501749120056
 20
584.5453925159599
 10
661.2501749120056
 20
583.3889457959521
 10
663.9100023680112
 20
583.3889457959521
 97
        0
 92
        7
 72
     0
 73
     1
 93
        6
 10
672.8146421120036
 20
600.4285673872509
 10
671.3112613760167
 20
600.4285673872509
 10
671.3112613760167
 20
583.3889457959521
 10
673.9710888320042
 20
583.3889457959521
 10
673.9710888320042
 20
584.5453925159599
 10
672.8146421120036
 20
584.5453925159599
 97
        0
 75
     0
 76
     1
 52
0.0
 41
0.2312893440000001
 77
     0
 78
     2
 53
45.0
 43
2112.385475031424
 44
-2515.978661044639
 45
-0.5192593867978405
 46
0.5192593868002751
 79
     0
 53
135.0
 43
2112.385475031424
 44
-2515.978661044639
 45
-0.5192593867978405
 46
-0.5192593868002751
 79
     0
 47
0.0875911827022286
 98
        2
 10
663.4467893216132
 20
594.9431039783303
 10
672.0633269137979
 20
595.6521653017116
  0
HATCH
  5
50CE
330
1F
100
AcDbEntity
  8
剖切线
100
AcDbHatch
 10
0.0
 20
0.0
 30
0.0
210
0.0
220
0.0
230
1.0
  2
ANSI31
 70
     0
 71
     1
 91
        1
 92
        5
 93
        8
 72
     1
 10
662.4066216320134
 20
584.5453925159599
 11
662.4066216320134
 21
600.4285673872218
 72
     1
 10
662.4066216320134
 20
600.4285673872218
 11
672.8146421120072
 21
600.4285673872218
 72
     1
 10
672.8146421120072
 20
600.4285673872218
 11
672.8146421120072
 21
584.5453925159599
 72
     1
 10
672.8146421120072
 20
584.5453925159599
 11
702.123653092065
 21
584.5453925159599
 72
     1
 10
702.123653092065
 20
584.5453925159599
 11
702.123653092065
 21
613.4565605159512
 72
     1
 10
702.123653092065
 20
613.4565605159512
 11
617.3237407845954
 21
613.4565605159514
 72
     4
 94
        3
 73
     0
 74
     0
 95
       11
 96
        7
 40
0.0
 40
0.0
 40
0.0
 40
0.0
 40
8.493601440338274
 40
17.16053511810738
 40
25.09564800080217
 40
30.56472198768459
 40
30.56472198768459
 40
30.56472198768459
 40
30.56472198768459
 10
617.3237407845954
 20
613.4565605159514
 10
619.0209110130345
 20
610.8359394306217
 10
622.4498862847276
 20
605.541217223329
 10
615.8090519332067
 20
597.6167985268605
 10
620.9957568351569
 20
590.1924415943897
 10
618.3878137931905
 20
586.1817885501364
 10
617.3237407845954
 20
584.5453925159599
 72
     1
 10
617.3237407845954
 20
584.5453925159601
 11
662.4066216320134
 21
584.5453925159599
 97
        8
330
50EA
330
50E0
330
50D1
330
50D4
330
50D3
330
5100
330
50CF
330
50EC
 75
     0
 76
     1
 52
0.0
 41
0.9637056000000001
 77
     0
 78
     1
 53
45.0
 43
-9024.637684161474
 44
22160.95482824481
 45
-2.163580778327175
 46
2.16358077832474
 79
     0
 47
0.514725256801631
 98
        1
 10
636.3098009597161
 20
593.3720776149566
  0
LINE
  5
50CF
102
{ACAD_REACTORS
330
50CE
102
}
330
1F
100
AcDbEntity
  8
粗实线
100
AcDbLine
 10
617.3237407845954
 20
584.5453925159599
 30
0.0
 11
662.4066216320134
 21
584.5453925159599
 31
0.0
  0
HATCH
  5
50D0
330
1F
100
AcDbEntity
  8
剖切线
100
AcDbHatch
 10
0.0
 20
0.0
 30
0.0
210
0.0
220
0.0
230
1.0
  2
ANSI31
 70
     0
 71
     0
 91
        1
 92
        7
 72
     1
 73
     1
 93
        9
 10
690.3646279038621
 20
584.5453925159599
 42
0.0
 10
688.6724986327644
 20
584.5453925159599
 42
0.0
 10
688.6724986327644
 20
583.4764823879522
 42
0.0
 10
705.3328104519387
 20
583.4746085159495
 42
-0.4014906669060268
 10
707.6060607600884
 20
581.2984447678754
 42
0.0
 10
709.118803930065
 20
546.6938894806953
 42
0.0
 10
710.1810855434123
 20
546.8690311280442
 42
0.0
 10
708.675825610986
 20
581.3451517099747
 42
0.4014906669060268
 10
705.3328104519387
 20
584.5453925159599
 42
0.0
 97
        0
 75
     0
 76
     1
 52
90.0
 41
0.6692400000000003
 77
     0
 78
     1
 53
135.0
 43
-13503.13286760806
 44
22942.2345196957
 45
-1.502486651615756
 46
-1.50248665161819
 79
     0
 47
0.1745883849316779
 98
        1
 10
699.7859929575242
 20
584.2761314749586
  0
LINE
  5
50D1
102
{ACAD_REACTORS
330
50CE
102
}
330
1F
100
AcDbEntity
  8
粗实线
100
AcDbLine
 10
672.8146421120072
 20
584.5453925159599
 30
0.0
 11
702.123653092065
 21
584.5453925159599
 31
0.0
  0
LINE
  5
50D2
330
1F
100
AcDbEntity
  8
粗实线
100
AcDbLine
 10
671.3112613760167
 20
583.3889457959521
 30
0.0
 11
673.9710888320042
 21
583.3889457959521
 31
0.0
  0
LINE
  5
50D3
102
{ACAD_REACTORS
330
50CE
102
}
330
1F
100
AcDbEntity
  8
粗实线
100
AcDbLine
 10
617.3237407845954
 20
613.4565605159514
 30
0.0
 11
702.123653092065
 21
613.4565605159514
 31
0.0
  0
LINE
  5
50D4
102
{ACAD_REACTORS
330
50CE
102
}
330
1F
100
AcDbEntity
  8
粗实线
100
AcDbLine
 10
702.123653092065
 20
613.4565605159514
 30
0.0
 11
702.123653092065
 21
584.5453925159599
 31
0.0
  0
HATCH
  5
50D5
330
1F
100
AcDbEntity
  8
剖切线
100
AcDbHatch
 10
0.0
 20
0.0
 30
0.0
210
0.0
220
0.0
230
1.0
  2
ANSI31
 70
     0
 71
     0
 91
        2
 92
        7
 72
     0
 73
     1
 93
        6
 10
661.2212637440024
 20
574.6257868800094
 10
661.2212637440024
 20
570.0000000000291
 10
662.6957333120117
 20
570.0000000000291
 10
662.6957333120117
 20
571.3877360640253
 10
667.6106318720085
 20
571.3877360640253
 10
667.6106318720085
 20
574.6257868800094
 97
        0
 92
        7
 72
     0
 73
     1
 93
        6
 10
667.6106318720085
 20
574.6257868800094
 10
667.6106318720085
 20
571.3877360640253
 10
672.5255304320016
 20
571.3877360640253
 10
672.5255304320016
 20
570.0000000000291
 10
674.0
 20
570.0000000000291
 10
674.0
 20
574.6257868800094
 97
        0
 75
     0
 76
     1
 52
90.0
 41
0.5782233600000002
 77
     0
 78
     1
 53
135.0
 43
3484.082621233734
 44
2547.416619319345
 45
-1.298148466995818
 46
-1.298148466995818
 79
     0
 47
0.1137768334985027
 98
        2
 10
663.1886935865296
 20
574.4412139138803
 10
669.6359598944618
 20
573.782834098958
  0
LINE
  5
50D6
330
1F
100
AcDbEntity
  8
粗实线
 48
0.1
100
AcDbLine
 10
674.0
 20
570.0
 30
0.0
 11
661.2212637440024
 21
570.0
 31
0.0
  0
LINE
  5
50D7
330
1F
100
AcDbEntity
  8
粗实线
 48
0.1
100
AcDbLine
 10
672.5255304320089
 20
571.3877360639962
 30
0.0
 11
662.6957333120117
 21
571.3877360639962
 31
0.0
  0
LINE
  5
50D8
330
1F
100
AcDbEntity
  8
粗实线
 48
0.1
100
AcDbLine
 10
674.0
 20
574.6257868800094
 30
0.0
 11
661.2212637440024
 21
574.6257868800094
 31
0.0
  0
LINE
  5
50D9
330
1F
100
AcDbEntity
  8
粗实线
 48
0.1
100
AcDbLine
 10
670.5017486720135
 20
600.0676147199992
 30
0.0
 11
664.7195150720035
 21
600.0676147199992
 31
0.0
  0
LINE
  5
50DA
330
1F
100
AcDbEntity
  8
粗实线
 48
0.1
100
AcDbLine
 10
671.0799720320101
 20
599.4893913600098
 30
0.0
 11
664.1412917120142
 21
599.4893913600098
 31
0.0
  0
LINE
  5
50DB
330
1F
100
AcDbEntity
  8
中心线
 48
0.1
100
AcDbLine
 10
667.6106318720085
 20
602.0726793359208
 30
0.0
 11
667.6106318720085
 21
567.3467282246638
 31
0.0
  0
LINE
  5
50DC
330
1F
100
AcDbEntity
  8
粗实线
 48
0.1
100
AcDbLine
 10
664.1412917120142
 20
599.4893913600098
 30
0.0
 11
664.1412917120142
 21
574.6257868800094
 31
0.0
  0
LINE
  5
50DD
330
1F
100
AcDbEntity
  8
细实线
 48
0.1
100
AcDbLine
 10
664.7195150720035
 20
600.0676147199992
 30
0.0
 11
664.7195150720035
 21
574.6257868800094
 31
0.0
  0
LINE
  5
50DE
330
1F
100
AcDbEntity
  8
粗实线
 48
0.1
100
AcDbLine
 10
671.0799720320101
 20
599.4893913600098
 30
0.0
 11
671.0799720320101
 21
574.6257868800094
 31
0.0
  0
LINE
  5
50DF
330
1F
100
AcDbEntity
  8
粗实线
 48
0.1
100
AcDbLine
 10
671.3112613760167
 20
600.4285673872218
 30
0.0
 11
671.3112613760167
 21
583.3889457959521
 31
0.0
  0
LINE
  5
50E0
102
{ACAD_REACTORS
330
50CE
102
}
330
1F
100
AcDbEntity
  8
粗实线
 48
0.1
100
AcDbLine
 10
672.8146421120072
 20
600.4285673872218
 30
0.0
 11
672.8146421120072
 21
584.5453925159599
 31
0.0
  0
LINE
  5
50E1
330
1F
100
AcDbEntity
  8
粗实线
 48
0.1
100
AcDbLine
 10
673.9710888320042
 20
584.5453925159599
 30
0.0
 11
673.9710888320042
 21
583.3889457959521
 31
0.0
  0
LINE
  5
50E2
330
1F
100
AcDbEntity
  8
细实线
 48
0.1
100
AcDbLine
 10
670.5017486720135
 20
600.0676147199992
 30
0.0
 11
670.5017486720135
 21
574.6257868800094
 31
0.0
  0
LINE
  5
50E3
330
1F
100
AcDbEntity
  8
粗实线
 48
0.1
100
AcDbLine
 10
662.6957333120117
 20
571.3877360639962
 30
0.0
 11
662.6957333120117
 21
570.0
 31
0.0
  0
LINE
  5
50E4
330
1F
100
AcDbEntity
  8
粗实线
 48
0.1
100
AcDbLine
 10
672.5255304320089
 20
571.3877360639962
 30
0.0
 11
672.5255304320089
 21
570.0
 31
0.0
  0
LINE
  5
50E5
330
1F
100
AcDbEntity
  8
粗实线
 48
0.1
100
AcDbLine
 10
661.2212637440024
 20
574.6257868800094
 30
0.0
 11
661.2212637440024
 21
570.0
 31
0.0
  0
LINE
  5
50E6
330
1F
100
AcDbEntity
  8
粗实线
 48
0.1
100
AcDbLine
 10
674.0
 20
574.6257868800094
 30
0.0
 11
674.0
 21
570.0
 31
0.0
  0
LINE
  5
50E7
330
1F
100
AcDbEntity
  8
粗实线
 48
0.1
100
AcDbLine
 10
664.7195150720035
 20
600.0676147199992
 30
0.0
 11
664.1412917120142
 21
599.4893913600098
 31
0.0
  0
LINE
  5
50E8
330
1F
100
AcDbEntity
  8
粗实线
 48
0.1
100
AcDbLine
 10
670.5017486720135
 20
600.0676147199992
 30
0.0
 11
671.0799720320101
 21
599.4893913600098
 31
0.0
  0
LINE
  5
50E9
330
1F
100
AcDbEntity
  8
粗实线
100
AcDbLine
 10
663.9100023680112
 20
583.3889457959521
 30
0.0
 11
661.2501749120056
 21
583.3889457959521
 31
0.0
  0
LINE
  5
50EA
102
{ACAD_REACTORS
330
50CE
102
}
330
1F
100
AcDbEntity
  8
粗实线
 48
0.1
100
AcDbLine
 10
662.4066216320134
 20
600.4285673872218
 30
0.0
 11
672.8146421120072
 21
600.4285673872218
 31
0.0
  0
LINE
  5
50EB
330
1F
100
AcDbEntity
  8
粗实线
 48
0.1
100
AcDbLine
 10
663.9100023680112
 20
600.4285673872218
 30
0.0
 11
663.9100023680112
 21
583.3889457959521
 31
0.0
  0
LINE
  5
50EC
102
{ACAD_REACTORS
330
50CE
102
}
330
1F
100
AcDbEntity
  8
粗实线
 48
0.1
100
AcDbLine
 10
662.4066216320134
 20
600.4285673872218
 30
0.0
 11
662.4066216320134
 21
584.5453925159599
 31
0.0
  0
LINE
  5
50ED
330
1F
100
AcDbEntity
  8
粗实线
 48
0.1
100
AcDbLine
 10
661.2501749120056
 20
584.5453925159599
 30
0.0
 11
661.2501749120056
 21
583.3889457959521
 31
0.0
  0
LINE
  5
50EE
330
1F
100
AcDbEntity
  8
中心线
 48
0.1
100
AcDbLine
 10
667.6106318720085
 20
567.9908612357321
 30
0.0
 11
667.6106318720085
 21
590.3931686815849
 31
0.0
  0
HATCH
  5
50EF
330
1F
100
AcDbEntity
  8
剖切线
100
AcDbHatch
 10
0.0
 20
0.0
 30
0.0
210
0.0
220
0.0
230
1.0
  2
ANSI31
 70
     0
 71
     0
 91
        1
 92
        7
 72
     1
 73
     1
 93
        8
 10
646.228680224478
 20
577.8970912409277
 42
-0.3003703345698272
 10
642.1876711766126
 20
581.0048851268657
 42
0.0
 10
641.0384072859015
 20
584.3425898195928
 42
0.0
 10
638.8515235750055
 20
583.5895853708934
 42
0.0
 10
640.0007874657167
 20
580.2518806781663
 42
0.3003703345697881
 10
646.062301037502
 20
575.590189849252
 42
0.0070565129482686
 10
657.2065870637161
 20
574.9443823781257
 42
0.0
 10
657.2469666866346
 20
577.2577294259535
 42
-0.0070177978545288
 97
        0
 75
     0
 76
     1
 52
-0.9999999998692691
 41
0.5782233599999999
 77
     0
 78
     1
 53
43.99999999980776
 43
2592.108641942687
 44
-2387.043415113097
 45
-1.275294938035421
 46
1.320606567358981
 79
     0
 47
0.1104702278856199
 98
        1
 10
650.5292540180525
 20
577.1918789820484
  0
LINE
  5
50F0
330
1F
100
AcDbEntity
  8
粗实线
100
AcDbLine
 10
657.2065870637161
 20
574.9443823781184
 30
0.0
 11
657.2469666866346
 21
577.2577294259317
 31
0.0
  0
LINE
  5
50F1
330
1F
100
AcDbEntity
  8
粗实线
100
AcDbLine
 10
678.0194576398425
 20
574.5810923708704
 30
0.0
 11
678.0598372627682
 21
576.894439418691
 31
0.0
  0
ARC
  5
50F2
330
1F
100
AcDbEntity
  8
粗实线
100
AcDbCircle
 10
674.513142009735
 20
970.0703278266155
 30
0.0
 40
393.1918848000001
100
AcDbArc
 50
265.8748354479635
 51
268.4884423862466
  0
ARC
  5
50F3
330
1F
100
AcDbEntity
  8
粗实线
100
AcDbCircle
 10
674.513142009735
 20
970.0703278266155
 30
0.0
 40
393.1918848000001
100
AcDbArc
 50
269.4997133532673
 51
272.0817910569185
  0
ARC
  5
50F4
330
1F
100
AcDbEntity
  8
粗实线
100
AcDbCircle
 10
646.561438598419
 20
582.5108940242862
 30
0.0
 40
4.625786880000001
100
AcDbArc
 50
198.9999999997989
 51
265.8748354479625
  0
ARC
  5
50F5
330
1F
100
AcDbEntity
  8
粗实线
100
AcDbCircle
 10
646.561438598419
 20
582.5108940242862
 30
0.0
 40
6.938680320000004
100
AcDbArc
 50
198.9999999997996
 51
265.8748354479625
  0
ARC
  5
50F6
330
1F
100
AcDbEntity
  8
粗实线
100
AcDbCircle
 10
674.513142009735
 20
970.0703278266155
 30
0.0
 40
395.5047782400001
100
AcDbArc
 50
265.8748354479635
 51
272.0817910569185
  0
LINE
  5
50F7
330
1F
100
AcDbEntity
  8
粗实线
100
AcDbLine
 10
641.0384072859015
 20
584.3425898195928
 30
0.0
 11
642.1876711766126
 21
581.0048851268657
 31
0.0
  0
LINE
  5
50F8
330
1F
100
AcDbEntity
  8
粗实线
100
AcDbLine
 10
638.8515235750055
 20
583.5895853708571
 30
0.0
 11
640.0007874657167
 21
580.2518806781372
 31
0.0
  0
LINE
  5
50F9
330
1F
100
AcDbEntity
  8
粗实线
100
AcDbLine
 10
638.8515235750055
 20
583.5895853708571
 30
0.0
 11
641.0384072859015
 21
584.3425898195928
 31
0.0
  0
ARC
  5
50FA
330
1F
100
AcDbEntity
  8
粗实线
100
AcDbCircle
 10
688.9221888165702
 20
581.7714843788126
 30
0.0
 40
4.625786880000001
100
AcDbArc
 50
272.1251645521356
 51
339.0000000005887
  0
ARC
  5
50FB
330
1F
100
AcDbEntity
  8
粗实线
100
AcDbCircle
 10
688.9221888165702
 20
581.7714843788126
 30
0.0
 40
6.938680320000004
100
AcDbArc
 50
272.1251645521338
 51
339.0000000002065
  0
LINE
  5
50FC
330
1F
100
AcDbEntity
  8
粗实线
100
AcDbLine
 10
694.505780909003
 20
583.4093133414353
 30
0.0
 11
693.2407329048801
 21
580.1137506196027
 31
0.0
  0
LINE
  5
50FD
330
1F
100
AcDbEntity
  8
粗实线
100
AcDbLine
 10
696.6650529531579
 20
582.580446461834
 30
0.0
 11
695.4000049490423
 21
579.2848837399869
 31
0.0
  0
LINE
  5
50FE
330
1F
100
AcDbEntity
  8
粗实线
100
AcDbLine
 10
696.6650529531579
 20
582.580446461834
 30
0.0
 11
694.505780909003
 21
583.4093133414353
 31
0.0
  0
HATCH
  5
50FF
330
1F
100
AcDbEntity
  8
剖切线
100
AcDbHatch
 10
0.0
 20
0.0
 30
0.0
210
0.0
220
0.0
230
1.0
  2
ANSI31
 70
     0
 71
     0
 91
        1
 92
        7
 72
     1
 73
     1
 93
        8
 10
678.0598372627719
 20
576.894439418691
 42
0.0070177978545289
 10
689.0937250880742
 20
577.1488790996954
 42
0.3003703345697906
 10
693.2407329048801
 20
580.1137506196027
 42
0.0
 10
694.505780909003
 20
583.4093133414717
 42
0.0
 10
696.6650529531579
 20
582.580446461834
 42
0.0
 10
695.4000049490387
 20
579.284883740016
 42
-0.3003703345697732
 10
689.1794932238335
 20
574.8375764601296
 42
-0.0070565129482688
 10
678.0194576398425
 20
574.5810923708704
 42
0.0
 97
        0
 75
     0
 76
     1
 52
-0.9999999998692691
 41
0.5782233599999999
 77
     0
 78
     1
 53
43.99999999980776
 43
2592.108641942687
 44
-2387.043415113097
 45
-1.275294938035421
 46
1.320606567358981
 79
     0
 47
0.1104702278856199
 98
        1
 10
684.7711595349574
 20
576.5941842979882
  0
SPLINE
  5
5100
102
{ACAD_REACTORS
330
50CE
102
}
330
1F
100
AcDbEntity
  8
细实线
100
AcDbSpline
210
0.0
220
0.0
230
1.0
 70
     8
 71
     3
 72
    11
 73
     7
 74
     5
 42
0.0000000001
 43
0.0000000001
 44
0.0000000001
 40
0.0
 40
0.0
 40
0.0
 40
0.0
 40
8.493601440338274
 40
17.16053511810738
 40
25.09564800080217
 40
30.56472198768459
 40
30.56472198768459
 40
30.56472198768459
 40
30.56472198768459
 10
617.3237407845954
 20
613.4565605159514
 30
0.0
 10
619.0209110130346
 20
610.8359394306217
 30
0.0
 10
622.4498862847278
 20
605.5412172233291
 30
0.0
 10
615.8090519332067
 20
597.6167985268603
 30
0.0
 10
620.9957568351569
 20
590.1924415943898
 30
0.0
 10
618.3878137931909
 20
586.1817885501364
 30
0.0
 10
617.3237407845954
 20
584.5453925159599
 30
0.0
 11
617.3237407845954
 21
613.4565605159514
 31
0.0
 11
620.4627961501537
 21
605.5643113536862
 31
0.0
 11
617.8759234713506
 21
597.2924416062523
 31
0.0
 11
619.5574150115789
 21
589.5375333114206
 31
0.0
 11
617.3237407845954
 21
584.5453925159599
 31
0.0
  0
LINE
  5
5101
330
1F
100
AcDbEntity
  8
粗实线
 62
     0
100
AcDbLine
 10
710.1810855434123
 20
546.8690311280442
 30
0.0
 11
708.675825610986
 21
581.3451517099747
 31
0.0
  0
LINE
  5
5102
330
1F
100
AcDbEntity
  8
粗实线
 62
     0
100
AcDbLine
 10
709.118803930065
 20
546.6938894806953
 30
0.0
 11
707.6060607600884
 21
581.2984447678754
 31
0.0
  0
LINE
  5
5103
330
1F
100
AcDbEntity
  8
粗实线
 62
     0
100
AcDbLine
 10
690.3646279038621
 20
584.5453925159599
 30
0.0
 11
705.3328104519387
 21
584.5453925159599
 31
0.0
  0
ARC
  5
5104
330
1F
100
AcDbEntity
  8
粗实线
 62
     0
100
AcDbCircle
 10
705.3328104519387
 20
581.1991925159673
 30
0.0
 40
3.3462
100
AcDbArc
 50
2.500000000169454
 51
90.0
  0
ARC
  5
5105
330
1F
100
AcDbEntity
  8
粗实线
 62
     0
100
AcDbCircle
 10
705.3328104519387
 20
581.1991925159673
 30
0.0
 40
2.275416
100
AcDbArc
 50
2.499999999753002
 51
90.0
  0
LINE
  5
5106
330
1F
100
AcDbEntity
  8
粗实线
 62
     0
100
AcDbLine
 10
688.6724986327644
 20
583.4764823879522
 30
0.0
 11
705.3328104519387
 21
583.4746085159495
 31
0.0
  0
LINE
  5
5107
330
1F
100
AcDbEntity
  8
粗实线
 62
     0
100
AcDbLine
 10
705.3328104519387
 20
584.5453925159599
 30
0.0
 11
720.7444825022466
 21
584.5453925159599
 31
0.0
  0
LINE
  5
5108
330
1F
100
AcDbEntity
  8
粗实线
100
AcDbLine
 10
688.6724986327644
 20
584.5453925159599
 30
0.0
 11
688.6724986327644
 21
583.4764823879522
 31
0.0
  0
LINE
  5
5109
330
1F
100
AcDbEntity
  8
粗实线
100
AcDbLine
 10
707.6060607600884
 20
583.6546736249147
 30
0.0
 11
726.9561842522562
 21
601.4484760038685
 31
0.0
  0
LINE
  5
510A
330
1F
100
AcDbEntity
  8
粗实线
100
AcDbLine
 10
726.9561842522562
 20
601.4484760038685
 30
0.0
 11
728.3929262773817
 21
601.4484760038685
 31
0.0
  0
LINE
  5
510B
330
1F
100
AcDbEntity
  8
粗实线
100
AcDbLine
 10
659.723696938323
 20
613.4565605159514
 30
0.0
 11
650.7063329486336
 21
623.8689692088301
 31
0.0
  0
LINE
  5
510C
330
1F
100
AcDbEntity
  8
粗实线
100
AcDbLine
 10
650.7063329486336
 20
623.8689692088301
 30
0.0
 11
647.700924118486
 21
623.8689692088301
 31
0.0
  0
LINE
  5
510D
330
1F
100
AcDbEntity
  8
粗实线
100
AcDbLine
 10
646.0623010376439
 20
575.5901898492448
 30
0.0
 11
637.2936217622846
 21
564.2440205974489
 31
0.0
  0
LINE
  5
510E
330
1F
100
AcDbEntity
  8
粗实线
100
AcDbLine
 10
637.2936217622846
 20
564.2440205974489
 30
0.0
 11
633.220925884194
 21
564.2440205974489
 31
0.0
  0
LINE
  5
510F
330
1F
100
AcDbEntity
  8
粗实线
100
AcDbLine
 10
661.7607542897967
 20
570.5222764147183
 30
0.0
 11
662.599603378756
 21
553.668601295787
 31
0.0
  0
LINE
  5
5110
330
1F
100
AcDbEntity
  8
粗实线
100
AcDbLine
 10
669.8549513719626
 20
546.168601295787
 30
0.0
 11
667.5996033787559
 21
546.168601295787
 31
0.0
  0
MTEXT
  5
5111
330
1F
100
AcDbEntity
  8
粗实线
100
AcDbMText
 10
730.2200876933566
 20
605.1681862883415
 30
0.0
 40
5.353920000000002
 41
555.9433234354916
 71
     1
 72
     5
  1
{\fTahoma|b0|i0|c0|p34;SINK}
 73
     1
 44
1.0
1001
ACAD
1000
MTEXTBEGIN
1070
    73
1070
     1
1070
    44
1040
1.0
1070
    74
1070
     0
1000
MTEXTEND
  0
MTEXT
  5
5112
330
1F
100
AcDbEntity
  8
粗实线
100
AcDbMText
 10
600.0885158380297
 20
627.490281366714
 30
0.0
 40
5.353920000000002
 41
555.9433234354916
 71
     1
 72
     5
  1
{\fTahoma|b0|i0|c0|p34;COUNTERTOP}
 73
     1
 44
1.0
1001
ACAD
1000
MTEXTBEGIN
1070
    73
1070
     1
1070
    44
1040
1.0
1070
    74
1070
     0
1000
MTEXTEND
  0
MTEXT
  5
5113
330
1F
100
AcDbEntity
  8
粗实线
100
AcDbMText
 10
596.9788921867002
 20
567.0640627253305
 30
0.0
 40
5.353920000000002
 41
555.9433234354916
 71
     1
 72
     5
  1
{\fTahoma|b0|i0|c0|p34;FASTENER}
 73
     1
 44
1.0
1001
ACAD
1000
MTEXTBEGIN
1070
    73
1070
     1
1070
    44
1040
1.0
1070
    74
1070
     0
1000
MTEXTEND
  0
MTEXT
  5
5114
330
1F
100
AcDbEntity
  8
粗实线
100
AcDbMText
 10
665.8932698373173
 20
557.1691565935834
 30
0.0
 40
5.353920000000002
 41
555.9433234354916
 71
     1
 72
     5
  1
{\fTahoma|b0|i0|c0|p34;SCREWS}
 73
     1
 44
1.0
1001
ACAD
1000
MTEXTBEGIN
1070
    73
1070
     1
1070
    44
1040
1.0
1070
    74
1070
     0
1000
MTEXTEND
  0
MTEXT
  5
5115
102
{ACAD_XDICTIONARY
360
5583
102
}
330
1F
100
AcDbEntity
  8
粗实线
100
AcDbMText
 10
469.0483752369654
 20
515.6298176098862
 30
0.0
 40
6.692400000000001
 41
555.9433234354916
 71
     1
 72
     5
  1
\fArial|b0|i0|c0|p34;Use outside line for reveal mount cut:\PSink rim is \U+00BC\U+201D revealed from the countertop opening.
 73
     1
 44
1.0
1001
ACAD
1000
MTEXTBEGIN
1070
    73
1070
     1
1070
    44
1040
1.0
1070
    74
1070
     0
1000
MTEXTEND
  0
MTEXT
  5
5116
330
1F
100
AcDbEntity
  8
粗实线
100
AcDbMText
 10
470.0483752369655
 20
476.7304552599525
 30
0.0
 40
6.692400000000001
 41
555.9433234354916
 71
     1
 72
     5
  1
\fArial|b0|i0|c0|p34;Use middle line for flush mount cut:\PSink wall is flush to the edge of countertop opening.
 73
     1
 44
1.0
1001
ACAD
1000
MTEXTBEGIN
1070
    73
1070
     1
1070
    44
1040
1.0
1070
    74
1070
     0
1000
MTEXTEND
  0
MTEXT
  5
5117
102
{ACAD_XDICTIONARY
360
5585
102
}
330
1F
100
AcDbEntity
  8
粗实线
100
AcDbMText
 10
470.0483752369655
 20
439.9380223949119
 30
0.0
 40
6.692400000000001
 41
555.9433234354916
 71
     1
 72
     5
  1
\fArial|b0|i0|c0|p34;Use inside line for negative reveal mount cut:\PSink wall is covered \U+00BC\U+201D inside the edge of countertop opening.
 73
     1
 44
1.0
1001
ACAD
1000
MTEXTBEGIN
1070
    73
1070
     1
1070
    44
1040
1.0
1070
    74
1070
     0
1000
MTEXTEND
  0
MTEXT
  5
5118
330
1F
100
AcDbEntity
  8
粗实线
100
AcDbMText
 10
469.0483752369654
 20
404.9266844948724
 30
0.0
 40
6.692400000000001
 41
555.9433234354916
 71
     1
 72
     5
  1
\fArial|b0|i0|c0|p34;Please check actual template against physical sink unit for most accurate cut.
 73
     1
 44
1.0
1001
ACAD
1000
MTEXTBEGIN
1070
    73
1070
     1
1070
    44
1040
1.0
1070
    74
1070
     0
1000
MTEXTEND
  0
SOLID
  5
5119
330
1F
100
AcDbEntity
  8
粗实线
100
AcDbTrace
 10
626.5309207984137
 20
293.7958857869671
 30
0.0
 11
627.8718004036709
 21
287.9778550164847
 31
0.0
 12
624.7164718785316
 22
293.0465177652295
 32
0.0
 13
624.7164718785316
 23
293.0465177652295
 33
0.0
1001
ACAD
1000
DSTYLE
1002
{
1070
    41
1040
8.0
1070
   147
1040
3.0
1070
    77
1070
     0
1002
}
  0
MTEXT
  5
511A
330
1F
100
AcDbEntity
  8
粗实线
100
AcDbMText
 10
585.4954202388398
 20
314.8605343600357
 30
0.0
 40
5.353920000000002
 41
205.379486490177
 71
     1
 72
     5
  1
{\fTahoma|b0|i0|c0|p34;Use this line for FLUSH MOUNT CUT.}
  7
样式 8
 73
     1
 44
1.0
1001
ACAD
1000
MTEXTBEGIN
1070
    73
1070
     1
1070
    44
1040
1.0
1070
    74
1070
     0
1000
MTEXTEND
  0
LINE
  5
511B
330
1F
100
AcDbEntity
  8
0
100
AcDbLine
 10
625.8280694352979
 20
292.9263520706736
 30
0.0
 11
620.1213135633842
 21
306.744151506311
 31
0.0
  0
MTEXT
  5
511C
330
1F
100
AcDbEntity
  8
粗实线
100
AcDbMText
 10
705.0718483018941
 20
329.5303766841361
 30
0.0
 40
6.424704000000002
 41
246.4553837882125
 71
     1
 72
     5
  1
\fTahoma|b0|i0|c0|p34;\H1x;16R
  7
样式 8
 73
     1
 44
1.0
1001
ACAD
1000
MTEXTBEGIN
1070
    73
1070
     1
1070
    44
1040
1.0
1070
    74
1070
     0
1000
MTEXTEND
  0
DIMENSION
  5
511E
330
1F
100
AcDbEntity
  8
标注
100
AcDbDimension
  2
*D9
 10
820.3718004036685
 20
471.4999999999999
 30
0.0
 11
859.5
 21
471.4999999999999
 31
0.0
 70
   160
  1
{\fArial|b0|i0|c0|p34;<>}
 71
     5
 42
6.350000000002182
  3
英寸
100
AcDbAlignedDimension
 13
814.0218004036665
 23
480.4778620356217
 33
0.0
 14
820.3718004036685
 24
480.4778620356144
 34
0.0
100
AcDbRotatedDimension
1001
ACAD
1000
DSTYLE
1002
{
1070
   140
1040
10.0
1070
   371
1070
     0
1070
    41
1040
5.0
1002
}
  0
DIMENSION
  5
512D
330
1F
100
AcDbEntity
  8
标注
100
AcDbDimension
  2
*D8
 10
826.7218004036708
 20
450.0
 30
0.0
 11
860.5
 21
450.0
 31
0.0
 70
   160
  1
{\fArial|b0|i0|c0|p34;<>}
 71
     5
 42
6.350000000002182
  3
英寸
100
AcDbAlignedDimension
 13
820.3718004036685
 23
480.4778620356144
 33
0.0
 14
826.7218004036708
 24
480.4778620356217
 34
0.0
100
AcDbRotatedDimension
1001
ACAD
1000
DSTYLE
1002
{
1070
    41
1040
5.0
1070
   140
1040
10.0
1070
   371
1070
     0
1002
}
  0
CIRCLE
  5
51DE
330
1F
100
AcDbEntity
  8
粗实线
100
AcDbCircle
 10
-192.628199596329
 20
598.9778550164847
 30
0.0
 40
225.0
  0
LINE
  5
51DF
330
1F
100
AcDbEntity
  8
点划线
100
AcDbLine
 10
-429.0
 20
598.9778550164847
 30
0.0
 11
54.92541709253237
 21
598.9778550164847
 31
0.0
  0
LINE
  5
51E0
330
1F
100
AcDbEntity
  8
点划线
100
AcDbLine
 10
-192.628199596329
 20
358.5
 30
0.0
 11
-192.628199596329
 21
842.2882845511631
 31
0.0
  0
LINE
  5
51E1
330
1F
100
AcDbEntity
  8
粗实线
100
AcDbLine
 10
-412.6281995963291
 20
1134.404861386858
 30
0.0
 11
27.37180040366911
 21
1134.404861386858
 31
0.0
  0
LINE
  5
51E2
330
1F
100
AcDbEntity
  8
点划线
100
AcDbLine
 10
-192.628199596329
 20
922.7106015825993
 30
0.0
 11
-192.628199596329
 21
1150.116373107165
 31
0.0
  0
CIRCLE
  5
51E3
330
1F
100
AcDbEntity
  8
粗实线
100
AcDbCircle
 10
-94.62819959633089
 20
598.9778550164847
 30
0.0
 40
59.7
  0
LINE
  5
51E4
330
1F
100
AcDbEntity
  8
粗实线
100
AcDbLine
 10
-37.12819959633089
 20
935.904861386858
 30
0.0
 11
-48.7281995963367
 21
932.4048613868582
 31
0.0
  0
LINE
  5
51E5
330
1F
100
AcDbEntity
  8
粗实线
100
AcDbLine
 10
-94.62819959633089
 20
932.4048613868582
 30
0.0
 11
-48.7281995963367
 21
932.4048613868582
 31
0.0
  0
LINE
  5
51E6
330
1F
100
AcDbEntity
  8
粗实线
100
AcDbLine
 10
-35.36618918399654
 20
939.3899931344277
 30
0.0
 11
-37.12820134193498
 21
935.9048608601661
 31
0.0
  0
LINE
  5
51E7
330
1F
100
AcDbEntity
  8
粗实线
100
AcDbLine
 10
-152.1281995963309
 20
935.904861386858
 30
0.0
 11
-140.528199596325
 21
932.4048613868582
 31
0.0
  0
LINE
  5
51E8
330
1F
100
AcDbEntity
  8
粗实线
100
AcDbLine
 10
-94.62819959633089
 20
932.4048613868582
 30
0.0
 11
-140.528199596325
 21
932.4048613868582
 31
0.0
  0
LINE
  5
51E9
330
1F
100
AcDbEntity
  8
粗实线
100
AcDbLine
 10
-153.8902100086652
 20
939.3899931344277
 30
0.0
 11
-152.1281978507268
 21
935.9048608601661
 31
0.0
  0
LINE
  5
51EA
330
1F
100
AcDbEntity
  8
粗实线
100
AcDbLine
 10
-140.528199596325
 20
932.4048613868582
 30
0.0
 11
-140.528199596325
 21
931.404861386858
 31
0.0
  0
LINE
  5
51EB
330
1F
100
AcDbEntity
  8
粗实线
100
AcDbLine
 10
-48.7281995963367
 20
932.4048613868582
 30
0.0
 11
-48.7281995963367
 21
931.404861386858
 31
0.0
  0
LINE
  5
51EC
330
1F
100
AcDbEntity
  8
粗实线
100
AcDbLine
 10
-333.9917177503648
 20
947.2533947816772
 30
0.0
 11
-153.8902100086652
 21
939.3899931344277
 31
0.0
  0
LINE
  5
51ED
330
1F
100
AcDbEntity
  8
粗实线
100
AcDbLine
 10
-390.1281996018879
 20
1134.404861386858
 30
0.0
 11
-390.1281996018879
 21
1115.452484471614
 31
0.0
  0
LINE
  5
51EE
330
1F
100
AcDbEntity
  8
粗实线
100
AcDbLine
 10
-153.8902100086652
 20
939.3899931344277
 30
0.0
 11
-35.36618918399654
 21
939.3899931344277
 31
0.0
  0
LINE
  5
51EF
330
1F
100
AcDbEntity
  8
粗实线
100
AcDbLine
 10
-152.1281978507268
 20
935.9048608601661
 30
0.0
 11
-37.12820134193498
 21
935.9048608601661
 31
0.0
  0
LINE
  5
51F0
330
1F
100
AcDbEntity
  8
点划线
 48
0.2
100
AcDbLine
 10
-94.62819959633089
 20
951.5958656791699
 30
0.0
 11
-94.62819959633089
 21
925.0205153997885
 31
0.0
  0
LINE
  5
51F1
330
1F
100
AcDbEntity
  8
粗实线
100
AcDbLine
 10
-412.6281995963291
 20
1134.404861386858
 30
0.0
 11
-417.628199596329
 21
1129.904861386858
 31
0.0
  0
LINE
  5
51F2
330
1F
100
AcDbEntity
  8
粗实线
100
AcDbLine
 10
-417.628199596329
 20
1129.904861386858
 30
0.0
 11
-416.8254419183813
 21
1129.012908411343
 31
0.0
  0
CIRCLE
  5
51F3
330
1F
100
AcDbEntity
  8
粗实线
100
AcDbCircle
 10
-94.62819959633089
 20
598.9778550164847
 30
0.0
 40
57.5
  0
CIRCLE
  5
51F4
330
1F
100
AcDbEntity
  8
粗实线
100
AcDbCircle
 10
-94.62819959633089
 20
598.9778550164847
 30
0.0
 40
45.89999999999999
  0
LINE
  5
51F5
330
1F
100
AcDbEntity
  8
点划线
100
AcDbLine
 10
-94.62819959633089
 20
675.8011662362478
 30
0.0
 11
-94.62819959633089
 21
524.7762152362484
 31
0.0
  0
CIRCLE
  5
51F6
330
1F
100
AcDbEntity
  8
粗实线
100
AcDbCircle
 10
-192.628199596329
 20
598.9778550164847
 30
0.0
 40
220.0
  0
ARC
  5
51F7
330
1F
100
AcDbEntity
  8
粗实线
100
AcDbCircle
 10
-396.828199601885
 20
1127.704861386861
 30
0.0
 40
6.7
100
AcDbArc
 50
0.0
 51
90.0
  0
CIRCLE
  5
51F8
330
1F
100
AcDbEntity
  8
文字
100
AcDbCircle
 10
14.47727148779631
 20
1128.97890060662
 30
0.0
 40
24.57650499999
  0
CIRCLE
  5
51F9
330
1F
100
AcDbEntity
  8
文字
100
AcDbCircle
 10
-92.7478620903803
 20
940.5012179797195
 30
0.0
 40
68.92380652781139
  0
DIMENSION
  5
5207
330
1F
100
AcDbEntity
  8
标注
100
AcDbDimension
  2
*D4
 10
32.37180040366911
 20
1196.180175435423
 30
0.0
 11
-192.628199596329
 21
1196.180175435423
 31
0.0
 70
   160
  1
\ftxt.shx,gbcbig.shx;%%C<>
 71
     5
 42
-1.0
  3
副本 ISO-25
100
AcDbAlignedDimension
 13
-417.628199596329
 23
1129.904861386858
 33
0.0
 14
32.37180040366911
 24
1129.904861386858
 34
0.0
100
AcDbRotatedDimension
1001
ACAD
1000
DSTYLE
1002
{
1070
    41
1040
10.0
1070
   147
1040
2.5
1070
   140
1040
13.0
1002
}
  0
DIMENSION
  5
5215
330
1F
100
AcDbEntity
  8
标注
100
AcDbDimension
  2
*D5
 10
4.871800409227944
 20
1164.142466606608
 30
0.0
 11
-192.628199596329
 21
1173.142466606608
 31
0.0
 70
   160
  1
\ftxt.shx,gbcbig.shx;%%C385
 71
     5
 42
-1.0
  3
副本 ISO-25
100
AcDbAlignedDimension
 13
-390.1281996018879
 23
1134.404861386858
 33
0.0
 14
4.871800409227944
 24
1134.404861386858
 34
0.0
100
AcDbRotatedDimension
1001
ACAD
1000
DSTYLE
1002
{
1070
    41
1040
10.0
1070
   147
1040
2.5
1070
   140
1040
13.0
1002
}
  0
LINE
  5
5216
330
1F
100
AcDbEntity
  8
文字
100
AcDbLine
 10
32.37180040366911
 20
1145.824981245554
 30
0.0
 11
47.74644348779657
 21
1163.783130606614
 31
0.0
  0
LINE
  5
5217
330
1F
100
AcDbEntity
  8
文字
100
AcDbLine
 10
-46.21614181814948
 20
889.6554697327884
 30
0.0
 11
-23.41604204316354
 21
857.2993623546354
 31
0.0
  0
LINE
  5
5218
330
1F
100
AcDbEntity
  8
文字
100
AcDbLine
 10
-23.41604204316354
 20
857.2993623546354
 30
0.0
 11
1.242767872705371
 21
857.2993623546354
 31
0.0
  0
MTEXT
  5
5219
330
1F
100
AcDbEntity
  8
文字
100
AcDbMText
 10
-20.38441890816284
 20
881.5329877283366
 30
0.0
 40
21.29546634759469
 41
219.7197216454041
 71
     1
 72
     5
  1
\fSimSun|b0|i0|c134|p0;\C1;II
  7
样式 8
 73
     1
 44
1.0
1001
ACAD
1000
MTEXTBEGIN
1070
    73
1070
     1
1070
    44
1040
1.0
1070
    74
1070
     0
1000
MTEXTEND
  0
DIMENSION
  5
5227
330
1F
100
AcDbEntity
  8
标注
100
AcDbDimension
  2
*D6
 10
32.37180040366911
 20
520.6840172362499
 30
0.0
 11
-31.26784669442713
 21
520.6840172362499
 31
0.0
 70
   160
  1
\ftxt.shx,gbcbig.shx;152.5
 71
     5
 42
-1.0
  3
副本 ISO-25
100
AcDbAlignedDimension
 13
-94.62819959633089
 23
524.7762152362484
 33
0.0
 14
32.37180040366911
 24
598.9778550164847
 34
0.0
 50
180.0
100
AcDbRotatedDimension
1001
ACAD
1000
DSTYLE
1002
{
1070
    41
1040
10.0
1070
   147
1040
2.5
1070
   140
1040
13.0
1002
}
  0
MTEXT
  5
5228
330
1F
100
AcDbEntity
  8
标注
 62
     6
100
AcDbMText
 10
33.05386832558543
 20
1026.435784439593
 30
0.0
 40
13.0
 41
0.0
 71
     5
 72
     1
  1
\ftxt.shx,gbcbig.shx;4.5%%d
 73
     1
 44
1.0
1001
ACAD
1000
MTEXTBEGIN
1070
    73
1070
     1
1070
    44
1040
1.0
1070
    74
1070
     0
1000
MTEXTEND
  0
LINE
  5
5229
330
1F
100
AcDbEntity
  8
标注
370
    -2
100
AcDbLine
 10
6.07180040923049
 20
1115.452484471621
 30
0.0
 11
6.07180040923049
 21
1043.217098148001
 31
0.0
  0
LINE
  5
522A
330
1F
100
AcDbEntity
  8
标注
100
AcDbLine
 10
1.381415451402062
 20
1045.845117138095
 30
0.0
 11
9.246277487798579
 21
1016.262680606618
 31
0.0
  0
LINE
  5
522B
330
1F
100
AcDbEntity
  8
标注
100
AcDbLine
 10
9.246277487798579
 20
1016.262680606618
 30
0.0
 11
51.21507635453781
 21
1016.262680606618
 31
0.0
  0
LINE
  5
522C
330
1F
100
AcDbEntity
  8
粗实线
100
AcDbLine
 10
-400.8315590535566
 20
1120.204861386861
 30
0.0
 11
-400.8315590535566
 21
1132.204861386861
 31
0.0
  0
LINE
  5
522D
330
1F
100
AcDbEntity
  8
粗实线
100
AcDbLine
 10
-401.8315590535567
 20
1133.204861386861
 30
0.0
 11
-407.8315590535567
 21
1133.204861386861
 31
0.0
  0
LINE
  5
522E
330
1F
100
AcDbEntity
  8
粗实线
100
AcDbLine
 10
-401.8315590535421
 20
1132.404861386858
 30
0.0
 11
-407.8315590535567
 21
1132.404861386858
 31
0.0
  0
LINE
  5
522F
330
1F
100
AcDbEntity
  8
粗实线
100
AcDbLine
 10
-401.6315590535596
 20
1120.204861386861
 30
0.0
 11
-401.6315590535596
 21
1132.204861386861
 31
0.0
  0
LINE
  5
5230
330
1F
100
AcDbEntity
  8
粗实线
100
AcDbLine
 10
-407.8315590535567
 20
1132.404861386858
 30
0.0
 11
-407.8315590535567
 21
1133.204861386861
 31
0.0
  0
LINE
  5
5231
330
1F
100
AcDbEntity
  8
粗实线
100
AcDbLine
 10
-401.6315590535596
 20
1120.204861386861
 30
0.0
 11
-400.8315590535566
 21
1120.204861386861
 31
0.0
  0
LINE
  5
5232
330
1F
100
AcDbEntity
  8
粗实线
100
AcDbLine
 10
-401.6315590535596
 20
1125.204861386861
 30
0.0
 11
-400.8315590535566
 21
1125.204861386861
 31
0.0
  0
LINE
  5
5233
330
1F
100
AcDbEntity
  8
点划线
100
AcDbLine
 10
-402.1297329759181
 20
1126.704861386861
 30
0.0
 11
-400.2867412746637
 21
1126.704861386861
 31
0.0
  0
LINE
  5
5234
330
1F
100
AcDbEntity
  8
粗实线
100
AcDbLine
 10
-401.6315590535596
 20
1128.204861386861
 30
0.0
 11
-400.8315590535566
 21
1128.204861386861
 31
0.0
  0
ARC
  5
5235
330
1F
100
AcDbEntity
  8
粗实线
100
AcDbCircle
 10
-401.8315590535567
 20
1132.204861386861
 30
0.0
 40
1.0
100
AcDbArc
 50
0.0
 51
90.0
  0
ARC
  5
5236
330
1F
100
AcDbEntity
  8
粗实线
100
AcDbCircle
 10
-401.8315590535567
 20
1132.204861386861
 30
0.0
 40
0.2
100
AcDbArc
 50
0.0
 51
90.0
  0
LINE
  5
5237
330
1F
100
AcDbEntity
  8
粗实线
100
AcDbLine
 10
-390.0551211096827
 20
1113.359790259281
 30
0.0
 11
-381.6889508950881
 21
993.7179821735625
 31
0.0
  0
POINT
  5
5238
330
1F
100
AcDbEntity
  8
标注
100
AcDbPoint
 10
5.571800409225033
 20
1043.217098147994
 30
0.0
  0
POINT
  5
5239
330
1F
100
AcDbEntity
  8
标注
100
AcDbPoint
 10
-0.6176425670946628
 20
1035.902169447225
 30
0.0
  0
SOLID
  5
523A
330
1F
100
AcDbEntity
  8
标注
100
AcDbTrace
 10
0.0821215712985577
 20
1045.909262848836
 30
0.0
 11
-10.05070384067403
 21
1045.587351450791
 31
0.0
 12
-9.607387244797791
 22
1048.891073822138
 32
0.0
 13
-9.607387244797791
 23
1048.891073822138
 33
0.0
  0
SOLID
  5
523B
330
1F
100
AcDbEntity
  8
标注
100
AcDbTrace
 10
5.571800409225033
 20
1045.717559039556
 30
0.0
 11
15.44570668771303
 21
1048.016200503865
 31
0.0
 12
15.65748736379282
 22
1044.689601631697
 32
0.0
 13
15.65748736379282
 23
1044.689601631697
 33
0.0
  0
ARC
  5
523C
330
1F
100
AcDbEntity
  8
标注
370
    -2
100
AcDbCircle
 10
5.571800409225033
 20
1124.41532776651
 30
0.0
 40
78.69776872695395
100
AcDbArc
 50
256.8898020302859
 51
283.0045691569496
  0
ARC
  5
523D
330
1F
100
AcDbEntity
  8
标注
370
    -2
100
AcDbCircle
 10
5.571800409225033
 20
1124.41532776651
 30
0.0
 40
78.69776872695395
100
AcDbArc
 50
253.6053179326132
 51
265.9999999999976
  0
ARC
  5
523E
330
1F
100
AcDbEntity
  8
粗实线
100
AcDbCircle
 10
-360.1281996018879
 20
1115.452484471614
 30
0.0
 40
30.0
100
AcDbArc
 50
180.0
 51
184.0000000000181
  0
DIMENSION
  5
524C
330
1F
100
AcDbEntity
  8
标注
100
AcDbDimension
  2
*D7
 10
84.6959387631341
 20
939.3899931344277
 30
0.0
 11
84.6959387631341
 21
1037.69737495287
 31
0.0
 70
   160
  1
\ftxt.shx,gbcbig.shx;200
 71
     5
 42
-1.0
  3
副本 ISO-25
100
AcDbAlignedDimension
 13
27.37180040366911
 23
1134.404861386858
 33
0.0
 14
-35.35976815724462
 24
939.3899931344277
 34
0.0
 50
90.0
100
AcDbRotatedDimension
1001
ACAD
1000
DSTYLE
1002
{
1070
    41
1040
10.0
1070
   147
1040
2.5
1070
   140
1040
13.0
1002
}
  0
POINT
  5
524D
330
1F
100
AcDbEntity
  8
标注
100
AcDbPoint
 10
-398.750502449584
 20
970.4054427564916
 30
0.0
  0
CIRCLE
  5
524E
330
1F
100
AcDbEntity
  8
粗实线
100
AcDbCircle
 10
-192.628199596329
 20
598.9778550164847
 30
0.0
 40
192.5
  0
LINE
  5
524F
330
1F
100
AcDbEntity
  8
粗实线
100
AcDbLine
 10
-412.1677163900512
 20
1133.204861386853
 30
0.0
 11
-416.8254419183813
 21
1129.012908411365
 31
0.0
  0
LINE
  5
5250
330
1F
100
AcDbEntity
  8
粗实线
100
AcDbLine
 10
11.57180040922685
 20
1133.204861386861
 30
0.0
 11
26.91131719738587
 21
1133.204861386861
 31
0.0
  0
ARC
  5
5251
330
1F
100
AcDbEntity
  8
粗实线
100
AcDbCircle
 10
-396.828199601885
 20
1127.704861386861
 30
0.0
 40
5.5
100
AcDbArc
 50
0.0
 51
90.0
  0
LINE
  5
5252
330
1F
100
AcDbEntity
  8
粗实线
100
AcDbLine
 10
-391.3281996018886
 20
1127.704861386853
 30
0.0
 11
-391.3281996018886
 21
1115.452484471621
 31
0.0
  0
LINE
  5
5253
330
1F
100
AcDbEntity
  8
粗实线
100
AcDbLine
 10
-391.2521979699959
 20
1113.276082490803
 30
0.0
 11
-382.8860277553977
 21
993.6342744050707
 31
0.0
  0
ARC
  5
5254
330
1F
100
AcDbEntity
  8
粗实线
100
AcDbCircle
 10
-360.1281996018879
 20
1115.452484471621
 30
0.0
 40
31.2
100
AcDbArc
 50
180.0
 51
184.0000000000022
  0
LINE
  5
5255
330
1F
100
AcDbEntity
  8
粗实线
100
AcDbLine
 10
-334.0440610152036
 20
946.0545369157843
 30
0.0
 11
-154.4150624306403
 21
938.2117654638641
 31
0.0
  0
ARC
  5
5256
330
1F
100
AcDbEntity
  8
粗实线
100
AcDbCircle
 10
-331.8107483820968
 20
997.2058058607727
 30
0.0
 40
50.0
100
AcDbArc
 50
184.0000000000042
 51
267.4999999999987
  0
ARC
  5
5257
330
1F
100
AcDbEntity
  8
粗实线
100
AcDbCircle
 10
-331.8107483820968
 20
997.2058058607727
 30
0.0
 40
51.2
100
AcDbArc
 50
184.000000000003
 51
267.499999999998
  0
ARC
  5
5258
330
1F
100
AcDbEntity
  8
粗实线
100
AcDbCircle
 10
-65.60785405260867
 20
993.5265565610679
 30
0.0
 40
62.01069096269951
100
AcDbArc
 50
299.1885165207403
 51
352.2219064712749
  0
ARC
  5
5259
330
1F
100
AcDbEntity
  8
粗实线
100
AcDbCircle
 10
-64.41652406096546
 20
992.8589717526556
 30
0.0
 40
62.0509963627242
100
AcDbArc
 50
298.5287718802473
 51
0.7159067271617764
  0
LINE
  5
525A
330
1F
100
AcDbEntity
  8
粗实线
100
AcDbLine
 10
4.871800409229763
 20
1127.704861386861
 30
0.0
 11
4.871800409229763
 21
1115.452484471614
 31
0.0
  0
LINE
  5
525B
330
1F
100
AcDbEntity
  8
粗实线
100
AcDbLine
 10
27.37180040367093
 20
1134.404861386858
 30
0.0
 11
32.37180040367093
 21
1129.904861386858
 31
0.0
  0
LINE
  5
525C
330
1F
100
AcDbEntity
  8
粗实线
100
AcDbLine
 10
32.37180040367093
 20
1129.904861386858
 30
0.0
 11
31.56904272572319
 21
1129.012908411343
 31
0.0
  0
ARC
  5
525D
330
1F
100
AcDbEntity
  8
粗实线
100
AcDbCircle
 10
11.57180040922685
 20
1127.704861386861
 30
0.0
 40
6.7
100
AcDbArc
 50
90.0
 51
180.0
  0
LINE
  5
525E
330
1F
100
AcDbEntity
  8
粗实线
100
AcDbLine
 10
15.57515986089856
 20
1120.204861386861
 30
0.0
 11
15.57515986089856
 21
1132.204861386861
 31
0.0
  0
LINE
  5
525F
330
1F
100
AcDbEntity
  8
粗实线
100
AcDbLine
 10
16.57515986089856
 20
1133.204861386861
 30
0.0
 11
22.57515986089857
 21
1133.204861386861
 31
0.0
  0
LINE
  5
5260
330
1F
100
AcDbEntity
  8
粗实线
100
AcDbLine
 10
16.57515986088401
 20
1132.404861386858
 30
0.0
 11
22.57515986089857
 21
1132.404861386858
 31
0.0
  0
LINE
  5
5261
330
1F
100
AcDbEntity
  8
粗实线
100
AcDbLine
 10
16.37515986090147
 20
1120.204861386861
 30
0.0
 11
16.37515986090147
 21
1132.204861386861
 31
0.0
  0
LINE
  5
5262
330
1F
100
AcDbEntity
  8
粗实线
100
AcDbLine
 10
22.57515986089857
 20
1132.404861386858
 30
0.0
 11
22.57515986089857
 21
1133.204861386861
 31
0.0
  0
LINE
  5
5263
330
1F
100
AcDbEntity
  8
粗实线
100
AcDbLine
 10
16.37515986090147
 20
1120.204861386861
 30
0.0
 11
15.57515986089856
 21
1120.204861386861
 31
0.0
  0
LINE
  5
5264
330
1F
100
AcDbEntity
  8
粗实线
100
AcDbLine
 10
16.37515986090147
 20
1125.204861386861
 30
0.0
 11
15.57515986089856
 21
1125.204861386861
 31
0.0
  0
LINE
  5
5265
330
1F
100
AcDbEntity
  8
点划线
100
AcDbLine
 10
16.87333378326002
 20
1126.704861386861
 30
0.0
 11
15.03034208200552
 21
1126.704861386861
 31
0.0
  0
LINE
  5
5266
330
1F
100
AcDbEntity
  8
粗实线
100
AcDbLine
 10
16.37515986090147
 20
1128.204861386861
 30
0.0
 11
15.57515986089856
 21
1128.204861386861
 31
0.0
  0
ARC
  5
5267
330
1F
100
AcDbEntity
  8
粗实线
100
AcDbCircle
 10
16.57515986089856
 20
1132.204861386861
 30
0.0
 40
1.0
100
AcDbArc
 50
90.0
 51
180.0
  0
ARC
  5
5268
330
1F
100
AcDbEntity
  8
粗实线
100
AcDbCircle
 10
16.57515986089856
 20
1132.204861386861
 30
0.0
 40
0.2
100
AcDbArc
 50
90.0
 51
180.0
  0
LINE
  5
5269
330
1F
100
AcDbEntity
  8
粗实线
100
AcDbLine
 10
4.798721917024522
 20
1113.359790259281
 30
0.0
 11
-4.167682682120357
 21
985.1342305643047
 31
0.0
  0
ARC
  5
526A
330
1F
100
AcDbEntity
  8
粗实线
100
AcDbCircle
 10
-25.12819959077024
 20
1115.452484471614
 30
0.0
 40
30.0
100
AcDbArc
 50
355.9999999999818
 51
0.0
  0
LINE
  5
526B
330
1F
100
AcDbEntity
  8
粗实线
100
AcDbLine
 10
26.91131719739315
 20
1133.204861386853
 30
0.0
 11
31.56904272572319
 21
1129.012908411365
 31
0.0
  0
ARC
  5
526C
330
1F
100
AcDbEntity
  8
粗实线
100
AcDbCircle
 10
11.57180040922685
 20
1127.704861386861
 30
0.0
 40
5.5
100
AcDbArc
 50
90.0
 51
180.0
  0
LINE
  5
526D
330
1F
100
AcDbEntity
  8
粗实线
100
AcDbLine
 10
5.995798777337768
 20
1113.276082490803
 30
0.0
 11
-2.370371437260473
 21
993.6342744050707
 31
0.0
  0
ARC
  5
526E
330
1F
100
AcDbEntity
  8
粗实线
100
AcDbCircle
 10
-25.12819959077024
 20
1115.452484471621
 30
0.0
 40
31.2
100
AcDbArc
 50
355.9999999999977
 51
0.0
  0
LINE
  5
526F
330
1F
100
AcDbEntity
  8
粗实线
100
AcDbLine
 10
6.07180040923049
 20
1127.704861386861
 30
0.0
 11
6.07180040923049
 21
1115.452484471621
 31
0.0
  0
LINE
  5
5270
330
1F
100
AcDbEntity
  8
粗实线
100
AcDbLine
 10
-412.1677163900512
 20
1133.204861386853
 30
0.0
 11
-396.828199601885
 21
1133.204861386861
 31
0.0
  0
LINE
  5
5271
330
1F
100
AcDbEntity
  8
粗实线
100
AcDbLine
 10
-154.4150624306385
 20
938.2117654638568
 30
0.0
 11
-152.8272898314462
 21
935.0712664016318
 31
0.0
  0
LINE
  5
5272
330
1F
100
AcDbEntity
  8
粗实线
100
AcDbLine
 10
-152.827289831448
 20
935.0712664016318
 30
0.0
 11
-140.6757760681921
 21
931.404861386858
 31
0.0
  0
LINE
  5
5273
330
1F
100
AcDbEntity
  8
粗实线
100
AcDbLine
 10
-94.62819959633089
 20
931.404861386858
 30
0.0
 11
-140.6757760681921
 21
931.404861386858
 31
0.0
  0
LINE
  5
5274
330
1F
100
AcDbEntity
  8
粗实线
100
AcDbLine
 10
-94.62819959633089
 20
931.404861386858
 30
0.0
 11
-48.58062312446964
 21
931.404861386858
 31
0.0
  0
LINE
  5
5275
330
1F
100
AcDbEntity
  8
粗实线
100
AcDbLine
 10
-36.42910936121552
 20
935.0712664016318
 30
0.0
 11
-48.58062312446964
 21
931.404861386858
 31
0.0
  0
LINE
  5
5276
330
1F
100
AcDbEntity
  8
粗实线
100
AcDbLine
 10
-34.7730773174626
 20
938.3467776952894
 30
0.0
 11
-36.42910936121552
 21
935.0712664016318
 31
0.0
  0
LINE
  5
5277
330
1F
100
AcDbEntity
  8
文字
100
AcDbLine
 10
47.74644348779657
 20
1163.783130606614
 30
0.0
 11
61.62844948781094
 21
1163.783130606614
 31
0.0
  0
MTEXT
  5
5278
330
1F
100
AcDbEntity
  8
文字
100
AcDbMText
 10
52.20987762279946
 20
1186.823579980329
 30
0.0
 40
21.29546634759469
 41
219.7197216454041
 71
     1
 72
     5
  1
\fSimSun|b0|i0|c134|p0;\H1x;\C1;I
  7
样式 8
 73
     1
 44
1.0
1001
ACAD
1000
MTEXTBEGIN
1070
    73
1070
     1
1070
    44
1040
1.0
1070
    74
1070
     0
1000
MTEXTEND
  0
LINE
  5
53E5
330
1F
100
AcDbEntity
  8
0
100
AcDbLine
 10
1151.534429889693
 20
822.6109384425592
 30
0.0
 11
194.2931914251422
 21
145.7046340997682
 31
0.0
  0
CIRCLE
  5
5442
330
1F
100
AcDbEntity
  8
虚线
 48
2.0
100
AcDbCircle
 10
3440.5
 20
479.0
 30
0.0
 40
203.0
  0
CIRCLE
  5
5443
330
1F
100
AcDbEntity
  8
粗实线
100
AcDbCircle
 10
3440.5
 20
479.0
 30
0.0
 40
209.35
  0
CIRCLE
  5
5444
330
1F
100
AcDbEntity
  8
虚线
 48
2.0
100
AcDbCircle
 10
3440.5
 20
479.0
 30
0.0
 40
196.65
  0
LINE
  5
5445
330
1F
100
AcDbEntity
  8
粗实线
100
AcDbLine
 10
3952.766900456682
 20
155.6225081126228
 30
0.0
 11
3542.52065540045
 21
155.6225081126228
 31
0.0
  0
LINE
  5
5446
330
1F
100
AcDbEntity
  8
图框线
100
AcDbLine
 10
3816.018152104597
 20
260.4632151825526
 30
0.0
 11
3816.018152104597
 21
155.6225081126228
 31
0.0
  0
LINE
  5
5447
330
1F
100
AcDbEntity
  8
图框线
100
AcDbLine
 10
3679.269403752514
 20
260.4632151825526
 30
0.0
 11
3679.269403752514
 21
155.6225081126228
 31
0.0
  0
LINE
  5
5448
330
1F
100
AcDbEntity
  8
图框线
100
AcDbLine
 10
3696.362997296548
 20
196.6471326182463
 30
0.0
 11
3696.362997296548
 21
171.5765287537073
 31
0.0
  0
LINE
  5
5449
330
1F
100
AcDbEntity
  8
图框线
100
AcDbLine
 10
3713.456590840543
 20
196.6471326182463
 30
0.0
 11
3713.456590840543
 21
171.5765287537073
 31
0.0
  0
LINE
  5
544A
330
1F
100
AcDbEntity
  8
图框线
100
AcDbLine
 10
3747.643777928547
 20
171.5765287537073
 30
0.0
 11
3747.643777928547
 21
155.6225081126228
 31
0.0
  0
LINE
  5
544B
330
1F
100
AcDbEntity
  8
图框线
100
AcDbLine
 10
3730.550184384541
 20
210.3220074534643
 30
0.0
 11
3730.550184384541
 21
171.5765287537073
 31
0.0
  0
LINE
  5
544C
330
1F
100
AcDbEntity
  8
图框线
100
AcDbLine
 10
3757.899934054965
 20
210.3220074534643
 30
0.0
 11
3757.899934054965
 21
171.5765287537073
 31
0.0
  0
LINE
  5
544D
330
1F
100
AcDbEntity
  8
图框线
100
AcDbLine
 10
3788.668402434178
 20
210.3220074534643
 30
0.0
 11
3788.668402434178
 21
171.5765287537073
 31
0.0
  0
LINE
  5
544E
330
1F
100
AcDbEntity
  8
粗实线
100
AcDbLine
 10
3952.766900456682
 20
155.6225081126228
 30
0.0
 11
3542.52065540045
 21
155.6225081126228
 31
0.0
  0
LINE
  5
544F
330
1F
100
AcDbEntity
  8
粗实线
100
AcDbLine
 10
3952.766900456682
 20
260.4632151825526
 30
0.0
 11
3542.52065540045
 21
260.4632151825526
 31
0.0
  0
LINE
  5
5450
330
1F
100
AcDbEntity
  8
图框线
100
AcDbLine
 10
3816.018152104597
 20
210.3220074534643
 30
0.0
 11
3542.52065540045
 21
210.3220074534643
 31
0.0
  0
LINE
  5
5451
330
1F
100
AcDbEntity
  8
图框线
100
AcDbLine
 10
3679.269403752514
 20
220.3502489992796
 30
0.0
 11
3542.52065540045
 21
220.3502489992796
 31
0.0
  0
LINE
  5
5452
330
1F
100
AcDbEntity
  8
图框线
100
AcDbLine
 10
3679.269403752514
 20
230.3784905450921
 30
0.0
 11
3542.52065540045
 21
230.3784905450921
 31
0.0
  0
LINE
  5
5453
330
1F
100
AcDbEntity
  8
图框线
100
AcDbLine
 10
3679.269403752514
 20
240.4067320909144
 30
0.0
 11
3542.52065540045
 21
240.4067320909144
 31
0.0
  0
LINE
  5
5454
330
1F
100
AcDbEntity
  8
图框线
100
AcDbLine
 10
3679.269403752514
 20
250.4349736367375
 30
0.0
 11
3542.52065540045
 21
250.4349736367375
 31
0.0
  0
LINE
  5
5455
330
1F
100
AcDbEntity
  8
图框线
100
AcDbLine
 10
3816.018152104597
 20
196.6471326182463
 30
0.0
 11
3542.52065540045
 21
196.6471326182463
 31
0.0
  0
LINE
  5
5456
330
1F
100
AcDbEntity
  8
图框线
100
AcDbLine
 10
3816.018152104597
 20
182.9722577830362
 30
0.0
 11
3542.52065540045
 21
182.9722577830362
 31
0.0
  0
LINE
  5
5457
330
1F
100
AcDbEntity
  8
图框线
100
AcDbLine
 10
3679.269403752514
 20
169.2973829478295
 30
0.0
 11
3542.52065540045
 21
169.2973829478295
 31
0.0
  0
LINE
  5
5458
330
1F
100
AcDbEntity
  8
图框线
100
AcDbLine
 10
3816.018152104597
 20
196.6471326182463
 30
0.0
 11
3679.269403752514
 21
196.6471326182463
 31
0.0
  0
LINE
  5
5459
330
1F
100
AcDbEntity
  8
图框线
100
AcDbLine
 10
3816.018152104597
 20
182.9722577830362
 30
0.0
 11
3679.269403752514
 21
182.9722577830362
 31
0.0
  0
LINE
  5
545A
330
1F
100
AcDbEntity
  8
图框线
100
AcDbLine
 10
3816.018152104597
 20
171.5765287537073
 30
0.0
 11
3679.269403752514
 21
171.5765287537073
 31
0.0
  0
LINE
  5
545B
330
1F
100
AcDbEntity
  8
图框线
100
AcDbLine
 10
3952.766900456682
 20
223.996882288664
 30
0.0
 11
3816.018152104597
 21
223.996882288664
 31
0.0
  0
LINE
  5
545C
330
1F
100
AcDbEntity
  8
图框线
100
AcDbLine
 10
3952.766900456682
 20
189.8096952006303
 30
0.0
 11
3816.018152104597
 21
189.8096952006303
 31
0.0
  0
LINE
  5
545D
330
1F
100
AcDbEntity
  8
图框线
100
AcDbLine
 10
3560.753821847381
 20
210.3220074534459
 30
0.0
 11
3560.753821847381
 21
260.4632151825526
 31
0.0
  0
LINE
  5
545E
330
1F
100
AcDbEntity
  8
图框线
100
AcDbLine
 10
3578.986988294323
 20
210.3220074534459
 30
0.0
 11
3578.986988294323
 21
260.4632151825526
 31
0.0
  0
LINE
  5
545F
330
1F
100
AcDbEntity
  8
图框线
100
AcDbLine
 10
3617.732466994095
 20
210.3220074534643
 30
0.0
 11
3617.732466994095
 21
260.4632151825526
 31
0.0
  0
LINE
  5
5460
330
1F
100
AcDbEntity
  8
图框线
100
AcDbLine
 10
3651.919654082103
 20
210.3220074534643
 30
0.0
 11
3651.919654082103
 21
260.4632151825526
 31
0.0
  0
LINE
  5
5461
330
1F
100
AcDbEntity
  8
图框线
100
AcDbLine
 10
3569.870405070858
 20
155.6225081126228
 30
0.0
 11
3569.870405070858
 21
210.3220074534459
 31
0.0
  0
LINE
  5
5462
330
1F
100
AcDbEntity
  8
图框线
100
AcDbLine
 10
3610.895029576485
 20
155.6225081126228
 30
0.0
 11
3610.895029576485
 21
210.3220074534643
 31
0.0
  0
LINE
  5
5463
330
1F
100
AcDbEntity
  8
图框线
100
AcDbLine
 10
3638.244779246894
 20
155.6225081126228
 30
0.0
 11
3638.244779246894
 21
210.3220074534643
 31
0.0
  0
MTEXT
  5
5464
330
1F
100
AcDbEntity
  8
文字
100
AcDbMText
 10
3546.005005423317
 20
218.1642227225752
 30
0.0
 40
4.626614576270346
 41
29.73177430624501
 71
     1
 72
     5
  1
{\fSimSun|b0|i0|c134|p2;标记}
 73
     1
 44
1.0
1001
ACAD
1000
MTEXTBEGIN
1070
    73
1070
     1
1070
    44
1040
1.0
1070
    74
1070
     0
1000
MTEXTEND
  0
MTEXT
  5
5465
330
1F
100
AcDbEntity
  8
文字
100
AcDbMText
 10
3563.850411638461
 20
218.1100392651734
 30
0.0
 40
4.626614576270346
 41
29.73177430624501
 71
     1
 72
     5
  1
{\fSimSun|b0|i0|c134|p2;处数}
 73
     1
 44
1.0
1001
ACAD
1000
MTEXTBEGIN
1070
    73
1070
     1
1070
    44
1040
1.0
1070
    74
1070
     0
1000
MTEXTEND
  0
MTEXT
  5
5466
330
1F
100
AcDbEntity
  8
文字
100
AcDbMText
 10
3585.971017399923
 20
217.5308725707513
 30
0.0
 40
3.701291661016277
 41
63.22148473007572
 71
     1
 72
     5
  1
{\fSimSun|b0|i0|c134|p2;\C1;更改文件号}
 73
     1
 44
1.0
1001
ACAD
1000
MTEXTBEGIN
1070
    73
1070
     1
1070
    44
1040
1.0
1070
    74
1070
     0
1000
MTEXTEND
  0
MTEXT
  5
5467
330
1F
100
AcDbEntity
  8
文字
100
AcDbMText
 10
3627.680605072621
 20
218.4488958675803
 30
0.0
 40
4.626614576270346
 41
29.73177430624501
 71
     1
 72
     5
  1
{\fSimSun|b0|i0|c134|p2;签名}
 73
     1
 44
1.0
1001
ACAD
1000
MTEXTBEGIN
1070
    73
1070
     1
1070
    44
1040
1.0
1070
    74
1070
     0
1000
MTEXTEND
  0
MTEXT
  5
5468
330
1F
100
AcDbEntity
  8
文字
100
AcDbMText
 10
3660.455521771795
 20
218.1764775485852
 30
0.0
 40
4.626614576270346
 41
29.73177430624501
 71
     1
 72
     5
  1
{\fSimSun|b0|i0|c134|p2;日期}
 73
     1
 44
1.0
1001
ACAD
1000
MTEXTBEGIN
1070
    73
1070
     1
1070
    44
1040
1.0
1070
    74
1070
     0
1000
MTEXTEND
  0
MTEXT
  5
5469
330
1F
100
AcDbEntity
  8
文字
100
AcDbMText
 10
3548.432536905356
 20
206.7597202695348
 30
0.0
 40
5.78326822033793
 41
37.16471788280627
 71
     1
 72
     5
  1
{\fSimSun|b0|i0|c134|p2;设计}
 73
     1
 44
1.0
1001
ACAD
1000
MTEXTBEGIN
1070
    73
1070
     1
1070
    44
1040
1.0
1070
    74
1070
     0
1000
MTEXTEND
  0
MTEXT
  5
546A
330
1F
100
AcDbEntity
  8
文字
100
AcDbMText
 10
3548.432536905356
 20
192.9918320516635
 30
0.0
 40
5.78326822033793
 41
37.16471788280627
 71
     1
 72
     5
  1
{\fSimSun|b0|i0|c134|p2;校对}
 73
     1
 44
1.0
1001
ACAD
1000
MTEXTBEGIN
1070
    73
1070
     1
1070
    44
1040
1.0
1070
    74
1070
     0
1000
MTEXTEND
  0
MTEXT
  5
546B
330
1F
100
AcDbEntity
  8
文字
100
AcDbMText
 10
3548.432536905356
 20
179.3589230364839
 30
0.0
 40
5.78326822033793
 41
37.16471788280627
 71
     1
 72
     5
  1
{\fSimSun|b0|i0|c134|p2;会签}
 73
     1
 44
1.0
1001
ACAD
1000
MTEXTBEGIN
1070
    73
1070
     1
1070
    44
1040
1.0
1070
    74
1070
     0
1000
MTEXTEND
  0
MTEXT
  5
546C
330
1F
100
AcDbEntity
  8
文字
100
AcDbMText
 10
3548.432536905356
 20
165.8740075688152
 30
0.0
 40
5.78326822033793
 41
37.16471788280627
 71
     1
 72
     5
  1
{\fSimSun|b0|i0|c134|p2;工艺}
 73
     1
 44
1.0
1001
ACAD
1000
MTEXTBEGIN
1070
    73
1070
     1
1070
    44
1040
1.0
1070
    74
1070
     0
1000
MTEXTEND
  0
MTEXT
  5
546D
330
1F
100
AcDbEntity
  8
文字
100
AcDbMText
 10
3616.713034987005
 20
192.1781700956217
 30
0.0
 40
5.78326822033793
 41
37.16471788280627
 71
     1
 72
     5
  1
{\fSimSun|b0|i0|c134|p2;批准}
 73
     1
 44
1.0
1001
ACAD
1000
MTEXTBEGIN
1070
    73
1070
     1
1070
    44
1040
1.0
1070
    74
1070
     0
1000
MTEXTEND
  0
MTEXT
  5
546E
330
1F
100
AcDbEntity
  8
文字
100
AcDbMText
 10
3617.945561267934
 20
165.0603561777967
 30
0.0
 40
5.78326822033793
 41
37.16471788280627
 71
     1
 72
     5
  1
{\fSimSun|b0|i0|c134|p2;日期}
 73
     1
 44
1.0
1001
ACAD
1000
MTEXTBEGIN
1070
    73
1070
     1
1070
    44
1040
1.0
1070
    74
1070
     0
1000
MTEXTEND
  0
MTEXT
  5
546F
330
1F
100
AcDbEntity
  8
文字
100
AcDbMText
 10
3689.263489934699
 20
206.8723965539223
 30
0.0
 40
5.78326822033793
 41
37.16471788280627
 71
     1
 72
     5
  1
{\fSimSun|b0|i0|c134|p2;图样标记}
 73
     1
 44
1.0
1001
ACAD
1000
MTEXTBEGIN
1070
    73
1070
     1
1070
    44
1040
1.0
1070
    74
1070
     0
1000
MTEXTEND
  0
MTEXT
  5
5470
330
1F
100
AcDbEntity
  8
文字
100
AcDbMText
 10
3698.359322837284
 20
166.3679684010015
 30
0.0
 40
5.78326822033793
 41
37.16471788280627
 71
     1
 72
     5
  1
{\fSimSun|b0|i0|c134|p2;共  页}
 73
     1
 44
1.0
1001
ACAD
1000
MTEXTBEGIN
1070
    73
1070
     1
1070
    44
1040
1.0
1070
    74
1070
     0
1000
MTEXTEND
  0
MTEXT
  5
5471
330
1F
100
AcDbEntity
  8
文字
100
AcDbMText
 10
3737.641473854562
 20
206.8204535236293
 30
0.0
 40
5.78326822033793
 41
37.16471788280627
 71
     1
 72
     5
  1
{\fSimSun|b0|i0|c134|p2;数量}
 73
     1
 44
1.0
1001
ACAD
1000
MTEXTBEGIN
1070
    73
1070
     1
1070
    44
1040
1.0
1070
    74
1070
     0
1000
MTEXTEND
  0
MTEXT
  5
5472
330
1F
100
AcDbEntity
  8
文字
100
AcDbMText
 10
3761.940058059395
 20
206.4442964338235
 30
0.0
 40
5.78326822033793
 41
37.16471788280627
 71
     1
 72
     5
  1
{\fSimSun|b0|i0|c134|p2;重量}
 73
     1
 44
1.0
1001
ACAD
1000
MTEXTBEGIN
1070
    73
1070
     1
1070
    44
1040
1.0
1070
    74
1070
     0
1000
MTEXTEND
  0
MTEXT
  5
5473
330
1F
100
AcDbEntity
  8
文字
100
AcDbMText
 10
3795.183669438227
 20
206.7452199926656
 30
0.0
 40
5.78326822033793
 41
37.16471788280627
 71
     1
 72
     5
  1
{\fSimSun|b0|i0|c134|p2;比例}
 73
     1
 44
1.0
1001
ACAD
1000
MTEXTBEGIN
1070
    73
1070
     1
1070
    44
1040
1.0
1070
    74
1070
     0
1000
MTEXTEND
  0
MTEXT
  5
5474
330
1F
100
AcDbEntity
  8
文字
100
AcDbMText
 10
3779.568049851178
 20
205.8441702241618
 30
0.0
 40
6.72147447900137
 41
133.4581782391313
 71
     1
 72
     5
  1
{\fArial|b0|i0|c0|p34;kg}
  7
样式 8
 73
     1
 44
1.0
1001
ACAD
1000
MTEXTBEGIN
1070
    73
1070
     1
1070
    44
1040
1.0
1070
    74
1070
     0
1000
MTEXTEND
  0
MTEXT
  5
5475
330
1F
100
AcDbEntity
  8
文字
100
AcDbMText
 10
3767.254514128378
 20
166.3679684010015
 30
0.0
 40
5.78326822033793
 41
37.16471788280627
 71
     1
 72
     5
  1
{\fSimSun|b0|i0|c134|p2;第  页}
 73
     1
 44
1.0
1001
ACAD
1000
MTEXTBEGIN
1070
    73
1070
     1
1070
    44
1040
1.0
1070
    74
1070
     0
1000
MTEXTEND
  0
MTEXT
  5
5476
330
1F
100
AcDbEntity
  8
文字
100
AcDbMText
 10
3822.699333978871
 20
244.6104419706372
 30
0.0
 40
8.401843098751712
 41
166.8227227989141
 71
     1
 72
     5
  1
{\fSimSun|b0|i0|c134|p2;\C1;泰捷不锈钢制品（泰国）有限公司}
  7
样式 8
 73
     1
 44
1.0
1001
ACAD
1000
MTEXTBEGIN
1070
    73
1070
     1
1070
    44
1040
1.0
1070
    74
1070
     0
1000
MTEXTEND
  0
MTEXT
  5
5477
330
1F
100
AcDbEntity
  8
文字
100
AcDbMText
 10
3835.096583305357
 20
214.3858803065
 30
0.0
 40
10.93989986816629
 41
217.2170869777526
 71
     1
 72
     5
  1
\fSimSun|b0|i0|c134|p2;\H1x;\C1;开孔纸板（FD1065）
  7
样式 8
 73
     1
 44
1.0
1001
ACAD
1000
MTEXTBEGIN
1070
    73
1070
     1
1070
    44
1040
1.0
1070
    74
1070
     0
1000
MTEXTEND
  0
LINE
  5
5478
330
1F
100
AcDbEntity
  8
不可见
100
AcDbLine
 10
3964.162629486022
 20
821.1330834260746
 30
0.0
 11
3964.162629486022
 21
144.2267790832835
 31
0.0
  0
LINE
  5
5479
330
1F
100
AcDbEntity
  8
粗实线
100
AcDbLine
 10
3952.766900456682
 20
809.7373543967476
 30
0.0
 11
3952.766900456682
 21
155.6225081126228
 31
0.0
  0
LINE
  5
547A
330
1F
100
AcDbEntity
  8
不可见
100
AcDbLine
 10
3964.162629486022
 20
144.2267790832835
 30
0.0
 11
3006.921391021471
 21
144.2267790832835
 31
0.0
  0
LINE
  5
547B
330
1F
100
AcDbEntity
  8
粗实线
100
AcDbLine
 10
3952.766900456682
 20
155.6225081126228
 30
0.0
 11
3063.90003616816
 21
155.6225081126228
 31
0.0
  0
LINE
  5
547C
330
1F
100
AcDbEntity
  8
粗实线
100
AcDbLine
 10
3952.766900456682
 20
155.6225081126228
 30
0.0
 11
3063.90003616816
 21
155.6225081126228
 31
0.0
  0
MTEXT
  5
547D
330
1F
100
AcDbEntity
  8
文字
100
AcDbMText
 10
3716.950235417646
 20
237.8821107088759
 30
0.0
 40
10.93989986816629
 41
217.2170869777526
 71
     1
 72
     5
  1
{\fSimSun|b0|i0|c0|p2;\C1;0.3\fSimSun|b0|i0|c134|p2;mm厚白纸板}
  7
样式 8
 73
     1
 44
1.0
1001
ACAD
1000
MTEXTBEGIN
1070
    73
1070
     1
1070
    44
1040
1.0
1070
    74
1070
     0
1000
MTEXTEND
  0
MTEXT
  5
547E
330
1F
100
AcDbEntity
  8
文字
100
AcDbMText
 10
3685.250023514115
 20
254.9074668989845
 30
0.0
 40
10.93989986816629
 41
217.2170869777526
 71
     1
 72
     5
  1
{\fSimSun|b0|i0|c134|p2;材料:}
  7
样式 8
 73
     1
 44
1.0
1001
ACAD
1000
MTEXTBEGIN
1070
    73
1070
     1
1070
    44
1040
1.0
1070
    74
1070
     0
1000
MTEXTEND
  0
MTEXT
  5
547F
330
1F
100
AcDbEntity
  8
文字
100
AcDbMText
 10
3616.713034987005
 20
205.8887067409709
 30
0.0
 40
5.78326822033793
 41
37.16471788280627
 71
     1
 72
     5
  1
{\fSimSun|b0|i0|c134|p2;审核}
 73
     1
 44
1.0
1001
ACAD
1000
MTEXTBEGIN
1070
    73
1070
     1
1070
    44
1040
1.0
1070
    74
1070
     0
1000
MTEXTEND
  0
LINE
  5
5480
330
1F
100
AcDbEntity
  8
不可见
100
AcDbLine
 10
3006.921391021471
 20
821.1330834260746
 30
0.0
 11
3964.162629486022
 21
821.1330834260746
 31
0.0
  0
LINE
  5
5481
330
1F
100
AcDbEntity
  8
粗实线
100
AcDbLine
 10
3063.90003616816
 20
809.7373543967325
 30
0.0
 11
3952.766900456682
 21
809.7373543967325
 31
0.0
  0
LINE
  5
5482
330
1F
100
AcDbEntity
  8
不可见
100
AcDbLine
 10
3006.921391021471
 20
144.2267790832835
 30
0.0
 11
3006.921391021471
 21
821.1330834260746
 31
0.0
  0
LINE
  5
5483
330
1F
100
AcDbEntity
  8
粗实线
100
AcDbLine
 10
3063.90003616816
 20
155.6225081126228
 30
0.0
 11
3063.90003616816
 21
809.7373543967325
 31
0.0
  0
LINE
  5
5484
330
1F
100
AcDbEntity
  8
粗实线
100
AcDbLine
 10
3063.90003616816
 20
786.1019753660586
 30
0.0
 11
3176.269912585786
 21
786.1019753660586
 31
0.0
  0
LINE
  5
5485
330
1F
100
AcDbEntity
  8
粗实线
100
AcDbLine
 10
3176.269912585786
 20
786.1019753660586
 30
0.0
 11
3176.269912585786
 21
809.7373543967325
 31
0.0
  0
LINE
  5
5486
330
1F
100
AcDbEntity
  8
图框线
100
AcDbLine
 10
3063.90003616816
 20
173.8556745595633
 30
0.0
 11
3006.921391021471
 21
173.8556745595633
 31
0.0
  0
LINE
  5
5487
330
1F
100
AcDbEntity
  8
图框线
100
AcDbLine
 10
3063.90003616816
 20
187.5305493947813
 30
0.0
 11
3006.921391021471
 21
187.5305493947813
 31
0.0
  0
LINE
  5
5488
330
1F
100
AcDbEntity
  8
图框线
100
AcDbLine
 10
3063.90003616816
 20
205.7637158417148
 30
0.0
 11
3006.921391021471
 21
205.7637158417148
 31
0.0
  0
LINE
  5
5489
330
1F
100
AcDbEntity
  8
图框线
100
AcDbLine
 10
3063.90003616816
 20
219.4385906769249
 30
0.0
 11
3006.921391021471
 21
219.4385906769249
 31
0.0
  0
LINE
  5
548A
330
1F
100
AcDbEntity
  8
图框线
100
AcDbLine
 10
3063.90003616816
 20
237.6717571238671
 30
0.0
 11
3006.921391021471
 21
237.6717571238671
 31
0.0
  0
LINE
  5
548B
330
1F
100
AcDbEntity
  8
图框线
100
AcDbLine
 10
3063.90003616816
 20
251.3466319590702
 30
0.0
 11
3006.921391021471
 21
251.3466319590702
 31
0.0
  0
LINE
  5
548C
330
1F
100
AcDbEntity
  8
图框线
100
AcDbLine
 10
3063.90003616816
 20
269.5797984060255
 30
0.0
 11
3006.921391021471
 21
269.5797984060255
 31
0.0
  0
LINE
  5
548D
330
1F
100
AcDbEntity
  8
图框线
100
AcDbLine
 10
3063.90003616816
 20
283.2546732412279
 30
0.0
 11
3006.921391021471
 21
283.2546732412279
 31
0.0
  0
LINE
  5
548E
330
1F
100
AcDbEntity
  8
图框线
100
AcDbLine
 10
3063.90003616816
 20
301.4878396881841
 30
0.0
 11
3006.921391021471
 21
301.4878396881841
 31
0.0
  0
LINE
  5
548F
330
1F
100
AcDbEntity
  8
图框线
100
AcDbLine
 10
3063.90003616816
 20
315.1627145233976
 30
0.0
 11
3006.921391021471
 21
315.1627145233976
 31
0.0
  0
LINE
  5
5490
330
1F
100
AcDbEntity
  8
图框线
100
AcDbLine
 10
3063.90003616816
 20
333.3958809703198
 30
0.0
 11
3006.921391021471
 21
333.3958809703198
 31
0.0
  0
LINE
  5
5491
330
1F
100
AcDbEntity
  8
图框线
100
AcDbLine
 10
3063.90003616816
 20
347.0707558055307
 30
0.0
 11
3006.921391021471
 21
347.0707558055307
 31
0.0
  0
LINE
  5
5492
330
1F
100
AcDbEntity
  8
图框线
100
AcDbLine
 10
3063.90003616816
 20
360.7456306407339
 30
0.0
 11
3006.921391021471
 21
360.7456306407339
 31
0.0
  0
LINE
  5
5493
330
1F
100
AcDbEntity
  8
图框线
100
AcDbLine
 10
3063.90003616816
 20
155.6225081126228
 30
0.0
 11
3006.921391021471
 21
155.6225081126228
 31
0.0
  0
MTEXT
  5
5494
102
{ACAD_XDICTIONARY
360
5587
102
}
330
1F
100
AcDbEntity
  8
文字
100
AcDbMText
 10
3013.028427632175
 20
183.7610152146755
 30
0.0
 40
4.746321140720063
 41
120.5785052801427
 71
     1
 72
     5
  1
\U+65E5   
 73
     1
 44
1.0
1001
ACAD
1000
MTEXTBEGIN
1070
    73
1070
     1
1070
    44
1040
1.0
1070
    74
1070
     0
1000
MTEXTEND
  0
MTEXT
  5
5495
102
{ACAD_XDICTIONARY
360
5589
102
}
330
1F
100
AcDbEntity
  8
文字
100
AcDbMText
 10
3013.028427632175
 20
215.6515810042348
 30
0.0
 40
4.746321140720063
 41
120.5785052801427
 71
     1
 72
     5
  1
\U+7B7E   
 73
     1
 44
1.0
1001
ACAD
1000
MTEXTBEGIN
1070
    73
1070
     1
1070
    44
1040
1.0
1070
    74
1070
     0
1000
MTEXTEND
  0
MTEXT
  5
5496
102
{ACAD_XDICTIONARY
360
558B
102
}
330
1F
100
AcDbEntity
  8
文字
100
AcDbMText
 10
3013.028427632175
 20
248.433604325698
 30
0.0
 40
4.746321140720063
 41
120.5785052801427
 71
     1
 72
     5
  1
\U+5E95
 73
     1
 44
1.0
1001
ACAD
1000
MTEXTBEGIN
1070
    73
1070
     1
1070
    44
1040
1.0
1070
    74
1070
     0
1000
MTEXTEND
  0
MTEXT
  5
5497
102
{ACAD_XDICTIONARY
360
558D
102
}
330
1F
100
AcDbEntity
  8
文字
100
AcDbMText
 10
3013.028427632175
 20
279.4151102411752
 30
0.0
 40
4.746321140720063
 41
120.5785052801427
 71
     1
 72
     5
  1
\U+65E7
 73
     1
 44
1.0
1001
ACAD
1000
MTEXTBEGIN
1070
    73
1070
     1
1070
    44
1040
1.0
1070
    74
1070
     0
1000
MTEXTEND
  0
MTEXT
  5
5498
102
{ACAD_XDICTIONARY
360
558F
102
}
330
1F
100
AcDbEntity
  8
文字
100
AcDbMText
 10
3012.17108316022
 20
344.817736931247
 30
0.0
 40
4.746321140720063
 41
120.5785052801427
 71
     1
 72
     5
  1
\U+63CF   
 73
     1
 44
1.0
1001
ACAD
1000
MTEXTBEGIN
1070
    73
1070
     1
1070
    44
1040
1.0
1070
    74
1070
     0
1000
MTEXTEND
  0
MTEXT
  5
5499
102
{ACAD_XDICTIONARY
360
5591
102
}
330
1F
100
AcDbEntity
  8
文字
100
AcDbMText
 10
3009.884100766609
 20
358.725320986421
 30
0.0
 40
4.746321140720063
 41
120.5785052801427
 71
     1
 72
     5
  1
\ftxt.shx,gbcbig.shx;\H1x;\C1;\U+501F\U+FF08\U+901A\U+FF09\U+7528\U+4EF6\U+767B\U+8BB0
 73
     1
 44
1.0
1001
ACAD
1000
MTEXTBEGIN
1070
    73
1070
     1
1070
    44
1040
1.0
1070
    74
1070
     0
1000
MTEXTEND
  0
MTEXT
  5
549A
102
{ACAD_XDICTIONARY
360
5593
102
}
330
1F
100
AcDbEntity
  8
文字
100
AcDbMText
 10
3052.629349866325
 20
344.817736931247
 30
0.0
 40
4.746321140720063
 41
120.5785052801427
 71
     1
 72
     5
  1
\U+56FE   
 73
     1
 44
1.0
1001
ACAD
1000
MTEXTBEGIN
1070
    73
1070
     1
1070
    44
1040
1.0
1070
    74
1070
     0
1000
MTEXTEND
  0
MTEXT
  5
549B
102
{ACAD_XDICTIONARY
360
5595
102
}
330
1F
100
AcDbEntity
  8
文字
100
AcDbMText
 10
3012.17108316022
 20
312.6388446544356
 30
0.0
 40
4.746321140720063
 41
120.5785052801427
 71
     1
 72
     5
  1
\U+63CF   
 73
     1
 44
1.0
1001
ACAD
1000
MTEXTBEGIN
1070
    73
1070
     1
1070
    44
1040
1.0
1070
    74
1070
     0
1000
MTEXTEND
  0
MTEXT
  5
549C
102
{ACAD_XDICTIONARY
360
5597
102
}
330
1F
100
AcDbEntity
  8
文字
100
AcDbMText
 10
3052.629349866325
 20
312.6388446544356
 30
0.0
 40
4.746321140720063
 41
120.5785052801427
 71
     1
 72
     5
  1
\U+6821   
 73
     1
 44
1.0
1001
ACAD
1000
MTEXTBEGIN
1070
    73
1070
     1
1070
    44
1040
1.0
1070
    74
1070
     0
1000
MTEXTEND
  0
MTEXT
  5
549D
102
{ACAD_XDICTIONARY
360
5599
102
}
330
1F
100
AcDbEntity
  8
文字
100
AcDbMText
 10
3021.8287077001
 20
279.5130188917654
 30
0.0
 40
4.746321140720063
 41
120.5785052801427
 71
     1
 72
     5
  1
\U+5E95
 73
     1
 44
1.0
1001
ACAD
1000
MTEXTBEGIN
1070
    73
1070
     1
1070
    44
1040
1.0
1070
    74
1070
     0
1000
MTEXTEND
  0
MTEXT
  5
549E
102
{ACAD_XDICTIONARY
360
559B
102
}
330
1F
100
AcDbEntity
  8
文字
100
AcDbMText
 10
3032.967517113038
 20
279.4151102411752
 30
0.0
 40
4.746321140720063
 41
120.5785052801427
 71
     1
 72
     5
  1
\U+56FE
 73
     1
 44
1.0
1001
ACAD
1000
MTEXTBEGIN
1070
    73
1070
     1
1070
    44
1040
1.0
1070
    74
1070
     0
1000
MTEXTEND
  0
MTEXT
  5
549F
102
{ACAD_XDICTIONARY
360
559D
102
}
330
1F
100
AcDbEntity
  8
文字
100
AcDbMText
 10
3043.334216714131
 20
279.4151102411752
 30
0.0
 40
4.746321140720063
 41
120.5785052801427
 71
     1
 72
     5
  1
\U+603B
 73
     1
 44
1.0
1001
ACAD
1000
MTEXTBEGIN
1070
    73
1070
     1
1070
    44
1040
1.0
1070
    74
1070
     0
1000
MTEXTEND
  0
MTEXT
  5
54A0
102
{ACAD_XDICTIONARY
360
559F
102
}
330
1F
100
AcDbEntity
  8
文字
100
AcDbMText
 10
3053.671660409273
 20
279.4151102411752
 30
0.0
 40
4.746321140720063
 41
120.5785052801427
 71
     1
 72
     5
  1
\U+53F7
 73
     1
 44
1.0
1001
ACAD
1000
MTEXTBEGIN
1070
    73
1070
     1
1070
    44
1040
1.0
1070
    74
1070
     0
1000
MTEXTEND
  0
MTEXT
  5
54A1
102
{ACAD_XDICTIONARY
360
55A1
102
}
330
1F
100
AcDbEntity
  8
文字
100
AcDbMText
 10
3025.976126628906
 20
248.433604325698
 30
0.0
 40
4.746321140720063
 41
120.5785052801427
 71
     1
 72
     5
  1
\U+56FE
 73
     1
 44
1.0
1001
ACAD
1000
MTEXTBEGIN
1070
    73
1070
     1
1070
    44
1040
1.0
1070
    74
1070
     0
1000
MTEXTEND
  0
MTEXT
  5
54A2
102
{ACAD_XDICTIONARY
360
55A3
102
}
330
1F
100
AcDbEntity
  8
文字
100
AcDbMText
 10
3038.69680322284
 20
248.433604325698
 30
0.0
 40
4.746321140720063
 41
120.5785052801427
 71
     1
 72
     5
  1
\U+603B
 73
     1
 44
1.0
1001
ACAD
1000
MTEXTBEGIN
1070
    73
1070
     1
1070
    44
1040
1.0
1070
    74
1070
     0
1000
MTEXTEND
  0
MTEXT
  5
54A3
102
{ACAD_XDICTIONARY
360
55A5
102
}
330
1F
100
AcDbEntity
  8
文字
100
AcDbMText
 10
3052.415179025542
 20
248.433604325698
 30
0.0
 40
4.746321140720063
 41
120.5785052801427
 71
     1
 72
     5
  1
\U+53F7
 73
     1
 44
1.0
1001
ACAD
1000
MTEXTBEGIN
1070
    73
1070
     1
1070
    44
1040
1.0
1070
    74
1070
     0
1000
MTEXTEND
  0
MTEXT
  5
54A4
102
{ACAD_XDICTIONARY
360
55A7
102
}
330
1F
100
AcDbEntity
  8
文字
100
AcDbMText
 10
3052.517000325513
 20
215.6515810042348
 30
0.0
 40
4.746321140720063
 41
120.5785052801427
 71
     1
 72
     5
  1
\U+5B57  
 73
     1
 44
1.0
1001
ACAD
1000
MTEXTBEGIN
1070
    73
1070
     1
1070
    44
1040
1.0
1070
    74
1070
     0
1000
MTEXTEND
  0
MTEXT
  5
54A5
102
{ACAD_XDICTIONARY
360
55A9
102
}
330
1F
100
AcDbEntity
  8
文字
100
AcDbMText
 10
3051.696250087691
 20
183.7610152146755
 30
0.0
 40
4.746321140720063
 41
120.5785052801427
 71
     1
 72
     5
  1
\U+671F  
 73
     1
 44
1.0
1001
ACAD
1000
MTEXTBEGIN
1070
    73
1070
     1
1070
    44
1040
1.0
1070
    74
1070
     0
1000
MTEXTEND
  0
MTEXT
  5
54A6
330
1F
100
AcDbEntity
  8
文字
100
AcDbMText
 10
3868.42937616135
 20
177.9252059162969
 30
0.0
 40
14.22186982861618
 41
282.3822130710785
 71
     1
 72
     5
  1
\fNSimSun|b0|i0|c134|p49;\C1;1b20/2
  7
样式 8
 73
     1
 44
1.0
1001
ACAD
1000
MTEXTBEGIN
1070
    73
1070
     1
1070
    44
1040
1.0
1070
    74
1070
     0
1000
MTEXTEND
  0
LINE
  5
54A7
330
1F
100
AcDbEntity
  8
粗实线
100
AcDbLine
 10
3542.52065540045
 20
260.4632151825526
 30
0.0
 11
3542.52065540045
 21
155.6225081126228
 31
0.0
  0
MTEXT
  5
54A8
330
1F
100
AcDbEntity
  8
文字
100
AcDbMText
 10
3792.016690937646
 20
284.999238668876
 30
0.0
 40
10.93989986816629
 41
217.2170869777526
 71
     1
 72
     5
  1
{\fSimSun|b0|i0|c134|p2;\C1;注：图纸上标注尺寸不用印刷}
  7
样式 8
 73
     1
 44
1.0
1001
ACAD
1000
MTEXTBEGIN
1070
    73
1070
     1
1070
    44
1040
1.0
1070
    74
1070
     0
1000
MTEXTEND
  0
DIMENSION
  5
54A9
330
1F
100
AcDbEntity
  8
标注
100
AcDbDimension
  2
*D10
 10
3237.5
 20
731.592423663787
 30
0.0
 11
3440.500010437983
 21
731.592423663787
 31
0.0
 70
   160
  1
{\fArial|b0|i0|c0|p34;<>}
 71
     5
 42
406.0
  3
英寸
100
AcDbAlignedDimension
 13
3643.5
 23
672.0362347669746
 33
0.0
 14
3237.5
 24
673.9797839266683
 34
0.0
100
AcDbRotatedDimension
1001
ACAD
1000
DSTYLE
1002
{
1070
    41
1040
5.0
1070
   140
1040
10.0
1070
   371
1070
     0
1002
}
  0
DIMENSION
  5
54B5
330
1F
100
AcDbEntity
  8
标注
100
AcDbDimension
  2
*D11
 10
3231.15
 20
753.592423663787
 30
0.0
 11
3440.5
 21
753.592423663787
 31
0.0
 70
   160
  1
{\fArial|b0|i0|c0|p34;<>}
 71
     5
 42
418.6999999999998
  3
英寸
100
AcDbAlignedDimension
 13
3649.85
 23
669.0362691401047
 33
0.0
 14
3231.15
 24
671.703024299133
 34
0.0
100
AcDbRotatedDimension
1001
ACAD
1000
DSTYLE
1002
{
1070
    41
1040
5.0
1070
   140
1040
10.0
1070
   371
1070
     0
1002
}
  0
DIMENSION
  5
54C1
330
1F
100
AcDbEntity
  8
标注
100
AcDbDimension
  2
*D12
 10
3243.85
 20
709.361187294671
 30
0.0
 11
3440.500010437985
 21
709.361187294671
 31
0.0
 70
   160
  1
{\fArial|b0|i0|c0|p34;<>}
 71
     5
 42
393.3000000000002
  3
英寸
100
AcDbAlignedDimension
 13
3637.15
 23
669.8934021763532
 33
0.0
 14
3243.85
 24
674.7833461481514
 34
0.0
100
AcDbRotatedDimension
1001
ACAD
1000
DSTYLE
1002
{
1070
    41
1040
5.0
1070
   140
1040
10.0
1070
   371
1070
     0
1002
}
  0
DIMENSION
  5
551D
330
1F
100
AcDbEntity
  8
标注
100
AcDbDimension
  2
*D13
 10
3643.500000000003
 20
470.0221379643783
 30
0.0
 11
3682.628199596333
 21
470.0221379643783
 31
0.0
 70
   160
  1
{\fArial|b0|i0|c0|p34;<>}
 71
     5
 42
6.350000000002182
  3
英寸
100
AcDbAlignedDimension
 13
3637.15
 23
479.0
 33
0.0
 14
3643.500000000003
 24
478.9999999999927
 34
0.0
100
AcDbRotatedDimension
1001
ACAD
1000
DSTYLE
1002
{
1070
   140
1040
10.0
1070
   371
1070
     0
1070
    41
1040
5.0
1002
}
  0
DIMENSION
  5
552C
330
1F
100
AcDbEntity
  8
标注
100
AcDbDimension
  2
*D14
 10
3649.850000000004
 20
448.5221379643782
 30
0.0
 11
3683.628199596334
 21
448.5221379643782
 31
0.0
 70
   160
  1
{\fArial|b0|i0|c0|p34;<>}
 71
     5
 42
6.350000000002182
  3
英寸
100
AcDbAlignedDimension
 13
3643.500000000003
 23
478.9999999999927
 33
0.0
 14
3649.850000000004
 24
479.0
 34
0.0
100
AcDbRotatedDimension
1001
ACAD
1000
DSTYLE
1002
{
1070
    41
1040
5.0
1070
   140
1040
10.0
1070
   371
1070
     0
1002
}
  0
ENDSEC
  0
SECTION
  2
OBJECTS
  0
DICTIONARY
  5
C
330
0
100
AcDbDictionary
281
     1
  3
ACAD_2007HEADERVARS_RT
350
554F
  3
ACAD_COLOR
350
3513
  3
ACAD_GROUP
350
D
  3
ACAD_IMAGE_DICT
350
4E7F
  3
ACAD_IMAGE_VARS
350
4FE5
  3
ACAD_LAYOUT
350
1A
  3
ACAD_MATERIAL
350
350F
  3
ACAD_MLINESTYLE
350
17
  3
ACAD_PLOTSETTINGS
350
19
  3
ACAD_PLOTSTYLENAME
350
E
  3
ACAD_TABLESTYLE
350
E9
  3
ACAD_VISUALSTYLE
350
28
  3
AcDbVariableDictionary
350
366A
  3
DWGPROPS
350
554E
  0
DICTIONARY
  5
36E2
330
2
100
AcDbDictionary
280
     1
281
     1
  3
ACAD_LAYERSTATES
360
36E3
  0
DICTIONARY
  5
555F
330
4964
100
AcDbDictionary
280
     1
281
     1
  3
ACAD_MTEXT_RT
360
5560
  0
DICTIONARY
  5
5561
330
4965
100
AcDbDictionary
280
     1
281
     1
  3
ACAD_MTEXT_RT
360
5562
  0
DICTIONARY
  5
5563
330
4966
100
AcDbDictionary
280
     1
281
     1
  3
ACAD_MTEXT_RT
360
5564
  0
DICTIONARY
  5
5565
330
4967
100
AcDbDictionary
280
     1
281
     1
  3
ACAD_MTEXT_RT
360
5566
  0
DICTIONARY
  5
5567
330
4968
100
AcDbDictionary
280
     1
281
     1
  3
ACAD_MTEXT_RT
360
5568
  0
DICTIONARY
  5
5569
330
4969
100
AcDbDictionary
280
     1
281
     1
  3
ACAD_MTEXT_RT
360
556A
  0
DICTIONARY
  5
556B
330
496A
100
AcDbDictionary
280
     1
281
     1
  3
ACAD_MTEXT_RT
360
556C
  0
DICTIONARY
  5
556D
330
496B
100
AcDbDictionary
280
     1
281
     1
  3
ACAD_MTEXT_RT
360
556E
  0
DICTIONARY
  5
556F
330
496C
100
AcDbDictionary
280
     1
281
     1
  3
ACAD_MTEXT_RT
360
5570
  0
DICTIONARY
  5
5571
330
496D
100
AcDbDictionary
280
     1
281
     1
  3
ACAD_MTEXT_RT
360
5572
  0
DICTIONARY
  5
5573
330
496E
100
AcDbDictionary
280
     1
281
     1
  3
ACAD_MTEXT_RT
360
5574
  0
DICTIONARY
  5
5575
330
496F
100
AcDbDictionary
280
     1
281
     1
  3
ACAD_MTEXT_RT
360
5576
  0
DICTIONARY
  5
5577
330
4970
100
AcDbDictionary
280
     1
281
     1
  3
ACAD_MTEXT_RT
360
5578
  0
DICTIONARY
  5
5579
330
4971
100
AcDbDictionary
280
     1
281
     1
  3
ACAD_MTEXT_RT
360
557A
  0
DICTIONARY
  5
557B
330
4972
100
AcDbDictionary
280
     1
281
     1
  3
ACAD_MTEXT_RT
360
557C
  0
DICTIONARY
  5
557D
330
4973
100
AcDbDictionary
280
     1
281
     1
  3
ACAD_MTEXT_RT
360
557E
  0
DICTIONARY
  5
557F
330
4974
100
AcDbDictionary
280
     1
281
     1
  3
ACAD_MTEXT_RT
360
5580
  0
DICTIONARY
  5
5581
330
4975
100
AcDbDictionary
280
     1
281
     1
  3
ACAD_MTEXT_RT
360
5582
  0
DICTIONARY
  5
5583
330
5115
100
AcDbDictionary
280
     1
281
     1
  3
ACAD_MTEXT_RT
360
5584
  0
DICTIONARY
  5
5585
330
5117
100
AcDbDictionary
280
     1
281
     1
  3
ACAD_MTEXT_RT
360
5586
  0
DICTIONARY
  5
5587
330
5494
100
AcDbDictionary
280
     1
281
     1
  3
ACAD_MTEXT_RT
360
5588
  0
DICTIONARY
  5
5589
330
5495
100
AcDbDictionary
280
     1
281
     1
  3
ACAD_MTEXT_RT
360
558A
  0
DICTIONARY
  5
558B
330
5496
100
AcDbDictionary
280
     1
281
     1
  3
ACAD_MTEXT_RT
360
558C
  0
DICTIONARY
  5
558D
330
5497
100
AcDbDictionary
280
     1
281
     1
  3
ACAD_MTEXT_RT
360
558E
  0
DICTIONARY
  5
558F
330
5498
100
AcDbDictionary
280
     1
281
     1
  3
ACAD_MTEXT_RT
360
5590
  0
DICTIONARY
  5
5591
330
5499
100
AcDbDictionary
280
     1
281
     1
  3
ACAD_MTEXT_RT
360
5592
  0
DICTIONARY
  5
5593
330
549A
100
AcDbDictionary
280
     1
281
     1
  3
ACAD_MTEXT_RT
360
5594
  0
DICTIONARY
  5
5595
330
549B
100
AcDbDictionary
280
     1
281
     1
  3
ACAD_MTEXT_RT
360
5596
  0
DICTIONARY
  5
5597
330
549C
100
AcDbDictionary
280
     1
281
     1
  3
ACAD_MTEXT_RT
360
5598
  0
DICTIONARY
  5
5599
330
549D
100
AcDbDictionary
280
     1
281
     1
  3
ACAD_MTEXT_RT
360
559A
  0
DICTIONARY
  5
559B
330
549E
100
AcDbDictionary
280
     1
281
     1
  3
ACAD_MTEXT_RT
360
559C
  0
DICTIONARY
  5
559D
330
549F
100
AcDbDictionary
280
     1
281
     1
  3
ACAD_MTEXT_RT
360
559E
  0
DICTIONARY
  5
559F
330
54A0
100
AcDbDictionary
280
     1
281
     1
  3
ACAD_MTEXT_RT
360
55A0
  0
DICTIONARY
  5
55A1
330
54A1
100
AcDbDictionary
280
     1
281
     1
  3
ACAD_MTEXT_RT
360
55A2
  0
DICTIONARY
  5
55A3
330
54A2
100
AcDbDictionary
280
     1
281
     1
  3
ACAD_MTEXT_RT
360
55A4
  0
DICTIONARY
  5
55A5
330
54A3
100
AcDbDictionary
280
     1
281
     1
  3
ACAD_MTEXT_RT
360
55A6
  0
DICTIONARY
  5
55A7
330
54A4
100
AcDbDictionary
280
     1
281
     1
  3
ACAD_MTEXT_RT
360
55A8
  0
DICTIONARY
  5
55A9
330
54A5
100
AcDbDictionary
280
     1
281
     1
  3
ACAD_MTEXT_RT
360
55AA
  0
DICTIONARY
  5
554F
102
{ACAD_REACTORS
330
C
102
}
330
C
100
AcDbDictionary
281
     1
  3
INTERFERECOLOR
350
5550
  0
DICTIONARY
  5
3513
102
{ACAD_REACTORS
330
C
102
}
330
C
100
AcDbDictionary
281
     1
  0
DICTIONARY
  5
D
102
{ACAD_REACTORS
330
C
102
}
330
C
100
AcDbDictionary
281
     1
  0
DICTIONARY
  5
4E7F
102
{ACAD_REACTORS
330
C
102
}
330
C
100
AcDbDictionary
281
     1
  3
LOGO1
350
4E81
  0
ACAD_PROXY_OBJECT
  5
4FE5
102
{ACAD_REACTORS
330
C
102
}
330
C
100
AcDbProxyObject
 90
      499
 91
      510
 95
    65563
 70
     0
 93
       41
310
40901405054C
 94
        0
1001
ACAD
1000
AcRTDxfName
1000
RASTERVARIABLES
  0
DICTIONARY
  5
1A
102
{ACAD_REACTORS
330
C
102
}
330
C
100
AcDbDictionary
281
     1
  3
Layout1
350
1E
  3
Layout2
350
24
  3
Model
350
22
  0
DICTIONARY
  5
350F
102
{ACAD_REACTORS
330
C
102
}
330
C
100
AcDbDictionary
281
     1
  3
ByBlock
350
3511
  3
ByLayer
350
3510
  3
Global
350
3512
  0
DICTIONARY
  5
17
102
{ACAD_REACTORS
330
C
102
}
330
C
100
AcDbDictionary
281
     1
  3
Standard
350
18
  0
DICTIONARY
  5
19
102
{ACAD_REACTORS
330
C
102
}
330
C
100
AcDbDictionary
281
     1
  0
ACDBDICTIONARYWDFLT
  5
E
102
{ACAD_REACTORS
330
C
102
}
330
C
100
AcDbDictionary
281
     1
  3
Normal
350
F
100
AcDbDictionaryWithDefault
340
F
  0
DICTIONARY
  5
E9
102
{ACAD_REACTORS
330
C
102
}
330
C
100
AcDbDictionary
281
     1
  3
Standard
350
3514
  0
DICTIONARY
  5
28
102
{ACAD_REACTORS
330
C
102
}
330
C
100
AcDbDictionary
281
     1
  3
2dWireframe
350
2D
  3
3D Hidden
350
2F
  3
3dWireframe
350
2E
  3
Basic
350
30
  3
Brighten
350
34
  3
ColorChange
350
38
  3
Conceptual
350
32
  3
Dim
350
33
  3
Facepattern
350
37
  3
Flat
350
29
  3
FlatWithEdges
350
2A
  3
Gouraud
350
2B
  3
GouraudWithEdges
350
2C
  3
Linepattern
350
36
  3
Realistic
350
31
  3
Thicken
350
35
  0
DICTIONARY
  5
366A
102
{ACAD_REACTORS
330
C
102
}
330
C
100
AcDbDictionary
281
     1
  3
CTABLESTYLE
350
366B
  3
DGNFRAME
350
554D
  3
DIMASSOC
350
554C
  3
HIDETEXT
350
554B
  3
INDEXCTL
350
554A
  3
SORTENTS
350
5549
  0
XRECORD
  5
554E
102
{ACAD_REACTORS
330
C
102
}
330
C
100
AcDbXrecord
280
     1
  1
DWGPROPS COOKIE
  2

  3

  4

  6

  7

  8
Administrator
  9

300
=
301
=
302
=
303
=
304
=
305
=
306
=
307
=
308
=
309
=
 40
0.0355998726851852
 41
2455841.60680022
 42
2459756.63256044
  1

 90
        0
  0
DICTIONARY
  5
36E3
102
{ACAD_REACTORS
330
36E2
102
}
330
36E2
100
AcDbDictionary
281
     1
  0
XRECORD
  5
5560
102
{ACAD_REACTORS
330
555F
102
}
330
555F
100
AcDbXrecord
280
     1
 40
2521.0
  1
日   
  0
XRECORD
  5
5562
102
{ACAD_REACTORS
330
5561
102
}
330
5561
100
AcDbXrecord
280
     1
 40
2618.0
  1
签   
  0
XRECORD
  5
5564
102
{ACAD_REACTORS
330
5563
102
}
330
5563
100
AcDbXrecord
280
     1
 40
1661.0
  1
底
  0
XRECORD
  5
5566
102
{ACAD_REACTORS
330
5565
102
}
330
5565
100
AcDbXrecord
280
     1
 40
1671.0
  1
旧
  0
XRECORD
  5
5568
102
{ACAD_REACTORS
330
5567
102
}
330
5567
100
AcDbXrecord
280
     1
 40
2618.0
  1
描   
  0
XRECORD
  5
556A
102
{ACAD_REACTORS
330
5569
102
}
330
5569
100
AcDbXrecord
280
     1
 40
249260.0
  1
\ftxt.shx,gbcbig.shx;\H1x;\C1;借（通）用件登记
  0
XRECORD
  5
556C
102
{ACAD_REACTORS
330
556B
102
}
330
556B
100
AcDbXrecord
280
     1
 40
2640.0
  1
图   
  0
XRECORD
  5
556E
102
{ACAD_REACTORS
330
556D
102
}
330
556D
100
AcDbXrecord
280
     1
 40
2618.0
  1
描   
  0
XRECORD
  5
5570
102
{ACAD_REACTORS
330
556F
102
}
330
556F
100
AcDbXrecord
280
     1
 40
2394.0
  1
校   
  0
XRECORD
  5
5572
102
{ACAD_REACTORS
330
5571
102
}
330
5571
100
AcDbXrecord
280
     1
 40
1661.0
  1
底
  0
XRECORD
  5
5574
102
{ACAD_REACTORS
330
5573
102
}
330
5573
100
AcDbXrecord
280
     1
 40
1776.0
  1
图
  0
XRECORD
  5
5576
102
{ACAD_REACTORS
330
5575
102
}
330
5575
100
AcDbXrecord
280
     1
 40
1615.0
  1
总
  0
XRECORD
  5
5578
102
{ACAD_REACTORS
330
5577
102
}
330
5577
100
AcDbXrecord
280
     1
 40
1663.0
  1
号
  0
XRECORD
  5
557A
102
{ACAD_REACTORS
330
5579
102
}
330
5579
100
AcDbXrecord
280
     1
 40
1776.0
  1
图
  0
XRECORD
  5
557C
102
{ACAD_REACTORS
330
557B
102
}
330
557B
100
AcDbXrecord
280
     1
 40
1615.0
  1
总
  0
XRECORD
  5
557E
102
{ACAD_REACTORS
330
557D
102
}
330
557D
100
AcDbXrecord
280
     1
 40
1663.0
  1
号
  0
XRECORD
  5
5580
102
{ACAD_REACTORS
330
557F
102
}
330
557F
100
AcDbXrecord
280
     1
 40
2180.0
  1
字  
  0
XRECORD
  5
5582
102
{ACAD_REACTORS
330
5581
102
}
330
5581
100
AcDbXrecord
280
     1
 40
2210.0
  1
期  
  0
XRECORD
  5
5584
102
{ACAD_REACTORS
330
5583
102
}
330
5583
100
AcDbXrecord
280
     1
 40
708060.0
  1
\fArial|b0|i0|c0|p34;Use outside line for reveal mount cut:\PSink rim is \U+00BC” revealed from the countertop opening.
  0
XRECORD
  5
5586
102
{ACAD_REACTORS
330
5585
102
}
330
5585
100
AcDbXrecord
280
     1
 40
922857.0
  1
\fArial|b0|i0|c0|p34;Use inside line for negative reveal mount cut:\PSink wall is covered \U+00BC” inside the edge of countertop opening.
  0
XRECORD
  5
5588
102
{ACAD_REACTORS
330
5587
102
}
330
5587
100
AcDbXrecord
280
     1
 40
2521.0
  1
日   
  0
XRECORD
  5
558A
102
{ACAD_REACTORS
330
5589
102
}
330
5589
100
AcDbXrecord
280
     1
 40
2618.0
  1
签   
  0
XRECORD
  5
558C
102
{ACAD_REACTORS
330
558B
102
}
330
558B
100
AcDbXrecord
280
     1
 40
1661.0
  1
底
  0
XRECORD
  5
558E
102
{ACAD_REACTORS
330
558D
102
}
330
558D
100
AcDbXrecord
280
     1
 40
1671.0
  1
旧
  0
XRECORD
  5
5590
102
{ACAD_REACTORS
330
558F
102
}
330
558F
100
AcDbXrecord
280
     1
 40
2618.0
  1
描   
  0
XRECORD
  5
5592
102
{ACAD_REACTORS
330
5591
102
}
330
5591
100
AcDbXrecord
280
     1
 40
249260.0
  1
\ftxt.shx,gbcbig.shx;\H1x;\C1;借（通）用件登记
  0
XRECORD
  5
5594
102
{ACAD_REACTORS
330
5593
102
}
330
5593
100
AcDbXrecord
280
     1
 40
2640.0
  1
图   
  0
XRECORD
  5
5596
102
{ACAD_REACTORS
330
5595
102
}
330
5595
100
AcDbXrecord
280
     1
 40
2618.0
  1
描   
  0
XRECORD
  5
5598
102
{ACAD_REACTORS
330
5597
102
}
330
5597
100
AcDbXrecord
280
     1
 40
2394.0
  1
校   
  0
XRECORD
  5
559A
102
{ACAD_REACTORS
330
5599
102
}
330
5599
100
AcDbXrecord
280
     1
 40
1661.0
  1
底
  0
XRECORD
  5
559C
102
{ACAD_REACTORS
330
559B
102
}
330
559B
100
AcDbXrecord
280
     1
 40
1776.0
  1
图
  0
XRECORD
  5
559E
102
{ACAD_REACTORS
330
559D
102
}
330
559D
100
AcDbXrecord
280
     1
 40
1615.0
  1
总
  0
XRECORD
  5
55A0
102
{ACAD_REACTORS
330
559F
102
}
330
559F
100
AcDbXrecord
280
     1
 40
1663.0
  1
号
  0
XRECORD
  5
55A2
102
{ACAD_REACTORS
330
55A1
102
}
330
55A1
100
AcDbXrecord
280
     1
 40
1776.0
  1
图
  0
XRECORD
  5
55A4
102
{ACAD_REACTORS
330
55A3
102
}
330
55A3
100
AcDbXrecord
280
     1
 40
1615.0
  1
总
  0
XRECORD
  5
55A6
102
{ACAD_REACTORS
330
55A5
102
}
330
55A5
100
AcDbXrecord
280
     1
 40
1663.0
  1
号
  0
XRECORD
  5
55A8
102
{ACAD_REACTORS
330
55A7
102
}
330
55A7
100
AcDbXrecord
280
     1
 40
2180.0
  1
字  
  0
XRECORD
  5
55AA
102
{ACAD_REACTORS
330
55A9
102
}
330
55A9
100
AcDbXrecord
280
     1
 40
2210.0
  1
期  
  0
XRECORD
  5
5550
102
{ACAD_REACTORS
330
554F
102
}
330
554F
100
AcDbXrecord
280
     1
1004
1800000001000000000000C0000000000000000000000000
  0
IMAGEDEF
  5
4E81
102
{ACAD_REACTORS
330
4E7F
102
}
330
4E7F
100
AcDbRasterImageDef
 90
        0
  1
G:\1-E盘家中电脑\TAJE泰捷资料\3-开孔纸板\Logo1.jpg
 10
2112.0
 20
586.0
 11
0.0004734848484848
 21
0.0004734848484848
280
     1
281
     0
  0
LAYOUT
  5
1E
102
{ACAD_XDICTIONARY
360
5551
102
}
102
{ACAD_REACTORS
330
1A
102
}
330
1A
100
AcDbPlotSettings
  1

  2
none_device
  4

  6

 40
0.0
 41
0.0
 42
0.0
 43
0.0
 44
0.0
 45
0.0
 46
0.0
 47
0.0
 48
0.0
 49
0.0
140
0.0
141
0.0
142
1.0
143
1.0
 70
   688
 72
     0
 73
     0
 74
     5
  7

 75
    16
147
1.0
148
0.0
149
0.0
100
AcDbLayout
  1
Layout1
 70
     1
 71
     1
 10
0.0
 20
0.0
 11
12.0
 21
9.0
 12
0.0
 22
0.0
 32
0.0
 14
1.000000000000000E+20
 24
1.000000000000000E+20
 34
1.000000000000000E+20
 15
-1.000000000000000E+20
 25
-1.000000000000000E+20
 35
-1.000000000000000E+20
146
0.0
 13
0.0
 23
0.0
 33
0.0
 16
1.0
 26
0.0
 36
0.0
 17
0.0
 27
1.0
 37
0.0
 76
     0
330
1B
  0
LAYOUT
  5
24
102
{ACAD_XDICTIONARY
360
5555
102
}
102
{ACAD_REACTORS
330
1A
102
}
330
1A
100
AcDbPlotSettings
  1

  2
none_device
  4

  6

 40
0.0
 41
0.0
 42
0.0
 43
0.0
 44
0.0
 45
0.0
 46
0.0
 47
0.0
 48
0.0
 49
0.0
140
0.0
141
0.0
142
1.0
143
1.0
 70
   688
 72
     0
 73
     0
 74
     5
  7

 75
    16
147
1.0
148
0.0
149
0.0
100
AcDbLayout
  1
Layout2
 70
     1
 71
     2
 10
0.0
 20
0.0
 11
0.0
 21
0.0
 12
0.0
 22
0.0
 32
0.0
 14
0.0
 24
0.0
 34
0.0
 15
0.0
 25
0.0
 35
0.0
146
0.0
 13
0.0
 23
0.0
 33
0.0
 16
1.0
 26
0.0
 36
0.0
 17
0.0
 27
1.0
 37
0.0
 76
     0
330
23
  0
LAYOUT
  5
22
102
{ACAD_XDICTIONARY
360
5553
102
}
102
{ACAD_REACTORS
330
1A
102
}
330
1A
100
AcDbPlotSettings
  1

  2
Foxit Reader PDF Printer
  4
A4
  6

 40
0.0
 41
0.0000000000000246
 42
0.0
 43
0.0
 44
210.0
 45
297.0
 46
-0.0000000000000018
 47
0.0151515151518341
 48
3006.921391021471
 49
144.2267790832835
140
3964.162629486022
141
821.1330834260746
142
1.0
143
3.22336335401329
 70
  1716
 72
     1
 73
     1
 74
     4
  7
Monochrome.ctb
 75
     0
147
0.3102349596284071
148
0.0
149
0.0
100
AcDbLayout
  1
Model
 70
     1
 71
     0
 10
0.0
 20
0.0
 11
12.0
 21
9.0
 12
0.0
 22
0.0
 32
0.0
 14
-429.0
 24
144.2267790832835
 34
0.0
 15
3964.162629486022
 25
1211.680175435424
 35
0.0
146
0.0
 13
0.0
 23
0.0
 33
0.0
 16
1.0
 26
0.0
 36
0.0
 17
0.0
 27
1.0
 37
0.0
 76
     0
330
1F
331
27
  0
MATERIAL
  5
3511
102
{ACAD_XDICTIONARY
360
5559
102
}
102
{ACAD_REACTORS
330
350F
102
}
330
350F
100
AcDbMaterial
  1
ByBlock
  0
MATERIAL
  5
3510
102
{ACAD_XDICTIONARY
360
5557
102
}
102
{ACAD_REACTORS
330
350F
102
}
330
350F
100
AcDbMaterial
  1
ByLayer
  0
MATERIAL
  5
3512
102
{ACAD_XDICTIONARY
360
555B
102
}
102
{ACAD_REACTORS
330
350F
102
}
330
350F
100
AcDbMaterial
  1
Global
  0
MLINESTYLE
  5
18
102
{ACAD_REACTORS
330
17
102
}
330
17
100
AcDbMlineStyle
  2
STANDARD
 70
     0
  3

 62
   256
 51
90.0
 52
90.0
 71
     2
 49
0.5
 62
   256
  6
BYLAYER
 49
-0.5
 62
   256
  6
BYLAYER
  0
ACDBPLACEHOLDER
  5
F
102
{ACAD_REACTORS
330
E
102
}
330
E
  0
TABLESTYLE
  5
3514
102
{ACAD_XDICTIONARY
360
555D
102
}
102
{ACAD_REACTORS
330
E9
102
}
330
E9
100
AcDbTableStyle
  3
Standard
 70
     0
 71
     0
 40
0.06
 41
0.06
280
     0
281
     0
  7
Standard
140
0.18
170
     2
 62
     0
 63
     7
283
     0
274
    -2
284
     1
 64
     0
275
    -2
285
     1
 65
     0
276
    -2
286
     1
 66
     0
277
    -2
287
     1
 67
     0
278
    -2
288
     1
 68
     0
279
    -2
289
     1
 69
     0
  7
Standard
140
0.25
170
     5
 62
     0
 63
     7
283
     0
274
    -2
284
     1
 64
     0
275
    -2
285
     1
 65
     0
276
    -2
286
     1
 66
     0
277
    -2
287
     1
 67
     0
278
    -2
288
     1
 68
     0
279
    -2
289
     1
 69
     0
  7
Standard
140
0.18
170
     5
 62
     0
 63
     7
283
     0
274
    -2
284
     1
 64
     0
275
    -2
285
     1
 65
     0
276
    -2
286
     1
 66
     0
277
    -2
287
     1
 67
     0
278
    -2
288
     1
 68
     0
279
    -2
289
     1
 69
     0
  0
VISUALSTYLE
  5
2D
102
{ACAD_REACTORS
330
28
102
}
330
28
100
AcDbVisualStyle
  2
2dWireframe
 70
     4
 71
     0
 72
     2
 73
     0
 90
        0
 40
-0.6
 41
-30.0
 62
     5
 63
     7
 74
     1
 91
        4
 64
     7
 65
   257
 75
     1
175
     1
 42
1.0
 92
        0
 66
   257
 43
1.0
 76
     1
 77
     6
 78
     2
 67
     7
 79
     5
170
     0
171
     0
290
     0
174
     0
 93
        1
 44
0.0
173
     0
291
     0
 45
0.0
1001
ACAD
1000
AcDbSavedByObjectVersion
1070
     0
  0
VISUALSTYLE
  5
2F
102
{ACAD_REACTORS
330
28
102
}
330
28
100
AcDbVisualStyle
  2
3D Hidden
 70
     6
 71
     1
 72
     2
 73
     2
 90
        0
 40
-0.6
 41
-30.0
 62
     5
 63
     7
 74
     2
 91
        2
 64
     7
 65
   257
 75
     2
175
     1
 42
40.0
 92
        0
 66
   257
 43
1.0
 76
     1
 77
     6
 78
     2
 67
     7
 79
     3
170
     0
171
     0
290
     0
174
     0
 93
        1
 44
0.0
173
     0
291
     0
 45
0.0
1001
ACAD
1000
AcDbSavedByObjectVersion
1070
     0
  0
VISUALSTYLE
  5
2E
102
{ACAD_REACTORS
330
28
102
}
330
28
100
AcDbVisualStyle
  2
3dWireframe
 70
     5
 71
     0
 72
     2
 73
     0
 90
        0
 40
-0.6
 41
-30.0
 62
     5
 63
     7
 74
     1
 91
        4
 64
     7
 65
   257
 75
     1
175
     1
 42
1.0
 92
        0
 66
   257
 43
1.0
 76
     1
 77
     6
 78
     2
 67
     7
 79
     5
170
     0
171
     0
290
     0
174
     0
 93
        1
 44
0.0
173
     0
291
     0
 45
0.0
1001
ACAD
1000
AcDbSavedByObjectVersion
1070
     0
  0
VISUALSTYLE
  5
30
102
{ACAD_REACTORS
330
28
102
}
330
28
100
AcDbVisualStyle
  2
Basic
 70
     7
 71
     1
 72
     0
 73
     1
 90
        0
 40
-0.6
 41
-30.0
 62
     5
 63
     7
 74
     0
 91
        4
 64
     7
 65
   257
 75
     1
175
     1
 42
1.0
 92
        8
 66
     7
 43
1.0
 76
     1
 77
     6
 78
     2
 67
     7
 79
     5
170
     0
171
     0
290
     0
174
     0
 93
        1
 44
0.0
173
     0
291
     1
 45
0.0
1001
ACAD
1000
AcDbSavedByObjectVersion
1070
     0
  0
VISUALSTYLE
  5
34
102
{ACAD_REACTORS
330
28
102
}
330
28
100
AcDbVisualStyle
  2
Brighten
 70
    12
 71
     2
 72
     2
 73
     0
 90
        0
 40
-0.6
 41
-30.0
 62
     5
 63
     7
 74
     1
 91
        4
 64
     7
 65
   257
 75
     1
175
     1
 42
1.0
 92
        8
 66
     7
 43
1.0
 76
     1
 77
     6
 78
     2
 67
     7
 79
     5
170
     0
171
     0
290
     0
174
     0
 93
        1
 44
50.0
173
     0
291
     1
 45
0.0
1001
ACAD
1000
AcDbSavedByObjectVersion
1070
     0
  0
VISUALSTYLE
  5
38
102
{ACAD_REACTORS
330
28
102
}
330
28
100
AcDbVisualStyle
  2
ColorChange
 70
    16
 71
     2
 72
     2
 73
     3
 90
        0
 40
-0.6
 41
-30.0
 62
     5
 63
     8
 74
     1
 91
        4
 64
     7
 65
   257
 75
     1
175
     1
 42
1.0
 92
        8
 66
     8
 43
1.0
 76
     1
 77
     6
 78
     2
 67
     7
 79
     5
170
     0
171
     0
290
     0
174
     0
 93
        1
 44
0.0
173
     0
291
     1
 45
0.0
1001
ACAD
1000
AcDbSavedByObjectVersion
1070
     0
  0
VISUALSTYLE
  5
32
102
{ACAD_REACTORS
330
28
102
}
330
28
100
AcDbVisualStyle
  2
Conceptual
 70
     9
 71
     3
 72
     2
 73
     0
 90
        0
 40
-0.6
 41
-30.0
 62
     5
 63
     7
 74
     2
 91
        2
 64
     7
 65
   257
 75
     1
175
     1
 42
40.0
 92
        8
 66
     7
 43
1.0
 76
     1
 77
     6
 78
     2
 67
     7
 79
     3
170
     0
171
     0
290
     0
174
     0
 93
        1
 44
0.0
173
     0
291
     0
 45
0.0
1001
ACAD
1000
AcDbSavedByObjectVersion
1070
     0
  0
VISUALSTYLE
  5
33
102
{ACAD_REACTORS
330
28
102
}
330
28
100
AcDbVisualStyle
  2
Dim
 70
    11
 71
     2
 72
     2
 73
     0
 90
        0
 40
-0.6
 41
-30.0
 62
     5
 63
     7
 74
     1
 91
        4
 64
     7
 65
   257
 75
     1
175
     1
 42
1.0
 92
        8
 66
     7
 43
1.0
 76
     1
 77
     6
 78
     2
 67
     7
 79
     5
170
     0
171
     0
290
     0
174
     0
 93
        1
 44
-50.0
173
     0
291
     1
 45
0.0
1001
ACAD
1000
AcDbSavedByObjectVersion
1070
     0
  0
VISUALSTYLE
  5
37
102
{ACAD_REACTORS
330
28
102
}
330
28
100
AcDbVisualStyle
  2
Facepattern
 70
    15
 71
     2
 72
     2
 73
     0
 90
        0
 40
-0.6
 41
-30.0
 62
     5
 63
     7
 74
     1
 91
        4
 64
     7
 65
   257
 75
     1
175
     1
 42
1.0
 92
        8
 66
     7
 43
1.0
 76
     1
 77
     6
 78
     2
 67
     7
 79
     5
170
     0
171
     0
290
     0
174
     0
 93
        1
 44
0.0
173
     0
291
     1
 45
0.0
1001
ACAD
1000
AcDbSavedByObjectVersion
1070
     0
  0
VISUALSTYLE
  5
29
102
{ACAD_REACTORS
330
28
102
}
330
28
100
AcDbVisualStyle
  2
Flat
 70
     0
 71
     2
 72
     1
 73
     1
 90
        2
 40
-0.6
 41
30.0
 62
     5
 63
     7
 74
     0
 91
        4
 64
     7
 65
   257
 75
     1
175
     1
 42
1.0
 92
        8
 66
     7
 43
1.0
 76
     1
 77
     6
 78
     2
 67
     7
 79
     5
170
     0
171
     0
290
     0
174
     0
 93
       13
 44
0.0
173
     0
291
     1
 45
0.0
1001
ACAD
1000
AcDbSavedByObjectVersion
1070
     0
  0
VISUALSTYLE
  5
2A
102
{ACAD_REACTORS
330
28
102
}
330
28
100
AcDbVisualStyle
  2
FlatWithEdges
 70
     1
 71
     2
 72
     1
 73
     1
 90
        2
 40
-0.6
 41
30.0
 62
     5
 63
     7
 74
     1
 91
        4
 64
     7
 65
   257
 75
     1
175
     1
 42
1.0
 92
        0
 66
   257
 43
1.0
 76
     1
 77
     6
 78
     2
 67
     7
 79
     5
170
     0
171
     0
290
     0
174
     0
 93
       13
 44
0.0
173
     0
291
     1
 45
0.0
1001
ACAD
1000
AcDbSavedByObjectVersion
1070
     0
  0
VISUALSTYLE
  5
2B
102
{ACAD_REACTORS
330
28
102
}
330
28
100
AcDbVisualStyle
  2
Gouraud
 70
     2
 71
     2
 72
     2
 73
     1
 90
        2
 40
-0.6
 41
30.0
 62
     5
 63
     7
 74
     0
 91
        4
 64
     7
 65
   257
 75
     1
175
     1
 42
1.0
 92
        0
 66
     7
 43
1.0
 76
     1
 77
     6
 78
     2
 67
     7
 79
     5
170
     0
171
     0
290
     0
174
     0
 93
       13
 44
0.0
173
     0
291
     1
 45
0.0
1001
ACAD
1000
AcDbSavedByObjectVersion
1070
     0
  0
VISUALSTYLE
  5
2C
102
{ACAD_REACTORS
330
28
102
}
330
28
100
AcDbVisualStyle
  2
GouraudWithEdges
 70
     3
 71
     2
 72
     2
 73
     1
 90
        2
 40
-0.6
 41
30.0
 62
     5
 63
     7
 74
     1
 91
        4
 64
     7
 65
   257
 75
     1
175
     1
 42
1.0
 92
        0
 66
   257
 43
1.0
 76
     1
 77
     6
 78
     2
 67
     7
 79
     5
170
     0
171
     0
290
     0
174
     0
 93
       13
 44
0.0
173
     0
291
     1
 45
0.0
1001
ACAD
1000
AcDbSavedByObjectVersion
1070
     0
  0
VISUALSTYLE
  5
36
102
{ACAD_REACTORS
330
28
102
}
330
28
100
AcDbVisualStyle
  2
Linepattern
 70
    14
 71
     2
 72
     2
 73
     0
 90
        0
 40
-0.6
 41
-30.0
 62
     5
 63
     7
 74
     1
 91
        4
 64
     7
 65
   257
 75
     7
175
     7
 42
1.0
 92
        8
 66
     7
 43
1.0
 76
     1
 77
     6
 78
     2
 67
     7
 79
     5
170
     0
171
     0
290
     0
174
     0
 93
        1
 44
0.0
173
     0
291
     1
 45
0.0
1001
ACAD
1000
AcDbSavedByObjectVersion
1070
     0
  0
VISUALSTYLE
  5
31
102
{ACAD_REACTORS
330
28
102
}
330
28
100
AcDbVisualStyle
  2
Realistic
 70
     8
 71
     2
 72
     2
 73
     0
 90
        0
 40
-0.6
 41
-30.0
 62
     5
 63
     7
 74
     1
 91
        0
 64
     7
 65
   257
 75
     1
175
     1
 42
1.0
 92
        8
 66
     8
 43
1.0
 76
     1
 77
     6
 78
     2
 67
     7
 79
     5
170
     0
171
     0
290
     0
174
     0
 93
       13
 44
0.0
173
     0
291
     0
 45
0.0
1001
ACAD
1000
AcDbSavedByObjectVersion
1070
     0
  0
VISUALSTYLE
  5
35
102
{ACAD_REACTORS
330
28
102
}
330
28
100
AcDbVisualStyle
  2
Thicken
 70
    13
 71
     2
 72
     2
 73
     0
 90
        0
 40
-0.6
 41
-30.0
 62
     5
 63
     7
 74
     1
 91
        4
 64
     7
 65
   257
 75
     1
175
     1
 42
1.0
 92
       12
 66
     7
 43
1.0
 76
     1
 77
     6
 78
     2
 67
     7
 79
     5
170
     0
171
     0
290
     0
174
     0
 93
        1
 44
0.0
173
     0
291
     1
 45
0.0
1001
ACAD
1000
AcDbSavedByObjectVersion
1070
     0
  0
DICTIONARYVAR
  5
366B
102
{ACAD_REACTORS
330
366A
102
}
330
366A
100
DictionaryVariables
280
     0
  1
STANDARD
  0
DICTIONARYVAR
  5
554D
102
{ACAD_REACTORS
330
366A
102
}
330
366A
100
DictionaryVariables
280
     0
  1
2
  0
DICTIONARYVAR
  5
554C
102
{ACAD_REACTORS
330
366A
102
}
330
366A
100
DictionaryVariables
280
     0
  1
2
  0
DICTIONARYVAR
  5
554B
102
{ACAD_REACTORS
330
366A
102
}
330
366A
100
DictionaryVariables
280
     0
  1
1
  0
DICTIONARYVAR
  5
554A
102
{ACAD_REACTORS
330
366A
102
}
330
366A
100
DictionaryVariables
280
     0
  1
0
  0
DICTIONARYVAR
  5
5549
102
{ACAD_REACTORS
330
366A
102
}
330
366A
100
DictionaryVariables
280
     0
  1
127
  0
DICTIONARY
  5
5551
330
1E
100
AcDbDictionary
280
     1
281
     1
  3
ACAD_XREC_ROUNDTRIP
360
5552
  0
DICTIONARY
  5
5555
330
24
100
AcDbDictionary
280
     1
281
     1
  3
ACAD_XREC_ROUNDTRIP
360
5556
  0
DICTIONARY
  5
5553
330
22
100
AcDbDictionary
280
     1
281
     1
  3
ACAD_XREC_ROUNDTRIP
360
5554
  0
DICTIONARY
  5
5559
330
3511
100
AcDbDictionary
280
     1
281
     1
  3
ACAD_XREC_ROUNDTRIP
360
555A
  0
DICTIONARY
  5
5557
330
3510
100
AcDbDictionary
280
     1
281
     1
  3
ACAD_XREC_ROUNDTRIP
360
5558
  0
DICTIONARY
  5
555B
330
3512
100
AcDbDictionary
280
     1
281
     1
  3
ACAD_XREC_ROUNDTRIP
360
555C
  0
DICTIONARY
  5
555D
330
3514
100
AcDbDictionary
280
     1
281
     1
  3
ACAD_XREC_ROUNDTRIP
360
555E
  0
XRECORD
  5
5552
102
{ACAD_REACTORS
330
5551
102
}
330
5551
100
AcDbXrecord
280
     1
102
SHADEPLOT
 70
     0
102
SHADEPLOTRESLEVEL
 70
     2
102
SHADEPLOTCUSTOMDPI
 70
   300
  0
XRECORD
  5
5556
102
{ACAD_REACTORS
330
5555
102
}
330
5555
100
AcDbXrecord
280
     1
102
SHADEPLOT
 70
     0
102
SHADEPLOTRESLEVEL
 70
     2
102
SHADEPLOTCUSTOMDPI
 70
   300
  0
XRECORD
  5
5554
102
{ACAD_REACTORS
330
5553
102
}
330
5553
100
AcDbXrecord
280
     1
102
SHADEPLOT
 70
     0
102
SHADEPLOTRESLEVEL
 70
     2
102
SHADEPLOTCUSTOMDPI
 70
   300
  0
XRECORD
  5
555A
102
{ACAD_REACTORS
330
5559
102
}
330
5559
100
AcDbXrecord
280
     1
102
MATERIAL
148
0.0
149
0.0
149
0.0
 93
        0
 94
       63
282
     0
 72
     1
 77
     1
171
     1
175
     1
179
     1
273
     0
  0
XRECORD
  5
5558
102
{ACAD_REACTORS
330
5557
102
}
330
5557
100
AcDbXrecord
280
     1
102
MATERIAL
148
0.0
149
0.0
149
0.0
 93
        0
 94
       63
282
     0
 72
     1
 77
     1
171
     1
175
     1
179
     1
273
     0
  0
XRECORD
  5
555C
102
{ACAD_REACTORS
330
555B
102
}
330
555B
100
AcDbXrecord
280
     1
102
MATERIAL
148
0.0
149
0.0
149
0.0
 93
        0
 94
       63
282
     0
 72
     1
 77
     1
171
     1
175
     1
179
     1
273
     0
  0
XRECORD
  5
555E
102
{ACAD_REACTORS
330
555D
102
}
330
555D
100
AcDbXrecord
280
     1
102
ACAD_ROUNDTRIP_PRE2007_TABLESTYLE
 90
      512
 91
        0
  1

 92
      512
 93
        0
  2

 94
      512
 95
        0
  3

  0
ENDSEC
  0
EOF
