  0
SECTION
  2
HEADER
  9
$ACADVER
  1
AC1015
  9
$ACADMAINTVER
 70
    20
  9
$DWGCODEPAGE
  3
ANSI_936
  9
$INSBASE
 10
0.0
 20
0.0
 30
0.0
  9
$EXTMIN
 10
110.6061847905475
 20
-1180.232708621499
 30
0.0
  9
$EXTMAX
 10
4041.659506145047
 20
934.2051151732198
 30
0.0
  9
$LIMMIN
 10
0.0
 20
0.0
  9
$LIMMAX
 10
12.0
 20
9.0
  9
$ORTHOMODE
 70
     0
  9
$REGENMODE
 70
     1
  9
$FILLMODE
 70
     1
  9
$QTEXTMODE
 70
     0
  9
$MIRRTEXT
 70
     1
  9
$LTSCALE
 40
1.0
  9
$ATTMODE
 70
     1
  9
$TEXTSIZE
 40
0.2
  9
$TRACEWID
 40
0.05
  9
$TEXTSTYLE
  7
Standard
  9
$CLAYER
  8
0
  9
$CELTYPE
  6
ByLayer
  9
$CECOLOR
 62
   256
  9
$CELTSCALE
 40
1.0
  9
$DISPSILH
 70
     0
  9
$DIMSCALE
 40
1.0
  9
$DIMASZ
 40
0.18
  9
$DIMEXO
 40
0.0625
  9
$DIMDLI
 40
0.38
  9
$DIMRND
 40
0.0
  9
$DIMDLE
 40
0.0
  9
$DIMEXE
 40
0.18
  9
$DIMTP
 40
0.0
  9
$DIMTM
 40
0.0
  9
$DIMTXT
 40
0.18
  9
$DIMCEN
 40
0.09
  9
$DIMTSZ
 40
0.0
  9
$DIMTOL
 70
     0
  9
$DIMLIM
 70
     0
  9
$DIMTIH
 70
     1
  9
$DIMTOH
 70
     1
  9
$DIMSE1
 70
     0
  9
$DIMSE2
 70
     0
  9
$DIMTAD
 70
     0
  9
$DIMZIN
 70
     0
  9
$DIMBLK
  1

  9
$DIMASO
 70
     1
  9
$DIMSHO
 70
     1
  9
$DIMPOST
  1

  9
$DIMAPOST
  1

  9
$DIMALT
 70
     0
  9
$DIMALTD
 70
     2
  9
$DIMALTF
 40
25.4
  9
$DIMLFAC
 40
1.0
  9
$DIMTOFL
 70
     0
  9
$DIMTVP
 40
0.0
  9
$DIMTIX
 70
     0
  9
$DIMSOXD
 70
     0
  9
$DIMSAH
 70
     0
  9
$DIMBLK1
  1

  9
$DIMBLK2
  1

  9
$DIMSTYLE
  2
Standard
  9
$DIMCLRD
 70
     0
  9
$DIMCLRE
 70
     0
  9
$DIMCLRT
 70
     0
  9
$DIMTFAC
 40
1.0
  9
$DIMGAP
 40
0.09
  9
$DIMJUST
 70
     0
  9
$DIMSD1
 70
     0
  9
$DIMSD2
 70
     0
  9
$DIMTOLJ
 70
     1
  9
$DIMTZIN
 70
     0
  9
$DIMALTZ
 70
     0
  9
$DIMALTTZ
 70
     0
  9
$DIMUPT
 70
     0
  9
$DIMDEC
 70
     4
  9
$DIMTDEC
 70
     4
  9
$DIMALTU
 70
     2
  9
$DIMALTTD
 70
     2
  9
$DIMTXSTY
  7
Standard
  9
$DIMAUNIT
 70
     0
  9
$DIMADEC
 70
     0
  9
$DIMALTRND
 40
0.0
  9
$DIMAZIN
 70
     0
  9
$DIMDSEP
 70
    46
  9
$DIMATFIT
 70
     3
  9
$DIMFRAC
 70
     0
  9
$DIMLDRBLK
  1

  9
$DIMLUNIT
 70
     2
  9
$DIMLWD
 70
    -2
  9
$DIMLWE
 70
    -2
  9
$DIMTMOVE
 70
     0
  9
$LUNITS
 70
     2
  9
$LUPREC
 70
     4
  9
$SKETCHINC
 40
0.1
  9
$FILLETRAD
 40
0.0
  9
$AUNITS
 70
     0
  9
$AUPREC
 70
     0
  9
$MENU
  1
.
  9
$ELEVATION
 40
0.0
  9
$PELEVATION
 40
0.0
  9
$THICKNESS
 40
0.0
  9
$LIMCHECK
 70
     0
  9
$CHAMFERA
 40
0.5
  9
$CHAMFERB
 40
0.5
  9
$CHAMFERC
 40
1.0
  9
$CHAMFERD
 40
0.0
  9
$SKPOLY
 70
     0
  9
$TDCREATE
 40
2455841.606800220
  9
$TDUCREATE
 40
2455841.273466887
  9
$TDUPDATE
 40
2459756.634276111
  9
$TDUUPDATE
 40
2459756.300942778
  9
$TDINDWG
 40
0.0359474653
  9
$TDUSRTIMER
 40
0.0359474653
  9
$USRTIMER
 70
     1
  9
$ANGBASE
 50
0.0
  9
$ANGDIR
 70
     0
  9
$PDMODE
 70
     0
  9
$PDSIZE
 40
0.0
  9
$PLINEWID
 40
0.0
  9
$SPLFRAME
 70
     0
  9
$SPLINETYPE
 70
     6
  9
$SPLINESEGS
 70
     8
  9
$HANDSEED
  5
5228
  9
$SURFTAB1
 70
     6
  9
$SURFTAB2
 70
     6
  9
$SURFTYPE
 70
     6
  9
$SURFU
 70
     6
  9
$SURFV
 70
     6
  9
$UCSBASE
  2

  9
$UCSNAME
  2

  9
$UCSORG
 10
0.0
 20
0.0
 30
0.0
  9
$UCSXDIR
 10
1.0
 20
0.0
 30
0.0
  9
$UCSYDIR
 10
0.0
 20
1.0
 30
0.0
  9
$UCSORTHOREF
  2

  9
$UCSORTHOVIEW
 70
     0
  9
$UCSORGTOP
 10
0.0
 20
0.0
 30
0.0
  9
$UCSORGBOTTOM
 10
0.0
 20
0.0
 30
0.0
  9
$UCSORGLEFT
 10
0.0
 20
0.0
 30
0.0
  9
$UCSORGRIGHT
 10
0.0
 20
0.0
 30
0.0
  9
$UCSORGFRONT
 10
0.0
 20
0.0
 30
0.0
  9
$UCSORGBACK
 10
0.0
 20
0.0
 30
0.0
  9
$PUCSBASE
  2

  9
$PUCSNAME
  2

  9
$PUCSORG
 10
0.0
 20
0.0
 30
0.0
  9
$PUCSXDIR
 10
1.0
 20
0.0
 30
0.0
  9
$PUCSYDIR
 10
0.0
 20
1.0
 30
0.0
  9
$PUCSORTHOREF
  2

  9
$PUCSORTHOVIEW
 70
     0
  9
$PUCSORGTOP
 10
0.0
 20
0.0
 30
0.0
  9
$PUCSORGBOTTOM
 10
0.0
 20
0.0
 30
0.0
  9
$PUCSORGLEFT
 10
0.0
 20
0.0
 30
0.0
  9
$PUCSORGRIGHT
 10
0.0
 20
0.0
 30
0.0
  9
$PUCSORGFRONT
 10
0.0
 20
0.0
 30
0.0
  9
$PUCSORGBACK
 10
0.0
 20
0.0
 30
0.0
  9
$USERI1
 70
     0
  9
$USERI2
 70
     0
  9
$USERI3
 70
     0
  9
$USERI4
 70
     0
  9
$USERI5
 70
     0
  9
$USERR1
 40
0.0
  9
$USERR2
 40
0.0
  9
$USERR3
 40
0.0
  9
$USERR4
 40
0.0
  9
$USERR5
 40
0.0
  9
$WORLDVIEW
 70
     1
  9
$SHADEDGE
 70
     3
  9
$SHADEDIF
 70
    70
  9
$TILEMODE
 70
     1
  9
$MAXACTVP
 70
    64
  9
$PINSBASE
 10
0.0
 20
0.0
 30
0.0
  9
$PLIMCHECK
 70
     0
  9
$PEXTMIN
 10
1.000000000000000E+20
 20
1.000000000000000E+20
 30
1.000000000000000E+20
  9
$PEXTMAX
 10
-1.000000000000000E+20
 20
-1.000000000000000E+20
 30
-1.000000000000000E+20
  9
$PLIMMIN
 10
0.0
 20
0.0
  9
$PLIMMAX
 10
12.0
 20
9.0
  9
$UNITMODE
 70
     0
  9
$VISRETAIN
 70
     1
  9
$PLINEGEN
 70
     0
  9
$PSLTSCALE
 70
     1
  9
$TREEDEPTH
 70
  3020
  9
$CMLSTYLE
  2
Standard
  9
$CMLJUST
 70
     0
  9
$CMLSCALE
 40
1.0
  9
$PROXYGRAPHICS
 70
     1
  9
$MEASUREMENT
 70
     0
  9
$CELWEIGHT
370
    -1
  9
$ENDCAPS
280
     0
  9
$JOINSTYLE
280
     0
  9
$LWDISPLAY
290
     0
  9
$INSUNITS
 70
     1
  9
$HYPERLINKBASE
  1

  9
$STYLESHEET
  1
Monochrome.ctb
  9
$XEDIT
290
     1
  9
$CEPSNTYPE
380
     0
  9
$PSTYLEMODE
290
     1
  9
$FINGERPRINTGUID
  2
{168A8766-4015-4ABD-915A-AD1ECBE2E3C2}
  9
$VERSIONGUID
  2
{CD02A7D5-25D1-4448-B2C8-BF8F54F7B191}
  9
$EXTNAMES
290
     1
  9
$PSVPSCALE
 40
0.0
  9
$OLESTARTUP
290
     0
  0
ENDSEC
  0
SECTION
  2
CLASSES
  0
CLASS
  1
ACDBDICTIONARYWDFLT
  2
AcDbDictionaryWithDefault
  3
ObjectDBX Classes
 90
        0
280
     0
281
     0
  0
CLASS
  1
VISUALSTYLE
  2
AcDbVisualStyle
  3
ObjectDBX Classes
 90
     4095
280
     0
281
     0
  0
CLASS
  1
DIMASSOC
  2
AcDbDimAssoc
  3
"AcDbDimAssoc|Product Desc:     AcDim ARX App For Dimension|Company:          Autodesk, Inc.|WEB Address:      www.autodesk.com"
 90
    32768
280
     0
281
     0
  0
CLASS
  1
MATERIAL
  2
AcDbMaterial
  3
ObjectDBX Classes
 90
     1024
280
     0
281
     0
  0
CLASS
  1
TABLESTYLE
  2
AcDbTableStyle
  3
ObjectDBX Classes
 90
     4095
280
     0
281
     0
  0
CLASS
  1
DICTIONARYVAR
  2
AcDbDictionaryVar
  3
ObjectDBX Classes
 90
        0
280
     0
281
     0
  0
CLASS
  1
SORTENTSTABLE
  2
AcDbSortentsTable
  3
ObjectDBX Classes
 90
        0
280
     0
281
     0
  0
CLASS
  1
ACDBPLACEHOLDER
  2
AcDbPlaceHolder
  3
ObjectDBX Classes
 90
        0
280
     0
281
     0
  0
CLASS
  1
LAYOUT
  2
AcDbLayout
  3
ObjectDBX Classes
 90
        0
280
     0
281
     0
  0
ENDSEC
  0
SECTION
  2
TABLES
  0
TABLE
  2
VPORT
  5
8
330
0
100
AcDbSymbolTable
 70
     1
  0
VPORT
  5
27
330
8
100
AcDbSymbolTableRecord
100
AcDbViewportTableRecord
  2
*Active
 70
     0
 10
0.0
 20
0.0
 11
1.0
 21
1.0
 12
809.627024198251
 22
560.378187409991
 13
0.0
 23
0.0
 14
0.5
 24
0.5
 15
0.5
 25
0.5
 16
0.0
 26
0.0
 36
1.0
 17
0.0
 27
0.0
 37
0.0
 40
1057.855983373432
 41
2.294999999999999
 42
50.0
 43
0.0
 44
0.0
 50
0.0
 51
0.0
 71
     0
 72
   100
 73
     1
 74
     3
 75
     0
 76
     0
 77
     0
 78
     0
281
     0
 65
     1
110
0.0
120
0.0
130
0.0
111
1.0
121
0.0
131
0.0
112
0.0
122
1.0
132
0.0
 79
     0
146
0.0
  0
ENDTAB
  0
TABLE
  2
LTYPE
  5
5
330
0
100
AcDbSymbolTable
 70
     6
  0
LTYPE
  5
14
330
5
100
AcDbSymbolTableRecord
100
AcDbLinetypeTableRecord
  2
ByBlock
 70
     0
  3

 72
    65
 73
     0
 40
0.0
  0
LTYPE
  5
15
330
5
100
AcDbSymbolTableRecord
100
AcDbLinetypeTableRecord
  2
ByLayer
 70
     0
  3

 72
    65
 73
     0
 40
0.0
  0
LTYPE
  5
16
330
5
100
AcDbSymbolTableRecord
100
AcDbLinetypeTableRecord
  2
Continuous
 70
     0
  3
Solid line
 72
    65
 73
     0
 40
0.0
  0
LTYPE
  5
5B
330
5
100
AcDbSymbolTableRecord
100
AcDbLinetypeTableRecord
  2
CENTERX2
 70
     0
  3
Center (2x) ________  __  ________  __  _____
 72
    65
 73
     4
 40
101.6
 49
63.5
 74
     4
 75
     0
340
0
 46
1.0
 50
0.0
 44
0.0
 45
0.0
 49
-12.7
 74
     4
 75
     0
340
0
 46
1.0
 50
0.0
 44
0.0
 45
0.0
 49
12.7
 74
     4
 75
     0
340
0
 46
1.0
 50
0.0
 44
0.0
 45
0.0
 49
-12.7
 74
     4
 75
     0
340
0
 46
1.0
 50
0.0
 44
0.0
 45
0.0
  0
LTYPE
  5
192
330
5
100
AcDbSymbolTableRecord
100
AcDbLinetypeTableRecord
  2
CENTER
 70
     0
  3
Center ____ _ ____ _ ____ _ ____ _ ____ _ ____
 72
    65
 73
     4
 40
50.8
 49
31.75
 74
     4
 75
     0
340
0
 46
1.0
 50
0.0
 44
0.0
 45
0.0
 49
-6.349999999999999
 74
     4
 75
     0
340
0
 46
1.0
 50
0.0
 44
0.0
 45
0.0
 49
6.349999999999999
 74
     4
 75
     0
340
0
 46
1.0
 50
0.0
 44
0.0
 45
0.0
 49
-6.349999999999999
 74
     4
 75
     0
340
0
 46
1.0
 50
0.0
 44
0.0
 45
0.0
  0
LTYPE
  5
112E
330
5
100
AcDbSymbolTableRecord
100
AcDbLinetypeTableRecord
  2
DASHED
 70
     0
  3
Dashed __ __ __ __ __ __ __ __ __ __ __ __ __ _
 72
    65
 73
     2
 40
19.05
 49
12.7
 74
     4
 75
     0
340
0
 46
1.0
 50
0.0
 44
0.0
 45
0.0
 49
-6.349999999999999
 74
     4
 75
     0
340
0
 46
1.0
 50
0.0
 44
0.0
 45
0.0
  0
LTYPE
  5
121B
330
5
100
AcDbSymbolTableRecord
100
AcDbLinetypeTableRecord
  2
ACAD_ISO02W100
 70
     0
  3
ISO dash __ __ __ __ __ __ __ __ __ __ __ __ __
 72
    65
 73
     2
 40
15.0
 49
12.0
 74
     4
 75
     0
340
0
 46
1.0
 50
0.0
 44
0.0
 45
0.0
 49
-3.0
 74
     4
 75
     0
340
0
 46
1.0
 50
0.0
 44
0.0
 45
0.0
  0
LTYPE
  5
121C
330
5
100
AcDbSymbolTableRecord
100
AcDbLinetypeTableRecord
  2
DIVIDE
 70
     0
  3
Divide ____ . . ____ . . ____ . . ____ . . ____
 72
    65
 73
     6
 40
31.75
 49
12.7
 74
     4
 75
     0
340
0
 46
1.0
 50
0.0
 44
0.0
 45
0.0
 49
-6.349999999999999
 74
     4
 75
     0
340
0
 46
1.0
 50
0.0
 44
0.0
 45
0.0
 49
0.0
 74
     4
 75
     0
340
0
 46
1.0
 50
0.0
 44
0.0
 45
0.0
 49
-6.349999999999999
 74
     4
 75
     0
340
0
 46
1.0
 50
0.0
 44
0.0
 45
0.0
 49
0.0
 74
     4
 75
     0
340
0
 46
1.0
 50
0.0
 44
0.0
 45
0.0
 49
-6.349999999999999
 74
     4
 75
     0
340
0
 46
1.0
 50
0.0
 44
0.0
 45
0.0
  0
ENDTAB
  0
TABLE
  2
LAYER
  5
2
102
{ACAD_XDICTIONARY
360
36E2
102
}
330
0
100
AcDbSymbolTable
 70
    19
  0
LAYER
  5
10
330
2
100
AcDbSymbolTableRecord
100
AcDbLayerTableRecord
  2
0
 70
     0
 62
     7
  6
Continuous
370
    -3
390
F
  0
LAYER
  5
5C
330
2
100
AcDbSymbolTableRecord
100
AcDbLayerTableRecord
  2
粗实线
 70
     0
 62
     7
  6
Continuous
370
    30
390
F
1001
AcAecLayerStandard
1000

1000

  0
LAYER
  5
5D
330
2
100
AcDbSymbolTableRecord
100
AcDbLayerTableRecord
  2
中心线
 70
     0
 62
     1
  6
CENTERX2
370
    15
390
F
1001
AcAecLayerStandard
1000

1000

  0
LAYER
  5
5E
330
2
100
AcDbSymbolTableRecord
100
AcDbLayerTableRecord
  2
标注
 70
     0
 62
     4
  6
Continuous
370
    15
390
F
1001
AcAecLayerStandard
1000

1000

  0
LAYER
  5
5F
330
2
100
AcDbSymbolTableRecord
100
AcDbLayerTableRecord
  2
Defpoints
 70
     0
 62
     7
  6
Continuous
290
     0
370
    -3
390
F
  0
LAYER
  5
118
330
2
100
AcDbSymbolTableRecord
100
AcDbLayerTableRecord
  2
图层1粗线
 70
     0
 62
     7
  6
Continuous
370
    -3
390
F
1001
AcAecLayerStandard
1000

1000

  0
LAYER
  5
193
330
2
100
AcDbSymbolTableRecord
100
AcDbLayerTableRecord
  2
细实线
 70
     0
 62
     3
  6
Continuous
370
    15
390
F
1001
AcAecLayerStandard
1000

1000

  0
LAYER
  5
357
330
2
100
AcDbSymbolTableRecord
100
AcDbLayerTableRecord
  2
图层2
 70
     0
 62
     7
  6
Continuous
370
    30
390
F
1001
AcAecLayerStandard
1000

1000

  0
LAYER
  5
358
330
2
100
AcDbSymbolTableRecord
100
AcDbLayerTableRecord
  2
图层3
 70
     0
 62
     7
  6
Continuous
370
    18
390
F
1001
AcAecLayerStandard
1000

1000

  0
LAYER
  5
4E7
330
2
100
AcDbSymbolTableRecord
100
AcDbLayerTableRecord
  2
文字
 70
     0
 62
     1
  6
Continuous
370
    15
390
F
1001
AcAecLayerStandard
1000

1000

  0
LAYER
  5
4E8
330
2
100
AcDbSymbolTableRecord
100
AcDbLayerTableRecord
  2
不可见
 70
     0
 62
     2
  6
Continuous
290
     0
370
    15
390
F
  0
LAYER
  5
4E9
330
2
100
AcDbSymbolTableRecord
100
AcDbLayerTableRecord
  2
图层2细线
 70
     0
 62
     3
  6
Continuous
370
    -3
390
F
1001
AcAecLayerStandard
1000

1000

  0
LAYER
  5
4EA
330
2
100
AcDbSymbolTableRecord
100
AcDbLayerTableRecord
  2
图框线
 70
     0
 62
     7
  6
Continuous
370
    13
390
F
1001
AcAecLayerStandard
1000

1000

  0
LAYER
  5
4EB
330
2
100
AcDbSymbolTableRecord
100
AcDbLayerTableRecord
  2
图层 1
 70
     0
 62
     7
  6
Continuous
370
    -3
390
F
  0
LAYER
  5
112F
330
2
100
AcDbSymbolTableRecord
100
AcDbLayerTableRecord
  2
图层1
 70
     0
 62
     7
  6
DASHED
370
    25
390
F
1001
AcAecLayerStandard
1000

1000

  0
LAYER
  5
121D
330
2
100
AcDbSymbolTableRecord
100
AcDbLayerTableRecord
  2
虚线
 70
     0
 62
     2
  6
ACAD_ISO02W100
370
    15
390
F
1001
AcAecLayerStandard
1000

1000

  0
LAYER
  5
121E
330
2
100
AcDbSymbolTableRecord
100
AcDbLayerTableRecord
  2
剖切线
 70
     0
 62
   241
  6
Continuous
370
    15
390
F
1001
AcAecLayerStandard
1000

1000

  0
LAYER
  5
3B17
330
2
100
AcDbSymbolTableRecord
100
AcDbLayerTableRecord
  2
点划线
 70
     0
 62
     4
  6
CENTERX2
370
    13
390
F
1001
AcAecLayerStandard
1000

1000

  0
LAYER
  5
453C
330
2
100
AcDbSymbolTableRecord
100
AcDbLayerTableRecord
  2
Layer 1
 70
     0
 62
     7
  6
Continuous
370
    -3
390
F
  0
ENDTAB
  0
TABLE
  2
STYLE
  5
3
330
0
100
AcDbSymbolTable
 70
     5
  0
STYLE
  5
11
330
3
100
AcDbSymbolTableRecord
100
AcDbTextStyleTableRecord
  2
Standard
 70
     0
 40
0.0
 41
1.0
 50
0.0
 71
     0
 42
0.2
  3
txt
  4

  0
STYLE
  5
5A
330
3
100
AcDbSymbolTableRecord
100
AcDbTextStyleTableRecord
  2
样式 8
 70
     0
 40
10.0
 41
0.7
 50
0.0
 71
     0
 42
10.0
  3
txt.shx
  4
gbcbig.shx
  0
STYLE
  5
117
330
3
100
AcDbSymbolTableRecord
100
AcDbTextStyleTableRecord
  2
样式 1
 70
     0
 40
5.0
 41
1.0
 50
0.0
 71
     0
 42
5.0
  3
txt.shx
  4
gbcbig.shx
  0
STYLE
  5
356
330
3
100
AcDbSymbolTableRecord
100
AcDbTextStyleTableRecord
  2
样式 2
 70
     0
 40
0.0
 41
0.35
 50
0.0
 71
     0
 42
2.5
  3
txt.shx
  4
gbcbig.shx
  0
STYLE
  5
4E6
330
3
100
AcDbSymbolTableRecord
100
AcDbTextStyleTableRecord
  2
样式 3
 70
     0
 40
3.5
 41
0.7
 50
0.0
 71
     0
 42
5.0
  3
txt.shx
  4
gbcbig.shx
  0
ENDTAB
  0
TABLE
  2
VIEW
  5
6
330
0
100
AcDbSymbolTable
 70
     0
  0
ENDTAB
  0
TABLE
  2
UCS
  5
7
330
0
100
AcDbSymbolTable
 70
     0
  0
ENDTAB
  0
TABLE
  2
APPID
  5
9
330
0
100
AcDbSymbolTable
 70
    55
  0
APPID
  5
12
330
9
100
AcDbSymbolTableRecord
100
AcDbRegAppTableRecord
  2
ACAD
 70
     0
  0
APPID
  5
3B
330
9
100
AcDbSymbolTableRecord
100
AcDbRegAppTableRecord
  2
ACAD_PSEXT
 70
     0
  0
APPID
  5
3C
330
9
100
AcDbSymbolTableRecord
100
AcDbRegAppTableRecord
  2
AcAecLayerStandard
 70
     0
  0
APPID
  5
3D
330
9
100
AcDbSymbolTableRecord
100
AcDbRegAppTableRecord
  2
ACAD_DSTYLE_DIMTEXT_FILL
 70
     0
  0
APPID
  5
3E
330
9
100
AcDbSymbolTableRecord
100
AcDbRegAppTableRecord
  2
DCO15
 70
     0
  0
APPID
  5
3F
330
9
100
AcDbSymbolTableRecord
100
AcDbRegAppTableRecord
  2
ACAD_DSTYLE_DIMEXT_LENGTH
 70
     0
  0
APPID
  5
40
330
9
100
AcDbSymbolTableRecord
100
AcDbRegAppTableRecord
  2
ACAD_DSTYLE_DIMEXT_ENABLED
 70
     0
  0
APPID
  5
41
330
9
100
AcDbSymbolTableRecord
100
AcDbRegAppTableRecord
  2
ACAD_DSTYLE_DIM_LINETYPE
 70
     0
  0
APPID
  5
42
330
9
100
AcDbSymbolTableRecord
100
AcDbRegAppTableRecord
  2
ACAD_DSTYLE_DIM_EXT1_LINETYPE
 70
     0
  0
APPID
  5
43
330
9
100
AcDbSymbolTableRecord
100
AcDbRegAppTableRecord
  2
ACAD_DSTYLE_DIM_EXT2_LINETYPE
 70
     0
  0
APPID
  5
44
330
9
100
AcDbSymbolTableRecord
100
AcDbRegAppTableRecord
  2
ACAD_EXEMPT_FROM_CAD_STANDARDS
 70
     0
  0
APPID
  5
45
330
9
100
AcDbSymbolTableRecord
100
AcDbRegAppTableRecord
  2
AcadAnnoPO
 70
     0
  0
APPID
  5
46
330
9
100
AcDbSymbolTableRecord
100
AcDbRegAppTableRecord
  2
AcadAnnotative
 70
     0
  0
APPID
  5
47
330
9
100
AcDbSymbolTableRecord
100
AcDbRegAppTableRecord
  2
ACAD_DSTYLE_DIMJAG
 70
     0
  0
APPID
  5
48
330
9
100
AcDbSymbolTableRecord
100
AcDbRegAppTableRecord
  2
ACAD_DSTYLE_DIMTALN
 70
     0
  0
APPID
  5
49
330
9
100
AcDbSymbolTableRecord
100
AcDbRegAppTableRecord
  2
ACAD_MLEADERVER
 70
     0
  0
APPID
  5
4A
330
9
100
AcDbSymbolTableRecord
100
AcDbRegAppTableRecord
  2
ACAD_DSTYLE_DIMRADIAL_EXTENSION
 70
     0
  0
APPID
  5
4B
330
9
100
AcDbSymbolTableRecord
100
AcDbRegAppTableRecord
  2
ACAD_DSTYLE_DIMBREAK
 70
     0
  0
APPID
  5
4C
330
9
100
AcDbSymbolTableRecord
100
AcDbRegAppTableRecord
  2
ACAD_DSTYLE_DIMARC_LENGTH_SYMBOL
 70
     0
  0
APPID
  5
4D
330
9
100
AcDbSymbolTableRecord
100
AcDbRegAppTableRecord
  2
ACAD_DSTYLE_DIMJOGGED_JOGANGLE_SYMBOL
 70
     0
  0
APPID
  5
4E
330
9
100
AcDbSymbolTableRecord
100
AcDbRegAppTableRecord
  2
MCAD_NO_VIS
 70
     0
  0
APPID
  5
4F
330
9
100
AcDbSymbolTableRecord
100
AcDbRegAppTableRecord
  2
ACAD_TEMP_GRAPHIC
 70
     0
  0
APPID
  5
50
330
9
100
AcDbSymbolTableRecord
100
AcDbRegAppTableRecord
  2
AD_DRAW
 70
     0
  0
APPID
  5
51
330
9
100
AcDbSymbolTableRecord
100
AcDbRegAppTableRecord
  2
ACATTRIBSERVICES
 70
     0
  0
APPID
  5
52
330
9
100
AcDbSymbolTableRecord
100
AcDbRegAppTableRecord
  2
DESIGNERASSEMBLIES
 70
     0
  0
APPID
  5
53
330
9
100
AcDbSymbolTableRecord
100
AcDbRegAppTableRecord
  2
ACADM_DIM_EDIT
 70
     0
  0
APPID
  5
54
330
9
100
AcDbSymbolTableRecord
100
AcDbRegAppTableRecord
  2
AMDT_DM_ADJ
 70
     0
  0
APPID
  5
55
330
9
100
AcDbSymbolTableRecord
100
AcDbRegAppTableRecord
  2
GENIUS_GENODEF_13
 70
     0
  0
APPID
  5
56
330
9
100
AcDbSymbolTableRecord
100
AcDbRegAppTableRecord
  2
GENIUS_GENOBJ-N-FIL_13
 70
     0
  0
APPID
  5
57
330
9
100
AcDbSymbolTableRecord
100
AcDbRegAppTableRecord
  2
ACAD_DIMASSOC_CALC_DIMLFAC
 70
     0
  0
APPID
  5
58
330
9
100
AcDbSymbolTableRecord
100
AcDbRegAppTableRecord
  2
ACAD_DIMASSOC_DIMLFAC
 70
     0
  0
APPID
  5
59
330
9
100
AcDbSymbolTableRecord
100
AcDbRegAppTableRecord
  2
ACAD_DIMASSOC_OVERRIDDEN_DIMLFAC
 70
     0
  0
APPID
  5
4E5
330
9
100
AcDbSymbolTableRecord
100
AcDbRegAppTableRecord
  2
CAXA
 70
     0
  0
APPID
  5
1BF7
330
9
100
AcDbSymbolTableRecord
100
AcDbRegAppTableRecord
  2
AVE_RENDER
 70
     0
  0
APPID
  5
1BF8
330
9
100
AcDbSymbolTableRecord
100
AcDbRegAppTableRecord
  2
AVE_ENTITY_MATERIAL
 70
     0
  0
APPID
  5
1BF9
330
9
100
AcDbSymbolTableRecord
100
AcDbRegAppTableRecord
  2
AVE_FINISH
 70
     0
  0
APPID
  5
1BFA
330
9
100
AcDbSymbolTableRecord
100
AcDbRegAppTableRecord
  2
AVE_MATERIAL
 70
     0
  0
APPID
  5
1BFB
330
9
100
AcDbSymbolTableRecord
100
AcDbRegAppTableRecord
  2
AVE_GLOBAL
 70
     0
  0
APPID
  5
1BFC
330
9
100
AcDbSymbolTableRecord
100
AcDbRegAppTableRecord
  2
GENIUS_GENBLLY_14
 70
     0
  0
APPID
  5
1BFD
330
9
100
AcDbSymbolTableRecord
100
AcDbRegAppTableRecord
  2
ODA
 70
     0
  0
APPID
  5
1BFE
330
9
100
AcDbSymbolTableRecord
100
AcDbRegAppTableRecord
  2
RAK
 70
     0
  0
APPID
  5
1BFF
330
9
100
AcDbSymbolTableRecord
100
AcDbRegAppTableRecord
  2
AcDbDynamicBlockGUID
 70
     0
  0
APPID
  5
1C00
330
9
100
AcDbSymbolTableRecord
100
AcDbRegAppTableRecord
  2
AcDbBlockRepETag
 70
     0
  0
APPID
  5
1C01
330
9
100
AcDbSymbolTableRecord
100
AcDbRegAppTableRecord
  2
ACAUTHENVIRON
 70
     0
  0
APPID
  5
1C02
330
9
100
AcDbSymbolTableRecord
100
AcDbRegAppTableRecord
  2
AcDbDynamicBlockTrueName
 70
     0
  0
APPID
  5
49A1
330
9
100
AcDbSymbolTableRecord
100
AcDbRegAppTableRecord
  2
AcDbBlockRepBTag
 70
     0
  0
APPID
  5
49A2
330
9
100
AcDbSymbolTableRecord
100
AcDbRegAppTableRecord
  2
AcDbAttr
 70
     0
  0
APPID
  5
49A3
330
9
100
AcDbSymbolTableRecord
100
AcDbRegAppTableRecord
  2
AcadStringInfo
 70
     0
  0
APPID
  5
49A4
330
9
100
AcDbSymbolTableRecord
100
AcDbRegAppTableRecord
  2
ACAD_NAV_VCDISPLAY
 70
     0
  0
APPID
  5
49A5
330
9
100
AcDbSymbolTableRecord
100
AcDbRegAppTableRecord
  2
ACAD_DSTYLE_DIMANGULAR_EXT
 70
     0
  0
APPID
  5
49A6
330
9
100
AcDbSymbolTableRecord
100
AcDbRegAppTableRecord
  2
ACAD_DSTYLE_DIMFLIPARROW_W
 70
     0
  0
APPID
  5
49A7
330
9
100
AcDbSymbolTableRecord
100
AcDbRegAppTableRecord
  2
ACAD_DSTYLE_DIMJOGGED_JOGA
 70
     0
  0
APPID
  5
49A8
330
9
100
AcDbSymbolTableRecord
100
AcDbRegAppTableRecord
  2
ACAD_DSTYLE_DIMINSPECT
 70
     0
  0
APPID
  5
49A9
330
9
100
AcDbSymbolTableRecord
100
AcDbRegAppTableRecord
  2
GENIUS_GENOREF_13
 70
     0
  0
APPID
  5
49AA
330
9
100
AcDbSymbolTableRecord
100
AcDbRegAppTableRecord
  2
ACADANNOMONITORALERTICONDI
 70
     0
  0
ENDTAB
  0
TABLE
  2
DIMSTYLE
  5
A
330
0
100
AcDbSymbolTable
 70
     6
100
AcDbDimStyleTable
 71
     0
  0
DIMSTYLE
105
25
330
A
100
AcDbSymbolTableRecord
100
AcDbDimStyleTableRecord
  2
Standard
 70
     0
340
11
  0
DIMSTYLE
105
60
330
A
100
AcDbSymbolTableRecord
100
AcDbDimStyleTableRecord
  2
副本 (3) ISO-25 4
 70
     0
 41
14.0
 42
0.0
 43
10.0
 44
6.0
 73
     0
 74
     0
 77
     1
 78
     8
140
20.0
141
7.5
143
0.03937007874016
147
1.5
171
     3
172
     1
271
     1
272
     1
274
     3
283
     0
284
     8
340
11
  0
DIMSTYLE
105
119
330
A
100
AcDbSymbolTableRecord
100
AcDbDimStyleTableRecord
  2
副本 ISO-25
 70
     0
 41
12.0
 42
0.0
 43
10.0
 44
5.0
 73
     0
 74
     0
 77
     1
 78
     8
140
18.0
141
1.5
143
0.03937007874016
147
1.5
171
     3
172
     1
271
     1
272
     1
274
     3
278
    44
283
     0
284
     8
340
11
  0
DIMSTYLE
105
359
330
A
100
AcDbSymbolTableRecord
100
AcDbDimStyleTableRecord
  2
ISO-25
 70
     0
 41
17.0
 42
3.0
 43
3.75
 44
1.25
 73
     0
 77
     1
 78
     8
140
19.0
141
80.0
143
0.03937007874016
147
7.0
170
     1
171
     3
172
     1
271
     2
272
     2
273
     7
274
     3
283
     0
284
     8
340
11
  0
DIMSTYLE
105
4EC
330
A
100
AcDbSymbolTableRecord
100
AcDbDimStyleTableRecord
  2
英寸
 70
     0
 41
12.0
 42
0.0
 43
10.0
 44
3.75
 73
     0
 74
     0
 77
     1
 78
     8
140
16.0
141
7.5
143
0.03937007874016
147
2.0
170
     1
171
     3
172
     1
179
     1
271
     1
272
     1
273
     7
274
     3
283
     0
284
     8
340
11
  0
DIMSTYLE
105
3B18
330
A
100
AcDbSymbolTableRecord
100
AcDbDimStyleTableRecord
  2
LXF
 70
     0
 41
18.0
 42
0.0
 43
10.0
 44
2.5
 73
     0
 74
     0
 77
     1
 78
     8
140
20.0
141
0.0
143
0.03937007874016
147
3.0
171
     3
172
     1
178
     6
179
     1
271
     1
272
     1
274
     3
283
     0
284
     8
340
11
  0
ENDTAB
  0
TABLE
  2
BLOCK_RECORD
  5
1
330
0
100
AcDbSymbolTable
 70
   113
  0
BLOCK_RECORD
  5
1F
102
{ACAD_XDICTIONARY
360
3C62
102
}
330
1
100
AcDbSymbolTableRecord
100
AcDbBlockTableRecord
  2
*Model_Space
340
22
  0
BLOCK_RECORD
  5
1B
330
1
100
AcDbSymbolTableRecord
100
AcDbBlockTableRecord
  2
*Paper_Space
340
1E
  0
BLOCK_RECORD
  5
23
330
1
100
AcDbSymbolTableRecord
100
AcDbBlockTableRecord
  2
*Paper_Space0
340
24
  0
BLOCK_RECORD
  5
40FD
330
1
100
AcDbSymbolTableRecord
100
AcDbBlockTableRecord
  2
*D1
340
0
  0
BLOCK_RECORD
  5
4109
330
1
100
AcDbSymbolTableRecord
100
AcDbBlockTableRecord
  2
*D2
340
0
  0
BLOCK_RECORD
  5
4115
330
1
100
AcDbSymbolTableRecord
100
AcDbBlockTableRecord
  2
*D3
340
0
  0
BLOCK_RECORD
  5
4121
330
1
100
AcDbSymbolTableRecord
100
AcDbBlockTableRecord
  2
*D4
340
0
  0
BLOCK_RECORD
  5
412D
330
1
100
AcDbSymbolTableRecord
100
AcDbBlockTableRecord
  2
*D5
340
0
  0
BLOCK_RECORD
  5
4139
330
1
100
AcDbSymbolTableRecord
100
AcDbBlockTableRecord
  2
*D6
340
0
  0
BLOCK_RECORD
  5
4198
330
1
100
AcDbSymbolTableRecord
100
AcDbBlockTableRecord
  2
*D7
340
0
  0
BLOCK_RECORD
  5
41A6
330
1
100
AcDbSymbolTableRecord
100
AcDbBlockTableRecord
  2
*D8
340
0
  0
BLOCK_RECORD
  5
45C0
330
1
100
AcDbSymbolTableRecord
100
AcDbBlockTableRecord
  2
WMF0
340
0
  0
BLOCK_RECORD
  5
4767
330
1
100
AcDbSymbolTableRecord
100
AcDbBlockTableRecord
  2
AN-3215 drawing
340
0
  0
BLOCK_RECORD
  5
48FA
330
1
100
AcDbSymbolTableRecord
100
AcDbBlockTableRecord
  2
*D11
340
0
  0
BLOCK_RECORD
  5
4909
330
1
100
AcDbSymbolTableRecord
100
AcDbBlockTableRecord
  2
*D12
340
0
  0
BLOCK_RECORD
  5
4918
330
1
100
AcDbSymbolTableRecord
100
AcDbBlockTableRecord
  2
*D13
340
0
  0
BLOCK_RECORD
  5
4927
330
1
100
AcDbSymbolTableRecord
100
AcDbBlockTableRecord
  2
*D14
340
0
  0
BLOCK_RECORD
  5
4936
330
1
100
AcDbSymbolTableRecord
100
AcDbBlockTableRecord
  2
*D15
340
0
  0
BLOCK_RECORD
  5
4945
330
1
100
AcDbSymbolTableRecord
100
AcDbBlockTableRecord
  2
*D16
340
0
  0
BLOCK_RECORD
  5
498A
330
1
100
AcDbSymbolTableRecord
100
AcDbBlockTableRecord
  2
*D17
340
0
  0
BLOCK_RECORD
  5
499A
330
1
100
AcDbSymbolTableRecord
100
AcDbBlockTableRecord
  2
*D18
340
0
  0
BLOCK_RECORD
  5
4AEE
330
1
100
AcDbSymbolTableRecord
100
AcDbBlockTableRecord
  2
02
340
0
  0
BLOCK_RECORD
  5
4EC1
330
1
100
AcDbSymbolTableRecord
100
AcDbBlockTableRecord
  2
*D77
340
0
  0
BLOCK_RECORD
  5
4ED0
330
1
100
AcDbSymbolTableRecord
100
AcDbBlockTableRecord
  2
*D78
340
0
  0
BLOCK_RECORD
  5
4EE1
330
1
100
AcDbSymbolTableRecord
100
AcDbBlockTableRecord
  2
*D79
340
0
  0
BLOCK_RECORD
  5
4EF2
330
1
100
AcDbSymbolTableRecord
100
AcDbBlockTableRecord
  2
*D80
340
0
  0
BLOCK_RECORD
  5
4F01
330
1
100
AcDbSymbolTableRecord
100
AcDbBlockTableRecord
  2
*D81
340
0
  0
BLOCK_RECORD
  5
4F36
330
1
100
AcDbSymbolTableRecord
100
AcDbBlockTableRecord
  2
*D82
340
0
  0
BLOCK_RECORD
  5
4F45
330
1
100
AcDbSymbolTableRecord
100
AcDbBlockTableRecord
  2
*D83
340
0
  0
BLOCK_RECORD
  5
4F54
330
1
100
AcDbSymbolTableRecord
100
AcDbBlockTableRecord
  2
*D84
340
0
  0
BLOCK_RECORD
  5
4F5F
330
1
100
AcDbSymbolTableRecord
100
AcDbBlockTableRecord
  2
*D85
340
0
  0
BLOCK_RECORD
  5
4F6E
330
1
100
AcDbSymbolTableRecord
100
AcDbBlockTableRecord
  2
*D86
340
0
  0
BLOCK_RECORD
  5
4F7A
330
1
100
AcDbSymbolTableRecord
100
AcDbBlockTableRecord
  2
*D87
340
0
  0
BLOCK_RECORD
  5
4F85
330
1
100
AcDbSymbolTableRecord
100
AcDbBlockTableRecord
  2
*D88
340
0
  0
BLOCK_RECORD
  5
4F91
330
1
100
AcDbSymbolTableRecord
100
AcDbBlockTableRecord
  2
*D89
340
0
  0
BLOCK_RECORD
  5
4FA0
330
1
100
AcDbSymbolTableRecord
100
AcDbBlockTableRecord
  2
*D90
340
0
  0
BLOCK_RECORD
  5
4FAB
330
1
100
AcDbSymbolTableRecord
100
AcDbBlockTableRecord
  2
*D91
340
0
  0
BLOCK_RECORD
  5
4FB6
330
1
100
AcDbSymbolTableRecord
100
AcDbBlockTableRecord
  2
*D92
340
0
  0
BLOCK_RECORD
  5
4FD0
330
1
100
AcDbSymbolTableRecord
100
AcDbBlockTableRecord
  2
*D93
340
0
  0
BLOCK_RECORD
  5
4FDF
330
1
100
AcDbSymbolTableRecord
100
AcDbBlockTableRecord
  2
*D94
340
0
  0
ENDTAB
  0
ENDSEC
  0
SECTION
  2
BLOCKS
  0
BLOCK
  5
20
330
1F
100
AcDbEntity
  8
0
100
AcDbBlockBegin
  2
*Model_Space
 70
     0
 10
0.0
 20
0.0
 30
0.0
  3
*Model_Space
  1

  0
ENDBLK
  5
21
330
1F
100
AcDbEntity
  8
0
100
AcDbBlockEnd
  0
BLOCK
  5
1C
330
1B
100
AcDbEntity
 67
     1
  8
0
100
AcDbBlockBegin
  2
*Paper_Space
 70
     0
 10
0.0
 20
0.0
 30
0.0
  3
*Paper_Space
  1

  0
ENDBLK
  5
1D
330
1B
100
AcDbEntity
 67
     1
  8
0
100
AcDbBlockEnd
  0
BLOCK
  5
39
330
23
100
AcDbEntity
 67
     1
  8
0
100
AcDbBlockBegin
  2
*Paper_Space0
 70
     0
 10
0.0
 20
0.0
 30
0.0
  3
*Paper_Space0
  1

  0
ENDBLK
  5
3A
330
23
100
AcDbEntity
 67
     1
  8
0
100
AcDbBlockEnd
  0
BLOCK
  5
4107
330
40FD
100
AcDbEntity
  8
0
100
AcDbBlockBegin
  2
*D1
 70
     1
 10
0.0
 20
0.0
 30
0.0
  3
*D1
  1

  0
LINE
  5
4358
330
40FD
100
AcDbEntity
  8
标注
 62
     0
370
    -2
100
AcDbLine
 10
1136.683073526409
 20
746.756309265661
 30
0.0
 11
1136.683073526409
 21
825.5101288539773
 31
0.0
  0
LINE
  5
4359
330
40FD
100
AcDbEntity
  8
标注
 62
     0
370
    -2
100
AcDbLine
 10
374.6830735264205
 20
761.2382902013994
 30
0.0
 11
374.6830735264205
 21
825.5101288539773
 31
0.0
  0
LINE
  5
435A
330
40FD
100
AcDbEntity
  8
标注
 62
     0
370
    -2
100
AcDbLine
 10
1128.683073526409
 20
821.7601288539771
 30
0.0
 11
382.6830735264205
 21
821.7601288539771
 31
0.0
  0
SOLID
  5
435B
330
40FD
100
AcDbEntity
  8
标注
 62
     0
100
AcDbTrace
 10
1128.683073526409
 20
823.0934621873105
 30
0.0
 11
1128.683073526409
 21
820.4267955206438
 31
0.0
 12
1136.683073526409
 22
821.7601288539771
 32
0.0
 13
1136.683073526409
 23
821.7601288539771
 33
0.0
  0
SOLID
  5
435C
330
40FD
100
AcDbEntity
  8
标注
 62
     0
100
AcDbTrace
 10
382.6830735264205
 20
823.0934621873105
 30
0.0
 11
382.6830735264205
 21
820.4267955206438
 31
0.0
 12
374.6830735264205
 22
821.7601288539771
 32
0.0
 13
374.6830735264205
 23
821.7601288539771
 33
0.0
  0
MTEXT
  5
435D
330
40FD
100
AcDbEntity
  8
标注
 62
     0
100
AcDbMText
 10
778.3803201253322
 20
834.0138805592978
 30
0.0
 40
16.0
 41
0.0
 71
     5
 72
     1
  1
{\fArial|b0|i0|c0|p34;762 [30]}
 73
     1
 44
1.0
1001
ACAD
1000
MTEXTBEGIN
1070
    73
1070
     1
1070
    44
1040
1.0
1070
    74
1070
     0
1000
MTEXTEND
  0
POINT
  5
435E
330
40FD
100
AcDbEntity
  8
Defpoints
 62
     0
100
AcDbPoint
 10
1136.683073526409
 20
746.756309265661
 30
0.0
  0
POINT
  5
435F
330
40FD
100
AcDbEntity
  8
Defpoints
 62
     0
100
AcDbPoint
 10
374.6830735264205
 20
761.2382902013994
 30
0.0
  0
POINT
  5
4360
330
40FD
100
AcDbEntity
  8
Defpoints
 62
     0
100
AcDbPoint
 10
374.6830735264205
 20
821.7601288539771
 30
0.0
  0
ENDBLK
  5
4108
330
40FD
100
AcDbEntity
  8
0
100
AcDbBlockEnd
  0
BLOCK
  5
4113
330
4109
100
AcDbEntity
  8
0
100
AcDbBlockBegin
  2
*D2
 70
     1
 10
0.0
 20
0.0
 30
0.0
  3
*D2
  1

  0
LINE
  5
4361
330
4109
100
AcDbEntity
  8
标注
 62
     0
370
    -2
100
AcDbLine
 10
371.1830492154659
 20
752.6590880851101
 30
0.0
 11
310.3665496900977
 21
752.6590880851101
 31
0.0
  0
LINE
  5
4362
330
4109
100
AcDbEntity
  8
标注
 62
     0
370
    -2
100
AcDbLine
 10
364.8853704162712
 20
279.6590880851149
 30
0.0
 11
310.3665496900976
 21
279.6590880851149
 31
0.0
  0
LINE
  5
4363
330
4109
100
AcDbEntity
  8
标注
 62
     0
370
    -2
100
AcDbLine
 10
314.1165496900977
 20
744.6590880851101
 30
0.0
 11
314.1165496900976
 21
287.659088085115
 31
0.0
  0
SOLID
  5
4364
330
4109
100
AcDbEntity
  8
标注
 62
     0
100
AcDbTrace
 10
312.7832163567644
 20
744.6590880851101
 30
0.0
 11
315.449883023431
 21
744.6590880851101
 31
0.0
 12
314.1165496900977
 22
752.6590880851101
 32
0.0
 13
314.1165496900977
 23
752.6590880851101
 33
0.0
  0
SOLID
  5
4365
330
4109
100
AcDbEntity
  8
标注
 62
     0
100
AcDbTrace
 10
312.7832163567643
 20
287.659088085115
 30
0.0
 11
315.4498830234309
 21
287.659088085115
 31
0.0
 12
314.1165496900976
 22
279.6590880851149
 32
0.0
 13
314.1165496900976
 23
279.6590880851149
 33
0.0
  0
MTEXT
  5
4366
330
4109
100
AcDbEntity
  8
标注
 62
     0
100
AcDbMText
 10
301.7591144922804
 20
483.1590880851106
 30
0.0
 40
16.0
 41
0.0
 71
     5
 72
     1
  1
{\fArial|b0|i0|c0|p34;473 [18 5/8]}
 11
0.0000000000000001
 21
1.0
 31
0.0
 73
     1
 44
1.0
1001
ACAD
1000
MTEXTBEGIN
1070
    73
1070
     1
1070
    44
1040
1.0
1070
    74
1070
     0
1000
MTEXTEND
  0
POINT
  5
4367
330
4109
100
AcDbEntity
  8
Defpoints
 62
     0
100
AcDbPoint
 10
371.1830492154659
 20
752.6590880851101
 30
0.0
  0
POINT
  5
4368
330
4109
100
AcDbEntity
  8
Defpoints
 62
     0
100
AcDbPoint
 10
364.8853704162712
 20
279.6590880851149
 30
0.0
  0
POINT
  5
4369
330
4109
100
AcDbEntity
  8
Defpoints
 62
     0
100
AcDbPoint
 10
314.1165496900976
 20
279.6590880851149
 30
0.0
  0
ENDBLK
  5
4114
330
4109
100
AcDbEntity
  8
0
100
AcDbBlockEnd
  0
BLOCK
  5
411F
330
4115
100
AcDbEntity
  8
0
100
AcDbBlockBegin
  2
*D3
 70
     1
 10
0.0
 20
0.0
 30
0.0
  3
*D3
  1

  0
LINE
  5
436A
330
4115
100
AcDbEntity
  8
标注
 62
     0
370
    -2
100
AcDbLine
 10
1143.033073526411
 20
746.4836335461809
 30
0.0
 11
1143.033073526411
 21
859.0101288539772
 31
0.0
  0
LINE
  5
436B
330
4115
100
AcDbEntity
  8
标注
 62
     0
370
    -2
100
AcDbLine
 10
368.333073526414
 20
761.5182194571603
 30
0.0
 11
368.333073526414
 21
859.0101288539772
 31
0.0
  0
LINE
  5
436C
330
4115
100
AcDbEntity
  8
标注
 62
     0
370
    -2
100
AcDbLine
 10
1135.033073526411
 20
855.2601288539772
 30
0.0
 11
376.333073526414
 21
855.2601288539772
 31
0.0
  0
SOLID
  5
436D
330
4115
100
AcDbEntity
  8
标注
 62
     0
100
AcDbTrace
 10
1135.033073526411
 20
856.5934621873106
 30
0.0
 11
1135.033073526411
 21
853.9267955206438
 31
0.0
 12
1143.033073526411
 22
855.2601288539772
 32
0.0
 13
1143.033073526411
 23
855.2601288539772
 33
0.0
  0
SOLID
  5
436E
330
4115
100
AcDbEntity
  8
标注
 62
     0
100
AcDbTrace
 10
376.333073526414
 20
856.5934621873106
 30
0.0
 11
376.333073526414
 21
853.9267955206438
 31
0.0
 12
368.333073526414
 22
855.2601288539772
 32
0.0
 13
368.333073526414
 23
855.2601288539772
 33
0.0
  0
MTEXT
  5
436F
330
4115
100
AcDbEntity
  8
标注
 62
     0
100
AcDbMText
 10
778.3803201253322
 20
867.6175640517943
 30
0.0
 40
16.0
 41
0.0
 71
     5
 72
     1
  1
{\fArial|b0|i0|c0|p34;774.7 [30 1/2]}
 73
     1
 44
1.0
1001
ACAD
1000
MTEXTBEGIN
1070
    73
1070
     1
1070
    44
1040
1.0
1070
    74
1070
     0
1000
MTEXTEND
  0
POINT
  5
4370
330
4115
100
AcDbEntity
  8
Defpoints
 62
     0
100
AcDbPoint
 10
1143.033073526411
 20
746.4836335461809
 30
0.0
  0
POINT
  5
4371
330
4115
100
AcDbEntity
  8
Defpoints
 62
     0
100
AcDbPoint
 10
368.333073526414
 20
761.5182194571603
 30
0.0
  0
POINT
  5
4372
330
4115
100
AcDbEntity
  8
Defpoints
 62
     0
100
AcDbPoint
 10
368.333073526414
 20
855.2601288539772
 30
0.0
  0
ENDBLK
  5
4120
330
4115
100
AcDbEntity
  8
0
100
AcDbBlockEnd
  0
BLOCK
  5
412B
330
4121
100
AcDbEntity
  8
0
100
AcDbBlockBegin
  2
*D4
 70
     1
 10
0.0
 20
0.0
 30
0.0
  3
*D4
  1

  0
LINE
  5
4373
330
4121
100
AcDbEntity
  8
标注
 62
     0
370
    -2
100
AcDbLine
 10
372.1830492154659
 20
759.0090880851098
 30
0.0
 11
279.3665496900977
 21
759.0090880851098
 31
0.0
  0
LINE
  5
4374
330
4121
100
AcDbEntity
  8
标注
 62
     0
370
    -2
100
AcDbLine
 10
364.552602647399
 20
273.3090880851164
 30
0.0
 11
279.3665496900976
 21
273.3090880851164
 31
0.0
  0
LINE
  5
4375
330
4121
100
AcDbEntity
  8
标注
 62
     0
370
    -2
100
AcDbLine
 10
283.1165496900977
 20
751.0090880851098
 30
0.0
 11
283.1165496900976
 21
281.3090880851164
 31
0.0
  0
SOLID
  5
4376
330
4121
100
AcDbEntity
  8
标注
 62
     0
100
AcDbTrace
 10
281.7832163567644
 20
751.0090880851098
 30
0.0
 11
284.449883023431
 21
751.0090880851098
 31
0.0
 12
283.1165496900977
 22
759.0090880851098
 32
0.0
 13
283.1165496900977
 23
759.0090880851098
 33
0.0
  0
SOLID
  5
4377
330
4121
100
AcDbEntity
  8
标注
 62
     0
100
AcDbTrace
 10
281.7832163567643
 20
281.3090880851164
 30
0.0
 11
284.4498830234309
 21
281.3090880851164
 31
0.0
 12
283.1165496900976
 22
273.3090880851164
 32
0.0
 13
283.1165496900976
 23
273.3090880851164
 33
0.0
  0
MTEXT
  5
4378
330
4121
100
AcDbEntity
  8
标注
 62
     0
100
AcDbMText
 10
270.7591144922804
 20
483.1590880851106
 30
0.0
 40
16.0
 41
0.0
 71
     5
 72
     1
  1
{\fArial|b0|i0|c0|p34;485.7 [19 1/8]}
 11
0.0000000000000001
 21
1.0
 31
0.0
 73
     1
 44
1.0
1001
ACAD
1000
MTEXTBEGIN
1070
    73
1070
     1
1070
    44
1040
1.0
1070
    74
1070
     0
1000
MTEXTEND
  0
POINT
  5
4379
330
4121
100
AcDbEntity
  8
Defpoints
 62
     0
100
AcDbPoint
 10
372.1830492154659
 20
759.0090880851098
 30
0.0
  0
POINT
  5
437A
330
4121
100
AcDbEntity
  8
Defpoints
 62
     0
100
AcDbPoint
 10
364.552602647399
 20
273.3090880851164
 30
0.0
  0
POINT
  5
437B
330
4121
100
AcDbEntity
  8
Defpoints
 62
     0
100
AcDbPoint
 10
283.1165496900976
 20
273.3090880851164
 30
0.0
  0
ENDBLK
  5
412C
330
4121
100
AcDbEntity
  8
0
100
AcDbBlockEnd
  0
BLOCK
  5
4137
330
412D
100
AcDbEntity
  8
0
100
AcDbBlockBegin
  2
*D5
 70
     1
 10
0.0
 20
0.0
 30
0.0
  3
*D5
  1

  0
LINE
  5
437C
330
412D
100
AcDbEntity
  8
标注
 62
     0
370
    -2
100
AcDbLine
 10
1130.333073526406
 20
745.7563092656609
 30
0.0
 11
1130.333073526406
 21
794.5101288539772
 31
0.0
  0
LINE
  5
437D
330
412D
100
AcDbEntity
  8
标注
 62
     0
370
    -2
100
AcDbLine
 10
381.0330735264172
 20
760.7744476914892
 30
0.0
 11
381.0330735264172
 21
794.5101288539772
 31
0.0
  0
LINE
  5
437E
330
412D
100
AcDbEntity
  8
标注
 62
     0
370
    -2
100
AcDbLine
 10
1122.333073526406
 20
790.7601288539772
 30
0.0
 11
389.0330735264172
 21
790.7601288539772
 31
0.0
  0
SOLID
  5
437F
330
412D
100
AcDbEntity
  8
标注
 62
     0
100
AcDbTrace
 10
1122.333073526406
 20
792.0934621873105
 30
0.0
 11
1122.333073526406
 21
789.4267955206438
 31
0.0
 12
1130.333073526406
 22
790.7601288539772
 32
0.0
 13
1130.333073526406
 23
790.7601288539772
 33
0.0
  0
SOLID
  5
4380
330
412D
100
AcDbEntity
  8
标注
 62
     0
100
AcDbTrace
 10
389.0330735264172
 20
792.0934621873105
 30
0.0
 11
389.0330735264172
 21
789.4267955206438
 31
0.0
 12
381.0330735264172
 22
790.7601288539772
 32
0.0
 13
381.0330735264172
 23
790.7601288539772
 33
0.0
  0
MTEXT
  5
4381
330
412D
100
AcDbEntity
  8
标注
 62
     0
100
AcDbMText
 10
778.3803201253294
 20
803.1175640517943
 30
0.0
 40
16.0
 41
0.0
 71
     5
 72
     1
  1
{\fArial|b0|i0|c0|p34;749.3 [29 1/2]}
 73
     1
 44
1.0
1001
ACAD
1000
MTEXTBEGIN
1070
    73
1070
     1
1070
    44
1040
1.0
1070
    74
1070
     0
1000
MTEXTEND
  0
POINT
  5
4382
330
412D
100
AcDbEntity
  8
Defpoints
 62
     0
100
AcDbPoint
 10
1130.333073526406
 20
745.7563092656609
 30
0.0
  0
POINT
  5
4383
330
412D
100
AcDbEntity
  8
Defpoints
 62
     0
100
AcDbPoint
 10
381.0330735264172
 20
760.7744476914892
 30
0.0
  0
POINT
  5
4384
330
412D
100
AcDbEntity
  8
Defpoints
 62
     0
100
AcDbPoint
 10
381.0330735264172
 20
790.7601288539772
 30
0.0
  0
ENDBLK
  5
4138
330
412D
100
AcDbEntity
  8
0
100
AcDbBlockEnd
  0
BLOCK
  5
4143
330
4139
100
AcDbEntity
  8
0
100
AcDbBlockBegin
  2
*D6
 70
     1
 10
0.0
 20
0.0
 30
0.0
  3
*D6
  1

  0
LINE
  5
4385
330
4139
100
AcDbEntity
  8
标注
 62
     0
370
    -2
100
AcDbLine
 10
371.6830492154659
 20
746.3090880851105
 30
0.0
 11
338.3665496900977
 21
746.3090880851105
 31
0.0
  0
LINE
  5
4386
330
4139
100
AcDbEntity
  8
标注
 62
     0
370
    -2
100
AcDbLine
 10
366.2164414917634
 20
286.0090880851135
 30
0.0
 11
338.3665496900976
 21
286.0090880851135
 31
0.0
  0
LINE
  5
4387
330
4139
100
AcDbEntity
  8
标注
 62
     0
370
    -2
100
AcDbLine
 10
342.1165496900977
 20
738.3090880851105
 30
0.0
 11
342.1165496900976
 21
294.0090880851135
 31
0.0
  0
SOLID
  5
4388
330
4139
100
AcDbEntity
  8
标注
 62
     0
100
AcDbTrace
 10
340.7832163567644
 20
738.3090880851105
 30
0.0
 11
343.449883023431
 21
738.3090880851105
 31
0.0
 12
342.1165496900977
 22
746.3090880851105
 32
0.0
 13
342.1165496900977
 23
746.3090880851105
 33
0.0
  0
SOLID
  5
4389
330
4139
100
AcDbEntity
  8
标注
 62
     0
100
AcDbTrace
 10
340.7832163567643
 20
294.0090880851135
 30
0.0
 11
343.4498830234309
 21
294.0090880851135
 31
0.0
 12
342.1165496900976
 22
286.0090880851135
 32
0.0
 13
342.1165496900976
 23
286.0090880851135
 33
0.0
  0
MTEXT
  5
438A
330
4139
100
AcDbEntity
  8
标注
 62
     0
100
AcDbMText
 10
329.7591144922804
 20
483.1590880851106
 30
0.0
 40
16.0
 41
0.0
 71
     5
 72
     1
  1
{\fArial|b0|i0|c0|p34;460.3 [18 1/8]}
 11
0.0000000000000001
 21
1.0
 31
0.0
 73
     1
 44
1.0
1001
ACAD
1000
MTEXTBEGIN
1070
    73
1070
     1
1070
    44
1040
1.0
1070
    74
1070
     0
1000
MTEXTEND
  0
POINT
  5
438B
330
4139
100
AcDbEntity
  8
Defpoints
 62
     0
100
AcDbPoint
 10
371.6830492154659
 20
746.3090880851105
 30
0.0
  0
POINT
  5
438C
330
4139
100
AcDbEntity
  8
Defpoints
 62
     0
100
AcDbPoint
 10
366.2164414917634
 20
286.0090880851135
 30
0.0
  0
POINT
  5
438D
330
4139
100
AcDbEntity
  8
Defpoints
 62
     0
100
AcDbPoint
 10
342.1165496900976
 20
286.0090880851135
 30
0.0
  0
ENDBLK
  5
4144
330
4139
100
AcDbEntity
  8
0
100
AcDbBlockEnd
  0
BLOCK
  5
41A4
330
4198
100
AcDbEntity
  8
0
100
AcDbBlockBegin
  2
*D7
 70
     1
 10
0.0
 20
0.0
 30
0.0
  3
*D7
  1

  0
LINE
  5
438E
330
4198
100
AcDbEntity
  8
标注
 62
     0
370
    -2
100
AcDbLine
 10
1130.333073526406
 20
488.6590880851112
 30
0.0
 11
1130.333073526406
 21
448.7816612293094
 31
0.0
  0
LINE
  5
438F
330
4198
100
AcDbEntity
  8
标注
 62
     0
370
    -2
100
AcDbLine
 10
1136.683073526409
 20
488.659088085104
 30
0.0
 11
1136.683073526409
 21
448.7816612293094
 31
0.0
  0
LINE
  5
4390
330
4198
100
AcDbEntity
  8
标注
 62
     0
370
    -2
100
AcDbLine
 10
1144.683073526409
 20
452.5316612293095
 30
0.0
 11
1152.683073526409
 21
452.5316612293095
 31
0.0
  0
LINE
  5
4391
330
4198
100
AcDbEntity
  8
标注
 62
     0
370
    -2
100
AcDbLine
 10
1122.333073526406
 20
452.5316612293095
 30
0.0
 11
1015.091600129408
 21
452.5316612293095
 31
0.0
  0
LINE
  5
4392
330
4198
100
AcDbEntity
  8
标注
 62
     0
370
    -2
100
AcDbLine
 10
1136.683073526409
 20
452.5316612293095
 30
0.0
 11
1130.333073526406
 21
452.5316612293095
 31
0.0
  0
SOLID
  5
4393
330
4198
100
AcDbEntity
  8
标注
 62
     0
100
AcDbTrace
 10
1144.683073526409
 20
453.8649945626428
 30
0.0
 11
1144.683073526409
 21
451.1983278959761
 31
0.0
 12
1136.683073526409
 22
452.5316612293095
 32
0.0
 13
1136.683073526409
 23
452.5316612293095
 33
0.0
  0
SOLID
  5
4394
330
4198
100
AcDbEntity
  8
标注
 62
     0
100
AcDbTrace
 10
1122.333073526406
 20
453.8649945626428
 30
0.0
 11
1122.333073526406
 21
451.1983278959761
 31
0.0
 12
1130.333073526406
 22
452.5316612293095
 32
0.0
 13
1130.333073526406
 23
452.5316612293095
 33
0.0
  0
MTEXT
  5
4395
330
4198
100
AcDbEntity
  8
标注
 62
     0
100
AcDbMText
 10
1056.333073526406
 20
464.8890964271267
 30
0.0
 40
16.0
 41
0.0
 71
     5
 72
     1
  1
{\fArial|b0|i0|c0|p34;6.4 [1/4]}
 73
     1
 44
1.0
1001
ACAD
1000
MTEXTBEGIN
1070
    73
1070
     1
1070
    44
1040
1.0
1070
    74
1070
     0
1000
MTEXTEND
  0
POINT
  5
4396
330
4198
100
AcDbEntity
  8
Defpoints
 62
     0
100
AcDbPoint
 10
1130.333073526406
 20
488.6590880851112
 30
0.0
  0
POINT
  5
4397
330
4198
100
AcDbEntity
  8
Defpoints
 62
     0
100
AcDbPoint
 10
1136.683073526409
 20
488.659088085104
 30
0.0
  0
POINT
  5
4398
330
4198
100
AcDbEntity
  8
Defpoints
 62
     0
100
AcDbPoint
 10
1136.683073526409
 20
452.5316612293095
 30
0.0
  0
ENDBLK
  5
41A5
330
4198
100
AcDbEntity
  8
0
100
AcDbBlockEnd
  0
BLOCK
  5
41B2
330
41A6
100
AcDbEntity
  8
0
100
AcDbBlockBegin
  2
*D8
 70
     1
 10
0.0
 20
0.0
 30
0.0
  3
*D8
  1

  0
LINE
  5
4399
330
41A6
100
AcDbEntity
  8
标注
 62
     0
370
    -2
100
AcDbLine
 10
1136.683073526409
 20
488.659088085104
 30
0.0
 11
1136.683073526409
 21
412.3823115989257
 31
0.0
  0
LINE
  5
439A
330
41A6
100
AcDbEntity
  8
标注
 62
     0
370
    -2
100
AcDbLine
 10
1143.033073526411
 20
488.6590880851112
 30
0.0
 11
1143.033073526411
 21
412.3823115989257
 31
0.0
  0
LINE
  5
439B
330
41A6
100
AcDbEntity
  8
标注
 62
     0
370
    -2
100
AcDbLine
 10
1151.033073526411
 20
416.1323115989257
 30
0.0
 11
1159.033073526411
 21
416.1323115989257
 31
0.0
  0
LINE
  5
439C
330
41A6
100
AcDbEntity
  8
标注
 62
     0
370
    -2
100
AcDbLine
 10
1128.683073526409
 20
416.1323115989257
 30
0.0
 11
1021.44160012941
 21
416.1323115989257
 31
0.0
  0
LINE
  5
439D
330
41A6
100
AcDbEntity
  8
标注
 62
     0
370
    -2
100
AcDbLine
 10
1143.033073526411
 20
416.1323115989257
 30
0.0
 11
1136.683073526409
 21
416.1323115989257
 31
0.0
  0
SOLID
  5
439E
330
41A6
100
AcDbEntity
  8
标注
 62
     0
100
AcDbTrace
 10
1151.033073526411
 20
417.465644932259
 30
0.0
 11
1151.033073526411
 21
414.7989782655924
 31
0.0
 12
1143.033073526411
 22
416.1323115989257
 32
0.0
 13
1143.033073526411
 23
416.1323115989257
 33
0.0
  0
SOLID
  5
439F
330
41A6
100
AcDbEntity
  8
标注
 62
     0
100
AcDbTrace
 10
1128.683073526409
 20
417.465644932259
 30
0.0
 11
1128.683073526409
 21
414.7989782655924
 31
0.0
 12
1136.683073526409
 22
416.1323115989257
 32
0.0
 13
1136.683073526409
 23
416.1323115989257
 33
0.0
  0
MTEXT
  5
43A0
330
41A6
100
AcDbEntity
  8
标注
 62
     0
100
AcDbMText
 10
1062.683073526409
 20
428.489746796743
 30
0.0
 40
16.0
 41
0.0
 71
     5
 72
     1
  1
{\fArial|b0|i0|c0|p34;6.4 [1/4]}
 73
     1
 44
1.0
1001
ACAD
1000
MTEXTBEGIN
1070
    73
1070
     1
1070
    44
1040
1.0
1070
    74
1070
     0
1000
MTEXTEND
  0
POINT
  5
43A1
330
41A6
100
AcDbEntity
  8
Defpoints
 62
     0
100
AcDbPoint
 10
1136.683073526409
 20
488.659088085104
 30
0.0
  0
POINT
  5
43A2
330
41A6
100
AcDbEntity
  8
Defpoints
 62
     0
100
AcDbPoint
 10
1143.033073526411
 20
488.6590880851112
 30
0.0
  0
POINT
  5
43A3
330
41A6
100
AcDbEntity
  8
Defpoints
 62
     0
100
AcDbPoint
 10
1143.033073526411
 20
416.1323115989257
 30
0.0
  0
ENDBLK
  5
41B3
330
41A6
100
AcDbEntity
  8
0
100
AcDbBlockEnd
  0
BLOCK
  5
45C1
330
45C0
100
AcDbEntity
  8
0
100
AcDbBlockBegin
  2
WMF0
 70
     0
 10
0.0
 20
0.0
 30
0.0
  3
WMF0
  1

  0
LWPOLYLINE
  5
45B2
330
45C0
100
AcDbEntity
  8
0
 62
     7
370
     0
100
AcDbPolyline
 90
       75
 70
     1
 43
0.0
 10
443.938630618862
 20
2020.315222057084
 10
453.9792458509528
 20
2020.315222057084
 10
459.7167402692901
 20
2005.97148601124
 10
459.7167402692901
 20
2005.97148601124
 10
486.9698387563933
 20
1944.293421014112
 10
503.4651352091136
 20
1907.716894097211
 10
509.9198164297432
 20
1894.807531655951
 10
513.5057504412039
 20
1886.918476830737
 10
513.5057504412039
 20
1886.918476830737
 10
515.6573108480805
 20
1884.766916423861
 10
517.8088712549572
 20
1883.332542819276
 10
519.9604316618338
 20
1881.898169214692
 10
522.8291788710023
 20
1881.898169214692
 10
522.8291788710023
 20
1881.898169214692
 10
524.980739277879
 20
1881.1809824124
 10
527.1322996847556
 20
1881.1809824124
 10
527.8494864870475
 20
1880.463795610108
 10
527.8494864870475
 20
1879.029422005523
 10
527.8494864870475
 20
1876.160674796355
 10
527.8494864870475
 20
1876.160674796355
 10
527.8494864870475
 20
1874.72630119177
 10
527.1322996847556
 20
1874.009114389478
 10
524.980739277879
 20
1873.291927587186
 10
468.3229818967965
 20
1873.291927587186
 10
468.3229818967965
 20
1873.291927587186
 10
467.6057950945041
 20
1874.009114389478
 10
466.1714214899197
 20
1876.160674796355
 10
466.8886082922121
 20
1879.746608807815
 10
466.8886082922121
 20
1879.746608807815
 10
467.6057950945041
 20
1881.1809824124
 10
468.3229818967965
 20
1881.898169214692
 10
474.777663117426
 20
1881.898169214692
 10
474.777663117426
 20
1881.898169214692
 10
479.0807839311792
 20
1881.898169214692
 10
482.6667179426401
 20
1883.332542819276
 10
484.8182783495166
 20
1885.484103226153
 10
485.5354651518085
 20
1889.070037237614
 10
485.5354651518085
 20
1889.070037237614
 10
484.8182783495166
 20
1892.655971249075
 10
482.6667179426401
 20
1898.393465667412
 10
474.0604763151337
 20
1919.909069736178
 10
410.9480377134216
 20
1919.909069736178
 10
400.9074224813311
 20
1894.807531655951
 10
400.9074224813311
 20
1894.807531655951
 10
400.1902356790387
 20
1891.938784446782
 10
399.4730488767467
 20
1889.070037237614
 10
399.4730488767467
 20
1889.070037237614
 10
400.1902356790387
 20
1886.201290028445
 10
402.3417960859155
 20
1883.332542819276
 10
405.2105432950843
 20
1881.898169214692
 10
409.513664108837
 20
1881.898169214692
 10
415.2511585271748
 20
1881.898169214692
 10
415.2511585271748
 20
1881.898169214692
 10
416.6855321317592
 20
1881.1809824124
 10
417.402718934051
 20
1879.029422005523
 10
417.402718934051
 20
1875.443487994061
 10
417.402718934051
 20
1875.443487994061
 10
416.6855321317592
 20
1874.009114389478
 10
415.968345329467
 20
1873.291927587186
 10
368.6340163781828
 20
1873.291927587186
 10
368.6340163781828
 20
1873.291927587186
 10
367.1996427735985
 20
1874.009114389478
 10
366.4824559713063
 20
1876.160674796355
 10
366.4824559713063
 20
1879.746608807815
 10
366.4824559713063
 20
1879.746608807815
 10
367.1996427735985
 20
1881.1809824124
 10
368.6340163781828
 20
1881.898169214692
 10
368.6340163781828
 20
1881.898169214692
 10
373.6543239942282
 20
1881.898169214692
 10
375.8058844011046
 20
1882.615356016984
 10
377.9574448079813
 20
1884.049729621569
 10
380.1090052148578
 20
1886.201290028445
 10
382.2605656217344
 20
1889.787224039906
 10
388.715246842364
 20
1901.262212876581
 10
443.938630618862
 20
2020.315222057084
  0
LWPOLYLINE
  5
45B3
330
45C0
100
AcDbEntity
  8
0
 62
     7
370
     0
100
AcDbPolyline
 90
        4
 70
     1
 43
0.0
 10
443.22144381657
 20
1993.062123569981
 10
414.5339717248825
 20
1928.515311363684
 10
470.474542303673
 20
1928.515311363684
 10
443.22144381657
 20
1993.062123569981
  0
LWPOLYLINE
  5
45B4
330
45C0
100
AcDbEntity
  8
0
 62
     7
370
     0
100
AcDbPolyline
 90
      104
 70
     1
 43
0.0
 10
703.5602530486328
 20
2011.708980429578
 10
703.5602530486328
 20
2011.708980429578
 10
702.8430662463407
 20
2010.274606824993
 10
702.1258794440488
 20
2010.274606824993
 10
697.8227586302955
 20
2009.557420022701
 10
697.8227586302955
 20
2009.557420022701
 10
692.8024510142502
 20
2009.557420022701
 10
688.499330200497
 20
2009.557420022701
 10
685.6305829913281
 20
2008.123046418117
 10
683.4790225844519
 20
2006.688672813532
 10
682.7618357821595
 20
2003.819925604364
 10
682.0446489798674
 20
1999.51680479061
 10
682.0446489798674
 20
1985.173068744767
 10
682.0446489798674
 20
1874.009114389478
 10
682.0446489798674
 20
1874.009114389478
 10
681.327462177575
 20
1872.574740784894
 10
679.8930885729909
 20
1871.857553982601
 10
671.2868469454847
 20
1871.857553982601
 10
655.5087372950564
 20
1894.090344853659
 10
592.3962986933442
 20
1975.849640314968
 10
592.3962986933442
 20
1975.849640314968
 10
583.7900570658381
 20
1986.607442349351
 10
575.1838154383317
 20
1995.213683976857
 10
575.1838154383317
 20
1912.020014910964
 10
575.1838154383317
 20
1912.020014910964
 10
575.9010022406243
 20
1894.807531655951
 10
576.6181890429162
 20
1889.787224039906
 10
578.0525626475007
 20
1885.484103226153
 10
580.204123054377
 20
1883.332542819276
 10
583.0728702635457
 20
1881.898169214692
 10
587.375991077299
 20
1881.1809824124
 10
593.1134854956366
 20
1881.1809824124
 10
593.1134854956366
 20
1881.1809824124
 10
598.1337931116819
 20
1881.1809824124
 10
598.850979913974
 20
1880.463795610108
 10
598.850979913974
 20
1879.029422005523
 10
598.850979913974
 20
1874.72630119177
 10
598.850979913974
 20
1874.72630119177
 10
598.850979913974
 20
1874.009114389478
 10
597.4166063093897
 20
1873.291927587186
 10
542.9104093351837
 20
1873.291927587186
 10
542.9104093351837
 20
1873.291927587186
 10
541.4760357305993
 20
1873.291927587186
 10
541.4760357305993
 20
1874.009114389478
 10
540.7588489283069
 20
1875.443487994061
 10
540.7588489283069
 20
1875.443487994061
 10
540.7588489283069
 20
1879.029422005523
 10
541.4760357305993
 20
1880.463795610108
 10
542.1932225328913
 20
1881.1809824124
 10
544.344782939768
 20
1881.1809824124
 10
544.344782939768
 20
1881.1809824124
 10
550.0822773581054
 20
1881.1809824124
 10
554.3853981718585
 20
1881.898169214692
 10
557.9713321833194
 20
1882.615356016984
 10
560.1228925901961
 20
1884.049729621569
 10
562.2744529970724
 20
1886.918476830737
 10
562.9916397993647
 20
1890.504410842198
 10
563.708826601657
 20
1895.524718458243
 10
563.708826601657
 20
1901.979399678873
 10
563.708826601657
 20
1985.173068744767
 10
563.708826601657
 20
1985.173068744767
 10
563.708826601657
 20
1998.799617988318
 10
562.9916397993647
 20
2003.102738802072
 10
561.5572661947805
 20
2005.97148601124
 10
559.4057057879039
 20
2008.123046418117
 10
556.5369585787351
 20
2008.840233220409
 10
552.2338377649821
 20
2009.557420022701
 10
546.4963433466444
 20
2009.557420022701
 10
546.4963433466444
 20
2009.557420022701
 10
542.1932225328913
 20
2010.274606824993
 10
541.4760357305993
 20
2010.991793627285
 10
540.7588489283069
 20
2011.708980429578
 10
540.7588489283069
 20
2011.708980429578
 10
541.4760357305993
 20
2016.729288045623
 10
541.4760357305993
 20
2017.446474847915
 10
542.1932225328913
 20
2017.446474847915
 10
587.375991077299
 20
2017.446474847915
 10
587.375991077299
 20
2017.446474847915
 10
600.2853535185582
 20
1999.51680479061
 10
651.9228032835957
 20
1932.101245375145
 10
651.9228032835957
 20
1932.101245375145
 10
669.8524733409002
 20
1909.868454504087
 10
669.8524733409002
 20
1985.173068744767
 10
669.8524733409002
 20
1985.173068744767
 10
669.8524733409002
 20
1999.51680479061
 10
668.4180997363157
 20
2003.819925604364
 10
666.9837261317316
 20
2006.688672813532
 10
664.8321657248549
 20
2008.123046418117
 10
661.2462317133941
 20
2009.557420022701
 10
656.943110899641
 20
2009.557420022701
 10
651.2056164813035
 20
2009.557420022701
 10
651.2056164813035
 20
2009.557420022701
 10
646.185308865258
 20
2010.274606824993
 10
645.468122062966
 20
2010.991793627285
 10
645.468122062966
 20
2011.708980429578
 10
645.468122062966
 20
2016.01210124333
 10
645.468122062966
 20
2016.01210124333
 10
646.185308865258
 20
2017.446474847915
 10
648.3368692721348
 20
2017.446474847915
 10
701.4086926417563
 20
2017.446474847915
 10
701.4086926417563
 20
2017.446474847915
 10
702.8430662463407
 20
2016.729288045623
 10
703.5602530486328
 20
2016.01210124333
 10
703.5602530486328
 20
2011.708980429578
  0
LWPOLYLINE
  5
45B5
330
45C0
100
AcDbEntity
  8
0
 62
     7
370
     0
100
AcDbPolyline
 90
      122
 70
     1
 43
0.0
 10
831.2195038566416
 20
1971.546519501215
 10
831.2195038566416
 20
1971.546519501215
 10
829.7851302520575
 20
1972.263706303508
 10
829.0679434497651
 20
1972.980893105799
 10
828.350756647473
 20
1976.566827117261
 10
828.350756647473
 20
1976.566827117261
 10
826.9163830428889
 20
1983.738695140182
 10
824.04763583372
 20
1990.910563163104
 10
820.461701822259
 20
1996.648057581441
 10
815.4413942062134
 20
2001.668365197487
 10
809.7038997878765
 20
2005.97148601124
 10
803.9664053695387
 20
2009.557420022701
 10
797.5117241489091
 20
2010.991793627285
 10
790.3398561259872
 20
2011.708980429578
 10
790.3398561259872
 20
2011.708980429578
 10
785.319548509942
 20
2011.708980429578
 10
780.2992408938968
 20
2010.991793627285
 10
775.9961200801434
 20
2009.557420022701
 10
770.9758124640982
 20
2007.405859615825
 10
766.6726916503453
 20
2005.254299208948
 10
763.0867576388842
 20
2001.668365197487
 10
759.5008236274233
 20
1998.799617988318
 10
755.9148896159626
 20
1994.496497174565
 10
753.0461424067937
 20
1990.193376360812
 10
750.1773951976248
 20
1985.173068744767
 10
748.0258347907485
 20
1980.152761128722
 10
745.8742743838719
 20
1975.132453512676
 10
744.4399007792875
 20
1969.394959094339
 10
743.7227139769952
 20
1962.940277873709
 10
743.005527174703
 20
1956.485596653079
 10
742.2883403724107
 20
1950.030915432449
 10
742.2883403724107
 20
1950.030915432449
 10
743.005527174703
 20
1942.859047409528
 10
743.7227139769952
 20
1936.404366188898
 10
744.4399007792875
 20
1929.949684968268
 10
746.5914611861641
 20
1924.212190549931
 10
748.7430215930403
 20
1917.757509329301
 10
750.8945819999171
 20
1912.737201713255
 10
753.7633292090859
 20
1907.716894097211
 10
756.6320764182546
 20
1902.696586481164
 10
760.2180104297156
 20
1899.110652469704
 10
763.8039444411766
 20
1894.807531655951
 10
768.1070652549292
 20
1891.938784446782
 10
772.4101860686827
 20
1889.070037237614
 10
777.4304936847279
 20
1886.918476830737
 10
781.7336144984807
 20
1885.484103226153
 10
787.4711089168187
 20
1884.049729621569
 10
792.4914165328639
 20
1884.049729621569
 10
792.4914165328639
 20
1884.049729621569
 10
797.5117241489091
 20
1884.049729621569
 10
802.5320317649542
 20
1885.484103226153
 10
806.8351525787074
 20
1886.918476830737
 10
811.8554601947527
 20
1888.352850435322
 10
816.1585810085059
 20
1890.504410842198
 10
820.461701822259
 20
1893.373158051367
 10
824.04763583372
 20
1896.959092062828
 10
827.6335698451806
 20
1900.545026074289
 10
827.6335698451806
 20
1900.545026074289
 10
829.7851302520575
 20
1903.413773283457
 10
831.2195038566416
 20
1904.13096008575
 10
831.936690658934
 20
1903.413773283457
 10
836.2398114726872
 20
1900.545026074289
 10
836.2398114726872
 20
1900.545026074289
 10
836.9569982749792
 20
1900.545026074289
 10
836.9569982749792
 20
1899.110652469704
 10
836.9569982749792
 20
1899.110652469704
 10
836.2398114726872
 20
1896.959092062828
 10
834.0882510658106
 20
1893.373158051367
 10
829.7851302520575
 20
1888.352850435322
 10
824.7648226360123
 20
1883.332542819276
 10
816.8757678107981
 20
1879.029422005523
 10
812.572646997045
 20
1876.877861598647
 10
808.269526183292
 20
1874.72630119177
 10
802.5320317649542
 20
1872.574740784894
 10
796.7945373466168
 20
1871.857553982601
 10
790.3398561259872
 20
1871.140367180309
 10
783.8851749053576
 20
1870.423180378017
 10
783.8851749053576
 20
1870.423180378017
 10
776.7133068824358
 20
1871.140367180309
 10
770.2586256618062
 20
1871.857553982601
 10
763.8039444411766
 20
1873.291927587186
 10
757.3492632205467
 20
1876.160674796355
 10
751.6117688022093
 20
1879.029422005523
 10
746.5914611861641
 20
1882.615356016984
 10
741.5711535701185
 20
1886.201290028445
 10
736.5508459540732
 20
1891.221597644491
 10
732.2477251403204
 20
1896.241905260536
 10
728.6617911288592
 20
1901.262212876581
 10
725.7930439196907
 20
1907.716894097211
 10
722.924296710522
 20
1914.17157531784
 10
720.7727363036451
 20
1920.62625653847
 10
719.3383626990611
 20
1927.798124561392
 10
718.6211758967687
 20
1935.687179386606
 10
717.9039890944767
 20
1942.859047409528
 10
717.9039890944767
 20
1942.859047409528
 10
718.6211758967687
 20
1951.465289037034
 10
720.0555495013531
 20
1960.07153066454
 10
721.4899231059376
 20
1967.960585489754
 10
723.6414835128141
 20
1975.132453512676
 10
727.2274175242751
 20
1981.587134733306
 10
730.8133515357359
 20
1988.041815953935
 10
735.1164723494887
 20
1994.496497174565
 10
740.1367799655344
 20
1999.51680479061
 10
745.8742743838719
 20
2004.537112406656
 10
751.6117688022093
 20
2008.840233220409
 10
758.066450022839
 20
2012.42616723187
 10
765.2383180457608
 20
2015.294914441039
 10
773.1273728709749
 20
2017.446474847915
 10
781.0164276961886
 20
2019.598035254792
 10
789.622669323695
 20
2020.315222057084
 10
798.2289109512013
 20
2021.032408859376
 10
798.2289109512013
 20
2021.032408859376
 10
807.5523393809998
 20
2020.315222057084
 10
816.1585810085059
 20
2018.8808484525
 10
825.4820094383044
 20
2016.729288045623
 10
835.5226246703947
 20
2013.143354034162
 10
836.9569982749792
 20
1980.869947931014
 10
836.9569982749792
 20
1980.869947931014
 10
836.9569982749792
 20
1972.980893105799
 10
836.2398114726872
 20
1972.263706303508
 10
835.5226246703947
 20
1971.546519501215
 10
831.2195038566416
 20
1971.546519501215
  0
LWPOLYLINE
  5
45B6
330
45C0
100
AcDbEntity
  8
0
 62
     7
370
     0
100
AcDbPolyline
 90
       70
 70
     1
 43
0.0
 10
998.3240287907207
 20
1946.444981420989
 10
998.3240287907207
 20
1946.444981420989
 10
997.6068419884287
 20
1938.555926595775
 10
996.8896551861362
 20
1930.66687177056
 10
994.7380947792597
 20
1922.777816945347
 10
992.5865343723835
 20
1916.323135724717
 10
989.7177871632147
 20
1909.151267701795
 10
986.1318531517538
 20
1902.696586481164
 10
981.8287323380003
 20
1896.959092062828
 10
977.5256115242475
 20
1891.938784446782
 10
972.5053039082022
 20
1886.918476830737
 10
966.7678094898647
 20
1882.615356016984
 10
961.0303150715273
 20
1879.029422005523
 10
954.5756338508978
 20
1876.160674796355
 10
947.4037658279755
 20
1874.009114389478
 10
940.2318978050541
 20
1871.857553982601
 10
933.060029782132
 20
1871.140367180309
 10
925.170974956918
 20
1870.423180378017
 10
925.170974956918
 20
1870.423180378017
 10
917.2819201317039
 20
1871.140367180309
 10
910.8272389110743
 20
1871.857553982601
 10
903.6553708881523
 20
1873.291927587186
 10
897.2006896675226
 20
1876.160674796355
 10
891.4631952491854
 20
1879.029422005523
 10
885.7257008308479
 20
1881.898169214692
 10
879.98820641251
 20
1886.201290028445
 10
875.6850855987572
 20
1890.504410842198
 10
871.3819647850042
 20
1895.524718458243
 10
867.0788439712511
 20
1901.262212876581
 10
864.2100967620821
 20
1906.999707294918
 10
861.3413495529135
 20
1913.454388515548
 10
859.1897891460366
 20
1919.909069736178
 10
857.7554155414526
 20
1927.0809377591
 10
856.3210419368683
 20
1934.969992584314
 10
856.3210419368683
 20
1942.141860607236
 10
856.3210419368683
 20
1942.141860607236
 10
856.3210419368683
 20
1950.748102234742
 10
857.7554155414526
 20
1958.637157059956
 10
859.1897891460366
 20
1966.52621188517
 10
861.3413495529135
 20
1973.698079908092
 10
864.2100967620821
 20
1980.869947931014
 10
867.7960307735432
 20
1987.324629151643
 10
872.0991515872963
 20
1993.062123569981
 10
877.1194592033417
 20
1998.799617988318
 10
882.1397668193869
 20
2003.819925604364
 10
887.8772612377243
 20
2008.123046418117
 10
893.6147556560619
 20
2011.708980429578
 10
900.0694368766916
 20
2014.577727638746
 10
907.2413048996134
 20
2017.446474847915
 10
914.4131729225353
 20
2018.8808484525
 10
922.302227747749
 20
2020.315222057084
 10
930.1912825729631
 20
2020.315222057084
 10
930.1912825729631
 20
2020.315222057084
 10
937.3631505958853
 20
2020.315222057084
 10
944.535018618807
 20
2018.8808484525
 10
951.7068866417288
 20
2017.446474847915
 10
958.1615678623585
 20
2015.294914441039
 10
963.8990622806959
 20
2012.42616723187
 10
969.6365566990337
 20
2008.840233220409
 10
974.6568643150787
 20
2004.537112406656
 10
979.6771719311239
 20
2000.233991592903
 10
983.980292744877
 20
1995.213683976857
 10
987.5662267563381
 20
1989.476189558519
 10
990.4349739655067
 20
1983.738695140182
 10
993.3037211746755
 20
1976.566827117261
 10
995.4552815815517
 20
1970.112145896631
 10
996.8896551861362
 20
1962.223091071417
 10
997.6068419884287
 20
1954.334036246203
 10
998.3240287907207
 20
1946.444981420989
 10
998.3240287907207
 20
1946.444981420989
  0
LWPOLYLINE
  5
45B7
330
45C0
100
AcDbEntity
  8
0
 62
     7
370
     0
100
AcDbPolyline
 90
       68
 70
     1
 43
0.0
 10
881.4225800170945
 20
1945.727794618697
 10
881.4225800170945
 20
1945.727794618697
 10
881.4225800170945
 20
1938.555926595775
 10
882.1397668193869
 20
1931.384058572852
 10
883.5741404239714
 20
1924.929377352223
 10
885.0085140285557
 20
1918.474696131594
 10
886.44288763314
 20
1912.737201713255
 10
888.5944480400167
 20
1906.999707294918
 10
891.4631952491854
 20
1901.979399678873
 10
894.331942458354
 20
1896.959092062828
 10
897.2006896675226
 20
1893.373158051367
 10
900.7866236789835
 20
1889.787224039906
 10
905.0897444927368
 20
1886.201290028445
 10
908.6756785041977
 20
1883.332542819276
 10
912.9787993179505
 20
1881.898169214692
 10
917.999106933996
 20
1879.746608807815
 10
922.302227747749
 20
1879.029422005523
 10
927.3225353637942
 20
1879.029422005523
 10
927.3225353637942
 20
1879.029422005523
 10
932.3428429798395
 20
1879.029422005523
 10
937.3631505958853
 20
1879.746608807815
 10
941.6662714096382
 20
1881.1809824124
 10
945.9693922233913
 20
1883.332542819276
 10
950.2725130371443
 20
1886.201290028445
 10
953.8584470486052
 20
1889.070037237614
 10
957.4443810600664
 20
1892.655971249075
 10
960.3131282692347
 20
1896.959092062828
 10
963.1818754784037
 20
1901.262212876581
 10
966.0506226875723
 20
1906.282520492626
 10
968.202183094449
 20
1912.020014910964
 10
969.6365566990337
 20
1917.757509329301
 10
971.0709303036175
 20
1924.212190549931
 10
971.7881171059101
 20
1930.66687177056
 10
972.5053039082022
 20
1945.010607816404
 10
972.5053039082022
 20
1945.010607816404
 10
971.7881171059101
 20
1959.354343862248
 10
971.0709303036175
 20
1965.809025082878
 10
969.6365566990337
 20
1972.263706303508
 10
967.4849962921566
 20
1978.001200721845
 10
966.0506226875723
 20
1983.738695140182
 10
963.1818754784037
 20
1988.759002756227
 10
960.3131282692347
 20
1993.779310372273
 10
957.4443810600664
 20
1998.082431186026
 10
953.8584470486052
 20
2001.668365197487
 10
950.2725130371443
 20
2004.537112406656
 10
946.6865790256836
 20
2007.405859615825
 10
942.3834582119303
 20
2009.557420022701
 10
938.0803373981771
 20
2010.991793627285
 10
933.060029782132
 20
2012.42616723187
 10
928.0397221660866
 20
2012.42616723187
 10
928.0397221660866
 20
2012.42616723187
 10
923.0194145500414
 20
2012.42616723187
 10
917.999106933996
 20
2010.991793627285
 10
912.9787993179505
 20
2009.557420022701
 10
908.6756785041977
 20
2008.123046418117
 10
904.3725576904446
 20
2005.254299208948
 10
900.7866236789835
 20
2002.385551999779
 10
897.2006896675226
 20
1998.799617988318
 10
894.331942458354
 20
1994.496497174565
 10
891.4631952491854
 20
1990.193376360812
 10
888.5944480400167
 20
1985.173068744767
 10
886.44288763314
 20
1979.435574326429
 10
885.0085140285557
 20
1973.698079908092
 10
883.5741404239714
 20
1967.243398687462
 10
882.1397668193869
 20
1960.07153066454
 10
881.4225800170945
 20
1952.899662641618
 10
881.4225800170945
 20
1945.727794618697
 10
881.4225800170945
 20
1945.727794618697
  0
LWPOLYLINE
  5
45B8
330
45C0
100
AcDbEntity
  8
0
 62
     7
370
     0
100
AcDbPolyline
 90
      104
 70
     1
 43
0.0
 10
1176.903542561475
 20
2011.708980429578
 10
1176.903542561475
 20
2011.708980429578
 10
1176.186355759182
 20
2010.274606824993
 10
1175.46916895689
 20
2010.274606824993
 10
1171.166048143137
 20
2009.557420022701
 10
1171.166048143137
 20
2009.557420022701
 10
1166.145740527092
 20
2009.557420022701
 10
1161.842619713339
 20
2009.557420022701
 10
1158.97387250417
 20
2008.123046418117
 10
1156.822312097293
 20
2006.688672813532
 10
1156.105125295001
 20
2003.819925604364
 10
1155.387938492709
 20
1999.51680479061
 10
1155.387938492709
 20
1985.173068744767
 10
1155.387938492709
 20
1874.009114389478
 10
1155.387938492709
 20
1874.009114389478
 10
1154.670751690417
 20
1872.574740784894
 10
1153.236378085833
 20
1871.857553982601
 10
1144.630136458326
 20
1871.857553982601
 10
1128.852026807898
 20
1894.090344853659
 10
1065.739588206186
 20
1975.849640314968
 10
1065.739588206186
 20
1975.849640314968
 10
1057.13334657868
 20
1986.607442349351
 10
1048.527104951173
 20
1995.213683976857
 10
1048.527104951173
 20
1912.020014910964
 10
1048.527104951173
 20
1912.020014910964
 10
1049.244291753466
 20
1894.807531655951
 10
1049.961478555758
 20
1889.787224039906
 10
1051.395852160342
 20
1885.484103226153
 10
1053.547412567219
 20
1883.332542819276
 10
1056.416159776388
 20
1881.898169214692
 10
1060.719280590141
 20
1881.1809824124
 10
1066.456775008478
 20
1881.1809824124
 10
1066.456775008478
 20
1881.1809824124
 10
1071.477082624523
 20
1881.1809824124
 10
1072.194269426816
 20
1880.463795610108
 10
1072.194269426816
 20
1879.029422005523
 10
1072.194269426816
 20
1874.72630119177
 10
1072.194269426816
 20
1874.72630119177
 10
1072.194269426816
 20
1874.009114389478
 10
1070.759895822231
 20
1873.291927587186
 10
1016.253698848025
 20
1873.291927587186
 10
1016.253698848025
 20
1873.291927587186
 10
1015.536512045733
 20
1873.291927587186
 10
1014.819325243441
 20
1874.009114389478
 10
1014.102138441149
 20
1875.443487994061
 10
1014.102138441149
 20
1875.443487994061
 10
1014.102138441149
 20
1879.029422005523
 10
1014.819325243441
 20
1880.463795610108
 10
1015.536512045733
 20
1881.1809824124
 10
1017.68807245261
 20
1881.1809824124
 10
1017.68807245261
 20
1881.1809824124
 10
1023.425566870947
 20
1881.1809824124
 10
1027.7286876847
 20
1881.898169214692
 10
1031.314621696161
 20
1882.615356016984
 10
1033.466182103038
 20
1884.049729621569
 10
1035.617742509914
 20
1886.918476830737
 10
1036.334929312206
 20
1890.504410842198
 10
1037.052116114499
 20
1895.524718458243
 10
1037.052116114499
 20
1901.979399678873
 10
1037.052116114499
 20
1985.173068744767
 10
1037.052116114499
 20
1985.173068744767
 10
1037.052116114499
 20
1998.799617988318
 10
1036.334929312206
 20
2003.102738802072
 10
1034.900555707622
 20
2005.97148601124
 10
1032.748995300746
 20
2008.123046418117
 10
1029.880248091577
 20
2008.840233220409
 10
1025.577127277824
 20
2009.557420022701
 10
1019.839632859486
 20
2009.557420022701
 10
1019.839632859486
 20
2009.557420022701
 10
1015.536512045733
 20
2010.274606824993
 10
1014.819325243441
 20
2010.991793627285
 10
1014.102138441149
 20
2011.708980429578
 10
1014.102138441149
 20
2011.708980429578
 10
1014.819325243441
 20
2016.729288045623
 10
1014.819325243441
 20
2017.446474847915
 10
1015.536512045733
 20
2017.446474847915
 10
1060.719280590141
 20
2017.446474847915
 10
1060.719280590141
 20
2017.446474847915
 10
1073.6286430314
 20
1999.51680479061
 10
1125.266092796437
 20
1932.101245375145
 10
1125.266092796437
 20
1932.101245375145
 10
1143.195762853742
 20
1909.868454504087
 10
1143.195762853742
 20
1985.173068744767
 10
1143.195762853742
 20
1985.173068744767
 10
1143.195762853742
 20
1999.51680479061
 10
1141.761389249158
 20
2003.819925604364
 10
1140.327015644573
 20
2006.688672813532
 10
1138.175455237697
 20
2008.123046418117
 10
1134.589521226236
 20
2009.557420022701
 10
1130.286400412483
 20
2009.557420022701
 10
1124.548905994145
 20
2009.557420022701
 10
1124.548905994145
 20
2009.557420022701
 10
1119.5285983781
 20
2010.274606824993
 10
1118.811411575808
 20
2010.991793627285
 10
1118.811411575808
 20
2011.708980429578
 10
1118.811411575808
 20
2016.01210124333
 10
1118.811411575808
 20
2016.01210124333
 10
1119.5285983781
 20
2017.446474847915
 10
1121.680158784976
 20
2017.446474847915
 10
1174.751982154598
 20
2017.446474847915
 10
1174.751982154598
 20
2017.446474847915
 10
1176.186355759182
 20
2016.729288045623
 10
1176.903542561475
 20
2016.01210124333
 10
1176.903542561475
 20
2011.708980429578
  0
LWPOLYLINE
  5
45B9
330
45C0
100
AcDbEntity
  8
0
 62
     7
370
     0
100
AcDbPolyline
 90
       75
 70
     1
 43
0.0
 10
1255.794090813615
 20
2020.315222057084
 10
1265.117519243413
 20
2020.315222057084
 10
1271.572200464043
 20
2005.97148601124
 10
1271.572200464043
 20
2005.97148601124
 10
1298.825298951146
 20
1944.293421014112
 10
1315.320595403866
 20
1907.716894097211
 10
1321.775276624496
 20
1894.807531655951
 10
1325.361210635957
 20
1886.918476830737
 10
1325.361210635957
 20
1886.918476830737
 10
1327.512771042833
 20
1884.766916423861
 10
1329.66433144971
 20
1883.332542819276
 10
1331.815891856586
 20
1881.898169214692
 10
1333.967452263463
 20
1881.898169214692
 10
1333.967452263463
 20
1881.898169214692
 10
1336.836199472632
 20
1881.1809824124
 10
1338.987759879508
 20
1881.1809824124
 10
1339.7049466818
 20
1880.463795610108
 10
1339.7049466818
 20
1879.029422005523
 10
1339.7049466818
 20
1876.160674796355
 10
1339.7049466818
 20
1876.160674796355
 10
1339.7049466818
 20
1874.72630119177
 10
1338.987759879508
 20
1874.009114389478
 10
1336.836199472632
 20
1873.291927587186
 10
1280.178442091549
 20
1873.291927587186
 10
1280.178442091549
 20
1873.291927587186
 10
1278.744068486965
 20
1874.009114389478
 10
1278.026881684673
 20
1876.160674796355
 10
1278.744068486965
 20
1879.746608807815
 10
1278.744068486965
 20
1879.746608807815
 10
1278.744068486965
 20
1881.1809824124
 10
1280.178442091549
 20
1881.898169214692
 10
1285.915936509887
 20
1881.898169214692
 10
1285.915936509887
 20
1881.898169214692
 10
1290.936244125932
 20
1881.898169214692
 10
1294.522178137393
 20
1883.332542819276
 10
1295.956551741977
 20
1885.484103226153
 10
1296.673738544269
 20
1889.070037237614
 10
1296.673738544269
 20
1889.070037237614
 10
1296.673738544269
 20
1892.655971249075
 10
1294.522178137393
 20
1898.393465667412
 10
1285.915936509887
 20
1919.909069736178
 10
1222.803497908174
 20
1919.909069736178
 10
1212.762882676084
 20
1894.807531655951
 10
1212.762882676084
 20
1894.807531655951
 10
1212.045695873792
 20
1891.938784446782
 10
1211.328509071499
 20
1889.070037237614
 10
1211.328509071499
 20
1889.070037237614
 10
1212.045695873792
 20
1886.201290028445
 10
1214.197256280668
 20
1883.332542819276
 10
1217.066003489837
 20
1881.898169214692
 10
1221.36912430359
 20
1881.898169214692
 10
1227.106618721928
 20
1881.898169214692
 10
1227.106618721928
 20
1881.898169214692
 10
1228.540992326512
 20
1881.1809824124
 10
1229.258179128804
 20
1879.029422005523
 10
1229.258179128804
 20
1875.443487994061
 10
1229.258179128804
 20
1875.443487994061
 10
1228.540992326512
 20
1874.009114389478
 10
1227.82380552422
 20
1873.291927587186
 10
1179.772289770643
 20
1873.291927587186
 10
1179.772289770643
 20
1873.291927587186
 10
1179.055102968351
 20
1874.009114389478
 10
1178.337916166059
 20
1876.160674796355
 10
1178.337916166059
 20
1879.746608807815
 10
1178.337916166059
 20
1879.746608807815
 10
1179.055102968351
 20
1881.1809824124
 10
1180.489476572935
 20
1881.898169214692
 10
1180.489476572935
 20
1881.898169214692
 10
1185.509784188981
 20
1881.898169214692
 10
1187.661344595857
 20
1882.615356016984
 10
1189.812905002734
 20
1884.049729621569
 10
1191.96446540961
 20
1886.201290028445
 10
1194.116025816487
 20
1889.787224039906
 10
1200.570707037116
 20
1901.262212876581
 10
1255.794090813615
 20
2020.315222057084
  0
LWPOLYLINE
  5
45BA
330
45C0
100
AcDbEntity
  8
0
 62
     7
370
     0
100
AcDbPolyline
 90
        4
 70
     1
 43
0.0
 10
1255.076904011323
 20
1993.062123569981
 10
1226.389431919636
 20
1928.515311363684
 10
1282.330002498426
 20
1928.515311363684
 10
1255.076904011323
 20
1993.062123569981
  0
LWPOLYLINE
  5
45BB
330
45C0
100
AcDbEntity
  8
0
 62
     7
370
     0
100
AcDbPolyline
 90
       46
 70
     1
 43
2.868747209168737
 10
908.6756785041977
 20
1802.29043416026
 10
908.6756785041977
 20
1802.29043416026
 10
908.6756785041977
 20
1802.29043416026
 10
908.6756785041977
 20
1802.29043416026
 10
900.7866236789835
 20
1802.29043416026
 10
892.1803820514774
 20
1803.007620962552
 10
882.8569536216789
 20
1805.159181369428
 10
872.8163383895886
 20
1807.310741776305
 10
849.8663607162384
 20
1814.482609799227
 10
824.7648226360123
 20
1823.806038229025
 10
798.2289109512013
 20
1834.563840263408
 10
769.5414388595137
 20
1846.756015902375
 10
709.2977474669702
 20
1873.291927587186
 10
709.2977474669702
 20
1873.291927587186
 10
650.4884296790112
 20
1899.827839271997
 10
622.518144389616
 20
1911.302828108672
 10
595.2650459025131
 20
1922.060630143054
 10
570.1635078222866
 20
1931.384058572852
 10
547.9307169512289
 20
1938.555926595775
 10
537.8901017191384
 20
1940.707487002651
 10
528.5666732893401
 20
1942.859047409528
 10
519.9604316618338
 20
1944.293421014112
 10
512.0713768366197
 20
1944.293421014112
 10
512.0713768366197
 20
1946.444981420989
 10
512.0713768366197
 20
1946.444981420989
 10
519.9604316618338
 20
1946.444981420989
 10
528.5666732893401
 20
1945.010607816404
 10
537.8901017191384
 20
1942.859047409528
 10
547.9307169512289
 20
1940.707487002651
 10
570.8806946245788
 20
1933.535618979729
 10
595.9822327048052
 20
1924.212190549931
 10
623.2353311919084
 20
1913.454388515548
 10
651.2056164813035
 20
1901.262212876581
 10
710.7321210715547
 20
1875.443487994061
 10
710.7321210715547
 20
1875.443487994061
 10
770.2586256618062
 20
1848.907576309252
 10
798.9460977534935
 20
1836.715400670284
 10
825.4820094383044
 20
1825.957598635902
 10
850.5835475185309
 20
1816.634170206103
 10
872.8163383895886
 20
1809.462302183181
 10
882.8569536216789
 20
1807.310741776305
 10
892.1803820514774
 20
1805.87636817172
 10
900.7866236789835
 20
1804.441994567136
 10
907.9584917019056
 20
1804.441994567136
 10
908.6756785041977
 20
1804.441994567136
 10
908.6756785041977
 20
1802.29043416026
  0
LWPOLYLINE
  5
45BC
330
45C0
100
AcDbEntity
  8
0
 62
     7
370
     0
100
AcDbPolyline
 90
      134
 70
     1
 43
2.868747209168737
 10
953.8584470486052
 20
1830.260719449655
 10
953.8584470486052
 20
1830.260719449655
 10
953.8584470486052
 20
1830.260719449655
 10
945.9693922233913
 20
1831.695093054239
 10
938.0803373981771
 20
1833.129466658824
 10
938.0803373981771
 20
1833.129466658824
 10
930.9084693752556
 20
1835.2810270657
 10
923.7366013523336
 20
1837.432587472576
 10
923.7366013523336
 20
1837.432587472576
 10
915.1303597248274
 20
1841.73570828633
 10
906.5241180973213
 20
1846.038829100083
 10
898.6350632721071
 20
1851.77632351842
 10
890.7460084468931
 20
1857.513817936758
 10
883.5741404239714
 20
1863.968499157387
 10
877.1194592033417
 20
1871.140367180309
 10
870.664777982712
 20
1879.029422005523
 10
865.6444703666666
 20
1887.635663633029
 10
865.6444703666666
 20
1887.635663633029
 10
865.6444703666666
 20
1887.635663633029
 10
865.6444703666666
 20
1887.635663633029
 10
865.6444703666666
 20
1887.635663633029
 10
859.1897891460366
 20
1899.827839271997
 10
854.886668332284
 20
1912.020014910964
 10
854.886668332284
 20
1912.020014910964
 10
852.0179211231152
 20
1924.212190549931
 10
849.8663607162384
 20
1936.404366188898
 10
849.8663607162384
 20
1936.404366188898
 10
849.8663607162384
 20
1945.010607816404
 10
849.8663607162384
 20
1952.899662641618
 10
850.5835475185309
 20
1960.788717466832
 10
852.0179211231152
 20
1968.677772292046
 10
854.1694815299917
 20
1976.566827117261
 10
856.3210419368683
 20
1984.455881942475
 10
859.1897891460366
 20
1991.627749965396
 10
862.775723157498
 20
1998.799617988318
 10
866.3616571689589
 20
2005.97148601124
 10
870.664777982712
 20
2013.143354034162
 10
875.6850855987572
 20
2019.598035254792
 10
881.4225800170945
 20
2025.335529673129
 10
887.1600744354322
 20
2031.790210893759
 10
893.6147556560619
 20
2036.810518509804
 10
900.0694368766916
 20
2041.830826125849
 10
907.2413048996134
 20
2046.851133741895
 10
907.2413048996134
 20
2046.851133741895
 10
907.2413048996134
 20
2046.851133741895
 10
907.2413048996134
 20
2046.851133741895
 10
907.2413048996134
 20
2046.851133741895
 10
917.999106933996
 20
2051.87144135794
 10
928.756908968379
 20
2056.174562171694
 10
928.756908968379
 20
2056.174562171694
 10
939.5147110027616
 20
2059.043309380862
 10
950.2725130371443
 20
2061.194869787739
 10
950.2725130371443
 20
2061.194869787739
 10
957.4443810600664
 20
2061.91205659003
 10
964.616249082988
 20
2062.629243392323
 10
971.7881171059101
 20
2061.91205659003
 10
978.9599851288318
 20
2061.91205659003
 10
985.4146663494615
 20
2060.477682985446
 10
992.5865343723835
 20
2059.043309380862
 10
999.7584023953052
 20
2057.608935776277
 10
1006.213083615935
 20
2055.457375369401
 10
1012.667764836564
 20
2052.588628160232
 10
1019.122446057194
 20
2049.002694148772
 10
1025.577127277824
 20
2046.133946939603
 10
1031.314621696161
 20
2041.830826125849
 10
1037.769302916791
 20
2037.527705312097
 10
1042.789610532836
 20
2033.224584498343
 10
1048.527104951173
 20
2028.204276882298
 10
1053.547412567219
 20
2022.46678246396
 10
1052.113038962634
 20
2021.032408859376
 10
1052.113038962634
 20
2021.032408859376
 10
1047.092731346589
 20
2026.769903277713
 10
1041.355236928252
 20
2031.790210893759
 10
1036.334929312206
 20
2036.093331707512
 10
1030.597434893869
 20
2040.396452521265
 10
1024.142753673239
 20
2043.982386532726
 10
1018.405259254902
 20
2047.568320544187
 10
1011.950578034272
 20
2050.437067753356
 10
1005.495896813642
 20
2053.305814962524
 10
991.8693475700912
 20
2056.891748973985
 10
978.2427983265396
 20
2059.043309380862
 10
964.616249082988
 20
2059.760496183154
 10
950.9896998394363
 20
2059.043309380862
 10
950.9896998394363
 20
2059.043309380862
 10
940.2318978050541
 20
2056.891748973985
 10
929.4740957706713
 20
2054.023001764816
 10
929.4740957706713
 20
2054.023001764816
 10
918.7162937362883
 20
2049.719880951063
 10
908.6756785041977
 20
2044.699573335018
 10
908.6756785041977
 20
2044.699573335018
 10
908.6756785041977
 20
2044.699573335018
 10
908.6756785041977
 20
2044.699573335018
 10
908.6756785041977
 20
2044.699573335018
 10
901.5038104812758
 20
2040.396452521265
 10
895.0491292606461
 20
2035.37614490522
 10
888.5944480400167
 20
2029.638650486882
 10
882.8569536216789
 20
2023.901156068545
 10
877.8366460056338
 20
2018.163661650207
 10
872.8163383895886
 20
2011.708980429578
 10
868.5132175758353
 20
2005.254299208948
 10
864.9272835643746
 20
1998.082431186026
 10
861.3413495529135
 20
1990.910563163104
 10
858.4726023437449
 20
1983.738695140182
 10
856.3210419368683
 20
1975.849640314968
 10
854.1694815299917
 20
1968.677772292046
 10
852.7351079254074
 20
1960.788717466832
 10
852.0179211231152
 20
1952.899662641618
 10
852.0179211231152
 20
1945.010607816404
 10
852.0179211231152
 20
1937.12155299119
 10
852.0179211231152
 20
1937.12155299119
 10
854.1694815299917
 20
1924.929377352223
 10
857.0382287391604
 20
1912.737201713255
 10
857.0382287391604
 20
1912.737201713255
 10
861.3413495529135
 20
1900.545026074289
 10
867.0788439712511
 20
1889.070037237614
 10
867.0788439712511
 20
1889.070037237614
 10
867.0788439712511
 20
1889.070037237614
 10
867.0788439712511
 20
1889.070037237614
 10
867.0788439712511
 20
1889.070037237614
 10
872.8163383895886
 20
1880.463795610108
 10
878.553832807926
 20
1872.574740784894
 10
885.0085140285557
 20
1865.402872761972
 10
892.1803820514774
 20
1858.948191541342
 10
899.3522500743994
 20
1853.210697123005
 10
907.2413048996134
 20
1848.190389506959
 10
915.8475465271195
 20
1843.170081890914
 10
924.4537881546259
 20
1839.584147879453
 10
924.4537881546259
 20
1839.584147879453
 10
931.6256561775476
 20
1837.432587472576
 10
938.7975242004696
 20
1835.2810270657
 10
938.7975242004696
 20
1835.2810270657
 10
953.8584470486052
 20
1832.412279856531
 10
953.8584470486052
 20
1832.412279856531
 10
953.8584470486052
 20
1830.260719449655
  0
LWPOLYLINE
  5
45BD
330
45C0
100
AcDbEntity
  8
0
 62
     7
370
     0
100
AcDbPolyline
 90
      164
 70
     1
 43
2.868747209168737
 10
973.9396775127866
 20
1833.129466658824
 10
973.9396775127866
 20
1833.129466658824
 10
966.7678094898647
 20
1837.432587472576
 10
961.0303150715273
 20
1841.73570828633
 10
961.0303150715273
 20
1841.73570828633
 10
956.727194257774
 20
1846.756015902375
 10
953.1412602463133
 20
1851.77632351842
 10
951.7068866417288
 20
1857.513817936758
 10
950.9896998394363
 20
1863.251312355094
 10
950.9896998394363
 20
1863.251312355094
 10
950.2725130371443
 20
1868.271619971141
 10
950.9896998394363
 20
1873.291927587186
 10
952.424073444021
 20
1878.312235203231
 10
953.8584470486052
 20
1882.615356016984
 10
953.8584470486052
 20
1882.615356016984
 10
956.727194257774
 20
1887.635663633029
 10
960.3131282692347
 20
1891.938784446782
 10
960.3131282692347
 20
1891.938784446782
 10
963.8990622806959
 20
1895.524718458243
 10
968.202183094449
 20
1899.110652469704
 10
972.5053039082022
 20
1901.979399678873
 10
976.0912379196632
 20
1904.13096008575
 10
980.3943587334163
 20
1905.565333690334
 10
984.6974795471693
 20
1906.999707294918
 10
989.0006003609224
 20
1907.716894097211
 10
993.3037211746755
 20
1907.716894097211
 10
993.3037211746755
 20
1907.716894097211
 10
1000.475589197597
 20
1906.999707294918
 10
1006.930270418227
 20
1904.848146888042
 10
1006.930270418227
 20
1904.848146888042
 10
1010.516204429688
 20
1903.413773283457
 10
1013.384951638856
 20
1901.262212876581
 10
1019.122446057194
 20
1896.959092062828
 10
1019.122446057194
 20
1896.959092062828
 10
1022.708380068655
 20
1894.090344853659
 10
1025.577127277824
 20
1890.504410842198
 10
1027.7286876847
 20
1886.918476830737
 10
1029.880248091577
 20
1882.615356016984
 10
1031.314621696161
 20
1878.312235203231
 10
1032.748995300746
 20
1874.009114389478
 10
1033.466182103038
 20
1869.705993575725
 10
1033.466182103038
 20
1864.685685959679
 10
1033.466182103038
 20
1864.685685959679
 10
1033.466182103038
 20
1864.685685959679
 10
1033.466182103038
 20
1864.685685959679
 10
1032.748995300746
 20
1855.362257529881
 10
1031.314621696161
 20
1846.038829100083
 10
1031.314621696161
 20
1846.038829100083
 10
1029.880248091577
 20
1841.018521484037
 10
1027.7286876847
 20
1835.998213867992
 10
1027.7286876847
 20
1835.998213867992
 10
1024.142753673239
 20
1830.260719449655
 10
1019.839632859486
 20
1824.523225031317
 10
1014.102138441149
 20
1819.502917415272
 10
1008.364644022811
 20
1815.199796601518
 10
1001.192775999889
 20
1810.896675787766
 10
992.5865343723835
 20
1808.027928578597
 10
983.263105942585
 20
1805.159181369428
 10
973.2224907104944
 20
1803.007620962552
 10
973.2224907104944
 20
1803.007620962552
 10
973.2224907104944
 20
1803.007620962552
 10
963.8990622806959
 20
1802.29043416026
 10
953.1412602463133
 20
1802.29043416026
 10
941.6662714096382
 20
1804.441994567136
 10
929.4740957706713
 20
1806.593554974013
 10
915.8475465271195
 20
1810.179488985474
 10
902.220997283568
 20
1815.199796601518
 10
887.1600744354322
 20
1820.220104217564
 10
871.3819647850042
 20
1826.674785438194
 10
838.3913718795637
 20
1841.018521484037
 10
803.9664053695387
 20
1857.513817936758
 10
768.1070652549292
 20
1875.443487994061
 10
731.5305383380282
 20
1893.373158051367
 10
731.5305383380282
 20
1893.373158051367
 10
669.8524733409002
 20
1924.212190549931
 10
639.7306276446286
 20
1938.555926595775
 10
610.325968750649
 20
1952.182475839325
 10
582.3556834612539
 20
1963.657464676001
 10
555.8197717764428
 20
1973.698079908092
 10
543.6275961374758
 20
1978.001200721845
 10
532.1526073008008
 20
1981.587134733306
 10
520.677618464126
 20
1984.455881942475
 10
509.9198164297432
 20
1986.607442349351
 10
510.6370032320354
 20
1988.041815953935
 10
510.6370032320354
 20
1988.041815953935
 10
521.394805266418
 20
1986.607442349351
 10
532.1526073008008
 20
1983.738695140182
 10
544.344782939768
 20
1980.152761128722
 10
556.5369585787351
 20
1975.849640314968
 10
583.0728702635457
 20
1965.809025082878
 10
611.0431555529412
 20
1954.334036246203
 10
640.4478144469208
 20
1940.707487002651
 10
670.5696601431925
 20
1926.363750956807
 10
732.2477251403204
 20
1895.524718458243
 10
732.2477251403204
 20
1895.524718458243
 10
804.683592171831
 20
1859.665378343634
 10
839.1085586818558
 20
1843.170081890914
 10
872.0991515872963
 20
1828.826345845071
 10
887.1600744354322
 20
1823.088851426733
 10
902.220997283568
 20
1817.351357008395
 10
916.5647333294119
 20
1812.33104939235
 10
929.4740957706713
 20
1808.745115380889
 10
941.6662714096382
 20
1806.593554974013
 10
953.1412602463133
 20
1804.441994567136
 10
963.8990622806959
 20
1804.441994567136
 10
972.5053039082022
 20
1805.159181369428
 10
972.5053039082022
 20
1805.159181369428
 10
972.5053039082022
 20
1805.159181369428
 10
982.5459191402925
 20
1807.310741776305
 10
991.8693475700912
 20
1809.462302183181
 10
999.7584023953052
 20
1813.048236194642
 10
1006.930270418227
 20
1816.634170206103
 10
1012.667764836564
 20
1820.937291019856
 10
1017.68807245261
 20
1825.957598635902
 10
1021.991193266363
 20
1831.695093054239
 10
1024.859940475531
 20
1836.715400670284
 10
1024.859940475531
 20
1836.715400670284
 10
1027.011500882408
 20
1841.73570828633
 10
1029.163061289285
 20
1846.756015902375
 10
1029.163061289285
 20
1846.756015902375
 10
1030.597434893869
 20
1855.362257529881
 10
1031.314621696161
 20
1864.685685959679
 10
1031.314621696161
 20
1864.685685959679
 10
1031.314621696161
 20
1864.685685959679
 10
1031.314621696161
 20
1864.685685959679
 10
1031.314621696161
 20
1868.988806773432
 10
1030.597434893869
 20
1873.291927587186
 10
1029.163061289285
 20
1877.595048400939
 10
1027.7286876847
 20
1881.898169214692
 10
1025.577127277824
 20
1885.484103226153
 10
1023.425566870947
 20
1889.070037237614
 10
1017.68807245261
 20
1895.524718458243
 10
1017.68807245261
 20
1895.524718458243
 10
1012.667764836564
 20
1899.827839271997
 10
1006.213083615935
 20
1902.696586481164
 10
1006.213083615935
 20
1902.696586481164
 10
999.7584023953052
 20
1904.848146888042
 10
993.3037211746755
 20
1905.565333690334
 10
993.3037211746755
 20
1905.565333690334
 10
989.0006003609224
 20
1905.565333690334
 10
985.4146663494615
 20
1904.848146888042
 10
981.111545535708
 20
1903.413773283457
 10
977.5256115242475
 20
1901.979399678873
 10
973.2224907104944
 20
1899.827839271997
 10
969.6365566990337
 20
1896.959092062828
 10
965.3334358852802
 20
1894.090344853659
 10
961.7475018738195
 20
1889.787224039906
 10
961.7475018738195
 20
1889.787224039906
 10
958.8787546646507
 20
1886.201290028445
 10
956.727194257774
 20
1881.898169214692
 10
956.727194257774
 20
1881.898169214692
 10
954.5756338508978
 20
1877.595048400939
 10
953.1412602463133
 20
1872.574740784894
 10
953.1412602463133
 20
1868.271619971141
 10
953.1412602463133
 20
1863.251312355094
 10
953.1412602463133
 20
1863.251312355094
 10
953.8584470486052
 20
1858.23100473905
 10
955.2928206531897
 20
1853.210697123005
 10
958.1615678623585
 20
1848.190389506959
 10
962.4646886761116
 20
1843.170081890914
 10
962.4646886761116
 20
1843.170081890914
 10
968.202183094449
 20
1839.584147879453
 10
974.6568643150787
 20
1835.998213867992
 10
973.9396775127866
 20
1833.129466658824
  0
LWPOLYLINE
  5
45BE
330
45C0
100
AcDbEntity
  8
0
 62
     7
370
     0
100
AcDbPolyline
 90
       84
 70
     1
 43
2.868747209168737
 10
808.269526183292
 20
1934.969992584314
 10
809.7038997878765
 20
1934.252805782022
 10
809.7038997878765
 20
1934.252805782022
 10
809.7038997878765
 20
1934.252805782022
 10
824.7648226360123
 20
1919.909069736178
 10
839.8257454841481
 20
1904.848146888042
 10
839.8257454841481
 20
1904.848146888042
 10
852.7351079254074
 20
1891.221597644491
 10
866.3616571689589
 20
1878.312235203231
 10
879.98820641251
 20
1866.120059564264
 10
894.331942458354
 20
1855.362257529881
 10
901.5038104812758
 20
1850.341949913836
 10
909.3928653064898
 20
1845.32164229779
 10
917.2819201317039
 20
1841.73570828633
 10
924.4537881546259
 20
1838.149774274869
 10
933.060029782132
 20
1835.2810270657
 10
940.9490846073461
 20
1833.846653461116
 10
949.555326234852
 20
1832.412279856531
 10
958.1615678623585
 20
1831.695093054239
 10
958.1615678623585
 20
1831.695093054239
 10
970.3537435013256
 20
1832.412279856531
 10
979.6771719311239
 20
1833.846653461116
 10
979.6771719311239
 20
1833.846653461116
 10
983.263105942585
 20
1834.563840263408
 10
986.1318531517538
 20
1836.715400670284
 10
992.5865343723835
 20
1840.301334681745
 10
992.5865343723835
 20
1840.301334681745
 10
995.4552815815517
 20
1843.887268693206
 10
997.6068419884287
 20
1847.473202704667
 10
998.3240287907207
 20
1851.77632351842
 10
997.6068419884287
 20
1855.362257529881
 10
997.6068419884287
 20
1855.362257529881
 10
996.8896551861362
 20
1858.23100473905
 10
995.4552815815517
 20
1860.382565145927
 10
995.4552815815517
 20
1860.382565145927
 10
993.3037211746755
 20
1861.816938750511
 10
991.8693475700912
 20
1863.251312355094
 10
991.8693475700912
 20
1863.251312355094
 10
989.7177871632147
 20
1863.251312355094
 10
987.5662267563381
 20
1863.251312355094
 10
985.4146663494615
 20
1862.534125552803
 10
983.980292744877
 20
1860.382565145927
 10
981.8287323380003
 20
1861.816938750511
 10
981.8287323380003
 20
1861.816938750511
 10
984.6974795471693
 20
1863.968499157387
 10
987.5662267563381
 20
1865.402872761972
 10
990.4349739655067
 20
1865.402872761972
 10
992.5865343723835
 20
1864.685685959679
 10
992.5865343723835
 20
1864.685685959679
 10
995.4552815815517
 20
1863.251312355094
 10
996.8896551861362
 20
1861.099751948219
 10
996.8896551861362
 20
1861.099751948219
 10
999.041215593013
 20
1858.948191541342
 10
999.7584023953052
 20
1856.079444332173
 10
999.7584023953052
 20
1856.079444332173
 10
1000.475589197597
 20
1851.77632351842
 10
999.7584023953052
 20
1847.473202704667
 10
997.6068419884287
 20
1842.452895088622
 10
994.0209079769676
 20
1838.866961077161
 10
994.0209079769676
 20
1838.866961077161
 10
987.5662267563381
 20
1834.563840263408
 10
980.3943587334163
 20
1831.695093054239
 10
980.3943587334163
 20
1831.695093054239
 10
971.0709303036175
 20
1830.260719449655
 10
958.1615678623585
 20
1829.543532647363
 10
958.1615678623585
 20
1829.543532647363
 10
948.83813943256
 20
1830.260719449655
 10
940.9490846073461
 20
1831.695093054239
 10
932.3428429798395
 20
1833.846653461116
 10
924.4537881546259
 20
1836.715400670284
 10
915.8475465271195
 20
1839.584147879453
 10
908.6756785041977
 20
1843.887268693206
 10
900.7866236789835
 20
1848.190389506959
 10
893.6147556560619
 20
1853.210697123005
 10
879.2710196102182
 20
1864.685685959679
 10
864.9272835643746
 20
1876.877861598647
 10
851.3007343208229
 20
1889.787224039906
 10
838.3913718795637
 20
1903.413773283457
 10
838.3913718795637
 20
1903.413773283457
 10
823.3304490314278
 20
1918.474696131594
 10
808.269526183292
 20
1932.818432177437
 10
808.269526183292
 20
1932.818432177437
 10
806.8351525787074
 20
1933.535618979729
 10
808.269526183292
 20
1934.969992584314
  0
ENDBLK
  5
45C2
330
45C0
100
AcDbEntity
  8
0
100
AcDbBlockEnd
  0
BLOCK
  5
4768
330
4767
100
AcDbEntity
  8
0
100
AcDbBlockBegin
  2
AN-3215 drawing
 70
     0
 10
0.0
 20
0.0
 30
0.0
  3
AN-3215 drawing
  1

  0
LWPOLYLINE
  5
45C4
330
4767
100
AcDbEntity
  8
Layer 1
 62
     7
370
    20
100
AcDbPolyline
 90
        2
 70
     0
 43
0.0
 10
204.7241101918745
 20
116.5436184061939
 10
204.7241101918745
 20
68.32588973986297
  0
LWPOLYLINE
  5
45C5
330
4767
100
AcDbEntity
  8
Layer 1
 62
     7
370
    20
100
AcDbPolyline
 90
        5
 70
     0
 43
0.0
 10
144.1874090893872
 20
134.0696804135312
 10
150.918264393694
 20
127.33865285445
 10
151.807443538437
 20
126.7459241762127
 10
152.8234021970372
 20
126.5343953134185
 10
194.7757079591185
 20
126.5343953134185
  0
LWPOLYLINE
  5
45C6
330
4767
100
AcDbEntity
  8
Layer 1
 62
     7
370
    20
100
AcDbPolyline
 90
        3
 70
     0
 43
0.0
 10
144.3989379521815
 20
133.8579792959626
 10
144.1874090893872
 20
133.984931064594
 10
143.8909586228814
 20
134.0696804135312
  0
LWPOLYLINE
  5
45C7
330
4767
100
AcDbEntity
  8
Layer 1
 62
     7
370
    20
100
AcDbPolyline
 90
        2
 70
     0
 43
0.0
 10
105.6640068637749
 20
134.0696804135312
 10
144.1874090893872
 20
134.0696804135312
  0
LWPOLYLINE
  5
45C8
330
4767
100
AcDbEntity
  8
Layer 1
 62
     7
370
    20
100
AcDbPolyline
 90
        2
 70
     0
 43
0.0
 10
94.31861841175019
 20
68.32588973986297
 10
94.31861841175019
 20
122.7242919615064
  0
LWPOLYLINE
  5
45C9
330
4767
100
AcDbEntity
  8
Layer 1
 62
     7
370
    20
100
AcDbPolyline
 90
        2
 70
     0
 43
0.0
 10
198.7127630796621
 20
62.31454262765051
 10
100.3299655239626
 20
62.31454262765051
  0
LWPOLYLINE
  5
45CA
330
4767
100
AcDbEntity
  8
Layer 1
 62
     7
370
    13
100
AcDbPolyline
 90
        2
 70
     0
 43
0.0
 10
124.7985839531753
 20
133.3499999666625
 10
124.7985839531753
 20
135.4242919583314
  0
LWPOLYLINE
  5
45CB
330
4767
100
AcDbEntity
  8
Layer 1
 62
     7
370
    13
100
AcDbPolyline
 90
        2
 70
     0
 43
0.0
 10
124.7985839531753
 20
132.4609930766938
 10
124.7985839531753
 20
132.884395311831
  0
LWPOLYLINE
  5
45CC
330
4767
100
AcDbEntity
  8
Layer 1
 62
     7
370
    13
100
AcDbPolyline
 90
        2
 70
     0
 43
0.0
 10
124.7985839531753
 20
129.8787217557247
 10
124.7985839531753
 20
132.0375908415565
  0
LWPOLYLINE
  5
45CD
330
4767
100
AcDbEntity
  8
Layer 1
 62
     7
370
    13
100
AcDbPolyline
 90
        2
 70
     0
 43
0.0
 10
124.7985839531753
 20
128.989714865756
 10
124.7985839531753
 20
129.412944846119
  0
LWPOLYLINE
  5
45CE
330
4767
100
AcDbEntity
  8
Layer 1
 62
     7
370
    13
100
AcDbPolyline
 90
        2
 70
     0
 43
0.0
 10
124.7985839531753
 20
126.4072712900127
 10
124.7985839531753
 20
128.5663126306188
  0
LWPOLYLINE
  5
45CF
330
4767
100
AcDbEntity
  8
Layer 1
 62
     7
370
    13
100
AcDbPolyline
 90
        2
 70
     0
 43
0.0
 10
124.7985839531753
 20
125.518264400044
 10
124.7985839531753
 20
125.9416666351812
  0
LWPOLYLINE
  5
45D0
330
4767
100
AcDbEntity
  8
Layer 1
 62
     7
370
    13
100
AcDbPolyline
 90
        2
 70
     0
 43
0.0
 10
124.7985839531753
 20
122.935993079075
 10
124.7985839531753
 20
125.0950344196811
  0
LWPOLYLINE
  5
45D1
330
4767
100
AcDbEntity
  8
Layer 1
 62
     7
370
    13
100
AcDbPolyline
 90
        2
 70
     0
 43
0.0
 10
124.7985839531753
 20
122.0469861891063
 10
124.7985839531753
 20
122.4703884242435
  0
LWPOLYLINE
  5
45D2
330
4767
100
AcDbEntity
  8
Layer 1
 62
     7
370
    13
100
AcDbPolyline
 90
        2
 70
     0
 43
0.0
 10
124.7985839531753
 20
119.4647148681373
 10
124.7985839531753
 20
121.6235839539691
  0
LWPOLYLINE
  5
45D3
330
4767
100
AcDbEntity
  8
Layer 1
 62
     7
370
    13
100
AcDbPolyline
 90
        2
 70
     0
 43
0.0
 10
124.7985839531753
 20
118.5757079781686
 10
124.7985839531753
 20
118.9989379585315
  0
LWPOLYLINE
  5
45D4
330
4767
100
AcDbEntity
  8
Layer 1
 62
     7
370
    13
100
AcDbPolyline
 90
        2
 70
     0
 43
0.0
 10
124.7985839531753
 20
115.9932644024253
 10
124.7985839531753
 20
118.1523057430313
  0
LWPOLYLINE
  5
45D5
330
4767
100
AcDbEntity
  8
Layer 1
 62
     7
370
    13
100
AcDbPolyline
 90
        2
 70
     0
 43
0.0
 10
124.7985839531753
 20
115.1042575124566
 10
124.7985839531753
 20
115.5276597475938
  0
LWPOLYLINE
  5
45D6
330
4767
100
AcDbEntity
  8
Layer 1
 62
     7
370
    13
100
AcDbPolyline
 90
        2
 70
     0
 43
0.0
 10
124.7985839531753
 20
112.5219861914875
 10
124.7985839531753
 20
114.6810275320936
  0
LWPOLYLINE
  5
45D7
330
4767
100
AcDbEntity
  8
Layer 1
 62
     7
370
    13
100
AcDbPolyline
 90
        2
 70
     0
 43
0.0
 10
124.7985839531753
 20
111.6329793015188
 10
124.7985839531753
 20
112.056381536656
  0
LWPOLYLINE
  5
45D8
330
4767
100
AcDbEntity
  8
Layer 1
 62
     7
370
    13
100
AcDbPolyline
 90
        2
 70
     0
 43
0.0
 10
124.7985839531753
 20
109.0507079805498
 10
124.7985839531753
 20
111.2097493211559
  0
LWPOLYLINE
  5
45D9
330
4767
100
AcDbEntity
  8
Layer 1
 62
     7
370
    13
100
AcDbPolyline
 90
        2
 70
     0
 43
0.0
 10
124.7985839531753
 20
108.1617010905811
 10
124.7985839531753
 20
108.584931070944
  0
LWPOLYLINE
  5
45DA
330
4767
100
AcDbEntity
  8
Layer 1
 62
     7
370
    13
100
AcDbPolyline
 90
        2
 70
     0
 43
0.0
 10
124.7985839531753
 20
105.5792575148378
 10
124.7985839531753
 20
107.7382988554439
  0
LWPOLYLINE
  5
45DB
330
4767
100
AcDbEntity
  8
Layer 1
 62
     7
370
    13
100
AcDbPolyline
 90
        2
 70
     0
 43
0.0
 10
124.7985839531753
 20
104.6902506248691
 10
124.7985839531753
 20
105.1136528600063
  0
LWPOLYLINE
  5
45DC
330
4767
100
AcDbEntity
  8
Layer 1
 62
     7
370
    13
100
AcDbPolyline
 90
        2
 70
     0
 43
0.0
 10
124.7985839531753
 20
102.1081515586743
 10
124.7985839531753
 20
104.2668483897319
  0
LWPOLYLINE
  5
45DD
330
4767
100
AcDbEntity
  8
Layer 1
 62
     7
370
    13
100
AcDbPolyline
 90
        2
 70
     0
 43
0.0
 10
124.7985839531753
 20
101.2189724139313
 10
124.7985839531753
 20
101.6423746490686
  0
LWPOLYLINE
  5
45DE
330
4767
100
AcDbEntity
  8
Layer 1
 62
     7
370
    13
100
AcDbPolyline
 90
        2
 70
     0
 43
0.0
 10
124.7985839531753
 20
98.6365288381881
 10
124.7985839531753
 20
100.7955701787941
  0
LWPOLYLINE
  5
45DF
330
4767
100
AcDbEntity
  8
Layer 1
 62
     7
370
    13
100
AcDbPolyline
 90
        2
 70
     0
 43
0.0
 10
124.7985839531753
 20
97.74769420299364
 10
124.7985839531753
 20
98.21347111259944
  0
LWPOLYLINE
  5
45E0
330
4767
100
AcDbEntity
  8
Layer 1
 62
     7
370
    13
100
AcDbPolyline
 90
        2
 70
     0
 43
0.0
 10
124.7985839531753
 20
95.16525062725037
 10
124.7985839531753
 20
97.32429196785645
  0
LWPOLYLINE
  5
45E1
330
4767
100
AcDbEntity
  8
Layer 1
 62
     7
370
    13
100
AcDbPolyline
 90
        2
 70
     0
 43
0.0
 10
124.7985839531753
 20
94.27641599205593
 10
124.7985839531753
 20
94.74184839211316
  0
LWPOLYLINE
  5
45E2
330
4767
100
AcDbEntity
  8
Layer 1
 62
     7
370
    13
100
AcDbPolyline
 90
        2
 70
     0
 43
0.0
 10
124.7985839531753
 20
91.69397241631262
 10
124.7985839531753
 20
93.8530137569187
  0
LWPOLYLINE
  5
45E3
330
4767
100
AcDbEntity
  8
Layer 1
 62
     7
370
    13
100
AcDbPolyline
 90
        2
 70
     0
 43
0.0
 10
124.7985839531753
 20
90.80513778111816
 10
124.7985839531753
 20
91.2705701811754
  0
LWPOLYLINE
  5
45E4
330
4767
100
AcDbEntity
  8
Layer 1
 62
     7
370
    13
100
AcDbPolyline
 90
        2
 70
     0
 43
0.0
 10
124.7985839531753
 20
88.22269420537489
 10
124.7985839531753
 20
90.38173554598094
  0
LWPOLYLINE
  5
45E5
330
4767
100
AcDbEntity
  8
Layer 1
 62
     7
370
    13
100
AcDbPolyline
 90
        2
 70
     0
 43
0.0
 10
124.7985839531753
 20
87.33351506063192
 10
124.7985839531753
 20
87.79929197023767
  0
LWPOLYLINE
  5
45E6
330
4767
100
AcDbEntity
  8
Layer 1
 62
     7
370
    13
100
AcDbPolyline
 90
        2
 70
     0
 43
0.0
 10
124.7985839531753
 20
84.75141599443714
 10
124.7985839531753
 20
86.91045733504322
  0
LWPOLYLINE
  5
45E7
330
4767
100
AcDbEntity
  8
Layer 1
 62
     7
370
    13
100
AcDbPolyline
 90
        2
 70
     0
 43
0.0
 10
124.7985839531753
 20
83.86223684969417
 10
124.7985839531753
 20
84.32801375929996
  0
LWPOLYLINE
  5
45E8
330
4767
100
AcDbEntity
  8
Layer 1
 62
     7
370
    13
100
AcDbPolyline
 90
        2
 70
     0
 43
0.0
 10
124.7985839531753
 20
81.2801377834994
 10
124.7985839531753
 20
83.43883461455694
  0
LWPOLYLINE
  5
45E9
330
4767
100
AcDbEntity
  8
Layer 1
 62
     7
370
    13
100
AcDbPolyline
 90
        2
 70
     0
 43
0.0
 10
124.7985839531753
 20
80.39095863875642
 10
124.7985839531753
 20
80.85673554836221
  0
LWPOLYLINE
  5
45EA
330
4767
100
AcDbEntity
  8
Layer 1
 62
     7
370
    13
100
AcDbPolyline
 90
        2
 70
     0
 43
0.0
 10
124.7985839531753
 20
77.80851506301314
 10
124.7985839531753
 20
79.96755640361922
  0
LWPOLYLINE
  5
45EB
330
4767
100
AcDbEntity
  8
Layer 1
 62
     7
370
    13
100
AcDbPolyline
 90
        2
 70
     0
 43
0.0
 10
124.7985839531753
 20
76.91968042781869
 10
124.7985839531753
 20
77.38545733742447
  0
LWPOLYLINE
  5
45EC
330
4767
100
AcDbEntity
  8
Layer 1
 62
     7
370
    13
100
AcDbPolyline
 90
        2
 70
     0
 43
0.0
 10
124.7985839531753
 20
74.33723685207542
 10
124.7985839531753
 20
76.49627819268149
  0
LWPOLYLINE
  5
45ED
330
4767
100
AcDbEntity
  8
Layer 1
 62
     7
370
    13
100
AcDbPolyline
 90
        2
 70
     0
 43
0.0
 10
124.7985839531753
 20
73.44840221688095
 10
124.7985839531753
 20
73.91383461693822
  0
LWPOLYLINE
  5
45EE
330
4767
100
AcDbEntity
  8
Layer 1
 62
     7
370
    13
100
AcDbPolyline
 90
        2
 70
     0
 43
0.0
 10
124.7985839531753
 20
70.86595864113768
 10
124.7985839531753
 20
73.02499998174375
  0
LWPOLYLINE
  5
45EF
330
4767
100
AcDbEntity
  8
Layer 1
 62
     7
370
    13
100
AcDbPolyline
 90
        2
 70
     0
 43
0.0
 10
124.7985839531753
 20
69.97712400594322
 10
124.7985839531753
 20
70.44255640600048
  0
LWPOLYLINE
  5
45F0
330
4767
100
AcDbEntity
  8
Layer 1
 62
     7
370
    13
100
AcDbPolyline
 90
        2
 70
     0
 43
0.0
 10
124.7985839531753
 20
67.39468043019994
 10
124.7985839531753
 20
69.55372177080602
  0
LWPOLYLINE
  5
45F1
330
4767
100
AcDbEntity
  8
Layer 1
 62
     7
370
    13
100
AcDbPolyline
 90
        2
 70
     0
 43
0.0
 10
124.7985839531753
 20
66.50550128545694
 10
124.7985839531753
 20
66.97127819506274
  0
LWPOLYLINE
  5
45F2
330
4767
100
AcDbEntity
  8
Layer 1
 62
     7
370
    13
100
AcDbPolyline
 90
        2
 70
     0
 43
0.0
 10
124.7985839531753
 20
63.92340221926221
 10
124.7985839531753
 20
66.08244355986828
  0
LWPOLYLINE
  5
45F3
330
4767
100
AcDbEntity
  8
Layer 1
 62
     7
370
    13
100
AcDbPolyline
 90
        2
 70
     0
 43
0.0
 10
124.7985839531753
 20
63.03422307451921
 10
124.7985839531753
 20
63.49999998412499
  0
LWPOLYLINE
  5
45F4
330
4767
100
AcDbEntity
  8
Layer 1
 62
     7
370
    13
100
AcDbPolyline
 90
        2
 70
     0
 43
0.0
 10
124.7985839531753
 20
60.5365288477131
 10
124.7985839531753
 20
62.61116534893055
  0
LWPOLYLINE
  5
45F5
330
4767
100
AcDbEntity
  8
Layer 1
 62
     7
370
    13
100
AcDbPolyline
 90
        2
 70
     0
 43
0.0
 10
152.6539034991629
 20
98.17109643813083
 10
153.8393608556374
 20
98.17109643813083
  0
LWPOLYLINE
  5
45F6
330
4767
100
AcDbEntity
  8
Layer 1
 62
     7
370
    13
100
AcDbPolyline
 90
        2
 70
     0
 43
0.0
 10
151.7650688639684
 20
98.17109643813083
 10
152.1884710991056
 20
98.17109643813083
  0
LWPOLYLINE
  5
45F7
330
4767
100
AcDbEntity
  8
Layer 1
 62
     7
370
    13
100
AcDbPolyline
 90
        2
 70
     0
 43
0.0
 10
149.1826252882252
 20
98.17109643813083
 10
151.3416666288312
 20
98.17109643813083
  0
LWPOLYLINE
  5
45F8
330
4767
100
AcDbEntity
  8
Layer 1
 62
     7
370
    13
100
AcDbPolyline
 90
        2
 70
     0
 43
0.0
 10
148.2936183982564
 20
98.17109643813083
 10
148.7168483786194
 20
98.17109643813083
  0
LWPOLYLINE
  5
45F9
330
4767
100
AcDbEntity
  8
Layer 1
 62
     7
370
    13
100
AcDbPolyline
 90
        2
 70
     0
 43
0.0
 10
145.7113470772874
 20
98.17109643813083
 10
147.8703884178935
 20
98.17109643813083
  0
LWPOLYLINE
  5
45FA
330
4767
100
AcDbEntity
  8
Layer 1
 62
     7
370
    13
100
AcDbPolyline
 90
        2
 70
     0
 43
0.0
 10
144.8223401873187
 20
98.17109643813083
 10
145.2457424224559
 20
98.17109643813083
  0
LWPOLYLINE
  5
45FB
330
4767
100
AcDbEntity
  8
Layer 1
 62
     7
370
    13
100
AcDbPolyline
 90
        2
 70
     0
 43
0.0
 10
142.2400688663497
 20
98.17109643813083
 10
144.3989379521815
 20
98.17109643813083
  0
LWPOLYLINE
  5
45FC
330
4767
100
AcDbEntity
  8
Layer 1
 62
     7
370
    13
100
AcDbPolyline
 90
        2
 70
     0
 43
0.0
 10
141.351061976381
 20
98.17109643813083
 10
141.7742919567439
 20
98.17109643813083
  0
LWPOLYLINE
  5
45FD
330
4767
100
AcDbEntity
  8
Layer 1
 62
     7
370
    13
100
AcDbPolyline
 90
        2
 70
     0
 43
0.0
 10
138.7686184006377
 20
98.17109643813083
 10
140.9276597412438
 20
98.17109643813083
  0
LWPOLYLINE
  5
45FE
330
4767
100
AcDbEntity
  8
Layer 1
 62
     7
370
    13
100
AcDbPolyline
 90
        2
 70
     0
 43
0.0
 10
137.879611510669
 20
98.17109643813083
 10
138.3030137458062
 20
98.17109643813083
  0
LWPOLYLINE
  5
45FF
330
4767
100
AcDbEntity
  8
Layer 1
 62
     7
370
    13
100
AcDbPolyline
 90
        2
 70
     0
 43
0.0
 10
135.2973401897
 20
98.17109643813083
 10
137.456381530306
 20
98.17109643813083
  0
LWPOLYLINE
  5
4600
330
4767
100
AcDbEntity
  8
Layer 1
 62
     7
370
    13
100
AcDbPolyline
 90
        2
 70
     0
 43
0.0
 10
134.4083332997312
 20
98.17109643813083
 10
134.8317355348684
 20
98.17109643813083
  0
LWPOLYLINE
  5
4601
330
4767
100
AcDbEntity
  8
Layer 1
 62
     7
370
    13
100
AcDbPolyline
 90
        2
 70
     0
 43
0.0
 10
131.8260619787622
 20
98.17109643813083
 10
133.984931064594
 20
98.17109643813083
  0
LWPOLYLINE
  5
4602
330
4767
100
AcDbEntity
  8
Layer 1
 62
     7
370
    13
100
AcDbPolyline
 90
        2
 70
     0
 43
0.0
 10
130.9370550887935
 20
98.17109643813083
 10
131.3602850691564
 20
98.17109643813083
  0
LWPOLYLINE
  5
4603
330
4767
100
AcDbEntity
  8
Layer 1
 62
     7
370
    13
100
AcDbPolyline
 90
        2
 70
     0
 43
0.0
 10
128.3546115130502
 20
98.17109643813083
 10
130.5136528536563
 20
98.17109643813083
  0
LWPOLYLINE
  5
4604
330
4767
100
AcDbEntity
  8
Layer 1
 62
     7
370
    13
100
AcDbPolyline
 90
        2
 70
     0
 43
0.0
 10
127.4656046230815
 20
98.17109643813083
 10
127.8890068582187
 20
98.17109643813083
  0
LWPOLYLINE
  5
4605
330
4767
100
AcDbEntity
  8
Layer 1
 62
     7
370
    13
100
AcDbPolyline
 90
        2
 70
     0
 43
0.0
 10
124.8833333021125
 20
98.17109643813083
 10
127.0423746427186
 20
98.17109643813083
  0
LWPOLYLINE
  5
4606
330
4767
100
AcDbEntity
  8
Layer 1
 62
     7
370
    13
100
AcDbPolyline
 90
        2
 70
     0
 43
0.0
 10
123.9943264121438
 20
98.17109643813083
 10
124.417728647281
 20
98.17109643813083
  0
LWPOLYLINE
  5
4607
330
4767
100
AcDbEntity
  8
Layer 1
 62
     7
370
    13
100
AcDbPolyline
 90
        2
 70
     0
 43
0.0
 10
121.4120550911747
 20
98.17109643813083
 10
123.5709241770065
 20
98.17109643813083
  0
LWPOLYLINE
  5
4608
330
4767
100
AcDbEntity
  8
Layer 1
 62
     7
370
    13
100
AcDbPolyline
 90
        2
 70
     0
 43
0.0
 10
120.523048201206
 20
98.17109643813083
 10
120.946278181569
 20
98.17109643813083
  0
LWPOLYLINE
  5
4609
330
4767
100
AcDbEntity
  8
Layer 1
 62
     7
370
    13
100
AcDbPolyline
 90
        2
 70
     0
 43
0.0
 10
117.9406046254627
 20
98.17109643813083
 10
120.0996459660688
 20
98.17109643813083
  0
LWPOLYLINE
  5
460A
330
4767
100
AcDbEntity
  8
Layer 1
 62
     7
370
    13
100
AcDbPolyline
 90
        2
 70
     0
 43
0.0
 10
117.051597735494
 20
98.17109643813083
 10
117.4749999706312
 20
98.17109643813083
  0
LWPOLYLINE
  5
460B
330
4767
100
AcDbEntity
  8
Layer 1
 62
     7
370
    13
100
AcDbPolyline
 90
        2
 70
     0
 43
0.0
 10
114.469326414525
 20
98.17109643813083
 10
116.6283677551311
 20
98.17109643813083
  0
LWPOLYLINE
  5
460C
330
4767
100
AcDbEntity
  8
Layer 1
 62
     7
370
    13
100
AcDbPolyline
 90
        2
 70
     0
 43
0.0
 10
113.5803195245563
 20
98.17109643813083
 10
114.0037217596935
 20
98.17109643813083
  0
LWPOLYLINE
  5
460D
330
4767
100
AcDbEntity
  8
Layer 1
 62
     7
370
    13
100
AcDbPolyline
 90
        2
 70
     0
 43
0.0
 10
110.9980482035873
 20
98.17109643813083
 10
113.1569172894191
 20
98.17109643813083
  0
LWPOLYLINE
  5
460E
330
4767
100
AcDbEntity
  8
Layer 1
 62
     7
370
    13
100
AcDbPolyline
 90
        2
 70
     0
 43
0.0
 10
110.1090413136186
 20
98.17109643813083
 10
110.5746459684501
 20
98.17109643813083
  0
LWPOLYLINE
  5
460F
330
4767
100
AcDbEntity
  8
Layer 1
 62
     7
370
    13
100
AcDbPolyline
 90
        2
 70
     0
 43
0.0
 10
107.5265977378753
 20
98.17109643813083
 10
109.6856390784813
 20
98.17109643813083
  0
LWPOLYLINE
  5
4610
330
4767
100
AcDbEntity
  8
Layer 1
 62
     7
370
    13
100
AcDbPolyline
 90
        2
 70
     0
 43
0.0
 10
106.6375908479066
 20
98.17109643813083
 10
107.1033677575123
 20
98.17109643813083
  0
LWPOLYLINE
  5
4611
330
4767
100
AcDbEntity
  8
Layer 1
 62
     7
370
    13
100
AcDbPolyline
 90
        2
 70
     0
 43
0.0
 10
104.0553195269375
 20
98.17109643813083
 10
106.2143608675436
 20
98.17109643813083
  0
LWPOLYLINE
  5
4612
330
4767
100
AcDbEntity
  8
Layer 1
 62
     7
370
    13
100
AcDbPolyline
 90
        2
 70
     0
 43
0.0
 10
103.1663126369688
 20
98.17109643813083
 10
103.6319172918003
 20
98.17109643813083
  0
LWPOLYLINE
  5
4613
330
4767
100
AcDbEntity
  8
Layer 1
 62
     7
370
    13
100
AcDbPolyline
 90
        2
 70
     0
 43
0.0
 10
100.5840413159998
 20
98.17109643813083
 10
102.7430826566059
 20
98.17109643813083
  0
LWPOLYLINE
  5
4614
330
4767
100
AcDbEntity
  8
Layer 1
 62
     7
370
    13
100
AcDbPolyline
 90
        2
 70
     0
 43
0.0
 10
99.69503442603112
 20
98.17109643813083
 10
100.1606390808626
 20
98.17109643813083
  0
LWPOLYLINE
  5
4615
330
4767
100
AcDbEntity
  8
Layer 1
 62
     7
370
    13
100
AcDbPolyline
 90
        2
 70
     0
 43
0.0
 10
97.11259085028785
 20
98.17109643813083
 10
99.2716321908939
 20
98.17109643813083
  0
LWPOLYLINE
  5
4616
330
4767
100
AcDbEntity
  8
Layer 1
 62
     7
370
    13
100
AcDbPolyline
 90
        2
 70
     0
 43
0.0
 10
96.22358396031913
 20
98.17109643813083
 10
96.68936086992488
 20
98.17109643813083
  0
LWPOLYLINE
  5
4617
330
4767
100
AcDbEntity
  8
Layer 1
 62
     7
370
    13
100
AcDbPolyline
 90
        2
 70
     0
 43
0.0
 10
93.64131263935007
 20
98.17109643813083
 10
95.80035397995615
 20
98.17109643813083
  0
LWPOLYLINE
  5
4618
330
4767
100
AcDbEntity
  8
Layer 1
 62
     7
370
    13
100
AcDbPolyline
 90
        2
 70
     0
 43
0.0
 10
92.75230574938136
 20
98.17109643813083
 10
93.21808265898715
 20
98.17109643813083
  0
LWPOLYLINE
  5
4619
330
4767
100
AcDbEntity
  8
Layer 1
 62
     7
370
    13
100
AcDbPolyline
 90
        2
 70
     0
 43
0.0
 10
91.14361841254394
 20
98.17109643813083
 10
92.32907576901842
 20
98.17109643813083
  0
LWPOLYLINE
  5
461A
330
4767
100
AcDbEntity
  8
Layer 1
 62
     7
370
    20
100
AcDbPolyline
 90
       61
 70
     0
 43
0.0
 10
137.4985839500003
 20
130.0480481988248
 10
131.1485839515878
 20
130.3867010850249
 10
124.7985839531753
 20
130.5136528536563
 10
118.4063815350685
 20
130.3867010850249
 10
112.056381536656
 20
130.0480481988248
 10
110.1514159880871
 20
129.7939724067876
 10
108.2886528592125
 20
129.2859930774875
 10
106.4682644048065
 20
128.5239379561502
 10
104.8173746482748
 20
127.5503539720187
 10
103.251061985906
 20
126.3650688703184
 10
101.8962781863315
 20
125.0102850707439
 10
100.7109930846313
 20
123.4863470828437
 10
99.69503442603112
 20
121.7930826518434
 10
98.93297930469385
 20
120.0150688719059
 10
98.42499997539377
 20
118.1523057430313
 10
98.17092418335658
 20
116.2049655199939
 10
97.62074243436218
 20
107.1879448516752
 10
97.45141599126215
 20
98.17109643813083
 10
97.62074243436218
 20
89.1539035150379
 10
98.17092418335658
 20
80.13705510149351
 10
98.42499997539377
 20
78.23191729815036
 10
98.93297930469385
 20
76.32712400435571
 10
99.69503442603112
 20
74.54911022441827
 10
100.7109930846313
 20
72.89787595833804
 10
101.8962781863315
 20
71.33173555074346
 10
103.251061985906
 20
69.97712400594322
 10
104.8173746482748
 20
68.79166664946875
 10
106.4682644048065
 20
67.81808266533714
 10
108.2886528592125
 20
67.09840221846845
 10
110.1514159880871
 20
66.59025063439411
 10
112.056381536656
 20
66.29397242266262
 10
118.4063815350685
 20
65.95531953646257
 10
124.7985839531753
 20
65.87057018752543
 10
131.1485839515878
 20
65.95531953646257
 10
137.4985839500003
 20
66.29397242266262
 10
139.4459241730378
 20
66.59025063439411
 10
141.3086873019124
 20
67.09840221846845
 10
143.0867010818498
 20
67.81808266533714
 10
144.7799655128501
 20
68.79166664946875
 10
146.3040757555247
 20
69.97712400594322
 10
147.7010619747935
 20
71.33173555074346
 10
148.8863470764937
 20
72.89787595833804
 10
149.8599310606253
 20
74.54911022441827
 10
150.6219861819625
 20
76.32712400435571
 10
151.1301377660369
 20
78.23191729815036
 10
151.4264159777684
 20
80.13705510149351
 10
151.9342230522942
 20
89.1539035150379
 10
152.1037217501685
 20
98.17109643813083
 10
151.9342230522942
 20
107.1879448516752
 10
151.4264159777684
 20
116.2049655199939
 10
151.1301377660369
 20
118.1523057430313
 10
150.6219861819625
 20
120.0150688719059
 10
149.8599310606253
 20
121.7930826518434
 10
148.8863470764937
 20
123.4863470828437
 10
147.7010619747935
 20
125.0102850707439
 10
146.3040757555247
 20
126.3650688703184
 10
144.7799655128501
 20
127.5503539720187
 10
143.0867010818498
 20
128.5239379561502
 10
141.3086873019124
 20
129.2859930774875
 10
139.4459241730378
 20
129.7939724067876
 10
137.4985839500003
 20
130.0480481988248
  0
LWPOLYLINE
  5
461B
330
4767
100
AcDbEntity
  8
Layer 1
 62
     7
370
    13
100
AcDbPolyline
 90
        2
 70
     0
 43
0.0
 10
179.027831986493
 20
125.9840413096498
 10
179.027831986493
 20
128.1430826502559
  0
LWPOLYLINE
  5
461C
330
4767
100
AcDbEntity
  8
Layer 1
 62
     7
370
    13
100
AcDbPolyline
 90
        2
 70
     0
 43
0.0
 10
179.027831986493
 20
125.0950344196811
 10
179.027831986493
 20
125.518264400044
  0
LWPOLYLINE
  5
461D
330
4767
100
AcDbEntity
  8
Layer 1
 62
     7
370
    13
100
AcDbPolyline
 90
        2
 70
     0
 43
0.0
 10
179.027831986493
 20
122.5125908439378
 10
179.027831986493
 20
124.6716321845439
  0
LWPOLYLINE
  5
461E
330
4767
100
AcDbEntity
  8
Layer 1
 62
     7
370
    13
100
AcDbPolyline
 90
        2
 70
     0
 43
0.0
 10
179.027831986493
 20
121.6235839539691
 10
179.027831986493
 20
122.0469861891063
  0
LWPOLYLINE
  5
461F
330
4767
100
AcDbEntity
  8
Layer 1
 62
     7
370
    13
100
AcDbPolyline
 90
        2
 70
     0
 43
0.0
 10
179.027831986493
 20
119.0413126330001
 10
179.027831986493
 20
121.2003539736062
  0
LWPOLYLINE
  5
4620
330
4767
100
AcDbEntity
  8
Layer 1
 62
     7
370
    13
100
AcDbPolyline
 90
        2
 70
     0
 43
0.0
 10
179.027831986493
 20
118.1523057430313
 10
179.027831986493
 20
118.5757079781686
  0
LWPOLYLINE
  5
4621
330
4767
100
AcDbEntity
  8
Layer 1
 62
     7
370
    13
100
AcDbPolyline
 90
        2
 70
     0
 43
0.0
 10
179.027831986493
 20
115.5700344220623
 10
179.027831986493
 20
117.7290757626684
  0
LWPOLYLINE
  5
4622
330
4767
100
AcDbEntity
  8
Layer 1
 62
     7
370
    13
100
AcDbPolyline
 90
        2
 70
     0
 43
0.0
 10
179.027831986493
 20
114.6810275320936
 10
179.027831986493
 20
115.1042575124566
  0
LWPOLYLINE
  5
4623
330
4767
100
AcDbEntity
  8
Layer 1
 62
     7
370
    13
100
AcDbPolyline
 90
        2
 70
     0
 43
0.0
 10
179.027831986493
 20
112.0985839563503
 10
179.027831986493
 20
114.2576252969564
  0
LWPOLYLINE
  5
4624
330
4767
100
AcDbEntity
  8
Layer 1
 62
     7
370
    13
100
AcDbPolyline
 90
        2
 70
     0
 43
0.0
 10
179.027831986493
 20
111.2097493211559
 10
179.027831986493
 20
111.6329793015188
  0
LWPOLYLINE
  5
4625
330
4767
100
AcDbEntity
  8
Layer 1
 62
     7
370
    13
100
AcDbPolyline
 90
        2
 70
     0
 43
0.0
 10
179.027831986493
 20
108.6273057454126
 10
179.027831986493
 20
110.7863470860187
  0
LWPOLYLINE
  5
4626
330
4767
100
AcDbEntity
  8
Layer 1
 62
     7
370
    13
100
AcDbPolyline
 90
        2
 70
     0
 43
0.0
 10
179.027831986493
 20
107.7382988554439
 10
179.027831986493
 20
108.1617010905811
  0
LWPOLYLINE
  5
4627
330
4767
100
AcDbEntity
  8
Layer 1
 62
     7
370
    13
100
AcDbPolyline
 90
        2
 70
     0
 43
0.0
 10
179.027831986493
 20
105.1560275344749
 10
179.027831986493
 20
107.3150688750809
  0
LWPOLYLINE
  5
4628
330
4767
100
AcDbEntity
  8
Layer 1
 62
     7
370
    13
100
AcDbPolyline
 90
        2
 70
     0
 43
0.0
 10
179.027831986493
 20
104.2668483897319
 10
179.027831986493
 20
104.6902506248691
  0
LWPOLYLINE
  5
4629
330
4767
100
AcDbEntity
  8
Layer 1
 62
     7
370
    13
100
AcDbPolyline
 90
        2
 70
     0
 43
0.0
 10
179.027831986493
 20
101.6847493235371
 10
179.027831986493
 20
103.8437906641432
  0
LWPOLYLINE
  5
462A
330
4767
100
AcDbEntity
  8
Layer 1
 62
     7
370
    13
100
AcDbPolyline
 90
        2
 70
     0
 43
0.0
 10
179.027831986493
 20
100.7955701787941
 10
179.027831986493
 20
101.2189724139313
  0
LWPOLYLINE
  5
462B
330
4767
100
AcDbEntity
  8
Layer 1
 62
     7
370
    13
100
AcDbPolyline
 90
        2
 70
     0
 43
0.0
 10
179.027831986493
 20
98.21347111259944
 10
179.027831986493
 20
100.3721679436569
  0
LWPOLYLINE
  5
462C
330
4767
100
AcDbEntity
  8
Layer 1
 62
     7
370
    13
100
AcDbPolyline
 90
        2
 70
     0
 43
0.0
 10
179.027831986493
 20
97.32429196785645
 10
179.027831986493
 20
97.74769420299364
  0
LWPOLYLINE
  5
462D
330
4767
100
AcDbEntity
  8
Layer 1
 62
     7
370
    13
100
AcDbPolyline
 90
        2
 70
     0
 43
0.0
 10
179.027831986493
 20
94.74184839211316
 10
179.027831986493
 20
96.90088973271921
  0
LWPOLYLINE
  5
462E
330
4767
100
AcDbEntity
  8
Layer 1
 62
     7
370
    13
100
AcDbPolyline
 90
        2
 70
     0
 43
0.0
 10
179.027831986493
 20
93.8530137569187
 10
179.027831986493
 20
94.27641599205593
  0
LWPOLYLINE
  5
462F
330
4767
100
AcDbEntity
  8
Layer 1
 62
     7
370
    13
100
AcDbPolyline
 90
        2
 70
     0
 43
0.0
 10
179.027831986493
 20
91.2705701811754
 10
179.027831986493
 20
93.42961152178148
  0
LWPOLYLINE
  5
4630
330
4767
100
AcDbEntity
  8
Layer 1
 62
     7
370
    13
100
AcDbPolyline
 90
        2
 70
     0
 43
0.0
 10
179.027831986493
 20
90.38173554598094
 10
179.027831986493
 20
90.80513778111816
  0
LWPOLYLINE
  5
4631
330
4767
100
AcDbEntity
  8
Layer 1
 62
     7
370
    13
100
AcDbPolyline
 90
        2
 70
     0
 43
0.0
 10
179.027831986493
 20
87.79929197023767
 10
179.027831986493
 20
89.95833331084375
  0
LWPOLYLINE
  5
4632
330
4767
100
AcDbEntity
  8
Layer 1
 62
     7
370
    13
100
AcDbPolyline
 90
        2
 70
     0
 43
0.0
 10
179.027831986493
 20
86.91045733504322
 10
179.027831986493
 20
87.33351506063192
  0
LWPOLYLINE
  5
4633
330
4767
100
AcDbEntity
  8
Layer 1
 62
     7
370
    13
100
AcDbPolyline
 90
        2
 70
     0
 43
0.0
 10
179.027831986493
 20
84.32801375929996
 10
179.027831986493
 20
86.48705509990604
  0
LWPOLYLINE
  5
4634
330
4767
100
AcDbEntity
  8
Layer 1
 62
     7
370
    13
100
AcDbPolyline
 90
        2
 70
     0
 43
0.0
 10
179.027831986493
 20
83.43883461455694
 10
179.027831986493
 20
83.86223684969417
  0
LWPOLYLINE
  5
4635
330
4767
100
AcDbEntity
  8
Layer 1
 62
     7
370
    13
100
AcDbPolyline
 90
        2
 70
     0
 43
0.0
 10
179.027831986493
 20
80.85673554836221
 10
179.027831986493
 20
83.01577688896825
  0
LWPOLYLINE
  5
4636
330
4767
100
AcDbEntity
  8
Layer 1
 62
     7
370
    13
100
AcDbPolyline
 90
        2
 70
     0
 43
0.0
 10
179.027831986493
 20
79.96755640361922
 10
179.027831986493
 20
80.39095863875642
  0
LWPOLYLINE
  5
4637
330
4767
100
AcDbEntity
  8
Layer 1
 62
     7
370
    13
100
AcDbPolyline
 90
        2
 70
     0
 43
0.0
 10
179.027831986493
 20
77.38545733742447
 10
179.027831986493
 20
79.54449867803055
  0
LWPOLYLINE
  5
4638
330
4767
100
AcDbEntity
  8
Layer 1
 62
     7
370
    13
100
AcDbPolyline
 90
        2
 70
     0
 43
0.0
 10
179.027831986493
 20
76.49627819268149
 10
179.027831986493
 20
76.91968042781869
  0
LWPOLYLINE
  5
4639
330
4767
100
AcDbEntity
  8
Layer 1
 62
     7
370
    13
100
AcDbPolyline
 90
        2
 70
     0
 43
0.0
 10
179.027831986493
 20
73.91383461693822
 10
179.027831986493
 20
76.07287595754428
  0
LWPOLYLINE
  5
463A
330
4767
100
AcDbEntity
  8
Layer 1
 62
     7
370
    13
100
AcDbPolyline
 90
        2
 70
     0
 43
0.0
 10
179.027831986493
 20
73.02499998174375
 10
179.027831986493
 20
73.44840221688095
  0
LWPOLYLINE
  5
463B
330
4767
100
AcDbEntity
  8
Layer 1
 62
     7
370
    13
100
AcDbPolyline
 90
        2
 70
     0
 43
0.0
 10
179.027831986493
 20
70.44255640600048
 10
179.027831986493
 20
72.60159774660654
  0
LWPOLYLINE
  5
463C
330
4767
100
AcDbEntity
  8
Layer 1
 62
     7
370
    13
100
AcDbPolyline
 90
        2
 70
     0
 43
0.0
 10
179.027831986493
 20
69.55372177080602
 10
179.027831986493
 20
69.97712400594322
  0
LWPOLYLINE
  5
463D
330
4767
100
AcDbEntity
  8
Layer 1
 62
     7
370
    13
100
AcDbPolyline
 90
        2
 70
     0
 43
0.0
 10
179.027831986493
 20
66.97127819506274
 10
179.027831986493
 20
69.13031953566882
  0
LWPOLYLINE
  5
463E
330
4767
100
AcDbEntity
  8
Layer 1
 62
     7
370
    13
100
AcDbPolyline
 90
        2
 70
     0
 43
0.0
 10
179.027831986493
 20
66.08244355986828
 10
179.027831986493
 20
66.50550128545694
  0
LWPOLYLINE
  5
463F
330
4767
100
AcDbEntity
  8
Layer 1
 62
     7
370
    13
100
AcDbPolyline
 90
        2
 70
     0
 43
0.0
 10
179.027831986493
 20
63.49999998412499
 10
179.027831986493
 20
65.65904132473106
  0
LWPOLYLINE
  5
4640
330
4767
100
AcDbEntity
  8
Layer 1
 62
     7
370
    13
100
AcDbPolyline
 90
        2
 70
     0
 43
0.0
 10
179.027831986493
 20
62.61116534893055
 10
179.027831986493
 20
63.03422307451921
  0
LWPOLYLINE
  5
4641
330
4767
100
AcDbEntity
  8
Layer 1
 62
     7
370
    13
100
AcDbPolyline
 90
        2
 70
     0
 43
0.0
 10
179.027831986493
 20
60.02872177318725
 10
179.027831986493
 20
62.18776311379333
  0
LWPOLYLINE
  5
4642
330
4767
100
AcDbEntity
  8
Layer 1
 62
     7
370
    13
100
AcDbPolyline
 90
        2
 70
     0
 43
0.0
 10
204.681735517406
 20
94.4031955059131
 10
205.8668483643319
 20
94.4031955059131
  0
LWPOLYLINE
  5
4643
330
4767
100
AcDbEntity
  8
Layer 1
 62
     7
370
    13
100
AcDbPolyline
 90
        2
 70
     0
 43
0.0
 10
203.792556372663
 20
94.4031955059131
 10
204.2159586078002
 20
94.4031955059131
  0
LWPOLYLINE
  5
4644
330
4767
100
AcDbEntity
  8
Layer 1
 62
     7
370
    13
100
AcDbPolyline
 90
        2
 70
     0
 43
0.0
 10
201.2104573064682
 20
94.4031955059131
 10
203.3694986470743
 20
94.4031955059131
  0
LWPOLYLINE
  5
4645
330
4767
100
AcDbEntity
  8
Layer 1
 62
     7
370
    13
100
AcDbPolyline
 90
        2
 70
     0
 43
0.0
 10
200.3212781617253
 20
94.4031955059131
 10
200.7446803968625
 20
94.4031955059131
  0
LWPOLYLINE
  5
4646
330
4767
100
AcDbEntity
  8
Layer 1
 62
     7
370
    13
100
AcDbPolyline
 90
        2
 70
     0
 43
0.0
 10
197.738834585982
 20
94.4031955059131
 10
199.897875926588
 20
94.4031955059131
  0
LWPOLYLINE
  5
4647
330
4767
100
AcDbEntity
  8
Layer 1
 62
     7
370
    13
100
AcDbPolyline
 90
        2
 70
     0
 43
0.0
 10
196.8499999507875
 20
94.4031955059131
 10
197.2734021859247
 20
94.4031955059131
  0
LWPOLYLINE
  5
4648
330
4767
100
AcDbEntity
  8
Layer 1
 62
     7
370
    13
100
AcDbPolyline
 90
        2
 70
     0
 43
0.0
 10
194.2675563750441
 20
94.4031955059131
 10
196.4265977156503
 20
94.4031955059131
  0
LWPOLYLINE
  5
4649
330
4767
100
AcDbEntity
  8
Layer 1
 62
     7
370
    13
100
AcDbPolyline
 90
        2
 70
     0
 43
0.0
 10
193.3787217398498
 20
94.4031955059131
 10
193.802123974987
 20
94.4031955059131
  0
LWPOLYLINE
  5
464A
330
4767
100
AcDbEntity
  8
Layer 1
 62
     7
370
    13
100
AcDbPolyline
 90
        2
 70
     0
 43
0.0
 10
190.7962781641065
 20
94.4031955059131
 10
192.9553195047126
 20
94.4031955059131
  0
LWPOLYLINE
  5
464B
330
4767
100
AcDbEntity
  8
Layer 1
 62
     7
370
    13
100
AcDbPolyline
 90
        2
 70
     0
 43
0.0
 10
189.907443528912
 20
94.4031955059131
 10
190.3305012545007
 20
94.4031955059131
  0
LWPOLYLINE
  5
464C
330
4767
100
AcDbEntity
  8
Layer 1
 62
     7
370
    13
100
AcDbPolyline
 90
        2
 70
     0
 43
0.0
 10
187.3249999531688
 20
94.4031955059131
 10
189.4840412937748
 20
94.4031955059131
  0
LWPOLYLINE
  5
464D
330
4767
100
AcDbEntity
  8
Layer 1
 62
     7
370
    13
100
AcDbPolyline
 90
        2
 70
     0
 43
0.0
 10
186.4361653179743
 20
94.4031955059131
 10
186.859223043563
 20
94.4031955059131
  0
LWPOLYLINE
  5
464E
330
4767
100
AcDbEntity
  8
Layer 1
 62
     7
370
    13
100
AcDbPolyline
 90
        2
 70
     0
 43
0.0
 10
183.853721742231
 20
94.4031955059131
 10
186.0127630828371
 20
94.4031955059131
  0
LWPOLYLINE
  5
464F
330
4767
100
AcDbEntity
  8
Layer 1
 62
     7
370
    13
100
AcDbPolyline
 90
        2
 70
     0
 43
0.0
 10
182.964542597488
 20
94.4031955059131
 10
183.3879448326252
 20
94.4031955059131
  0
LWPOLYLINE
  5
4650
330
4767
100
AcDbEntity
  8
Layer 1
 62
     7
370
    13
100
AcDbPolyline
 90
        2
 70
     0
 43
0.0
 10
180.3824435312933
 20
94.4031955059131
 10
182.5414848718994
 20
94.4031955059131
  0
LWPOLYLINE
  5
4651
330
4767
100
AcDbEntity
  8
Layer 1
 62
     7
370
    13
100
AcDbPolyline
 90
        2
 70
     0
 43
0.0
 10
179.4932643865503
 20
94.4031955059131
 10
179.9166666216875
 20
94.4031955059131
  0
LWPOLYLINE
  5
4652
330
4767
100
AcDbEntity
  8
Layer 1
 62
     7
370
    13
100
AcDbPolyline
 90
        2
 70
     0
 43
0.0
 10
176.9111653203555
 20
94.4031955059131
 10
179.069862151413
 20
94.4031955059131
  0
LWPOLYLINE
  5
4653
330
4767
100
AcDbEntity
  8
Layer 1
 62
     7
370
    13
100
AcDbPolyline
 90
        2
 70
     0
 43
0.0
 10
176.0219861756126
 20
94.4031955059131
 10
176.4877630852183
 20
94.4031955059131
  0
LWPOLYLINE
  5
4654
330
4767
100
AcDbEntity
  8
Layer 1
 62
     7
370
    13
100
AcDbPolyline
 90
        2
 70
     0
 43
0.0
 10
173.4395425998693
 20
94.4031955059131
 10
175.5985839404753
 20
94.4031955059131
  0
LWPOLYLINE
  5
4655
330
4767
100
AcDbEntity
  8
Layer 1
 62
     7
370
    13
100
AcDbPolyline
 90
        2
 70
     0
 43
0.0
 10
172.5507079646748
 20
94.4031955059131
 10
173.0164848742806
 20
94.4031955059131
  0
LWPOLYLINE
  5
4656
330
4767
100
AcDbEntity
  8
Layer 1
 62
     7
370
    13
100
AcDbPolyline
 90
        2
 70
     0
 43
0.0
 10
169.9682643889315
 20
94.4031955059131
 10
172.1273057295376
 20
94.4031955059131
  0
LWPOLYLINE
  5
4657
330
4767
100
AcDbEntity
  8
Layer 1
 62
     7
370
    13
100
AcDbPolyline
 90
        2
 70
     0
 43
0.0
 10
169.0794297537371
 20
94.4031955059131
 10
169.5448621537943
 20
94.4031955059131
  0
LWPOLYLINE
  5
4658
330
4767
100
AcDbEntity
  8
Layer 1
 62
     7
370
    13
100
AcDbPolyline
 90
        2
 70
     0
 43
0.0
 10
166.4969861779938
 20
94.4031955059131
 10
168.6560275185999
 20
94.4031955059131
  0
LWPOLYLINE
  5
4659
330
4767
100
AcDbEntity
  8
Layer 1
 62
     7
370
    13
100
AcDbPolyline
 90
        2
 70
     0
 43
0.0
 10
165.6081515427993
 20
94.4031955059131
 10
166.0735839428566
 20
94.4031955059131
  0
LWPOLYLINE
  5
465A
330
4767
100
AcDbEntity
  8
Layer 1
 62
     7
370
    13
100
AcDbPolyline
 90
        2
 70
     0
 43
0.0
 10
163.0257079670561
 20
94.4031955059131
 10
165.1847493076621
 20
94.4031955059131
  0
LWPOLYLINE
  5
465B
330
4767
100
AcDbEntity
  8
Layer 1
 62
     7
370
    13
100
AcDbPolyline
 90
        2
 70
     0
 43
0.0
 10
162.1365288223131
 20
94.4031955059131
 10
162.6023057319188
 20
94.4031955059131
  0
LWPOLYLINE
  5
465C
330
4767
100
AcDbEntity
  8
Layer 1
 62
     7
370
    13
100
AcDbPolyline
 90
        2
 70
     0
 43
0.0
 10
159.5544297561183
 20
94.4031955059131
 10
161.7134710967244
 20
94.4031955059131
  0
LWPOLYLINE
  5
465D
330
4767
100
AcDbEntity
  8
Layer 1
 62
     7
370
    13
100
AcDbPolyline
 90
        2
 70
     0
 43
0.0
 10
158.6652506113753
 20
94.4031955059131
 10
159.1310275209811
 20
94.4031955059131
  0
LWPOLYLINE
  5
465E
330
4767
100
AcDbEntity
  8
Layer 1
 62
     7
370
    13
100
AcDbPolyline
 90
        2
 70
     0
 43
0.0
 10
156.0831515451806
 20
94.4031955059131
 10
158.2418483762381
 20
94.4031955059131
  0
LWPOLYLINE
  5
465F
330
4767
100
AcDbEntity
  8
Layer 1
 62
     7
370
    13
100
AcDbPolyline
 90
        2
 70
     0
 43
0.0
 10
155.1939724004376
 20
94.4031955059131
 10
155.6597493100434
 20
94.4031955059131
  0
LWPOLYLINE
  5
4660
330
4767
100
AcDbEntity
  8
Layer 1
 62
     7
370
    13
100
AcDbPolyline
 90
        2
 70
     0
 43
0.0
 10
153.5854573183744
 20
94.4031955059131
 10
154.7705701653004
 20
94.4031955059131
  0
LWPOLYLINE
  5
4661
330
4767
100
AcDbEntity
  8
Layer 1
 62
     7
370
    20
100
AcDbPolyline
 90
        9
 70
     0
 43
0.0
 10
98.50974932433089
 20
156.5063815255435
 10
98.67907576743093
 20
155.2363470749062
 10
99.10230574779388
 20
154.0086872987374
 10
99.73740910049968
 20
152.9079792912001
 10
100.5416666415312
 20
151.9343953070685
 10
101.5576253001314
 20
151.0875908367941
 10
102.7007079821373
 20
150.4526597388625
 10
103.8859930838375
 20
150.0716321781939
 10
105.1984022089434
 20
149.9023057350939
  0
LWPOLYLINE
  5
4662
330
4767
100
AcDbEntity
  8
Layer 1
 62
     7
370
    20
100
AcDbPolyline
 90
        2
 70
     0
 43
0.0
 10
98.50974932433089
 20
156.5063815255435
 10
97.32429196785645
 20
178.9007079630873
  0
LWPOLYLINE
  5
4663
330
4767
100
AcDbEntity
  8
Layer 1
 62
     7
370
    20
100
AcDbPolyline
 90
        9
 70
     0
 43
0.0
 10
98.67907576743093
 20
156.5063815255435
 10
98.84840221053096
 20
155.2787217493747
 10
99.2716321908939
 20
154.0932643929003
 10
99.86436086913116
 20
152.9927286401372
 10
100.6686184101627
 20
152.0189724012313
 10
101.6423746490686
 20
151.2147148601998
 10
102.7430826566059
 20
150.6219861819625
 10
103.9283677583061
 20
150.2409586212939
 10
105.1984022089434
 20
150.0716321781939
  0
LWPOLYLINE
  5
4664
330
4767
100
AcDbEntity
  8
Layer 1
 62
     7
370
    20
100
AcDbPolyline
 90
        2
 70
     0
 43
0.0
 10
98.67907576743093
 20
156.5063815255435
 10
97.49361841095646
 20
178.9430826375559
  0
LWPOLYLINE
  5
4665
330
4767
100
AcDbEntity
  8
Layer 1
 62
     7
370
    20
100
AcDbPolyline
 90
        2
 70
     0
 43
0.0
 10
204.7241101918745
 20
179.5780137354874
 10
204.7241101918745
 20
179.7473401785875
  0
LWPOLYLINE
  5
4666
330
4767
100
AcDbEntity
  8
Layer 1
 62
     7
370
    20
100
AcDbPolyline
 90
        2
 70
     0
 43
0.0
 10
94.31861841175019
 20
179.5780137354874
 10
94.31861841175019
 20
179.7473401785875
  0
LWPOLYLINE
  5
4667
330
4767
100
AcDbEntity
  8
Layer 1
 62
     7
370
    20
100
AcDbPolyline
 90
        2
 70
     0
 43
0.0
 10
152.9501817108944
 20
179.5780137354874
 10
155.6597493100434
 20
179.5780137354874
  0
LWPOLYLINE
  5
4668
330
4767
100
AcDbEntity
  8
Layer 1
 62
     7
370
    20
100
AcDbPolyline
 90
        2
 70
     0
 43
0.0
 10
105.1984022089434
 20
150.0716321781939
 10
116.6707424295997
 20
149.5636528488938
  0
LWPOLYLINE
  5
4669
330
4767
100
AcDbEntity
  8
Layer 1
 62
     7
370
    20
100
AcDbPolyline
 90
        2
 70
     0
 43
0.0
 10
105.1984022089434
 20
149.9023057350939
 10
116.5859930806625
 20
149.3943264057937
  0
LWPOLYLINE
  5
466A
330
4767
100
AcDbEntity
  8
Layer 1
 62
     7
370
    20
100
AcDbPolyline
 90
        2
 70
     0
 43
0.0
 10
163.279611504319
 20
156.0406046159378
 10
170.9418483730631
 20
155.7019517297377
  0
LWPOLYLINE
  5
466B
330
4767
100
AcDbEntity
  8
Layer 1
 62
     7
370
    20
100
AcDbPolyline
 90
        2
 70
     0
 43
0.0
 10
163.279611504319
 20
155.8712781728377
 10
170.9418483730631
 20
155.5326252866377
  0
LWPOLYLINE
  5
466C
330
4767
100
AcDbEntity
  8
Layer 1
 62
     7
370
    20
100
AcDbPolyline
 90
        2
 70
     0
 43
0.0
 10
94.31861841175019
 20
179.7473401785875
 10
96.68936086992488
 20
179.7473401785875
  0
LWPOLYLINE
  5
466D
330
4767
100
AcDbEntity
  8
Layer 1
 62
     7
370
    20
100
AcDbPolyline
 90
       57
 70
     0
 43
0.0
 10
200.5331515340681
 20
112.2257079797561
 10
200.194498647868
 20
113.9189724107563
 10
199.6015977148565
 20
115.5700344220623
 10
198.7971679190507
 20
117.0939724099626
 10
197.738834585982
 20
118.4909586292314
 10
196.5113470645874
 20
119.7186184054002
 10
195.0719861708499
 20
120.7347493187746
 10
193.5478759281755
 20
121.5390068598062
 10
191.8969861716438
 20
122.0893608635749
 10
190.1613470661749
 20
122.4280137497749
 10
184.6157768635683
 20
122.8514159849121
 10
179.027831986493
 20
122.9783677535436
 10
173.4819172743378
 20
122.8514159849121
 10
167.8939723972626
 20
122.4280137497749
 10
166.2007079662623
 20
122.0893608635749
 10
164.5498182097306
 20
121.5390068598062
 10
162.9833332925875
 20
120.7347493187746
 10
161.5863470733186
 20
119.7186184054002
 10
160.3585150423756
 20
118.4909586292314
 10
159.3001817093069
 20
117.0939724099626
 10
158.453721748581
 20
115.5700344220623
 10
157.9031954900381
 20
113.9189724107563
 10
157.564542603838
 20
112.2257079797561
 10
156.971986180375
 20
106.2989379617065
 10
156.5909586197064
 20
100.3721679436569
 10
156.5062092707693
 20
94.4031955059131
 10
156.5909586197064
 20
88.4765977426378
 10
156.971986180375
 20
82.50762530489394
 10
157.564542603838
 20
76.62340221608721
 10
157.9031954900381
 20
74.88776311061832
 10
158.453721748581
 20
73.2365288445381
 10
159.3001817093069
 20
71.7127631114121
 10
160.3585150423756
 20
70.31577689214327
 10
161.5863470733186
 20
69.13031953566882
 10
162.9833332925875
 20
68.07198620260006
 10
164.5498182097306
 20
67.30993108126281
 10
166.2007079662623
 20
66.71737465779982
 10
167.8939723972626
 20
66.42109644606835
 10
173.4819172743378
 20
65.99769421093113
 10
179.027831986493
 20
65.87057018752543
 10
184.6157768635683
 20
65.99769421093113
 10
190.1613470661749
 20
66.42109644606835
 10
191.8969861716438
 20
66.71737465779982
 10
193.5478759281755
 20
67.30993108126281
 10
195.0719861708499
 20
68.07198620260006
 10
196.5113470645874
 20
69.13031953566882
 10
197.738834585982
 20
70.31577689214327
 10
198.7971679190507
 20
71.7127631114121
 10
199.6015977148565
 20
73.2365288445381
 10
200.194498647868
 20
74.88776311061832
 10
200.5331515340681
 20
76.62340221608721
 10
201.1257079575311
 20
82.50762530489394
 10
201.4643608437311
 20
88.4765977426378
 10
201.5914848671369
 20
94.4031955059131
 10
201.4643608437311
 20
100.3721679436569
 10
201.1257079575311
 20
106.2989379617065
 10
200.5331515340681
 20
112.2257079797561
  0
LWPOLYLINE
  5
466E
330
4767
100
AcDbEntity
  8
Layer 1
 62
     7
370
    13
100
AcDbPolyline
 90
        2
 70
     0
 43
0.0
 10
124.7985839531753
 20
176.1067355245496
 10
124.7985839531753
 20
181.6523057271563
  0
LWPOLYLINE
  5
466F
330
4767
100
AcDbEntity
  8
Layer 1
 62
     7
370
    13
100
AcDbPolyline
 90
        2
 70
     0
 43
0.0
 10
124.7985839531753
 20
174.3709241643066
 10
124.7985839531753
 20
175.2599310542753
  0
LWPOLYLINE
  5
4670
330
4767
100
AcDbEntity
  8
Layer 1
 62
     7
370
    13
100
AcDbPolyline
 90
        2
 70
     0
 43
0.0
 10
124.7985839531753
 20
169.1640068479
 10
124.7985839531753
 20
173.5242919488064
  0
LWPOLYLINE
  5
4671
330
4767
100
AcDbEntity
  8
Layer 1
 62
     7
370
    13
100
AcDbPolyline
 90
        2
 70
     0
 43
0.0
 10
124.7985839531753
 20
167.4283677424311
 10
124.7985839531753
 20
168.3173746323998
  0
LWPOLYLINE
  5
4672
330
4767
100
AcDbEntity
  8
Layer 1
 62
     7
370
    13
100
AcDbPolyline
 90
        2
 70
     0
 43
0.0
 10
124.7985839531753
 20
162.2212781712502
 10
124.7985839531753
 20
166.5817355269309
  0
LWPOLYLINE
  5
4673
330
4767
100
AcDbEntity
  8
Layer 1
 62
     7
370
    13
100
AcDbPolyline
 90
        2
 70
     0
 43
0.0
 10
124.7985839531753
 20
160.4856390657814
 10
124.7985839531753
 20
161.3746459557501
  0
LWPOLYLINE
  5
4674
330
4767
100
AcDbEntity
  8
Layer 1
 62
     7
370
    13
100
AcDbPolyline
 90
        2
 70
     0
 43
0.0
 10
124.7985839531753
 20
155.2787217493747
 10
124.7985839531753
 20
159.6390068502812
  0
LWPOLYLINE
  5
4675
330
4767
100
AcDbEntity
  8
Layer 1
 62
     7
370
    13
100
AcDbPolyline
 90
        2
 70
     0
 43
0.0
 10
124.7985839531753
 20
153.5430826439059
 10
124.7985839531753
 20
154.4319172791003
  0
LWPOLYLINE
  5
4676
330
4767
100
AcDbEntity
  8
Layer 1
 62
     7
370
    13
100
AcDbPolyline
 90
        2
 70
     0
 43
0.0
 10
124.7985839531753
 20
147.1507079710248
 10
124.7985839531753
 20
152.6962781736315
  0
LWPOLYLINE
  5
4677
330
4767
100
AcDbEntity
  8
Layer 1
 62
     7
370
    20
100
AcDbPolyline
 90
        8
 70
     0
 43
0.0
 10
157.2682643921065
 20
161.8402506105816
 10
157.4801377644494
 20
160.5280137402499
 10
157.9455701645066
 20
159.3003539640811
 10
158.6652506113753
 20
158.1996459565438
 10
159.5968044305869
 20
157.2682643921065
 10
160.7395426030443
 20
156.5485839452378
 10
161.9673746339873
 20
156.0829792904063
 10
163.279611504319
 20
155.8712781728377
  0
LWPOLYLINE
  5
4678
330
4767
100
AcDbEntity
  8
Layer 1
 62
     7
370
    20
100
AcDbPolyline
 90
        2
 70
     0
 43
0.0
 10
157.2682643921065
 20
161.8402506105816
 10
156.3794297569121
 20
178.9007079630873
  0
LWPOLYLINE
  5
4679
330
4767
100
AcDbEntity
  8
Layer 1
 62
     7
370
    20
100
AcDbPolyline
 90
        8
 70
     0
 43
0.0
 10
157.4377630899808
 20
161.8402506105816
 10
157.6069172783066
 20
160.5703884147185
 10
158.0726941879124
 20
159.384931058244
 10
158.7923746347811
 20
158.284395305481
 10
159.7235839444441
 20
157.3953884155121
 10
160.8242919519814
 20
156.6757079686436
 10
162.0097493084559
 20
156.2099310590378
 10
163.279611504319
 20
156.0406046159378
  0
LWPOLYLINE
  5
467A
330
4767
100
AcDbEntity
  8
Layer 1
 62
     7
370
    20
100
AcDbPolyline
 90
        2
 70
     0
 43
0.0
 10
157.4377630899808
 20
161.8402506105816
 10
156.5062092707693
 20
178.9430826375559
  0
LWPOLYLINE
  5
467B
330
4767
100
AcDbEntity
  8
Layer 1
 62
     7
370
    20
100
AcDbPolyline
 90
        2
 70
     0
 43
0.0
 10
170.9418483730631
 20
155.7019517297377
 10
179.027831986493
 20
155.7019517297377
  0
LWPOLYLINE
  5
467C
330
4767
100
AcDbEntity
  8
Layer 1
 62
     7
370
    20
100
AcDbPolyline
 90
        9
 70
     0
 43
0.0
 10
144.3989379521815
 20
149.9023057350939
 10
145.6689724028188
 20
150.0716321781939
 10
146.8966321789876
 20
150.4526597388625
 10
148.0397148609935
 20
151.0875908367941
 10
149.0134710998994
 20
151.9343953070685
 10
149.8599310606253
 20
152.9079792912001
 10
150.4948621585568
 20
154.0086872987374
 10
150.8758897192255
 20
155.2363470749062
 10
151.0877630915683
 20
156.5063815255435
  0
LWPOLYLINE
  5
467D
330
4767
100
AcDbEntity
  8
Layer 1
 62
     7
370
    20
100
AcDbPolyline
 90
        2
 70
     0
 43
0.0
 10
151.0877630915683
 20
156.5063815255435
 10
152.2305012640257
 20
178.9007079630873
  0
LWPOLYLINE
  5
467E
330
4767
100
AcDbEntity
  8
Layer 1
 62
     7
370
    20
100
AcDbPolyline
 90
        9
 70
     0
 43
0.0
 10
144.3989379521815
 20
150.0716321781939
 10
145.6265977283503
 20
150.2409586212939
 10
146.8120550848247
 20
150.6219861819625
 10
147.9125908375878
 20
151.2147148601998
 10
148.8863470764937
 20
152.0189724012313
 10
149.6907768722995
 20
152.9927286401372
 10
150.3257079702311
 20
154.0932643929003
 10
150.7491102053682
 20
155.2787217493747
 10
150.918264393694
 20
156.5063815255435
  0
LWPOLYLINE
  5
467F
330
4767
100
AcDbEntity
  8
Layer 1
 62
     7
370
    20
100
AcDbPolyline
 90
        2
 70
     0
 43
0.0
 10
150.918264393694
 20
156.5063815255435
 10
152.1037217501685
 20
178.9430826375559
  0
LWPOLYLINE
  5
4680
330
4767
100
AcDbEntity
  8
Layer 1
 62
     7
370
    20
100
AcDbPolyline
 90
        2
 70
     0
 43
0.0
 10
144.3989379521815
 20
150.0716321781939
 10
132.884395311831
 20
149.5636528488938
  0
LWPOLYLINE
  5
4681
330
4767
100
AcDbEntity
  8
Layer 1
 62
     7
370
    20
100
AcDbPolyline
 90
        2
 70
     0
 43
0.0
 10
144.3989379521815
 20
149.9023057350939
 10
132.9689724059939
 20
149.3943264057937
  0
LWPOLYLINE
  5
4682
330
4767
100
AcDbEntity
  8
Layer 1
 62
     7
370
    13
100
AcDbPolyline
 90
        2
 70
     0
 43
0.0
 10
179.027831986493
 20
179.1546115003502
 10
179.027831986493
 20
181.4406046095878
  0
LWPOLYLINE
  5
4683
330
4767
100
AcDbEntity
  8
Layer 1
 62
     7
370
    13
100
AcDbPolyline
 90
        2
 70
     0
 43
0.0
 10
179.027831986493
 20
177.4189723948813
 10
179.027831986493
 20
178.3079792848501
  0
LWPOLYLINE
  5
4684
330
4767
100
AcDbEntity
  8
Layer 1
 62
     7
370
    13
100
AcDbPolyline
 90
        2
 70
     0
 43
0.0
 10
179.027831986493
 20
172.2120550784748
 10
179.027831986493
 20
176.5723401793811
  0
LWPOLYLINE
  5
4685
330
4767
100
AcDbEntity
  8
Layer 1
 62
     7
370
    13
100
AcDbPolyline
 90
        2
 70
     0
 43
0.0
 10
179.027831986493
 20
170.4764159730059
 10
179.027831986493
 20
171.3652506082004
  0
LWPOLYLINE
  5
4686
330
4767
100
AcDbEntity
  8
Layer 1
 62
     7
370
    13
100
AcDbPolyline
 90
        2
 70
     0
 43
0.0
 10
179.027831986493
 20
165.269326401825
 10
179.027831986493
 20
169.6296115027315
  0
LWPOLYLINE
  5
4687
330
4767
100
AcDbEntity
  8
Layer 1
 62
     7
370
    13
100
AcDbPolyline
 90
        2
 70
     0
 43
0.0
 10
179.027831986493
 20
163.5336872963561
 10
179.027831986493
 20
164.4226941863249
  0
LWPOLYLINE
  5
4688
330
4767
100
AcDbEntity
  8
Layer 1
 62
     7
370
    13
100
AcDbPolyline
 90
        2
 70
     0
 43
0.0
 10
179.027831986493
 20
158.3265977251753
 10
179.027831986493
 20
162.687055080856
  0
LWPOLYLINE
  5
4689
330
4767
100
AcDbEntity
  8
Layer 1
 62
     7
370
    13
100
AcDbPolyline
 90
        2
 70
     0
 43
0.0
 10
179.027831986493
 20
156.5909586197064
 10
179.027831986493
 20
157.4799655096752
  0
LWPOLYLINE
  5
468A
330
4767
100
AcDbEntity
  8
Layer 1
 62
     7
370
    13
100
AcDbPolyline
 90
        2
 70
     0
 43
0.0
 10
179.027831986493
 20
153.4583332949686
 10
179.027831986493
 20
155.7443264042063
  0
LWPOLYLINE
  5
468B
330
4767
100
AcDbEntity
  8
Layer 1
 62
     7
370
    20
100
AcDbPolyline
 90
        2
 70
     0
 43
0.0
 10
186.7324435297058
 20
155.151597725969
 10
179.027831986493
 20
155.151597725969
  0
LWPOLYLINE
  5
468C
330
4767
100
AcDbEntity
  8
Layer 1
 62
     7
370
    20
100
AcDbPolyline
 90
        2
 70
     0
 43
0.0
 10
186.7324435297058
 20
155.151597725969
 10
185.2507079614998
 20
154.7283677456061
  0
LWPOLYLINE
  5
468D
330
4767
100
AcDbEntity
  8
Layer 1
 62
     7
370
    20
100
AcDbPolyline
 90
        2
 70
     0
 43
0.0
 10
186.8168483690944
 20
154.982271282869
 10
185.2507079614998
 20
154.6014159769747
  0
LWPOLYLINE
  5
468E
330
4767
100
AcDbEntity
  8
Layer 1
 62
     7
370
    20
100
AcDbPolyline
 90
        2
 70
     0
 43
0.0
 10
187.1555012552945
 20
155.7019517297377
 10
186.7324435297058
 20
155.151597725969
  0
LWPOLYLINE
  5
468F
330
4767
100
AcDbEntity
  8
Layer 1
 62
     7
370
    20
100
AcDbPolyline
 90
        2
 70
     0
 43
0.0
 10
187.2402506042316
 20
155.5326252866377
 10
186.8168483690944
 20
154.982271282869
  0
LWPOLYLINE
  5
4690
330
4767
100
AcDbEntity
  8
Layer 1
 62
     7
370
    20
100
AcDbPolyline
 90
        2
 70
     0
 43
0.0
 10
185.2507079614998
 20
154.7283677456061
 10
179.027831986493
 20
154.7283677456061
  0
LWPOLYLINE
  5
4691
330
4767
100
AcDbEntity
  8
Layer 1
 62
     7
370
    20
100
AcDbPolyline
 90
        2
 70
     0
 43
0.0
 10
185.2507079614998
 20
154.6014159769747
 10
179.027831986493
 20
154.6014159769747
  0
LWPOLYLINE
  5
4692
330
4767
100
AcDbEntity
  8
Layer 1
 62
     7
370
    20
100
AcDbPolyline
 90
        2
 70
     0
 43
0.0
 10
187.1555012552945
 20
155.7019517297377
 10
179.027831986493
 20
155.7019517297377
  0
LWPOLYLINE
  5
4693
330
4767
100
AcDbEntity
  8
Layer 1
 62
     7
370
    20
100
AcDbPolyline
 90
        2
 70
     0
 43
0.0
 10
171.3652506082004
 20
155.151597725969
 10
179.027831986493
 20
155.151597725969
  0
LWPOLYLINE
  5
4694
330
4767
100
AcDbEntity
  8
Layer 1
 62
     7
370
    20
100
AcDbPolyline
 90
        2
 70
     0
 43
0.0
 10
171.3652506082004
 20
155.151597725969
 10
172.8469861764063
 20
154.7283677456061
  0
LWPOLYLINE
  5
4695
330
4767
100
AcDbEntity
  8
Layer 1
 62
     7
370
    20
100
AcDbPolyline
 90
        2
 70
     0
 43
0.0
 10
171.2384710943432
 20
154.982271282869
 10
172.8046115019376
 20
154.6014159769747
  0
LWPOLYLINE
  5
4696
330
4767
100
AcDbEntity
  8
Layer 1
 62
     7
370
    20
100
AcDbPolyline
 90
        2
 70
     0
 43
0.0
 10
170.9418483730631
 20
155.7019517297377
 10
171.3652506082004
 20
155.151597725969
  0
LWPOLYLINE
  5
4697
330
4767
100
AcDbEntity
  8
Layer 1
 62
     7
370
    20
100
AcDbPolyline
 90
        2
 70
     0
 43
0.0
 10
170.8574435336745
 20
155.5326252866377
 10
171.2384710943432
 20
154.982271282869
  0
LWPOLYLINE
  5
4698
330
4767
100
AcDbEntity
  8
Layer 1
 62
     7
370
    20
100
AcDbPolyline
 90
        2
 70
     0
 43
0.0
 10
172.8469861764063
 20
154.7283677456061
 10
179.027831986493
 20
154.7283677456061
  0
LWPOLYLINE
  5
4699
330
4767
100
AcDbEntity
  8
Layer 1
 62
     7
370
    20
100
AcDbPolyline
 90
        2
 70
     0
 43
0.0
 10
172.8046115019376
 20
154.6014159769747
 10
179.027831986493
 20
154.6014159769747
  0
LWPOLYLINE
  5
469A
330
4767
100
AcDbEntity
  8
Layer 1
 62
     7
370
    20
100
AcDbPolyline
 90
        2
 70
     0
 43
0.0
 10
170.9418483730631
 20
155.7019517297377
 10
179.027831986493
 20
155.7019517297377
  0
LWPOLYLINE
  5
469B
330
4767
100
AcDbEntity
  8
Layer 1
 62
     7
370
    20
100
AcDbPolyline
 90
        2
 70
     0
 43
0.0
 10
132.4609930766938
 20
148.9709241706566
 10
124.7985839531753
 20
148.9709241706566
  0
LWPOLYLINE
  5
469C
330
4767
100
AcDbEntity
  8
Layer 1
 62
     7
370
    20
100
AcDbPolyline
 90
        2
 70
     0
 43
0.0
 10
132.4609930766938
 20
148.9709241706566
 10
130.9792575084878
 20
148.5900688647622
  0
LWPOLYLINE
  5
469D
330
4767
100
AcDbEntity
  8
Layer 1
 62
     7
370
    20
100
AcDbPolyline
 90
        2
 70
     0
 43
0.0
 10
132.5879448453252
 20
148.8439724020251
 10
131.0216321829564
 20
148.4207424216621
  0
LWPOLYLINE
  5
469E
330
4767
100
AcDbEntity
  8
Layer 1
 62
     7
370
    20
100
AcDbPolyline
 90
        2
 70
     0
 43
0.0
 10
132.884395311831
 20
149.5636528488938
 10
132.4609930766938
 20
148.9709241706566
  0
LWPOLYLINE
  5
469F
330
4767
100
AcDbEntity
  8
Layer 1
 62
     7
370
    20
100
AcDbPolyline
 90
        2
 70
     0
 43
0.0
 10
132.9689724059939
 20
149.3943264057937
 10
132.5879448453252
 20
148.8439724020251
  0
LWPOLYLINE
  5
46A0
330
4767
100
AcDbEntity
  8
Layer 1
 62
     7
370
    20
100
AcDbPolyline
 90
        2
 70
     0
 43
0.0
 10
130.9792575084878
 20
148.5900688647622
 10
124.7985839531753
 20
148.5900688647622
  0
LWPOLYLINE
  5
46A1
330
4767
100
AcDbEntity
  8
Layer 1
 62
     7
370
    20
100
AcDbPolyline
 90
        2
 70
     0
 43
0.0
 10
131.0216321829564
 20
148.4207424216621
 10
124.7985839531753
 20
148.4207424216621
  0
LWPOLYLINE
  5
46A2
330
4767
100
AcDbEntity
  8
Layer 1
 62
     7
370
    20
100
AcDbPolyline
 90
        2
 70
     0
 43
0.0
 10
132.884395311831
 20
149.5636528488938
 10
124.7985839531753
 20
149.5636528488938
  0
LWPOLYLINE
  5
46A3
330
4767
100
AcDbEntity
  8
Layer 1
 62
     7
370
    20
100
AcDbPolyline
 90
        2
 70
     0
 43
0.0
 10
117.0939724099626
 20
148.9709241706566
 10
124.7985839531753
 20
148.9709241706566
  0
LWPOLYLINE
  5
46A4
330
4767
100
AcDbEntity
  8
Layer 1
 62
     7
370
    20
100
AcDbPolyline
 90
        2
 70
     0
 43
0.0
 10
117.0939724099626
 20
148.9709241706566
 10
118.5757079781686
 20
148.5900688647622
  0
LWPOLYLINE
  5
46A5
330
4767
100
AcDbEntity
  8
Layer 1
 62
     7
370
    20
100
AcDbPolyline
 90
        2
 70
     0
 43
0.0
 10
117.0093953157997
 20
148.8439724020251
 10
118.5757079781686
 20
148.4207424216621
  0
LWPOLYLINE
  5
46A6
330
4767
100
AcDbEntity
  8
Layer 1
 62
     7
370
    20
100
AcDbPolyline
 90
        2
 70
     0
 43
0.0
 10
116.6707424295997
 20
149.5636528488938
 10
117.0939724099626
 20
148.9709241706566
  0
LWPOLYLINE
  5
46A7
330
4767
100
AcDbEntity
  8
Layer 1
 62
     7
370
    20
100
AcDbPolyline
 90
        2
 70
     0
 43
0.0
 10
116.5859930806625
 20
149.3943264057937
 10
117.0093953157997
 20
148.8439724020251
  0
LWPOLYLINE
  5
46A8
330
4767
100
AcDbEntity
  8
Layer 1
 62
     7
370
    20
100
AcDbPolyline
 90
        2
 70
     0
 43
0.0
 10
118.5757079781686
 20
148.5900688647622
 10
124.7985839531753
 20
148.5900688647622
  0
LWPOLYLINE
  5
46A9
330
4767
100
AcDbEntity
  8
Layer 1
 62
     7
370
    20
100
AcDbPolyline
 90
        2
 70
     0
 43
0.0
 10
118.5757079781686
 20
148.4207424216621
 10
124.7985839531753
 20
148.4207424216621
  0
LWPOLYLINE
  5
46AA
330
4767
100
AcDbEntity
  8
Layer 1
 62
     7
370
    20
100
AcDbPolyline
 90
        2
 70
     0
 43
0.0
 10
116.6707424295997
 20
149.5636528488938
 10
124.7985839531753
 20
149.5636528488938
  0
LWPOLYLINE
  5
46AB
330
4767
100
AcDbEntity
  8
Layer 1
 62
     7
370
    20
100
AcDbPolyline
 90
        8
 70
     0
 43
0.0
 10
194.7757079591185
 20
155.8712781728377
 10
196.1303195039188
 20
156.0829792904063
 10
197.3581515348618
 20
156.5485839452378
 10
198.4585150328507
 20
157.2682643921065
 10
199.4324435265308
 20
158.1996459565438
 10
200.1521239733995
 20
159.3003539640811
 10
200.6175563734567
 20
160.5280137402499
 10
200.8294297457996
 20
161.8402506105816
  0
LWPOLYLINE
  5
46AC
330
4767
100
AcDbEntity
  8
Layer 1
 62
     7
370
    20
100
AcDbPolyline
 90
        2
 70
     0
 43
0.0
 10
200.8294297457996
 20
161.8402506105816
 10
201.718264380994
 20
178.9007079630873
  0
LWPOLYLINE
  5
46AD
330
4767
100
AcDbEntity
  8
Layer 1
 62
     7
370
    20
100
AcDbPolyline
 90
        8
 70
     0
 43
0.0
 10
194.7757079591185
 20
156.0406046159378
 10
196.0879448294502
 20
156.2099310590378
 10
197.2734021859247
 20
156.6757079686436
 10
198.374110193462
 20
157.3953884155121
 10
199.3053195031251
 20
158.284395305481
 10
199.9826252755252
 20
159.384931058244
 10
200.448402185131
 20
160.5703884147185
 10
200.6599310479253
 20
161.8402506105816
  0
LWPOLYLINE
  5
46AE
330
4767
100
AcDbEntity
  8
Layer 1
 62
     7
370
    20
100
AcDbPolyline
 90
        2
 70
     0
 43
0.0
 10
200.6599310479253
 20
161.8402506105816
 10
201.5491101926683
 20
178.9430826375559
  0
LWPOLYLINE
  5
46AF
330
4767
100
AcDbEntity
  8
Layer 1
 62
     7
370
    20
100
AcDbPolyline
 90
        3
 70
     0
 43
0.0
 10
194.7757079591185
 20
156.0406046159378
 10
187.1555012552945
 20
155.7019517297377
 10
179.027831986493
 20
155.7019517297377
  0
LWPOLYLINE
  5
46B0
330
4767
100
AcDbEntity
  8
Layer 1
 62
     7
370
    20
100
AcDbPolyline
 90
        2
 70
     0
 43
0.0
 10
194.7757079591185
 20
155.8712781728377
 10
187.1555012552945
 20
155.5326252866377
  0
LWPOLYLINE
  5
46B1
330
4767
100
AcDbEntity
  8
Layer 1
 62
     7
370
    13
100
AcDbPolyline
 90
        2
 70
     0
 43
0.0
 10
89.95833331084375
 20
177.79999995555
 10
89.95833331084375
 20
151.2992919543625
  0
LWPOLYLINE
  5
46B2
330
4767
100
AcDbEntity
  8
Layer 1
 62
     7
370
    13
100
AcDbPolyline
 90
        2
 70
     0
 43
0.0
 10
116.5859930806625
 20
149.3943264057937
 10
89.11170109534358
 20
149.3943264057937
  0
LWPOLYLINE
  5
46B3
330
4767
100
AcDbEntity
  8
Layer 1
 62
     7
370
    13
100
AcDbPolyline
 90
        2
 70
     0
 43
0.0
 10
94.31861841175019
 20
179.7473401785875
 10
89.11170109534358
 20
179.7473401785875
  0
LWPOLYLINE
  5
46B4
330
4767
100
AcDbEntity
  8
Layer 1
 62
     7
370
     0
100
AcDbPolyline
 90
        4
 70
     0
 43
0.0
 10
89.61968042464368
 20
177.79999995555
 10
90.25461152257523
 20
177.79999995555
 10
89.95833331084375
 20
179.7473401785875
 10
89.61968042464368
 20
177.79999995555
  0
HATCH
  5
46B5
330
4767
100
AcDbEntity
  8
Layer 1
 62
     7
100
AcDbHatch
 10
0.0
 20
0.0
 30
0.0
210
0.0
220
0.0
230
1.0
  2
SOLID
 70
     1
 71
     0
 91
        1
 92
        1
 93
        3
 72
     1
 10
89.61968042464368
 20
177.79999995555
 11
90.25461152257523
 21
177.79999995555
 72
     1
 10
90.25461152257523
 20
177.79999995555
 11
89.95833331084375
 21
179.7473401785875
 72
     1
 10
89.95833331084375
 20
179.7473401785875
 11
89.61968042464368
 21
177.79999995555
 97
        0
 75
     0
 76
     1
 98
        0
  0
LWPOLYLINE
  5
46B6
330
4767
100
AcDbEntity
  8
Layer 1
 62
     7
370
     0
100
AcDbPolyline
 90
        4
 70
     0
 43
0.0
 10
89.61968042464368
 20
151.2992919543625
 10
90.25461152257523
 20
151.2992919543625
 10
89.95833331084375
 20
149.3943264057937
 10
89.61968042464368
 20
151.2992919543625
  0
HATCH
  5
46B7
330
4767
100
AcDbEntity
  8
Layer 1
 62
     7
100
AcDbHatch
 10
0.0
 20
0.0
 30
0.0
210
0.0
220
0.0
230
1.0
  2
SOLID
 70
     1
 71
     0
 91
        1
 92
        1
 93
        3
 72
     1
 10
89.61968042464368
 20
151.2992919543625
 11
90.25461152257523
 21
151.2992919543625
 72
     1
 10
90.25461152257523
 20
151.2992919543625
 11
89.95833331084375
 21
149.3943264057937
 72
     1
 10
89.95833331084375
 20
149.3943264057937
 11
89.61968042464368
 21
151.2992919543625
 97
        0
 75
     0
 76
     1
 98
        0
  0
LWPOLYLINE
  5
46B8
330
4767
100
AcDbEntity
  8
Layer 1
 62
     7
370
    13
100
AcDbPolyline
 90
        2
 70
     0
 43
0.0
 10
207.6028319793493
 20
157.6069172783066
 10
207.6028319793493
 20
177.79999995555
  0
LWPOLYLINE
  5
46B9
330
4767
100
AcDbEntity
  8
Layer 1
 62
     7
370
    13
100
AcDbPolyline
 90
        2
 70
     0
 43
0.0
 10
204.7241101918745
 20
179.7473401785875
 10
208.4492919400752
 20
179.7473401785875
  0
LWPOLYLINE
  5
46BA
330
4767
100
AcDbEntity
  8
Layer 1
 62
     7
370
    13
100
AcDbPolyline
 90
        2
 70
     0
 43
0.0
 10
187.1555012552945
 20
155.7019517297377
 10
208.4492919400752
 20
155.7019517297377
  0
LWPOLYLINE
  5
46BB
330
4767
100
AcDbEntity
  8
Layer 1
 62
     7
370
    13
100
AcDbPolyline
 90
        2
 70
     0
 43
0.0
 10
116.5859930806625
 20
149.3943264057937
 10
93.59893796488151
 20
149.3943264057937
  0
LWPOLYLINE
  5
46BC
330
4767
100
AcDbEntity
  8
Layer 1
 62
     7
370
    13
100
AcDbPolyline
 90
       10
 70
     0
 43
0.0
 10
89.74663219327515
 20
165.8620550800623
 10
89.74663219327515
 20
166.3276597348938
 10
88.81525062883786
 20
167.2166666248625
 10
87.46063908403762
 20
167.2166666248625
 10
86.99503442920608
 20
166.7932643897253
 10
86.99503442920608
 20
165.8620550800623
 10
87.46063908403762
 20
165.3962781704565
 10
87.9264159936434
 20
165.3962781704565
 10
88.39202064847489
 20
165.8620550800623
 10
88.39202064847489
 20
167.2166666248625
  0
LWPOLYLINE
  5
46BD
330
4767
100
AcDbEntity
  8
Layer 1
 62
     7
370
    13
100
AcDbPolyline
 90
       10
 70
     0
 43
0.0
 10
87.46063908403762
 20
162.687055080856
 10
86.99503442920608
 20
163.1526597356875
 10
86.99503442920608
 20
164.0416666256562
 10
87.46063908403762
 20
164.5072712804877
 10
87.9264159936434
 20
164.5072712804877
 10
88.39202064847489
 20
164.0416666256562
 10
88.39202064847489
 20
163.1526597356875
 10
88.81525062883786
 20
162.687055080856
 10
89.74663219327515
 20
162.687055080856
 10
89.74663219327515
 20
164.5072712804877
  0
LWPOLYLINE
  5
46BE
330
4767
100
AcDbEntity
  8
Layer 1
 62
     7
370
    13
100
AcDbPolyline
 90
       10
 70
     0
 43
0.0
 10
87.46063908403762
 20
159.9352850620127
 10
86.99503442920608
 20
160.4010619716185
 10
86.99503442920608
 20
161.3322712812815
 10
87.46063908403762
 20
161.7556735164187
 10
87.9264159936434
 20
161.7556735164187
 10
88.39202064847489
 20
161.3322712812815
 10
88.39202064847489
 20
160.4010619716185
 10
88.81525062883786
 20
159.9352850620127
 10
89.74663219327515
 20
159.9352850620127
 10
89.74663219327515
 20
161.7556735164187
  0
LWPOLYLINE
  5
46BF
330
4767
100
AcDbEntity
  8
Layer 1
 62
     7
370
     0
100
AcDbPolyline
 90
        4
 70
     0
 43
0.0
 10
207.3062092580693
 20
157.6069172783066
 10
207.9414848655494
 20
157.6069172783066
 10
207.6028319793493
 20
155.7019517297377
 10
207.3062092580693
 20
157.6069172783066
  0
HATCH
  5
46C0
330
4767
100
AcDbEntity
  8
Layer 1
 62
     7
100
AcDbHatch
 10
0.0
 20
0.0
 30
0.0
210
0.0
220
0.0
230
1.0
  2
SOLID
 70
     1
 71
     0
 91
        1
 92
        1
 93
        3
 72
     1
 10
207.3062092580693
 20
157.6069172783066
 11
207.9414848655494
 21
157.6069172783066
 72
     1
 10
207.9414848655494
 20
157.6069172783066
 11
207.6028319793493
 21
155.7019517297377
 72
     1
 10
207.6028319793493
 20
155.7019517297377
 11
207.3062092580693
 21
157.6069172783066
 97
        0
 75
     0
 76
     1
 98
        0
  0
LWPOLYLINE
  5
46C1
330
4767
100
AcDbEntity
  8
Layer 1
 62
     7
370
     0
100
AcDbPolyline
 90
        4
 70
     0
 43
0.0
 10
207.3062092580693
 20
177.79999995555
 10
207.9414848655494
 20
177.79999995555
 10
207.6028319793493
 20
179.7473401785875
 10
207.3062092580693
 20
177.79999995555
  0
HATCH
  5
46C2
330
4767
100
AcDbEntity
  8
Layer 1
 62
     7
100
AcDbHatch
 10
0.0
 20
0.0
 30
0.0
210
0.0
220
0.0
230
1.0
  2
SOLID
 70
     1
 71
     0
 91
        1
 92
        1
 93
        3
 72
     1
 10
207.3062092580693
 20
177.79999995555
 11
207.9414848655494
 21
177.79999995555
 72
     1
 10
207.9414848655494
 20
177.79999995555
 11
207.6028319793493
 21
179.7473401785875
 72
     1
 10
207.6028319793493
 20
179.7473401785875
 11
207.3062092580693
 21
177.79999995555
 97
        0
 75
     0
 76
     1
 98
        0
  0
LWPOLYLINE
  5
46C3
330
4767
100
AcDbEntity
  8
Layer 1
 62
     7
370
    13
100
AcDbPolyline
 90
        2
 70
     0
 43
0.0
 10
87.54538843297476
 20
128.5663126306188
 10
87.54538843297476
 20
67.77570799086858
  0
LWPOLYLINE
  5
46C4
330
4767
100
AcDbEntity
  8
Layer 1
 62
     7
370
    13
100
AcDbPolyline
 90
        2
 70
     0
 43
0.0
 10
124.7985839531753
 20
65.87057018752543
 10
86.74095863716894
 20
65.87057018752543
  0
LWPOLYLINE
  5
46C5
330
4767
100
AcDbEntity
  8
Layer 1
 62
     7
370
    13
100
AcDbPolyline
 90
        2
 70
     0
 43
0.0
 10
124.7985839531753
 20
130.5136528536563
 10
86.74095863716894
 20
130.5136528536563
  0
LWPOLYLINE
  5
46C6
330
4767
100
AcDbEntity
  8
Layer 1
 62
     7
370
    13
100
AcDbPolyline
 90
        4
 70
     0
 43
0.0
 10
206.0363470622062
 20
169.5026597341
 10
206.502123971812
 20
169.0370550792685
 10
206.9675563718692
 20
169.0370550792685
 10
207.3909586070064
 20
169.5026597341
  0
LWPOLYLINE
  5
46C7
330
4767
100
AcDbEntity
  8
Layer 1
 62
     7
370
    13
100
AcDbPolyline
 90
       13
 70
     0
 43
0.0
 10
207.3909586070064
 20
169.5026597341
 10
207.3909586070064
 20
170.4340412985373
 10
206.9675563718692
 20
170.8996459533688
 10
206.502123971812
 20
170.8996459533688
 10
206.0363470622062
 20
170.4340412985373
 10
206.0363470622062
 20
169.5026597341
 10
205.5705701526004
 20
169.0370550792685
 10
205.1471679174632
 20
169.0370550792685
 10
204.681735517406
 20
169.5026597341
 10
204.681735517406
 20
170.4340412985373
 10
205.1471679174632
 20
170.8996459533688
 10
205.5705701526004
 20
170.8996459533688
 10
206.0363470622062
 20
170.4340412985373
  0
LWPOLYLINE
  5
46C8
330
4767
100
AcDbEntity
  8
Layer 1
 62
     7
370
    13
100
AcDbPolyline
 90
        3
 70
     0
 43
0.0
 10
204.681735517406
 20
166.3276597348938
 10
204.681735517406
 20
168.1480481892998
 10
207.3909586070064
 20
166.7932643897253
  0
LWPOLYLINE
  5
46C9
330
4767
100
AcDbEntity
  8
Layer 1
 62
     7
370
    13
100
AcDbPolyline
 90
        3
 70
     0
 43
0.0
 10
207.3909586070064
 20
164.9730481900935
 10
204.681735517406
 20
164.9730481900935
 10
205.1471679174632
 20
164.5072712804877
  0
LWPOLYLINE
  5
46CA
330
4767
100
AcDbEntity
  8
Layer 1
 62
     7
370
    13
100
AcDbPolyline
 90
        2
 70
     0
 43
0.0
 10
207.3909586070064
 20
164.5072712804877
 10
207.3909586070064
 20
165.3962781704565
  0
LWPOLYLINE
  5
46CB
330
4767
100
AcDbEntity
  8
Layer 1
 62
     7
370
     0
100
AcDbPolyline
 90
        4
 70
     0
 43
0.0
 10
87.54538843297476
 20
130.5136528536563
 10
87.24893796646901
 20
128.5663126306188
 10
87.88404131917483
 20
128.5663126306188
 10
87.54538843297476
 20
130.5136528536563
  0
HATCH
  5
46CC
330
4767
100
AcDbEntity
  8
Layer 1
 62
     7
100
AcDbHatch
 10
0.0
 20
0.0
 30
0.0
210
0.0
220
0.0
230
1.0
  2
SOLID
 70
     1
 71
     0
 91
        1
 92
        1
 93
        3
 72
     1
 10
87.54538843297476
 20
130.5136528536563
 11
87.24893796646901
 21
128.5663126306188
 72
     1
 10
87.24893796646901
 20
128.5663126306188
 11
87.88404131917483
 21
128.5663126306188
 72
     1
 10
87.88404131917483
 20
128.5663126306188
 11
87.54538843297476
 21
130.5136528536563
 97
        0
 75
     0
 76
     1
 98
        0
  0
LWPOLYLINE
  5
46CD
330
4767
100
AcDbEntity
  8
Layer 1
 62
     7
370
     0
100
AcDbPolyline
 90
        4
 70
     0
 43
0.0
 10
87.54538843297476
 20
65.87057018752543
 10
87.24893796646901
 20
67.77570799086858
 10
87.88404131917483
 20
67.77570799086858
 10
87.54538843297476
 20
65.87057018752543
  0
HATCH
  5
46CE
330
4767
100
AcDbEntity
  8
Layer 1
 62
     7
100
AcDbHatch
 10
0.0
 20
0.0
 30
0.0
210
0.0
220
0.0
230
1.0
  2
SOLID
 70
     1
 71
     0
 91
        1
 92
        1
 93
        3
 72
     1
 10
87.54538843297476
 20
65.87057018752543
 11
87.24893796646901
 21
67.77570799086858
 72
     1
 10
87.24893796646901
 20
67.77570799086858
 11
87.88404131917483
 21
67.77570799086858
 72
     1
 10
87.88404131917483
 20
67.77570799086858
 11
87.54538843297476
 21
65.87057018752543
 97
        0
 75
     0
 76
     1
 98
        0
  0
LWPOLYLINE
  5
46CF
330
4767
100
AcDbEntity
  8
Layer 1
 62
     7
370
    13
100
AcDbPolyline
 90
        2
 70
     0
 43
0.0
 10
82.08439532453096
 20
132.1223401904937
 10
82.08439532453096
 20
64.21968043099369
  0
LWPOLYLINE
  5
46D0
330
4767
100
AcDbEntity
  8
Layer 1
 62
     7
370
    13
100
AcDbPolyline
 90
        2
 70
     0
 43
0.0
 10
100.3299655239626
 20
62.31454262765051
 10
81.23759085425659
 20
62.31454262765051
  0
LWPOLYLINE
  5
46D1
330
4767
100
AcDbEntity
  8
Layer 1
 62
     7
370
    13
100
AcDbPolyline
 90
        2
 70
     0
 43
0.0
 10
105.6640068637749
 20
134.0696804135312
 10
81.23759085425659
 20
134.0696804135312
  0
LWPOLYLINE
  5
46D2
330
4767
100
AcDbEntity
  8
Layer 1
 62
     7
370
    13
100
AcDbPolyline
 90
        6
 70
     0
 43
0.0
 10
85.97907577060594
 20
100.8379448532627
 10
86.44468042543742
 20
101.3037217628685
 10
86.91028508026894
 20
101.3037217628685
 10
87.33368731540615
 20
100.8379448532627
 10
87.33368731540615
 20
99.94911021806828
 10
86.91028508026894
 20
99.48333330846253
  0
LWPOLYLINE
  5
46D3
330
4767
100
AcDbEntity
  8
Layer 1
 62
     7
370
    13
100
AcDbPolyline
 90
        7
 70
     0
 43
0.0
 10
85.09006888063721
 20
99.48333330846253
 10
84.62429197103141
 20
99.94911021806828
 10
84.62429197103141
 20
100.8379448532627
 10
85.09006888063721
 20
101.3037217628685
 10
85.51329886100015
 20
101.3037217628685
 10
85.97907577060594
 20
100.8379448532627
 10
85.97907577060594
 20
100.4145426181255
  0
LWPOLYLINE
  5
46D4
330
4767
100
AcDbEntity
  8
Layer 1
 62
     7
370
    13
100
AcDbPolyline
 90
        3
 70
     0
 43
0.0
 10
84.62429197103141
 20
96.77411021886204
 10
84.62429197103141
 20
98.59449867326805
 10
87.33368731540615
 20
97.19716794445073
  0
LWPOLYLINE
  5
46D5
330
4767
100
AcDbEntity
  8
Layer 1
 62
     7
370
    13
100
AcDbPolyline
 90
        4
 70
     0
 43
0.0
 10
87.33368731540615
 20
95.37712399959323
 10
84.62429197103141
 20
95.37712399959323
 10
86.44468042543742
 20
94.02216794524449
 10
86.44468042543742
 20
95.84255639965048
  0
LWPOLYLINE
  5
46D6
330
4767
100
AcDbEntity
  8
Layer 1
 62
     7
370
     0
100
AcDbPolyline
 90
        4
 70
     0
 43
0.0
 10
82.08439532453096
 20
134.0696804135312
 10
81.74574243833093
 20
132.1223401904937
 10
82.38067353626247
 20
132.1223401904937
 10
82.08439532453096
 20
134.0696804135312
  0
HATCH
  5
46D7
330
4767
100
AcDbEntity
  8
Layer 1
 62
     7
100
AcDbHatch
 10
0.0
 20
0.0
 30
0.0
210
0.0
220
0.0
230
1.0
  2
SOLID
 70
     1
 71
     0
 91
        1
 92
        1
 93
        3
 72
     1
 10
82.08439532453096
 20
134.0696804135312
 11
81.74574243833093
 21
132.1223401904937
 72
     1
 10
81.74574243833093
 20
132.1223401904937
 11
82.38067353626247
 21
132.1223401904937
 72
     1
 10
82.38067353626247
 20
132.1223401904937
 11
82.08439532453096
 21
134.0696804135312
 97
        0
 75
     0
 76
     1
 98
        0
  0
LWPOLYLINE
  5
46D8
330
4767
100
AcDbEntity
  8
Layer 1
 62
     7
370
     0
100
AcDbPolyline
 90
        4
 70
     0
 43
0.0
 10
82.08439532453096
 20
62.31454262765051
 10
81.74574243833093
 20
64.21968043099369
 10
82.38067353626247
 20
64.21968043099369
 10
82.08439532453096
 20
62.31454262765051
  0
HATCH
  5
46D9
330
4767
100
AcDbEntity
  8
Layer 1
 62
     7
100
AcDbHatch
 10
0.0
 20
0.0
 30
0.0
210
0.0
220
0.0
230
1.0
  2
SOLID
 70
     1
 71
     0
 91
        1
 92
        1
 93
        3
 72
     1
 10
82.08439532453096
 20
62.31454262765051
 11
81.74574243833093
 21
64.21968043099369
 72
     1
 10
81.74574243833093
 20
64.21968043099369
 11
82.38067353626247
 21
64.21968043099369
 72
     1
 10
82.38067353626247
 20
64.21968043099369
 11
82.08439532453096
 21
62.31454262765051
 97
        0
 75
     0
 76
     1
 98
        0
  0
LWPOLYLINE
  5
46DA
330
4767
100
AcDbEntity
  8
Layer 1
 62
     7
370
    13
100
AcDbPolyline
 90
        2
 70
     0
 43
0.0
 10
133.984931064594
 20
112.9875908463191
 10
135.2973401897
 20
112.9875908463191
  0
LWPOLYLINE
  5
46DB
330
4767
100
AcDbEntity
  8
Layer 1
 62
     7
370
    13
100
AcDbPolyline
 90
        2
 70
     0
 43
0.0
 10
133.1382988490939
 20
112.9875908463191
 10
133.5617010842311
 20
112.9875908463191
  0
LWPOLYLINE
  5
46DC
330
4767
100
AcDbEntity
  8
Layer 1
 62
     7
370
    13
100
AcDbPolyline
 90
        2
 70
     0
 43
0.0
 10
130.5136528536563
 20
112.9875908463191
 10
132.7150688687309
 20
112.9875908463191
  0
LWPOLYLINE
  5
46DD
330
4767
100
AcDbEntity
  8
Layer 1
 62
     7
370
    13
100
AcDbPolyline
 90
        2
 70
     0
 43
0.0
 10
129.6670206381562
 20
112.9875908463191
 10
130.0902506185191
 20
112.9875908463191
  0
LWPOLYLINE
  5
46DE
330
4767
100
AcDbEntity
  8
Layer 1
 62
     7
370
    13
100
AcDbPolyline
 90
        2
 70
     0
 43
0.0
 10
127.0423746427186
 20
112.9875908463191
 10
129.2436184030189
 20
112.9875908463191
  0
LWPOLYLINE
  5
46DF
330
4767
100
AcDbEntity
  8
Layer 1
 62
     7
370
    13
100
AcDbPolyline
 90
        2
 70
     0
 43
0.0
 10
126.1957424272184
 20
112.9875908463191
 10
126.6189724075813
 20
112.9875908463191
  0
LWPOLYLINE
  5
46E0
330
4767
100
AcDbEntity
  8
Layer 1
 62
     7
370
    13
100
AcDbPolyline
 90
        2
 70
     0
 43
0.0
 10
123.5709241770065
 20
112.9875908463191
 10
125.7723401920812
 20
112.9875908463191
  0
LWPOLYLINE
  5
46E1
330
4767
100
AcDbEntity
  8
Layer 1
 62
     7
370
    13
100
AcDbPolyline
 90
        2
 70
     0
 43
0.0
 10
122.7242919615064
 20
112.9875908463191
 10
123.1476941966436
 20
112.9875908463191
  0
LWPOLYLINE
  5
46E2
330
4767
100
AcDbEntity
  8
Layer 1
 62
     7
370
    13
100
AcDbPolyline
 90
        2
 70
     0
 43
0.0
 10
120.0996459660688
 20
112.9875908463191
 10
122.3010619811435
 20
112.9875908463191
  0
LWPOLYLINE
  5
46E3
330
4767
100
AcDbEntity
  8
Layer 1
 62
     7
370
    13
100
AcDbPolyline
 90
        2
 70
     0
 43
0.0
 10
119.2530137505687
 20
112.9875908463191
 10
119.6764159857059
 20
112.9875908463191
  0
LWPOLYLINE
  5
46E4
330
4767
100
AcDbEntity
  8
Layer 1
 62
     7
370
    13
100
AcDbPolyline
 90
        2
 70
     0
 43
0.0
 10
116.6283677551311
 20
112.9875908463191
 10
118.8296115154315
 20
112.9875908463191
  0
LWPOLYLINE
  5
46E5
330
4767
100
AcDbEntity
  8
Layer 1
 62
     7
370
    13
100
AcDbPolyline
 90
        2
 70
     0
 43
0.0
 10
115.7817355396309
 20
112.9875908463191
 10
116.2049655199939
 20
112.9875908463191
  0
LWPOLYLINE
  5
46E6
330
4767
100
AcDbEntity
  8
Layer 1
 62
     7
370
    13
100
AcDbPolyline
 90
        2
 70
     0
 43
0.0
 10
114.0459241793878
 20
112.9875908463191
 10
115.3583333044937
 20
112.9875908463191
  0
LWPOLYLINE
  5
46E7
330
4767
100
AcDbEntity
  8
Layer 1
 62
     7
370
    13
100
AcDbPolyline
 90
        9
 70
     0
 43
0.0
 10
81.40691729735662
 20
99.61045733186821
 10
81.87269420696237
 20
100.0335150574569
 10
81.87269420696237
 20
100.9650688766684
 10
81.40691729735662
 20
101.4305012767257
 10
80.47570798769358
 20
101.4305012767257
 10
80.05230575255636
 20
100.9650688766684
 10
80.05230575255636
 20
99.61045733186821
 10
79.12092418811908
 20
99.61045733186821
 10
79.12092418811908
 20
101.4305012767257
  0
LWPOLYLINE
  5
46E8
330
4767
100
AcDbEntity
  8
Layer 1
 62
     7
370
    13
100
AcDbPolyline
 90
       10
 70
     0
 43
0.0
 10
79.58670109772484
 20
96.85851505825066
 10
79.12092418811908
 20
97.32429196785645
 10
79.12092418811908
 20
98.21347111259944
 10
79.58670109772484
 20
98.67890351265669
 10
80.05230575255636
 20
98.67890351265669
 10
80.47570798769358
 20
98.21347111259944
 10
80.47570798769358
 20
97.32429196785645
 10
80.94131264252508
 20
96.85851505825066
 10
81.87269420696237
 20
96.85851505825066
 10
81.87269420696237
 20
98.67890351265669
  0
LWPOLYLINE
  5
46E9
330
4767
100
AcDbEntity
  8
Layer 1
 62
     7
370
    13
100
AcDbPolyline
 90
        9
 70
     0
 43
0.0
 10
81.40691729735662
 20
94.14929196865015
 10
81.87269420696237
 20
94.57269420378741
 10
81.87269420696237
 20
95.50390351345042
 10
81.40691729735662
 20
95.96968042305617
 10
80.47570798769358
 20
95.96968042305617
 10
80.05230575255636
 20
95.50390351345042
 10
80.05230575255636
 20
94.14929196865015
 10
79.12092418811908
 20
94.14929196865015
 10
79.12092418811908
 20
95.96968042305617
  0
LWPOLYLINE
  5
46EA
330
4767
100
AcDbEntity
  8
Layer 1
 62
     7
370
    20
100
AcDbPolyline
 90
       41
 70
     0
 43
0.0
 10
132.9689724059939
 20
112.9875908463191
 10
132.884395311831
 20
114.299999971425
 10
132.5879448453252
 20
115.5276597475938
 10
132.079965516025
 20
116.712944849294
 10
131.4026597436249
 20
117.8136528568313
 10
130.5984022025934
 20
118.7874090957371
 10
129.6246459636876
 20
119.6340413112373
 10
128.5239379561502
 20
120.3113470836374
 10
127.33865285445
 20
120.8193264129375
 10
126.0686184038127
 20
121.115604624669
 10
124.7985839531753
 20
121.2003539736062
 10
123.4863470828437
 20
121.115604624669
 10
122.2586873066749
 20
120.8193264129375
 10
121.0734022049747
 20
120.3113470836374
 10
119.9726941974374
 20
119.6340413112373
 10
118.9989379585315
 20
118.7874090957371
 10
118.1523057430313
 20
117.8136528568313
 10
117.4749999706312
 20
116.712944849294
 10
117.0093953157997
 20
115.5276597475938
 10
116.6707424295997
 20
114.299999971425
 10
116.5859930806625
 20
112.9875908463191
 10
116.6707424295997
 20
111.717728650456
 10
117.0093953157997
 20
110.4900688742872
 10
117.4749999706312
 20
109.2624090981184
 10
118.1523057430313
 20
108.2040757650497
 10
118.9989379585315
 20
107.1879448516752
 10
119.9726941974374
 20
106.3836873106436
 10
121.0734022049747
 20
105.7063815382435
 10
122.2586873066749
 20
105.1984022089434
 10
123.4863470828437
 20
104.9019517424377
 10
124.7985839531753
 20
104.8173746482748
 10
126.0686184038127
 20
104.9019517424377
 10
127.33865285445
 20
105.1984022089434
 10
128.5239379561502
 20
105.7063815382435
 10
129.6246459636876
 20
106.3836873106436
 10
130.5984022025934
 20
107.1879448516752
 10
131.4026597436249
 20
108.2040757650497
 10
132.079965516025
 20
109.2624090981184
 10
132.5879448453252
 20
110.4900688742872
 10
132.884395311831
 20
111.717728650456
 10
132.9689724059939
 20
112.9875908463191
  0
LWPOLYLINE
  5
46EB
330
4767
100
AcDbEntity
  8
Layer 1
 62
     7
370
    20
100
AcDbPolyline
 90
       33
 70
     0
 43
0.0
 10
131.0216321829564
 20
112.9875908463191
 10
130.8946804143249
 20
114.2152506224878
 10
130.5560275281249
 20
115.4007079789623
 10
129.9632988498876
 20
116.4590413120311
 10
129.2014159833245
 20
117.3902506216941
 10
128.2276597444188
 20
118.1946804174999
 10
127.16932641135
 20
118.7450344212686
 10
125.9840413096498
 20
119.1260619819372
 10
124.7985839531753
 20
119.2106390761001
 10
123.5709241770065
 20
119.1260619819372
 10
122.3856390753063
 20
118.7450344212686
 10
121.3273057422376
 20
118.1946804174999
 10
120.3959241778003
 20
117.3902506216941
 10
119.5916666367687
 20
116.4590413120311
 10
119.0413126330001
 20
115.4007079789623
 10
118.7026597468
 20
114.2152506224878
 10
118.5757079781686
 20
112.9875908463191
 10
118.7026597468
 20
111.8023057446189
 10
119.0413126330001
 20
110.6170206429186
 10
119.5916666367687
 20
109.5586873098499
 10
120.3959241778003
 20
108.584931070944
 10
121.3273057422376
 20
107.823048204381
 10
122.3856390753063
 20
107.2726942006124
 10
123.5709241770065
 20
106.8916666399437
 10
124.7985839531753
 20
106.7647148713123
 10
125.9840413096498
 20
106.8916666399437
 10
127.16932641135
 20
107.2726942006124
 10
128.2276597444188
 20
107.823048204381
 10
129.2014159833245
 20
108.584931070944
 10
129.9632988498876
 20
109.5586873098499
 10
130.5560275281249
 20
110.6170206429186
 10
130.8946804143249
 20
111.8023057446189
 10
131.0216321829564
 20
112.9875908463191
  0
LWPOLYLINE
  5
46EC
330
4767
100
AcDbEntity
  8
Layer 1
 62
     7
370
    20
100
AcDbPolyline
 90
       37
 70
     0
 43
0.0
 10
132.5879448453252
 20
112.9875908463191
 10
132.4609930766938
 20
114.3423746458936
 10
132.1223401904937
 20
115.6546115162252
 10
131.5296115122565
 20
116.882271292394
 10
130.7677286456935
 20
118.0253539743999
 10
129.7939724067876
 20
118.9567355388372
 10
128.6932643992503
 20
119.7609930798688
 10
127.4656046230815
 20
120.3113470836374
 10
126.1533677527498
 20
120.6923746443061
 10
124.7985839531753
 20
120.7769517384689
 10
123.4439724083751
 20
120.6923746443061
 10
122.1317355380434
 20
120.3113470836374
 10
120.9040757618746
 20
119.7609930798688
 10
119.7609930798688
 20
118.9567355388372
 10
118.8296115154315
 20
118.0253539743999
 10
118.0253539743999
 20
116.882271292394
 10
117.4749999706312
 20
115.6546115162252
 10
117.1363470844312
 20
114.3423746458936
 10
117.0093953157997
 20
112.9875908463191
 10
117.1363470844312
 20
111.6329793015188
 10
117.4749999706312
 20
110.3207424311872
 10
118.0253539743999
 20
109.0930826550184
 10
118.8296115154315
 20
107.9923746474811
 10
119.7609930798688
 20
107.0186184085752
 10
120.9040757618746
 20
106.2567355420122
 10
122.1317355380434
 20
105.6640068637749
 10
123.4439724083751
 20
105.3253539775749
 10
124.7985839531753
 20
105.1984022089434
 10
126.1533677527498
 20
105.3253539775749
 10
127.4656046230815
 20
105.6640068637749
 10
128.6932643992503
 20
106.2567355420122
 10
129.7939724067876
 20
107.0186184085752
 10
130.7677286456935
 20
107.9923746474811
 10
131.5296115122565
 20
109.0930826550184
 10
132.1223401904937
 20
110.3207424311872
 10
132.4609930766938
 20
111.6329793015188
 10
132.5879448453252
 20
112.9875908463191
  0
LWPOLYLINE
  5
46ED
330
4767
100
AcDbEntity
  8
Layer 1
 62
     7
370
    13
100
AcDbPolyline
 90
        2
 70
     0
 43
0.0
 10
188.2562092628318
 20
105.4946804206749
 10
189.5687906427118
 20
105.4946804206749
  0
LWPOLYLINE
  5
46EE
330
4767
100
AcDbEntity
  8
Layer 1
 62
     7
370
    13
100
AcDbPolyline
 90
        2
 70
     0
 43
0.0
 10
187.3673746276373
 20
105.4946804206749
 10
187.8331515372431
 20
105.4946804206749
  0
LWPOLYLINE
  5
46EF
330
4767
100
AcDbEntity
  8
Layer 1
 62
     7
370
    13
100
AcDbPolyline
 90
        2
 70
     0
 43
0.0
 10
184.784931051894
 20
105.4946804206749
 10
186.9439723925001
 20
105.4946804206749
  0
LWPOLYLINE
  5
46F0
330
4767
100
AcDbEntity
  8
Layer 1
 62
     7
370
    13
100
AcDbPolyline
 90
        2
 70
     0
 43
0.0
 10
183.8960964166996
 20
105.4946804206749
 10
184.3615288167567
 20
105.4946804206749
  0
LWPOLYLINE
  5
46F1
330
4767
100
AcDbEntity
  8
Layer 1
 62
     7
370
    13
100
AcDbPolyline
 90
        2
 70
     0
 43
0.0
 10
181.3136528409563
 20
105.4946804206749
 10
183.4726941815624
 20
105.4946804206749
  0
LWPOLYLINE
  5
46F2
330
4767
100
AcDbEntity
  8
Layer 1
 62
     7
370
    13
100
AcDbPolyline
 90
        2
 70
     0
 43
0.0
 10
180.4248182057618
 20
105.4946804206749
 10
180.8902506058191
 20
105.4946804206749
  0
LWPOLYLINE
  5
46F3
330
4767
100
AcDbEntity
  8
Layer 1
 62
     7
370
    13
100
AcDbPolyline
 90
        2
 70
     0
 43
0.0
 10
177.8423746300186
 20
105.4946804206749
 10
180.0014159706245
 20
105.4946804206749
  0
LWPOLYLINE
  5
46F4
330
4767
100
AcDbEntity
  8
Layer 1
 62
     7
370
    13
100
AcDbPolyline
 90
        2
 70
     0
 43
0.0
 10
176.9531954852756
 20
105.4946804206749
 10
177.4189723948813
 20
105.4946804206749
  0
LWPOLYLINE
  5
46F5
330
4767
100
AcDbEntity
  8
Layer 1
 62
     7
370
    13
100
AcDbPolyline
 90
        2
 70
     0
 43
0.0
 10
174.3710964190808
 20
105.4946804206749
 10
176.5301377596869
 20
105.4946804206749
  0
LWPOLYLINE
  5
46F6
330
4767
100
AcDbEntity
  8
Layer 1
 62
     7
370
    13
100
AcDbPolyline
 90
        2
 70
     0
 43
0.0
 10
173.4819172743378
 20
105.4946804206749
 10
173.9476941839436
 20
105.4946804206749
  0
LWPOLYLINE
  5
46F7
330
4767
100
AcDbEntity
  8
Layer 1
 62
     7
370
    13
100
AcDbPolyline
 90
        2
 70
     0
 43
0.0
 10
170.8998182081431
 20
105.4946804206749
 10
173.0585150392006
 20
105.4946804206749
  0
LWPOLYLINE
  5
46F8
330
4767
100
AcDbEntity
  8
Layer 1
 62
     7
370
    13
100
AcDbPolyline
 90
        2
 70
     0
 43
0.0
 10
170.0106390634001
 20
105.4946804206749
 10
170.4764159730059
 20
105.4946804206749
  0
LWPOLYLINE
  5
46F9
330
4767
100
AcDbEntity
  8
Layer 1
 62
     7
370
    13
100
AcDbPolyline
 90
        2
 70
     0
 43
0.0
 10
168.3173746323998
 20
105.4946804206749
 10
169.5872368282629
 20
105.4946804206749
  0
LWPOLYLINE
  5
46FA
330
4767
100
AcDbEntity
  8
Layer 1
 62
     7
370
    20
100
AcDbPolyline
 90
       41
 70
     0
 43
0.0
 10
187.2402506042316
 20
105.4946804206749
 10
187.1555012552945
 20
106.7647148713123
 10
186.859223043563
 20
108.0347493219496
 10
186.3514159690371
 20
109.2200344236498
 10
185.674110196637
 20
110.3207424311872
 10
184.8273057263626
 20
111.2943264153188
 10
183.853721742231
 20
112.1409586308189
 10
182.7530137346936
 20
112.7760619835247
 10
181.5675563782192
 20
113.2840413128248
 10
180.3400688568246
 20
113.5803195245563
 10
179.027831986493
 20
113.7072712931878
 10
177.7576252810814
 20
113.5803195245563
 10
176.4877630852183
 20
113.2840413128248
 10
175.3023057287439
 20
112.7760619835247
 10
174.2015977212065
 20
112.1409586308189
 10
173.2280137370748
 20
111.2943264153188
 10
172.4235839412691
 20
110.3207424311872
 10
171.746278168869
 20
109.2200344236498
 10
171.2384710943432
 20
108.0347493219496
 10
170.9418483730631
 20
106.7647148713123
 10
170.8574435336745
 20
105.4946804206749
 10
170.9418483730631
 20
104.2248182248118
 10
171.2384710943432
 20
102.9546115194002
 10
171.746278168869
 20
101.7694986724743
 10
172.4235839412691
 20
100.6687906649369
 10
173.2280137370748
 20
99.69486217125684
 10
174.2015977212065
 20
98.84840221053096
 10
175.3023057287439
 20
98.17109643813083
 10
176.4877630852183
 20
97.70531952852508
 10
177.7576252810814
 20
97.40904131679357
 10
179.027831986493
 20
97.28191729338789
 10
180.3400688568246
 20
97.40904131679357
 10
181.5675563782192
 20
97.70531952852508
 10
182.7530137346936
 20
98.17109643813083
 10
183.853721742231
 20
98.84840221053096
 10
184.8273057263626
 20
99.69486217125684
 10
185.674110196637
 20
100.6687906649369
 10
186.3514159690371
 20
101.7694986724743
 10
186.859223043563
 20
102.9546115194002
 10
187.1555012552945
 20
104.2248182248118
 10
187.2402506042316
 20
105.4946804206749
  0
LWPOLYLINE
  5
46FB
330
4767
100
AcDbEntity
  8
Layer 1
 62
     7
370
    20
100
AcDbPolyline
 90
       33
 70
     0
 43
0.0
 10
185.2507079614998
 20
105.4946804206749
 10
185.1659586125626
 20
106.7223401968437
 10
184.784931051894
 20
107.8652506240753
 10
184.2347493028995
 20
108.9659586316127
 10
183.4303195070938
 20
109.8973401960499
 10
182.4991101974308
 20
110.6593953173872
 10
181.440776864362
 20
111.2519517408502
 10
180.2553195078876
 20
111.5906046270502
 10
179.027831986493
 20
111.717728650456
 10
177.8423746300186
 20
111.5906046270502
 10
176.6569172735441
 20
111.2519517408502
 10
175.5985839404753
 20
110.6593953173872
 10
174.6249999563437
 20
109.8973401960499
 10
173.8629448350065
 20
108.9659586316127
 10
173.2703884115435
 20
107.8652506240753
 10
172.9317355253434
 20
106.7223401968437
 10
172.8046115019376
 20
105.4946804206749
 10
172.9317355253434
 20
104.2668483897319
 10
173.2703884115435
 20
103.1241102172745
 10
173.8629448350065
 20
102.0234022097372
 10
174.6249999563437
 20
101.0918483905256
 10
175.5985839404753
 20
100.3301377787369
 10
176.6569172735441
 20
99.73723684572542
 10
177.8423746300186
 20
99.39858395952535
 10
179.027831986493
 20
99.27180444566817
 10
180.2553195078876
 20
99.39858395952535
 10
181.440776864362
 20
99.73723684572542
 10
182.4991101974308
 20
100.3301377787369
 10
183.4303195070938
 20
101.0918483905256
 10
184.2347493028995
 20
102.0234022097372
 10
184.784931051894
 20
103.1241102172745
 10
185.1659586125626
 20
104.2668483897319
 10
185.2507079614998
 20
105.4946804206749
  0
LWPOLYLINE
  5
46FC
330
4767
100
AcDbEntity
  8
Layer 1
 62
     7
370
    20
100
AcDbPolyline
 90
       37
 70
     0
 43
0.0
 10
186.8168483690944
 20
105.4946804206749
 10
186.7324435297058
 20
106.8492919654752
 10
186.3514159690371
 20
108.1617010905811
 10
185.8008897104942
 20
109.3893608667499
 10
184.9968044242369
 20
110.4900688742872
 10
184.0652506050253
 20
111.4636528584188
 10
182.9221679230194
 20
112.2257079797561
 10
181.6946804016249
 20
112.818264403219
 10
180.3824435312933
 20
113.1569172894191
 10
179.027831986493
 20
113.2840413128248
 10
177.6728759321443
 20
113.1569172894191
 10
176.3606390618126
 20
112.818264403219
 10
175.1331515404181
 20
112.2257079797561
 10
174.0324435328808
 20
111.4636528584188
 10
173.0585150392006
 20
110.4900688742872
 10
172.2968044274119
 20
109.3893608667499
 10
171.7039034944004
 20
108.1617010905811
 10
171.3652506082004
 20
106.8492919654752
 10
171.2384710943432
 20
105.4946804206749
 10
171.3652506082004
 20
104.1400688758747
 10
171.7039034944004
 20
102.827832005543
 10
172.2968044274119
 20
101.5999999746
 10
173.0585150392006
 20
100.4992919670627
 10
174.0324435328808
 20
99.52570798293109
 10
175.1331515404181
 20
98.72127818712522
 10
176.3606390618126
 20
98.17109643813083
 10
177.6728759321443
 20
97.8324435519308
 10
179.027831986493
 20
97.70531952852508
 10
180.3824435312933
 20
97.8324435519308
 10
181.6946804016249
 20
98.17109643813083
 10
182.9221679230194
 20
98.72127818712522
 10
184.0652506050253
 20
99.52570798293109
 10
184.9968044242369
 20
100.4992919670627
 10
185.8008897104942
 20
101.5999999746
 10
186.3514159690371
 20
102.827832005543
 10
186.7324435297058
 20
104.1400688758747
 10
186.8168483690944
 20
105.4946804206749
  0
LWPOLYLINE
  5
46FD
330
4767
100
AcDbEntity
  8
Layer 1
 62
     7
370
    13
100
AcDbPolyline
 90
        2
 70
     0
 43
0.0
 10
99.35638153983106
 20
55.8801377898494
 10
150.1985839468253
 20
55.8801377898494
  0
LWPOLYLINE
  5
46FE
330
4767
100
AcDbEntity
  8
Layer 1
 62
     7
370
    13
100
AcDbPolyline
 90
        2
 70
     0
 43
0.0
 10
152.1037217501685
 20
98.17109643813083
 10
152.1037217501685
 20
55.03333331957501
  0
LWPOLYLINE
  5
46FF
330
4767
100
AcDbEntity
  8
Layer 1
 62
     7
370
    13
100
AcDbPolyline
 90
        2
 70
     0
 43
0.0
 10
97.45141599126215
 20
98.17109643813083
 10
97.45141599126215
 20
55.03333331957501
  0
LWPOLYLINE
  5
4700
330
4767
100
AcDbEntity
  8
Layer 1
 62
     7
370
     0
100
AcDbPolyline
 90
        4
 70
     0
 43
0.0
 10
99.35638153983106
 20
56.1764160015809
 10
99.35638153983106
 20
55.54148490364934
 10
97.45141599126215
 20
55.8801377898494
 10
99.35638153983106
 20
56.1764160015809
  0
HATCH
  5
4701
330
4767
100
AcDbEntity
  8
Layer 1
 62
     7
100
AcDbHatch
 10
0.0
 20
0.0
 30
0.0
210
0.0
220
0.0
230
1.0
  2
SOLID
 70
     1
 71
     0
 91
        1
 92
        1
 93
        3
 72
     1
 10
99.35638153983106
 20
56.1764160015809
 11
99.35638153983106
 21
55.54148490364934
 72
     1
 10
99.35638153983106
 20
55.54148490364934
 11
97.45141599126215
 21
55.8801377898494
 72
     1
 10
97.45141599126215
 20
55.8801377898494
 11
99.35638153983106
 21
56.1764160015809
 97
        0
 75
     0
 76
     1
 98
        0
  0
LWPOLYLINE
  5
4702
330
4767
100
AcDbEntity
  8
Layer 1
 62
     7
370
     0
100
AcDbPolyline
 90
        4
 70
     0
 43
0.0
 10
150.1985839468253
 20
56.1764160015809
 10
150.1985839468253
 20
55.54148490364934
 10
152.1037217501685
 20
55.8801377898494
 10
150.1985839468253
 20
56.1764160015809
  0
HATCH
  5
4703
330
4767
100
AcDbEntity
  8
Layer 1
 62
     7
100
AcDbHatch
 10
0.0
 20
0.0
 30
0.0
210
0.0
220
0.0
230
1.0
  2
SOLID
 70
     1
 71
     0
 91
        1
 92
        1
 93
        3
 72
     1
 10
150.1985839468253
 20
56.1764160015809
 11
150.1985839468253
 21
55.54148490364934
 72
     1
 10
150.1985839468253
 20
55.54148490364934
 11
152.1037217501685
 21
55.8801377898494
 72
     1
 10
152.1037217501685
 20
55.8801377898494
 11
150.1985839468253
 21
56.1764160015809
 97
        0
 75
     0
 76
     1
 98
        0
  0
LWPOLYLINE
  5
4704
330
4767
100
AcDbEntity
  8
Layer 1
 62
     7
370
    13
100
AcDbPolyline
 90
        2
 70
     0
 43
0.0
 10
158.4113470741124
 20
55.8801377898494
 10
199.6863470637937
 20
55.8801377898494
  0
LWPOLYLINE
  5
4705
330
4767
100
AcDbEntity
  8
Layer 1
 62
     7
370
    13
100
AcDbPolyline
 90
        2
 70
     0
 43
0.0
 10
201.5914848671369
 20
94.4031955059131
 10
201.5914848671369
 20
55.03333331957501
  0
LWPOLYLINE
  5
4706
330
4767
100
AcDbEntity
  8
Layer 1
 62
     7
370
    13
100
AcDbPolyline
 90
        2
 70
     0
 43
0.0
 10
156.5062092707693
 20
94.4031955059131
 10
156.5062092707693
 20
55.03333331957501
  0
LWPOLYLINE
  5
4707
330
4767
100
AcDbEntity
  8
Layer 1
 62
     7
370
    13
100
AcDbPolyline
 90
        9
 70
     0
 43
0.0
 10
127.0847493171871
 20
56.09166665264375
 10
127.5079792975501
 20
56.09166665264375
 10
127.9735839523816
 20
56.51506888778095
 10
127.9735839523816
 20
58.37783201665555
 10
127.5079792975501
 20
58.8008897422442
 10
127.0847493171871
 20
58.8008897422442
 10
126.6189724075813
 20
58.37783201665555
 10
126.6189724075813
 20
56.51506888778095
 10
127.0847493171871
 20
56.09166665264375
  0
LWPOLYLINE
  5
4708
330
4767
100
AcDbEntity
  8
Layer 1
 62
     7
370
    13
100
AcDbPolyline
 90
        9
 70
     0
 43
0.0
 10
124.7985839531753
 20
56.09166665264375
 10
125.2643608627811
 20
56.09166665264375
 10
125.6875908431441
 20
56.51506888778095
 10
125.6875908431441
 20
58.37783201665555
 10
125.2643608627811
 20
58.8008897422442
 10
124.7985839531753
 20
58.8008897422442
 10
124.3329792983438
 20
58.37783201665555
 10
124.3329792983438
 20
56.51506888778095
 10
124.7985839531753
 20
56.09166665264375
  0
LWPOLYLINE
  5
4709
330
4767
100
AcDbEntity
  8
Layer 1
 62
     7
370
    13
100
AcDbPolyline
 90
        4
 70
     0
 43
0.0
 10
122.9783677535436
 20
56.09166665264375
 10
122.9783677535436
 20
58.8008897422442
 10
121.5813815342748
 20
56.98050128783821
 10
123.4015977339065
 20
56.98050128783821
  0
LWPOLYLINE
  5
470A
330
4767
100
AcDbEntity
  8
Layer 1
 62
     7
370
     0
100
AcDbPolyline
 90
        4
 70
     0
 43
0.0
 10
158.4113470741124
 20
56.1764160015809
 10
158.4113470741124
 20
55.54148490364934
 10
156.5062092707693
 20
55.8801377898494
 10
158.4113470741124
 20
56.1764160015809
  0
HATCH
  5
470B
330
4767
100
AcDbEntity
  8
Layer 1
 62
     7
100
AcDbHatch
 10
0.0
 20
0.0
 30
0.0
210
0.0
220
0.0
230
1.0
  2
SOLID
 70
     1
 71
     0
 91
        1
 92
        1
 93
        3
 72
     1
 10
158.4113470741124
 20
56.1764160015809
 11
158.4113470741124
 21
55.54148490364934
 72
     1
 10
158.4113470741124
 20
55.54148490364934
 11
156.5062092707693
 21
55.8801377898494
 72
     1
 10
156.5062092707693
 20
55.8801377898494
 11
158.4113470741124
 21
56.1764160015809
 97
        0
 75
     0
 76
     1
 98
        0
  0
LWPOLYLINE
  5
470C
330
4767
100
AcDbEntity
  8
Layer 1
 62
     7
370
     0
100
AcDbPolyline
 90
        4
 70
     0
 43
0.0
 10
199.6863470637937
 20
56.1764160015809
 10
199.6863470637937
 20
55.54148490364934
 10
201.5914848671369
 20
55.8801377898494
 10
199.6863470637937
 20
56.1764160015809
  0
HATCH
  5
470D
330
4767
100
AcDbEntity
  8
Layer 1
 62
     7
100
AcDbHatch
 10
0.0
 20
0.0
 30
0.0
210
0.0
220
0.0
230
1.0
  2
SOLID
 70
     1
 71
     0
 91
        1
 92
        1
 93
        3
 72
     1
 10
199.6863470637937
 20
56.1764160015809
 11
199.6863470637937
 21
55.54148490364934
 72
     1
 10
199.6863470637937
 20
55.54148490364934
 11
201.5914848671369
 21
55.8801377898494
 72
     1
 10
201.5914848671369
 20
55.8801377898494
 11
199.6863470637937
 21
56.1764160015809
 97
        0
 75
     0
 76
     1
 98
        0
  0
LWPOLYLINE
  5
470E
330
4767
100
AcDbEntity
  8
Layer 1
 62
     7
370
    13
100
AcDbPolyline
 90
        2
 70
     0
 43
0.0
 10
96.22358396031913
 20
50.6305012894257
 10
202.8189723885314
 20
50.6305012894257
  0
LWPOLYLINE
  5
470F
330
4767
100
AcDbEntity
  8
Layer 1
 62
     7
370
    13
100
AcDbPolyline
 90
        2
 70
     0
 43
0.0
 10
204.7241101918745
 20
68.32588973986297
 10
204.7241101918745
 20
49.82641600316839
  0
LWPOLYLINE
  5
4710
330
4767
100
AcDbEntity
  8
Layer 1
 62
     7
370
    13
100
AcDbPolyline
 90
        2
 70
     0
 43
0.0
 10
94.31861841175019
 20
68.32588973986297
 10
94.31861841175019
 20
49.82641600316839
  0
LWPOLYLINE
  5
4711
330
4767
100
AcDbEntity
  8
Layer 1
 62
     7
370
    13
100
AcDbPolyline
 90
        9
 70
     0
 43
0.0
 10
181.5675563782192
 20
56.09166665264375
 10
181.9909586133564
 20
56.09166665264375
 10
182.4567355229622
 20
56.51506888778095
 10
182.4567355229622
 20
58.37783201665555
 10
181.9909586133564
 20
58.8008897422442
 10
181.5675563782192
 20
58.8008897422442
 10
181.102123978162
 20
58.37783201665555
 10
181.102123978162
 20
56.51506888778095
 10
181.5675563782192
 20
56.09166665264375
  0
LWPOLYLINE
  5
4712
330
4767
100
AcDbEntity
  8
Layer 1
 62
     7
370
    13
100
AcDbPolyline
 90
        6
 70
     0
 43
0.0
 10
179.7051377588931
 20
57.44627819744398
 10
180.1705701589504
 20
56.98050128783821
 10
180.1705701589504
 20
56.51506888778095
 10
179.7051377588931
 20
56.09166665264375
 10
178.8159586141502
 20
56.09166665264375
 10
178.3501817045444
 20
56.51506888778095
  0
LWPOLYLINE
  5
4713
330
4767
100
AcDbEntity
  8
Layer 1
 62
     7
370
    13
100
AcDbPolyline
 90
        7
 70
     0
 43
0.0
 10
178.3501817045444
 20
58.37783201665555
 10
178.8159586141502
 20
58.8008897422442
 10
179.7051377588931
 20
58.8008897422442
 10
180.1705701589504
 20
58.37783201665555
 10
180.1705701589504
 20
57.91205510704976
 10
179.7051377588931
 20
57.44627819744398
 10
179.2817355237559
 20
57.44627819744398
  0
LWPOLYLINE
  5
4714
330
4767
100
AcDbEntity
  8
Layer 1
 62
     7
370
    13
100
AcDbPolyline
 90
        6
 70
     0
 43
0.0
 10
176.9955701597442
 20
57.44627819744398
 10
177.4613470693499
 20
56.98050128783821
 10
177.4613470693499
 20
56.51506888778095
 10
176.9955701597442
 20
56.09166665264375
 10
176.0643608500811
 20
56.09166665264375
 10
175.6409586149439
 20
56.51506888778095
  0
LWPOLYLINE
  5
4715
330
4767
100
AcDbEntity
  8
Layer 1
 62
     7
370
    13
100
AcDbPolyline
 90
        7
 70
     0
 43
0.0
 10
175.6409586149439
 20
58.37783201665555
 10
176.0643608500811
 20
58.8008897422442
 10
176.9955701597442
 20
58.8008897422442
 10
177.4613470693499
 20
58.37783201665555
 10
177.4613470693499
 20
57.91205510704976
 10
176.9955701597442
 20
57.44627819744398
 10
176.5301377596869
 20
57.44627819744398
  0
LWPOLYLINE
  5
4716
330
4767
100
AcDbEntity
  8
Layer 1
 62
     7
370
     0
100
AcDbPolyline
 90
        4
 70
     0
 43
0.0
 10
96.22358396031913
 20
50.96949868517429
 10
96.22358396031913
 20
50.33422307769424
 10
94.31861841175019
 20
50.6305012894257
 10
96.22358396031913
 20
50.96949868517429
  0
HATCH
  5
4717
330
4767
100
AcDbEntity
  8
Layer 1
 62
     7
100
AcDbHatch
 10
0.0
 20
0.0
 30
0.0
210
0.0
220
0.0
230
1.0
  2
SOLID
 70
     1
 71
     0
 91
        1
 92
        1
 93
        3
 72
     1
 10
96.22358396031913
 20
50.96949868517429
 11
96.22358396031913
 21
50.33422307769424
 72
     1
 10
96.22358396031913
 20
50.33422307769424
 11
94.31861841175019
 21
50.6305012894257
 72
     1
 10
94.31861841175019
 20
50.6305012894257
 11
96.22358396031913
 21
50.96949868517429
 97
        0
 75
     0
 76
     1
 98
        0
  0
LWPOLYLINE
  5
4718
330
4767
100
AcDbEntity
  8
Layer 1
 62
     7
370
     0
100
AcDbPolyline
 90
        4
 70
     0
 43
0.0
 10
202.8189723885314
 20
50.96949868517429
 10
202.8189723885314
 20
50.33422307769424
 10
204.7241101918745
 20
50.6305012894257
 10
202.8189723885314
 20
50.96949868517429
  0
HATCH
  5
4719
330
4767
100
AcDbEntity
  8
Layer 1
 62
     7
100
AcDbHatch
 10
0.0
 20
0.0
 30
0.0
210
0.0
220
0.0
230
1.0
  2
SOLID
 70
     1
 71
     0
 91
        1
 92
        1
 93
        3
 72
     1
 10
202.8189723885314
 20
50.96949868517429
 11
202.8189723885314
 21
50.33422307769424
 72
     1
 10
202.8189723885314
 20
50.33422307769424
 11
204.7241101918745
 21
50.6305012894257
 72
     1
 10
204.7241101918745
 20
50.6305012894257
 11
202.8189723885314
 21
50.96949868517429
 97
        0
 75
     0
 76
     1
 98
        0
  0
LWPOLYLINE
  5
471A
330
4767
100
AcDbEntity
  8
Layer 1
 62
     7
370
    13
100
AcDbPolyline
 90
        2
 70
     0
 43
0.0
 10
212.3863470606187
 20
67.77570799086858
 10
212.3863470606187
 20
121.0734022049747
  0
LWPOLYLINE
  5
471B
330
4767
100
AcDbEntity
  8
Layer 1
 62
     7
370
    13
100
AcDbPolyline
 90
        2
 70
     0
 43
0.0
 10
179.027831986493
 20
122.9783677535436
 10
213.1907768564246
 20
122.9783677535436
  0
LWPOLYLINE
  5
471C
330
4767
100
AcDbEntity
  8
Layer 1
 62
     7
370
    13
100
AcDbPolyline
 90
        2
 70
     0
 43
0.0
 10
179.027831986493
 20
65.87057018752543
 10
213.1907768564246
 20
65.87057018752543
  0
LWPOLYLINE
  5
471D
330
4767
100
AcDbEntity
  8
Layer 1
 62
     7
370
    13
100
AcDbPolyline
 90
        4
 70
     0
 43
0.0
 10
151.5531954916256
 20
52.19698620656881
 10
151.1301377660369
 20
51.7735839714316
 10
151.1301377660369
 20
51.30815157137435
 10
151.5531954916256
 20
50.84237466176857
  0
LWPOLYLINE
  5
471E
330
4767
100
AcDbEntity
  8
Layer 1
 62
     7
370
    13
100
AcDbPolyline
 90
       13
 70
     0
 43
0.0
 10
151.5531954916256
 20
50.84237466176857
 10
152.4847493108371
 20
50.84237466176857
 10
152.9501817108944
 20
51.30815157137435
 10
152.9501817108944
 20
51.7735839714316
 10
152.4847493108371
 20
52.19698620656881
 10
151.5531954916256
 20
52.19698620656881
 10
151.1301377660369
 20
52.6627631161746
 10
151.1301377660369
 20
53.12819551623184
 10
151.5531954916256
 20
53.59397242583762
 10
152.4847493108371
 20
53.59397242583762
 10
152.9501817108944
 20
53.12819551623184
 10
152.9501817108944
 20
52.6627631161746
 10
152.4847493108371
 20
52.19698620656881
  0
LWPOLYLINE
  5
471F
330
4767
100
AcDbEntity
  8
Layer 1
 62
     7
370
    13
100
AcDbPolyline
 90
        9
 70
     0
 43
0.0
 10
149.3097493116309
 20
50.84237466176857
 10
149.7331515467681
 20
50.84237466176857
 10
150.1985839468253
 20
51.30815157137435
 10
150.1985839468253
 20
53.12819551623184
 10
149.7331515467681
 20
53.59397242583762
 10
149.3097493116309
 20
53.59397242583762
 10
148.8439724020251
 20
53.12819551623184
 10
148.8439724020251
 20
51.30815157137435
 10
149.3097493116309
 20
50.84237466176857
  0
LWPOLYLINE
  5
4720
330
4767
100
AcDbEntity
  8
Layer 1
 62
     7
370
    13
100
AcDbPolyline
 90
        4
 70
     0
 43
0.0
 10
146.5579792927876
 20
52.19698620656881
 10
146.0923746379561
 20
51.7735839714316
 10
146.0923746379561
 20
51.30815157137435
 10
146.5579792927876
 20
50.84237466176857
  0
LWPOLYLINE
  5
4721
330
4767
100
AcDbEntity
  8
Layer 1
 62
     7
370
    13
100
AcDbPolyline
 90
       13
 70
     0
 43
0.0
 10
146.5579792927876
 20
50.84237466176857
 10
147.4893608572249
 20
50.84237466176857
 10
147.9125908375878
 20
51.30815157137435
 10
147.9125908375878
 20
51.7735839714316
 10
147.4893608572249
 20
52.19698620656881
 10
146.5579792927876
 20
52.19698620656881
 10
146.0923746379561
 20
52.6627631161746
 10
146.0923746379561
 20
53.12819551623184
 10
146.5579792927876
 20
53.59397242583762
 10
147.4893608572249
 20
53.59397242583762
 10
147.9125908375878
 20
53.12819551623184
 10
147.9125908375878
 20
52.6627631161746
 10
147.4893608572249
 20
52.19698620656881
  0
LWPOLYLINE
  5
4722
330
4767
100
AcDbEntity
  8
Layer 1
 62
     7
370
     0
100
AcDbPolyline
 90
        4
 70
     0
 43
0.0
 10
212.3863470606187
 20
65.87057018752543
 10
212.6826252723502
 20
67.77570799086858
 10
212.0476941744186
 20
67.77570799086858
 10
212.3863470606187
 20
65.87057018752543
  0
HATCH
  5
4723
330
4767
100
AcDbEntity
  8
Layer 1
 62
     7
100
AcDbHatch
 10
0.0
 20
0.0
 30
0.0
210
0.0
220
0.0
230
1.0
  2
SOLID
 70
     1
 71
     0
 91
        1
 92
        1
 93
        3
 72
     1
 10
212.3863470606187
 20
65.87057018752543
 11
212.6826252723502
 21
67.77570799086858
 72
     1
 10
212.6826252723502
 20
67.77570799086858
 11
212.0476941744186
 21
67.77570799086858
 72
     1
 10
212.0476941744186
 20
67.77570799086858
 11
212.3863470606187
 21
65.87057018752543
 97
        0
 75
     0
 76
     1
 98
        0
  0
LWPOLYLINE
  5
4724
330
4767
100
AcDbEntity
  8
Layer 1
 62
     7
370
     0
100
AcDbPolyline
 90
        4
 70
     0
 43
0.0
 10
212.3863470606187
 20
122.9783677535436
 10
212.6826252723502
 20
121.0734022049747
 10
212.0476941744186
 20
121.0734022049747
 10
212.3863470606187
 20
122.9783677535436
  0
HATCH
  5
4725
330
4767
100
AcDbEntity
  8
Layer 1
 62
     7
100
AcDbHatch
 10
0.0
 20
0.0
 30
0.0
210
0.0
220
0.0
230
1.0
  2
SOLID
 70
     1
 71
     0
 91
        1
 92
        1
 93
        3
 72
     1
 10
212.3863470606187
 20
122.9783677535436
 11
212.6826252723502
 21
121.0734022049747
 72
     1
 10
212.6826252723502
 20
121.0734022049747
 11
212.0476941744186
 21
121.0734022049747
 72
     1
 10
212.0476941744186
 20
121.0734022049747
 11
212.3863470606187
 21
122.9783677535436
 97
        0
 75
     0
 76
     1
 98
        0
  0
LWPOLYLINE
  5
4726
330
4767
100
AcDbEntity
  8
Layer 1
 62
     7
370
    13
100
AcDbPolyline
 90
        9
 70
     0
 43
0.0
 10
143.2984021994184
 20
73.91383461693822
 10
143.5946804111499
 20
73.57518173073815
 10
144.2296115090815
 20
73.53315156581809
 10
145.584395308656
 20
74.76063908721262
 10
145.6265977283503
 20
75.39557018514415
 10
145.3303195166188
 20
75.73422307134423
 10
144.6953884186872
 20
75.77659774581279
 10
143.3406046191127
 20
74.54911022441827
 10
143.2984021994184
 20
73.91383461693822
  0
LWPOLYLINE
  5
4727
330
4767
100
AcDbEntity
  8
Layer 1
 62
     7
370
    13
100
AcDbPolyline
 90
        3
 70
     0
 43
0.0
 10
142.0707424232496
 20
75.26879067128698
 10
144.1450344149186
 20
77.08883461614447
 10
143.4677286425185
 20
77.13120929061303
  0
LWPOLYLINE
  5
4728
330
4767
100
AcDbEntity
  8
Layer 1
 62
     7
370
    13
100
AcDbPolyline
 90
        2
 70
     0
 43
0.0
 10
141.7742919567439
 20
75.60744355748703
 10
142.3670206349811
 20
74.93013778508691
  0
LWPOLYLINE
  5
4729
330
4767
100
AcDbEntity
  8
Layer 1
 62
     7
370
    13
100
AcDbPolyline
 90
        3
 70
     0
 43
0.0
 10
140.8852850667752
 20
76.62340221608721
 10
142.9173746387498
 20
78.44379067049323
 10
142.282271286044
 20
78.48616534496179
  0
LWPOLYLINE
  5
472A
330
4767
100
AcDbEntity
  8
Layer 1
 62
     7
370
    13
100
AcDbPolyline
 90
        2
 70
     0
 43
0.0
 10
140.5890068550437
 20
76.96205510228726
 10
141.1817355332809
 20
76.28474932988715
  0
LWPOLYLINE
  5
472B
330
4767
100
AcDbEntity
  8
Layer 1
 62
     7
370
    13
100
AcDbPolyline
 90
        2
 70
     0
 43
0.0
 10
140.0810275257436
 20
79.58652884295059
 10
139.9540757571122
 20
77.63936087468739
  0
LWPOLYLINE
  5
472C
330
4767
100
AcDbEntity
  8
Layer 1
 62
     7
370
    13
100
AcDbPolyline
 90
        7
 70
     0
 43
0.0
 10
138.7686184006377
 20
78.99397241948761
 10
140.8007079726123
 20
80.81436087389361
 10
141.689714862581
 20
79.79840221529347
 10
141.6473401881125
 20
79.1634711173619
 10
141.3086873019124
 20
78.8668483960819
 10
140.6735839492066
 20
78.90922307055048
 10
139.7847493140121
 20
79.92518172915065
  0
LWPOLYLINE
  5
472D
330
4767
100
AcDbEntity
  8
Layer 1
 62
     7
370
    13
100
AcDbPolyline
 90
        2
 70
     0
 43
0.0
 10
137.9643608596061
 20
81.95744355589953
 10
139.1496459613063
 20
80.6028320110993
  0
LWPOLYLINE
  5
472E
330
4767
100
AcDbEntity
  8
Layer 1
 62
     7
370
    13
100
AcDbPolyline
 90
        4
 70
     0
 43
0.0
 10
136.0170206365687
 20
82.08422306975673
 10
138.048937953769
 20
83.90461152416275
 10
135.8053195190001
 20
83.69308266136838
 10
136.9906046207002
 20
82.33847111656816
  0
LWPOLYLINE
  5
472F
330
4767
100
AcDbEntity
  8
Layer 1
 62
     7
370
    13
100
AcDbPolyline
 90
        2
 70
     0
 43
0.0
 10
134.8317355348684
 20
83.1001817283569
 10
145.1609930735188
 20
71.50088973906922
  0
LWPOLYLINE
  5
4730
330
4767
100
AcDbEntity
  8
Layer 1
 62
     7
370
    13
100
AcDbPolyline
 90
        4
 70
     0
 43
0.0
 10
210.8198621434756
 20
96.09680444646194
 10
211.2856390530814
 20
95.63102753685614
 10
211.7090412882186
 20
95.63102753685614
 10
212.1748181978243
 20
96.09680444646194
  0
LWPOLYLINE
  5
4731
330
4767
100
AcDbEntity
  8
Layer 1
 62
     7
370
    13
100
AcDbPolyline
 90
       13
 70
     0
 43
0.0
 10
212.1748181978243
 20
96.09680444646194
 10
212.1748181978243
 20
96.98563908165638
 10
211.7090412882186
 20
97.45141599126215
 10
211.2856390530814
 20
97.45141599126215
 10
210.8198621434756
 20
96.98563908165638
 10
210.8198621434756
 20
96.09680444646194
 10
210.3544297434183
 20
95.63102753685614
 10
209.8886528338125
 20
95.63102753685614
 10
209.4652505986754
 20
96.09680444646194
 10
209.4652505986754
 20
96.98563908165638
 10
209.8886528338125
 20
97.45141599126215
 10
210.3544297434183
 20
97.45141599126215
 10
210.8198621434756
 20
96.98563908165638
  0
LWPOLYLINE
  5
4732
330
4767
100
AcDbEntity
  8
Layer 1
 62
     7
370
    13
100
AcDbPolyline
 90
        3
 70
     0
 43
0.0
 10
212.1748181978243
 20
94.27641599205593
 10
209.4652505986754
 20
94.27641599205593
 10
209.8886528338125
 20
93.81063908245012
  0
LWPOLYLINE
  5
4733
330
4767
100
AcDbEntity
  8
Layer 1
 62
     7
370
    13
100
AcDbPolyline
 90
        2
 70
     0
 43
0.0
 10
212.1748181978243
 20
93.81063908245012
 10
212.1748181978243
 20
94.6998182271931
  0
LWPOLYLINE
  5
4734
330
4767
100
AcDbEntity
  8
Layer 1
 62
     7
370
    13
100
AcDbPolyline
 90
        4
 70
     0
 43
0.0
 10
212.1748181978243
 20
92.45602753764988
 10
209.4652505986754
 20
92.45602753764988
 10
211.2856390530814
 20
91.05904131838107
 10
211.2856390530814
 20
92.87942977278708
  0
LWPOLYLINE
  5
4735
330
4767
100
AcDbEntity
  8
Layer 1
 62
     7
370
     0
100
AcDbPolyline
 90
        4
 70
     0
 43
0.0
 10
145.4150688655559
 20
71.7127631114121
 10
144.9069172814816
 20
71.28936087627486
 10
146.4310275241561
 20
70.06152884533185
 10
145.4150688655559
 20
71.7127631114121
  0
HATCH
  5
4736
330
4767
100
AcDbEntity
  8
Layer 1
 62
     7
100
AcDbHatch
 10
0.0
 20
0.0
 30
0.0
210
0.0
220
0.0
230
1.0
  2
SOLID
 70
     1
 71
     0
 91
        1
 92
        1
 93
        3
 72
     1
 10
145.4150688655559
 20
71.7127631114121
 11
144.9069172814816
 21
71.28936087627486
 72
     1
 10
144.9069172814816
 20
71.28936087627486
 11
146.4310275241561
 21
70.06152884533185
 72
     1
 10
146.4310275241561
 20
70.06152884533185
 11
145.4150688655559
 21
71.7127631114121
 97
        0
 75
     0
 76
     1
 98
        0
  0
LWPOLYLINE
  5
4737
330
4767
100
AcDbEntity
  8
Layer 1
 62
     7
370
    13
100
AcDbPolyline
 90
        9
 70
     0
 43
0.0
 10
193.1248182025868
 20
73.91383461693822
 10
193.0400688536497
 20
73.27890351900665
 10
193.6326252771127
 20
72.55922307213798
 10
194.2675563750441
 20
72.47481823274934
 10
194.9872368219129
 20
73.06737465621231
 10
195.0296114963815
 20
73.70230575414386
 10
194.1831515356556
 20
74.76063908721262
 10
194.9028319825243
 20
75.31116534575556
 10
196.0455701549815
 20
73.91383461693822
  0
LWPOLYLINE
  5
4738
330
4767
100
AcDbEntity
  8
Layer 1
 62
     7
370
    13
100
AcDbPolyline
 90
        4
 70
     0
 43
0.0
 10
192.4051377557182
 20
76.24237465541856
 10
191.7698621482381
 20
76.32712400435571
 10
191.3888345875695
 20
76.03050128307571
 10
191.3468044226494
 20
75.39557018514415
  0
LWPOLYLINE
  5
4739
330
4767
100
AcDbEntity
  8
Layer 1
 62
     7
370
    13
100
AcDbPolyline
 90
       13
 70
     0
 43
0.0
 10
191.3468044226494
 20
75.39557018514415
 10
191.8969861716438
 20
74.67588973827547
 10
192.5319172695753
 20
74.59148489888686
 10
192.912944830244
 20
74.88776311061832
 10
192.9553195047126
 20
75.52269420854987
 10
192.4051377557182
 20
76.24237465541856
 10
192.4895425951068
 20
76.8773057533501
 10
192.8281954813068
 20
77.17358396508159
 10
193.4634710887869
 20
77.08883461614447
 10
194.0560275122499
 20
76.3694986788243
 10
193.9712781633127
 20
75.73422307134423
 10
193.6326252771127
 20
75.48031953408131
 10
192.9553195047126
 20
75.52269420854987
  0
LWPOLYLINE
  5
473A
330
4767
100
AcDbEntity
  8
Layer 1
 62
     7
370
    13
100
AcDbPolyline
 90
        2
 70
     0
 43
0.0
 10
190.7115288151693
 20
78.35904132155608
 10
190.499999952375
 20
76.45390351821291
  0
LWPOLYLINE
  5
473B
330
4767
100
AcDbEntity
  8
Layer 1
 62
     7
370
    13
100
AcDbPolyline
 90
        7
 70
     0
 43
0.0
 10
189.3569172703691
 20
77.89326441195028
 10
191.4735839365065
 20
79.58652884295059
 10
192.320388406781
 20
78.52819550988184
 10
192.2780137323124
 20
77.89326441195028
 10
191.8969861716438
 20
77.59698620021881
 10
191.2620550737123
 20
77.68173554915595
 10
190.4152506034378
 20
78.74006888222471
  0
LWPOLYLINE
  5
473C
330
4767
100
AcDbEntity
  8
Layer 1
 62
     7
370
    13
100
AcDbPolyline
 90
        2
 70
     0
 43
0.0
 10
188.679611497969
 20
80.85673554836221
 10
189.8226941799748
 20
79.45974932909341
  0
LWPOLYLINE
  5
473D
330
4767
100
AcDbEntity
  8
Layer 1
 62
     7
370
    13
100
AcDbPolyline
 90
        4
 70
     0
 43
0.0
 10
186.7748182041743
 20
81.06826441115655
 10
188.8914848703118
 20
82.80390351662541
 10
186.6476941807686
 20
82.7194986772368
 10
187.7907768627745
 20
81.2801377834994
  0
LWPOLYLINE
  5
473E
330
4767
100
AcDbEntity
  8
Layer 1
 62
     7
370
    13
100
AcDbPolyline
 90
        2
 70
     0
 43
0.0
 10
185.6317355221684
 20
82.16897241869387
 10
195.0719861708499
 20
70.4001817315319
  0
LWPOLYLINE
  5
473F
330
4767
100
AcDbEntity
  8
Layer 1
 62
     7
370
     0
100
AcDbPolyline
 90
        4
 70
     0
 43
0.0
 10
195.325889708113
 20
70.61205510387477
 10
194.8180826335871
 20
70.23102754320614
 10
196.2574435273245
 20
68.91879067287447
 10
195.325889708113
 20
70.61205510387477
  0
HATCH
  5
4740
330
4767
100
AcDbEntity
  8
Layer 1
 62
     7
100
AcDbHatch
 10
0.0
 20
0.0
 30
0.0
210
0.0
220
0.0
230
1.0
  2
SOLID
 70
     1
 71
     0
 91
        1
 92
        1
 93
        3
 72
     1
 10
195.325889708113
 20
70.61205510387477
 11
194.8180826335871
 21
70.23102754320614
 72
     1
 10
194.8180826335871
 20
70.23102754320614
 11
196.2574435273245
 21
68.91879067287447
 72
     1
 10
196.2574435273245
 20
68.91879067287447
 11
195.325889708113
 21
70.61205510387477
 97
        0
 75
     0
 76
     1
 98
        0
  0
LWPOLYLINE
  5
4741
330
4767
100
AcDbEntity
  8
Layer 1
 62
     7
370
    20
100
AcDbPolyline
 90
        2
 70
     0
 43
0.0
 10
94.31861841175019
 20
179.5780137354874
 10
96.64698619545632
 20
179.5780137354874
  0
LWPOLYLINE
  5
4742
330
4767
100
AcDbEntity
  8
Layer 1
 62
     7
370
    20
100
AcDbPolyline
 90
        2
 70
     0
 43
0.0
 10
204.7241101918745
 20
179.5780137354874
 10
202.3955701533942
 20
179.5780137354874
  0
LWPOLYLINE
  5
4743
330
4767
100
AcDbEntity
  8
Layer 1
 62
     7
370
    13
100
AcDbPolyline
 90
        2
 70
     0
 43
0.0
 10
217.8895425887568
 20
124.6292575100753
 10
217.8895425887568
 20
64.21968043099369
  0
LWPOLYLINE
  5
4744
330
4767
100
AcDbEntity
  8
Layer 1
 62
     7
370
    13
100
AcDbPolyline
 90
        2
 70
     0
 43
0.0
 10
198.7127630796621
 20
62.31454262765051
 10
218.6939723845626
 20
62.31454262765051
  0
LWPOLYLINE
  5
4745
330
4767
100
AcDbEntity
  8
Layer 1
 62
     7
370
    13
100
AcDbPolyline
 90
        2
 70
     0
 43
0.0
 10
194.7757079591185
 20
126.5343953134185
 10
218.6939723845626
 20
126.5343953134185
  0
LWPOLYLINE
  5
4746
330
4767
100
AcDbEntity
  8
Layer 1
 62
     7
370
     0
100
AcDbPolyline
 90
        4
 70
     0
 43
0.0
 10
217.8895425887568
 20
126.5343953134185
 10
217.5508897025567
 20
124.6292575100753
 10
218.1861653100368
 20
124.6292575100753
 10
217.8895425887568
 20
126.5343953134185
  0
HATCH
  5
4747
330
4767
100
AcDbEntity
  8
Layer 1
 62
     7
100
AcDbHatch
 10
0.0
 20
0.0
 30
0.0
210
0.0
220
0.0
230
1.0
  2
SOLID
 70
     1
 71
     0
 91
        1
 92
        1
 93
        3
 72
     1
 10
217.8895425887568
 20
126.5343953134185
 11
217.5508897025567
 21
124.6292575100753
 72
     1
 10
217.5508897025567
 20
124.6292575100753
 11
218.1861653100368
 21
124.6292575100753
 72
     1
 10
218.1861653100368
 20
124.6292575100753
 11
217.8895425887568
 21
126.5343953134185
 97
        0
 75
     0
 76
     1
 98
        0
  0
LWPOLYLINE
  5
4748
330
4767
100
AcDbEntity
  8
Layer 1
 62
     7
370
     0
100
AcDbPolyline
 90
        4
 70
     0
 43
0.0
 10
217.8895425887568
 20
62.31454262765051
 10
217.5508897025567
 20
64.21968043099369
 10
218.1861653100368
 20
64.21968043099369
 10
217.8895425887568
 20
62.31454262765051
  0
HATCH
  5
4749
330
4767
100
AcDbEntity
  8
Layer 1
 62
     7
100
AcDbHatch
 10
0.0
 20
0.0
 30
0.0
210
0.0
220
0.0
230
1.0
  2
SOLID
 70
     1
 71
     0
 91
        1
 92
        1
 93
        3
 72
     1
 10
217.8895425887568
 20
62.31454262765051
 11
217.5508897025567
 21
64.21968043099369
 72
     1
 10
217.5508897025567
 20
64.21968043099369
 11
218.1861653100368
 21
64.21968043099369
 72
     1
 10
218.1861653100368
 20
64.21968043099369
 11
217.8895425887568
 21
62.31454262765051
 97
        0
 75
     0
 76
     1
 98
        0
  0
LWPOLYLINE
  5
474A
330
4767
100
AcDbEntity
  8
Layer 1
 62
     7
370
    13
100
AcDbPolyline
 90
        9
 70
     0
 43
0.0
 10
217.6780137259624
 20
96.90088973271921
 10
217.6780137259624
 20
97.32429196785645
 10
217.2122368163567
 20
97.7900688774622
 10
215.3918483619507
 20
97.7900688774622
 10
214.9264159618934
 20
97.32429196785645
 10
214.9264159618934
 20
96.90088973271921
 10
215.3918483619507
 20
96.43545733266195
 10
217.2122368163567
 20
96.43545733266195
 10
217.6780137259624
 20
96.90088973271921
  0
LWPOLYLINE
  5
474B
330
4767
100
AcDbEntity
  8
Layer 1
 62
     7
370
    13
100
AcDbPolyline
 90
        3
 70
     0
 43
0.0
 10
214.9264159618934
 20
93.6835150590444
 10
214.9264159618934
 20
95.50390351345042
 10
217.6780137259624
 20
94.14929196865015
  0
LWPOLYLINE
  5
474C
330
4767
100
AcDbEntity
  8
Layer 1
 62
     7
370
    13
100
AcDbPolyline
 90
        4
 70
     0
 43
0.0
 10
217.6780137259624
 20
92.32890351424416
 10
214.9264159618934
 20
92.32890351424416
 10
216.7468044162994
 20
90.97429196944391
 10
216.7468044162994
 20
92.79468042384994
  0
LWPOLYLINE
  5
474D
330
4767
100
AcDbEntity
  8
Layer 1
 62
     7
370
    20
100
AcDbPolyline
 90
        2
 70
     0
 43
0.0
 10
194.7757079591185
 20
126.5343953134185
 10
204.7241101918745
 20
116.5436184061939
  0
LWPOLYLINE
  5
474E
330
4767
100
AcDbEntity
  8
Layer 1
 62
     7
370
    20
100
AcDbPolyline
 90
        2
 70
     0
 43
0.0
 10
94.31861841175019
 20
122.7242919615064
 10
105.6640068637749
 20
134.0696804135312
  0
LWPOLYLINE
  5
474F
330
4767
100
AcDbEntity
  8
Layer 1
 62
     7
370
    20
100
AcDbPolyline
 90
        9
 70
     0
 43
0.0
 10
94.31861841175019
 20
68.32588973986297
 10
94.44574243515594
 20
67.14077689293702
 10
94.78439532135599
 20
65.99769421093113
 10
95.33474932512465
 20
64.98173555233096
 10
96.05425751721909
 20
64.0501817331194
 10
96.98563908165638
 20
63.33050128625071
 10
98.04397241472514
 20
62.78031953725632
 10
99.14468042226246
 20
62.39929197658767
 10
100.3299655239626
 20
62.31454262765051
  0
LWPOLYLINE
  5
4750
330
4767
100
AcDbEntity
  8
Layer 1
 62
     7
370
    20
100
AcDbPolyline
 90
        9
 70
     0
 43
0.0
 10
198.7127630796621
 20
62.31454262765051
 10
199.897875926588
 20
62.39929197658767
 10
201.0409586085939
 20
62.78031953725632
 10
202.0569172671941
 20
63.33050128625071
 10
202.9884710864056
 20
64.0501817331194
 10
203.7081515332744
 20
64.98173555233096
 10
204.2583332822689
 20
65.99769421093113
 10
204.6393608429374
 20
67.14077689293702
 10
204.7241101918745
 20
68.32588973986297
  0
LWPOLYLINE
  5
4751
330
4767
100
AcDbEntity
  8
Layer 1
 62
     7
370
    20
100
AcDbPolyline
 90
        3
 70
     0
 43
0.0
 10
202.3955701533942
 20
179.7473401785875
 10
201.8030137299312
 20
179.4932643865503
 10
201.5491101926683
 20
178.9430826375559
  0
LWPOLYLINE
  5
4752
330
4767
100
AcDbEntity
  8
Layer 1
 62
     7
370
    20
100
AcDbPolyline
 90
        2
 70
     0
 43
0.0
 10
155.702123984512
 20
179.7473401785875
 10
204.7241101918745
 20
179.7473401785875
  0
LWPOLYLINE
  5
4753
330
4767
100
AcDbEntity
  8
Layer 1
 62
     7
370
    20
100
AcDbPolyline
 90
        2
 70
     0
 43
0.0
 10
152.9081515459743
 20
179.7473401785875
 10
96.68936086992488
 20
179.7473401785875
  0
LWPOLYLINE
  5
4754
330
4767
100
AcDbEntity
  8
Layer 1
 62
     7
370
    20
100
AcDbPolyline
 90
        3
 70
     0
 43
0.0
 10
156.5062092707693
 20
178.9430826375559
 10
156.2523057335063
 20
179.4932643865503
 10
155.702123984512
 20
179.7473401785875
  0
LWPOLYLINE
  5
4755
330
4767
100
AcDbEntity
  8
Layer 1
 62
     7
370
    20
100
AcDbPolyline
 90
        3
 70
     0
 43
0.0
 10
152.9081515459743
 20
179.7473401785875
 10
152.3576252874314
 20
179.4932643865503
 10
152.1037217501685
 20
178.9430826375559
  0
LWPOLYLINE
  5
4756
330
4767
100
AcDbEntity
  8
Layer 1
 62
     7
370
    20
100
AcDbPolyline
 90
        3
 70
     0
 43
0.0
 10
202.3955701533942
 20
179.5780137354874
 10
201.9301377533369
 20
179.3663126179188
 10
201.718264380994
 20
178.9007079630873
  0
LWPOLYLINE
  5
4757
330
4767
100
AcDbEntity
  8
Layer 1
 62
     7
370
    20
100
AcDbPolyline
 90
        3
 70
     0
 43
0.0
 10
156.3794297569121
 20
178.9007079630873
 10
156.1675563845692
 20
179.3663126179188
 10
155.6597493100434
 20
179.5780137354874
  0
LWPOLYLINE
  5
4758
330
4767
100
AcDbEntity
  8
Layer 1
 62
     7
370
    20
100
AcDbPolyline
 90
        3
 70
     0
 43
0.0
 10
152.9501817108944
 20
179.5780137354874
 10
152.4423746363686
 20
179.3663126179188
 10
152.2305012640257
 20
178.9007079630873
  0
LWPOLYLINE
  5
4759
330
4767
100
AcDbEntity
  8
Layer 1
 62
     7
370
    20
100
AcDbPolyline
 90
        2
 70
     0
 43
0.0
 10
152.9081515459743
 20
179.7473401785875
 10
155.702123984512
 20
179.7473401785875
  0
LWPOLYLINE
  5
475A
330
4767
100
AcDbEntity
  8
Layer 1
 62
     7
370
    20
100
AcDbPolyline
 90
        3
 70
     0
 43
0.0
 10
97.49361841095646
 20
178.9430826375559
 10
97.23971487369354
 20
179.4932643865503
 10
96.68936086992488
 20
179.7473401785875
  0
LWPOLYLINE
  5
475B
330
4767
100
AcDbEntity
  8
Layer 1
 62
     7
370
    20
100
AcDbPolyline
 90
        3
 70
     0
 43
0.0
 10
97.32429196785645
 20
178.9007079630873
 10
97.11259085028785
 20
179.3663126179188
 10
96.64698619545632
 20
179.5780137354874
  0
LWPOLYLINE
  5
475C
330
4767
100
AcDbEntity
  8
Layer 1
 62
     7
370
    13
100
AcDbPolyline
 90
        2
 70
     0
 43
0.0
 10
96.94326440718782
 20
63.33050128625071
 10
100.3299655239626
 20
68.32588973986297
  0
LWPOLYLINE
  5
475D
330
4767
100
AcDbEntity
  8
Layer 1
 62
     7
370
    13
100
AcDbPolyline
 90
        3
 70
     0
 43
0.0
 10
95.88493107411904
 20
61.76436087865614
 10
92.4136528631813
 20
56.68422307610672
 10
79.24804821152481
 20
56.68422307610672
  0
LWPOLYLINE
  5
475E
330
4767
100
AcDbEntity
  8
Layer 1
 62
     7
370
     0
100
AcDbPolyline
 90
        4
 70
     0
 43
0.0
 10
96.94326440718782
 20
63.33050128625071
 10
95.58865286238756
 20
61.93351506698189
 10
96.13900686615622
 20
61.59486218078185
 10
96.94326440718782
 20
63.33050128625071
  0
HATCH
  5
475F
330
4767
100
AcDbEntity
  8
Layer 1
 62
     7
100
AcDbHatch
 10
0.0
 20
0.0
 30
0.0
210
0.0
220
0.0
230
1.0
  2
SOLID
 70
     1
 71
     0
 91
        1
 92
        1
 93
        3
 72
     1
 10
96.94326440718782
 20
63.33050128625071
 11
95.58865286238756
 21
61.93351506698189
 72
     1
 10
95.58865286238756
 20
61.93351506698189
 11
96.13900686615622
 21
61.59486218078185
 72
     1
 10
96.13900686615622
 20
61.59486218078185
 11
96.94326440718782
 21
63.33050128625071
 97
        0
 75
     0
 76
     1
 98
        0
  0
LWPOLYLINE
  5
4760
330
4767
100
AcDbEntity
  8
Layer 1
 62
     7
370
    13
100
AcDbPolyline
 90
        4
 70
     0
 43
0.0
 10
91.7363470907812
 20
56.853721773981
 10
91.7363470907812
 20
59.60531953805006
 10
90.38173554598094
 20
57.78493108364404
 10
92.20195174561272
 20
57.78493108364404
  0
LWPOLYLINE
  5
4761
330
4767
100
AcDbEntity
  8
Layer 1
 62
     7
370
    13
100
AcDbPolyline
 90
        4
 70
     0
 43
0.0
 10
89.02695174640646
 20
56.853721773981
 10
89.02695174640646
 20
59.60531953805006
 10
87.62996552713765
 20
57.78493108364404
 10
89.49272865601223
 20
57.78493108364404
  0
LWPOLYLINE
  5
4762
330
4767
100
AcDbEntity
  8
Layer 1
 62
     7
370
    13
100
AcDbPolyline
 90
        2
 70
     0
 43
0.0
 10
85.38634709236871
 20
58.25070799324983
 10
86.74095863716894
 20
56.853721773981
  0
LWPOLYLINE
  5
4763
330
4767
100
AcDbEntity
  8
Layer 1
 62
     7
370
    13
100
AcDbPolyline
 90
        7
 70
     0
 43
0.0
 10
84.92074243753718
 20
56.853721773981
 10
84.92074243753718
 20
59.60531953805006
 10
86.27535398233742
 20
59.60531953805006
 10
86.74095863716894
 20
59.13954262844428
 10
86.74095863716894
 20
58.71648490285561
 10
86.27535398233742
 20
58.25070799324983
 10
84.92074243753718
 20
58.25070799324983
  0
LWPOLYLINE
  5
4764
330
4767
100
AcDbEntity
  8
Layer 1
 62
     7
370
    13
100
AcDbPolyline
 90
        2
 70
     0
 43
0.0
 10
82.16897241869387
 20
58.25070799324983
 10
83.98936087309989
 20
58.25070799324983
  0
LWPOLYLINE
  5
4765
330
4767
100
AcDbEntity
  8
Layer 1
 62
     7
370
    13
100
AcDbPolyline
 90
       10
 70
     0
 43
0.0
 10
79.45974932909341
 20
59.13954262844428
 10
79.92535398392492
 20
59.60531953805006
 10
80.81436087389361
 20
59.60531953805006
 10
81.27996552872515
 20
59.13954262844428
 10
81.27996552872515
 20
58.71648490285561
 10
80.81436087389361
 20
58.25070799324983
 10
79.92535398392492
 20
58.25070799324983
 10
79.45974932909341
 20
57.78493108364404
 10
79.45974932909341
 20
56.853721773981
 10
81.27996552872515
 20
56.853721773981
  0
ENDBLK
  5
4769
330
4767
100
AcDbEntity
  8
0
100
AcDbBlockEnd
  0
BLOCK
  5
48FB
330
48FA
100
AcDbEntity
  8
0
100
AcDbBlockBegin
  2
*D11
 70
     1
 10
0.0
 20
0.0
 30
0.0
  3
*D11
  1

  0
LINE
  5
48F0
330
48FA
100
AcDbEntity
  8
标注
 62
     0
370
    -2
100
AcDbLine
 10
1113.946171462703
 20
-406.2920088769114
 30
0.0
 11
1113.946171462703
 21
-327.5381892885952
 31
0.0
  0
LINE
  5
48F1
330
48FA
100
AcDbEntity
  8
标注
 62
     0
370
    -2
100
AcDbLine
 10
351.9461714627149
 20
-391.8100279411731
 30
0.0
 11
351.9461714627149
 21
-327.5381892885952
 31
0.0
  0
LINE
  5
48F2
330
48FA
100
AcDbEntity
  8
标注
 62
     0
370
    -2
100
AcDbLine
 10
1105.946171462703
 20
-331.2881892885954
 30
0.0
 11
359.9461714627149
 21
-331.2881892885954
 31
0.0
  0
SOLID
  5
48F3
330
48FA
100
AcDbEntity
  8
标注
 62
     0
100
AcDbTrace
 10
1105.946171462703
 20
-329.954855955262
 30
0.0
 11
1105.946171462703
 21
-332.6215226219286
 31
0.0
 12
1113.946171462703
 22
-331.2881892885954
 32
0.0
 13
1113.946171462703
 23
-331.2881892885954
 33
0.0
  0
SOLID
  5
48F4
330
48FA
100
AcDbEntity
  8
标注
 62
     0
100
AcDbTrace
 10
359.9461714627149
 20
-329.954855955262
 30
0.0
 11
359.9461714627149
 21
-332.6215226219286
 31
0.0
 12
351.9461714627149
 22
-331.2881892885954
 32
0.0
 13
351.9461714627149
 23
-331.2881892885954
 33
0.0
  0
MTEXT
  5
48F5
330
48FA
100
AcDbEntity
  8
标注
 62
     0
100
AcDbMText
 10
755.6434180616265
 20
-319.0344375832747
 30
0.0
 40
16.0
 41
0.0
 71
     5
 72
     1
  1
{\fArial|b0|i0|c0|p34;762 [30]}
 73
     1
 44
1.0
1001
ACAD
1000
MTEXTBEGIN
1070
    73
1070
     1
1070
    44
1040
1.0
1070
    74
1070
     0
1000
MTEXTEND
  0
POINT
  5
48F6
330
48FA
100
AcDbEntity
  8
Defpoints
 62
     0
100
AcDbPoint
 10
1113.946171462703
 20
-406.2920088769114
 30
0.0
  0
POINT
  5
48F7
330
48FA
100
AcDbEntity
  8
Defpoints
 62
     0
100
AcDbPoint
 10
351.9461714627149
 20
-391.8100279411731
 30
0.0
  0
POINT
  5
48F8
330
48FA
100
AcDbEntity
  8
Defpoints
 62
     0
100
AcDbPoint
 10
351.9461714627149
 20
-331.2881892885954
 30
0.0
  0
ENDBLK
  5
48FC
330
48FA
100
AcDbEntity
  8
0
100
AcDbBlockEnd
  0
BLOCK
  5
490A
330
4909
100
AcDbEntity
  8
0
100
AcDbBlockBegin
  2
*D12
 70
     1
 10
0.0
 20
0.0
 30
0.0
  3
*D12
  1

  0
LINE
  5
48FF
330
4909
100
AcDbEntity
  8
标注
 62
     0
370
    -2
100
AcDbLine
 10
348.4461471517603
 20
-400.3892300574623
 30
0.0
 11
287.6296476263921
 21
-400.3892300574623
 31
0.0
  0
LINE
  5
4900
330
4909
100
AcDbEntity
  8
标注
 62
     0
370
    -2
100
AcDbLine
 10
342.1484683525656
 20
-873.3892300574575
 30
0.0
 11
287.6296476263919
 21
-873.3892300574575
 31
0.0
  0
LINE
  5
4901
330
4909
100
AcDbEntity
  8
标注
 62
     0
370
    -2
100
AcDbLine
 10
291.3796476263921
 20
-408.3892300574623
 30
0.0
 11
291.3796476263919
 21
-865.3892300574575
 31
0.0
  0
SOLID
  5
4902
330
4909
100
AcDbEntity
  8
标注
 62
     0
100
AcDbTrace
 10
290.0463142930588
 20
-408.3892300574623
 30
0.0
 11
292.7129809597253
 21
-408.3892300574623
 31
0.0
 12
291.3796476263921
 22
-400.3892300574623
 32
0.0
 13
291.3796476263921
 23
-400.3892300574623
 33
0.0
  0
SOLID
  5
4903
330
4909
100
AcDbEntity
  8
标注
 62
     0
100
AcDbTrace
 10
290.0463142930586
 20
-865.3892300574575
 30
0.0
 11
292.7129809597253
 21
-865.3892300574575
 31
0.0
 12
291.3796476263919
 22
-873.3892300574575
 32
0.0
 13
291.3796476263919
 23
-873.3892300574575
 33
0.0
  0
MTEXT
  5
4904
330
4909
100
AcDbEntity
  8
标注
 62
     0
100
AcDbMText
 10
279.0222124285747
 20
-669.8892300574619
 30
0.0
 40
16.0
 41
0.0
 71
     5
 72
     1
  1
{\fArial|b0|i0|c0|p34;473 [18 5/8]}
 11
0.0
 21
1.0
 31
0.0
 73
     1
 44
1.0
1001
ACAD
1000
MTEXTBEGIN
1070
    73
1070
     1
1070
    44
1040
1.0
1070
    74
1070
     0
1000
MTEXTEND
  0
POINT
  5
4905
330
4909
100
AcDbEntity
  8
Defpoints
 62
     0
100
AcDbPoint
 10
348.4461471517603
 20
-400.3892300574623
 30
0.0
  0
POINT
  5
4906
330
4909
100
AcDbEntity
  8
Defpoints
 62
     0
100
AcDbPoint
 10
342.1484683525656
 20
-873.3892300574575
 30
0.0
  0
POINT
  5
4907
330
4909
100
AcDbEntity
  8
Defpoints
 62
     0
100
AcDbPoint
 10
291.3796476263919
 20
-873.3892300574575
 30
0.0
  0
ENDBLK
  5
490B
330
4909
100
AcDbEntity
  8
0
100
AcDbBlockEnd
  0
BLOCK
  5
4919
330
4918
100
AcDbEntity
  8
0
100
AcDbBlockBegin
  2
*D13
 70
     1
 10
0.0
 20
0.0
 30
0.0
  3
*D13
  1

  0
LINE
  5
490E
330
4918
100
AcDbEntity
  8
标注
 62
     0
370
    -2
100
AcDbLine
 10
1120.296171462705
 20
-406.5646845963913
 30
0.0
 11
1120.296171462705
 21
-294.0381892885953
 31
0.0
  0
LINE
  5
490F
330
4918
100
AcDbEntity
  8
标注
 62
     0
370
    -2
100
AcDbLine
 10
345.5961714627084
 20
-391.5300986854123
 30
0.0
 11
345.5961714627084
 21
-294.0381892885953
 31
0.0
  0
LINE
  5
4910
330
4918
100
AcDbEntity
  8
标注
 62
     0
370
    -2
100
AcDbLine
 10
1112.296171462705
 20
-297.7881892885953
 30
0.0
 11
353.5961714627084
 21
-297.7881892885953
 31
0.0
  0
SOLID
  5
4911
330
4918
100
AcDbEntity
  8
标注
 62
     0
100
AcDbTrace
 10
1112.296171462705
 20
-296.4548559552619
 30
0.0
 11
1112.296171462705
 21
-299.1215226219288
 31
0.0
 12
1120.296171462705
 22
-297.7881892885953
 32
0.0
 13
1120.296171462705
 23
-297.7881892885953
 33
0.0
  0
SOLID
  5
4912
330
4918
100
AcDbEntity
  8
标注
 62
     0
100
AcDbTrace
 10
353.5961714627084
 20
-296.4548559552619
 30
0.0
 11
353.5961714627084
 21
-299.1215226219288
 31
0.0
 12
345.5961714627084
 22
-297.7881892885953
 32
0.0
 13
345.5961714627084
 23
-297.7881892885953
 33
0.0
  0
MTEXT
  5
4913
330
4918
100
AcDbEntity
  8
标注
 62
     0
100
AcDbMText
 10
755.6434180616265
 20
-285.430754090778
 30
0.0
 40
16.0
 41
0.0
 71
     5
 72
     1
  1
{\fArial|b0|i0|c0|p34;774.7 [30 1/2]}
 73
     1
 44
1.0
1001
ACAD
1000
MTEXTBEGIN
1070
    73
1070
     1
1070
    44
1040
1.0
1070
    74
1070
     0
1000
MTEXTEND
  0
POINT
  5
4914
330
4918
100
AcDbEntity
  8
Defpoints
 62
     0
100
AcDbPoint
 10
1120.296171462705
 20
-406.5646845963913
 30
0.0
  0
POINT
  5
4915
330
4918
100
AcDbEntity
  8
Defpoints
 62
     0
100
AcDbPoint
 10
345.5961714627084
 20
-391.5300986854123
 30
0.0
  0
POINT
  5
4916
330
4918
100
AcDbEntity
  8
Defpoints
 62
     0
100
AcDbPoint
 10
345.5961714627084
 20
-297.7881892885953
 30
0.0
  0
ENDBLK
  5
491A
330
4918
100
AcDbEntity
  8
0
100
AcDbBlockEnd
  0
BLOCK
  5
4928
330
4927
100
AcDbEntity
  8
0
100
AcDbBlockBegin
  2
*D14
 70
     1
 10
0.0
 20
0.0
 30
0.0
  3
*D14
  1

  0
LINE
  5
491D
330
4927
100
AcDbEntity
  8
标注
 62
     0
370
    -2
100
AcDbLine
 10
349.4461471517603
 20
-394.0392300574627
 30
0.0
 11
256.6296476263921
 21
-394.0392300574627
 31
0.0
  0
LINE
  5
491E
330
4927
100
AcDbEntity
  8
标注
 62
     0
370
    -2
100
AcDbLine
 10
341.8157005836933
 20
-879.7392300574561
 30
0.0
 11
256.6296476263919
 21
-879.7392300574561
 31
0.0
  0
LINE
  5
491F
330
4927
100
AcDbEntity
  8
标注
 62
     0
370
    -2
100
AcDbLine
 10
260.3796476263921
 20
-402.0392300574627
 30
0.0
 11
260.3796476263919
 21
-871.7392300574561
 31
0.0
  0
SOLID
  5
4920
330
4927
100
AcDbEntity
  8
标注
 62
     0
100
AcDbTrace
 10
259.0463142930587
 20
-402.0392300574627
 30
0.0
 11
261.7129809597254
 21
-402.0392300574627
 31
0.0
 12
260.3796476263921
 22
-394.0392300574627
 32
0.0
 13
260.3796476263921
 23
-394.0392300574627
 33
0.0
  0
SOLID
  5
4921
330
4927
100
AcDbEntity
  8
标注
 62
     0
100
AcDbTrace
 10
259.0463142930586
 20
-871.7392300574561
 30
0.0
 11
261.7129809597253
 21
-871.7392300574561
 31
0.0
 12
260.3796476263919
 22
-879.7392300574561
 32
0.0
 13
260.3796476263919
 23
-879.7392300574561
 33
0.0
  0
MTEXT
  5
4922
330
4927
100
AcDbEntity
  8
标注
 62
     0
100
AcDbMText
 10
248.0222124285747
 20
-669.8892300574619
 30
0.0
 40
16.0
 41
0.0
 71
     5
 72
     1
  1
{\fArial|b0|i0|c0|p34;485.7 [19 1/8]}
 11
0.0
 21
1.0
 31
0.0
 73
     1
 44
1.0
1001
ACAD
1000
MTEXTBEGIN
1070
    73
1070
     1
1070
    44
1040
1.0
1070
    74
1070
     0
1000
MTEXTEND
  0
POINT
  5
4923
330
4927
100
AcDbEntity
  8
Defpoints
 62
     0
100
AcDbPoint
 10
349.4461471517603
 20
-394.0392300574627
 30
0.0
  0
POINT
  5
4924
330
4927
100
AcDbEntity
  8
Defpoints
 62
     0
100
AcDbPoint
 10
341.8157005836933
 20
-879.7392300574561
 30
0.0
  0
POINT
  5
4925
330
4927
100
AcDbEntity
  8
Defpoints
 62
     0
100
AcDbPoint
 10
260.3796476263919
 20
-879.7392300574561
 30
0.0
  0
ENDBLK
  5
4929
330
4927
100
AcDbEntity
  8
0
100
AcDbBlockEnd
  0
BLOCK
  5
4937
330
4936
100
AcDbEntity
  8
0
100
AcDbBlockBegin
  2
*D15
 70
     1
 10
0.0
 20
0.0
 30
0.0
  3
*D15
  1

  0
LINE
  5
492C
330
4936
100
AcDbEntity
  8
标注
 62
     0
370
    -2
100
AcDbLine
 10
1107.596171462701
 20
-407.2920088769117
 30
0.0
 11
1107.596171462701
 21
-358.5381892885953
 31
0.0
  0
LINE
  5
492D
330
4936
100
AcDbEntity
  8
标注
 62
     0
370
    -2
100
AcDbLine
 10
358.2961714627115
 20
-392.2738704510834
 30
0.0
 11
358.2961714627115
 21
-358.5381892885953
 31
0.0
  0
LINE
  5
492E
330
4936
100
AcDbEntity
  8
标注
 62
     0
370
    -2
100
AcDbLine
 10
1099.596171462701
 20
-362.2881892885953
 30
0.0
 11
366.2961714627115
 21
-362.2881892885953
 31
0.0
  0
SOLID
  5
492F
330
4936
100
AcDbEntity
  8
标注
 62
     0
100
AcDbTrace
 10
1099.596171462701
 20
-360.9548559552621
 30
0.0
 11
1099.596171462701
 21
-363.6215226219286
 31
0.0
 12
1107.596171462701
 22
-362.2881892885953
 32
0.0
 13
1107.596171462701
 23
-362.2881892885953
 33
0.0
  0
SOLID
  5
4930
330
4936
100
AcDbEntity
  8
标注
 62
     0
100
AcDbTrace
 10
366.2961714627115
 20
-360.9548559552621
 30
0.0
 11
366.2961714627115
 21
-363.6215226219286
 31
0.0
 12
358.2961714627115
 22
-362.2881892885953
 32
0.0
 13
358.2961714627115
 23
-362.2881892885953
 33
0.0
  0
MTEXT
  5
4931
330
4936
100
AcDbEntity
  8
标注
 62
     0
100
AcDbMText
 10
755.6434180616236
 20
-349.930754090778
 30
0.0
 40
16.0
 41
0.0
 71
     5
 72
     1
  1
{\fArial|b0|i0|c0|p34;749.3 [29 1/2]}
 73
     1
 44
1.0
1001
ACAD
1000
MTEXTBEGIN
1070
    73
1070
     1
1070
    44
1040
1.0
1070
    74
1070
     0
1000
MTEXTEND
  0
POINT
  5
4932
330
4936
100
AcDbEntity
  8
Defpoints
 62
     0
100
AcDbPoint
 10
1107.596171462701
 20
-407.2920088769117
 30
0.0
  0
POINT
  5
4933
330
4936
100
AcDbEntity
  8
Defpoints
 62
     0
100
AcDbPoint
 10
358.2961714627115
 20
-392.2738704510834
 30
0.0
  0
POINT
  5
4934
330
4936
100
AcDbEntity
  8
Defpoints
 62
     0
100
AcDbPoint
 10
358.2961714627115
 20
-362.2881892885953
 30
0.0
  0
ENDBLK
  5
4938
330
4936
100
AcDbEntity
  8
0
100
AcDbBlockEnd
  0
BLOCK
  5
4946
330
4945
100
AcDbEntity
  8
0
100
AcDbBlockBegin
  2
*D16
 70
     1
 10
0.0
 20
0.0
 30
0.0
  3
*D16
  1

  0
LINE
  5
493B
330
4945
100
AcDbEntity
  8
标注
 62
     0
370
    -2
100
AcDbLine
 10
348.9461471517603
 20
-406.739230057462
 30
0.0
 11
315.629647626392
 21
-406.739230057462
 31
0.0
  0
LINE
  5
493C
330
4945
100
AcDbEntity
  8
标注
 62
     0
370
    -2
100
AcDbLine
 10
343.4795394280578
 20
-867.039230057459
 30
0.0
 11
315.629647626392
 21
-867.039230057459
 31
0.0
  0
LINE
  5
493D
330
4945
100
AcDbEntity
  8
标注
 62
     0
370
    -2
100
AcDbLine
 10
319.3796476263921
 20
-414.739230057462
 30
0.0
 11
319.379647626392
 21
-859.039230057459
 31
0.0
  0
SOLID
  5
493E
330
4945
100
AcDbEntity
  8
标注
 62
     0
100
AcDbTrace
 10
318.0463142930587
 20
-414.739230057462
 30
0.0
 11
320.7129809597254
 21
-414.739230057462
 31
0.0
 12
319.3796476263921
 22
-406.739230057462
 32
0.0
 13
319.3796476263921
 23
-406.739230057462
 33
0.0
  0
SOLID
  5
493F
330
4945
100
AcDbEntity
  8
标注
 62
     0
100
AcDbTrace
 10
318.0463142930586
 20
-859.039230057459
 30
0.0
 11
320.7129809597252
 21
-859.039230057459
 31
0.0
 12
319.379647626392
 22
-867.039230057459
 32
0.0
 13
319.379647626392
 23
-867.039230057459
 33
0.0
  0
MTEXT
  5
4940
330
4945
100
AcDbEntity
  8
标注
 62
     0
100
AcDbMText
 10
307.0222124285747
 20
-669.8892300574619
 30
0.0
 40
16.0
 41
0.0
 71
     5
 72
     1
  1
{\fArial|b0|i0|c0|p34;460.3 [18 1/8]}
 11
0.0
 21
1.0
 31
0.0
 73
     1
 44
1.0
1001
ACAD
1000
MTEXTBEGIN
1070
    73
1070
     1
1070
    44
1040
1.0
1070
    74
1070
     0
1000
MTEXTEND
  0
POINT
  5
4941
330
4945
100
AcDbEntity
  8
Defpoints
 62
     0
100
AcDbPoint
 10
348.9461471517603
 20
-406.739230057462
 30
0.0
  0
POINT
  5
4942
330
4945
100
AcDbEntity
  8
Defpoints
 62
     0
100
AcDbPoint
 10
343.4795394280578
 20
-867.039230057459
 30
0.0
  0
POINT
  5
4943
330
4945
100
AcDbEntity
  8
Defpoints
 62
     0
100
AcDbPoint
 10
319.379647626392
 20
-867.039230057459
 30
0.0
  0
ENDBLK
  5
4947
330
4945
100
AcDbEntity
  8
0
100
AcDbBlockEnd
  0
BLOCK
  5
498B
330
498A
100
AcDbEntity
  8
0
100
AcDbBlockBegin
  2
*D17
 70
     1
 10
0.0
 20
0.0
 30
0.0
  3
*D17
  1

  0
POINT
  5
497E
330
498A
100
AcDbEntity
  8
Defpoints
  6
ByBlock
100
AcDbPoint
 10
1113.946171462703
 20
-664.3892300574684
 30
0.0
  0
POINT
  5
497F
330
498A
100
AcDbEntity
  8
Defpoints
  6
ByBlock
100
AcDbPoint
 10
1120.296171462705
 20
-664.3892300574614
 30
0.0
  0
LINE
  5
4980
330
498A
100
AcDbEntity
  8
标注
  6
ByBlock
 62
     0
370
    -2
100
AcDbLine
 10
1113.946171462703
 20
-664.3892300574684
 30
0.0
 11
1113.946171462703
 21
-737.7694982358788
 31
0.0
  0
LINE
  5
4981
330
498A
100
AcDbEntity
  8
标注
  6
ByBlock
 62
     0
370
    -2
100
AcDbLine
 10
1120.296171462705
 20
-664.3892300574614
 30
0.0
 11
1120.296171462705
 21
-737.7694982358788
 31
0.0
  0
LINE
  5
4982
330
498A
100
AcDbEntity
  8
标注
  6
ByBlock
 62
     0
370
    -2
100
AcDbLine
 10
1105.946171462703
 20
-734.0194982358788
 30
0.0
 11
1097.946171462703
 21
-734.0194982358788
 31
0.0
  0
LINE
  5
4983
330
498A
100
AcDbEntity
  8
标注
  6
ByBlock
 62
     0
370
    -2
100
AcDbLine
 10
1211.379942961225
 20
-734.0194982358788
 30
0.0
 11
1128.296171462705
 21
-734.0194982358788
 31
0.0
  0
SOLID
  5
4984
330
498A
100
AcDbEntity
  8
标注
  6
ByBlock
 62
     0
100
AcDbTrace
 10
1113.946171462703
 20
-734.0194982358788
 30
0.0
 11
1105.946171462703
 21
-735.3528315692123
 31
0.0
 12
1105.946171462703
 22
-732.6861649025452
 32
0.0
 13
1105.946171462703
 23
-732.6861649025452
 33
0.0
  0
SOLID
  5
4985
330
498A
100
AcDbEntity
  8
标注
  6
ByBlock
 62
     0
100
AcDbTrace
 10
1120.296171462705
 20
-734.0194982358788
 30
0.0
 11
1128.296171462705
 21
-735.3528315692123
 31
0.0
 12
1128.296171462705
 22
-732.6861649025452
 32
0.0
 13
1128.296171462705
 23
-732.6861649025452
 33
0.0
  0
LINE
  5
4986
330
498A
100
AcDbEntity
  8
标注
  6
ByBlock
 62
     0
370
    -2
100
AcDbLine
 10
1113.946171462703
 20
-734.0194982358788
 30
0.0
 11
1120.296171462705
 21
-734.0194982358788
 31
0.0
  0
LINE
  5
4987
330
498A
100
AcDbEntity
  8
标注
  6
ByBlock
 62
     0
370
    -2
100
AcDbLine
 10
1113.946171462703
 20
-664.3892300574684
 30
0.0
 11
1113.946171462703
 21
-664.3892300574684
 31
0.0
  0
MTEXT
  5
4988
330
498A
100
AcDbEntity
  8
标注
  6
ByBlock
 62
     0
100
AcDbMText
 10
1169.71827856832
 20
-721.5256373900398
 30
0.0
 40
16.0
 41
0.0
 71
     5
 72
     1
  1
\A0;{\fArial|b0|i0|c0|p34;6.4 [1/4]}
 73
     1
 44
1.0
1001
ACAD
1000
MTEXTBEGIN
1070
    73
1070
     1
1070
    44
1040
1.0
1070
    74
1070
     0
1000
MTEXTEND
  0
ENDBLK
  5
498C
330
498A
100
AcDbEntity
  8
0
100
AcDbBlockEnd
  0
BLOCK
  5
499B
330
499A
100
AcDbEntity
  8
0
100
AcDbBlockBegin
  2
*D18
 70
     1
 10
0.0
 20
0.0
 30
0.0
  3
*D18
  1

  0
POINT
  5
498E
330
499A
100
AcDbEntity
  8
Defpoints
  6
ByBlock
100
AcDbPoint
 10
1107.596171462701
 20
-664.3892300574614
 30
0.0
  0
POINT
  5
498F
330
499A
100
AcDbEntity
  8
Defpoints
  6
ByBlock
100
AcDbPoint
 10
1113.946171462703
 20
-664.3892300574684
 30
0.0
  0
LINE
  5
4990
330
499A
100
AcDbEntity
  8
标注
  6
ByBlock
 62
     0
370
    -2
100
AcDbLine
 10
1107.596171462701
 20
-664.3892300574614
 30
0.0
 11
1107.596171462701
 21
-700.8693680494216
 31
0.0
  0
LINE
  5
4991
330
499A
100
AcDbEntity
  8
标注
  6
ByBlock
 62
     0
370
    -2
100
AcDbLine
 10
1113.946171462703
 20
-664.3892300574684
 30
0.0
 11
1113.946171462703
 21
-700.8693680494216
 31
0.0
  0
LINE
  5
4992
330
499A
100
AcDbEntity
  8
标注
  6
ByBlock
 62
     0
370
    -2
100
AcDbLine
 10
1099.596171462701
 20
-697.1193680494216
 30
0.0
 11
1091.596171462701
 21
-697.1193680494216
 31
0.0
  0
LINE
  5
4993
330
499A
100
AcDbEntity
  8
标注
  6
ByBlock
 62
     0
370
    -2
100
AcDbLine
 10
1219.682472253178
 20
-697.1193680494216
 30
0.0
 11
1121.946171462703
 21
-697.1193680494216
 31
0.0
  0
SOLID
  5
4994
330
499A
100
AcDbEntity
  8
标注
  6
ByBlock
 62
     0
100
AcDbTrace
 10
1107.596171462701
 20
-697.1193680494216
 30
0.0
 11
1099.596171462701
 21
-698.4527013827552
 31
0.0
 12
1099.596171462701
 22
-695.786034716088
 32
0.0
 13
1099.596171462701
 23
-695.786034716088
 33
0.0
  0
SOLID
  5
4995
330
499A
100
AcDbEntity
  8
标注
  6
ByBlock
 62
     0
100
AcDbTrace
 10
1113.946171462703
 20
-697.1193680494216
 30
0.0
 11
1121.946171462703
 21
-698.4527013827552
 31
0.0
 12
1121.946171462703
 22
-695.786034716088
 32
0.0
 13
1121.946171462703
 23
-695.786034716088
 33
0.0
  0
LINE
  5
4996
330
499A
100
AcDbEntity
  8
标注
  6
ByBlock
 62
     0
370
    -2
100
AcDbLine
 10
1107.596171462701
 20
-697.1193680494216
 30
0.0
 11
1113.946171462703
 21
-697.1193680494216
 31
0.0
  0
LINE
  5
4997
330
499A
100
AcDbEntity
  8
标注
  6
ByBlock
 62
     0
370
    -2
100
AcDbLine
 10
1107.596171462701
 20
-664.3892300574614
 30
0.0
 11
1107.596171462701
 21
-664.3892300574614
 31
0.0
  0
MTEXT
  5
4998
330
499A
100
AcDbEntity
  8
标注
  6
ByBlock
 62
     0
100
AcDbMText
 10
1178.020807860272
 20
-684.6255072035826
 30
0.0
 40
16.0
 41
0.0
 71
     5
 72
     1
  1
\A0;{\fArial|b0|i0|c0|p34;6.4 [1/4]}
 73
     1
 44
1.0
1001
ACAD
1000
MTEXTBEGIN
1070
    73
1070
     1
1070
    44
1040
1.0
1070
    74
1070
     0
1000
MTEXTEND
  0
ENDBLK
  5
499C
330
499A
100
AcDbEntity
  8
0
100
AcDbBlockEnd
  0
BLOCK
  5
4AEF
330
4AEE
100
AcDbEntity
  8
0
100
AcDbBlockBegin
  2
02
 70
     0
 10
0.0
 20
0.0
 30
0.0
  3
02
  1

  0
ARC
  5
4ADC
330
4AEE
100
AcDbEntity
  8
0
  6
Continuous
 62
     6
100
AcDbCircle
 10
15656.44145656868
 20
-35400.28053646436
 30
0.0
 40
44.0
100
AcDbArc
 50
270.0
 51
0.0
  0
LINE
  5
4ADD
330
4AEE
100
AcDbEntity
  8
0
  6
Continuous
 62
     6
100
AcDbLine
 10
15656.44145656868
 20
-35444.28053646436
 30
0.0
 11
14936.44145656868
 21
-35444.28053646436
 31
0.0
  0
ARC
  5
4ADE
330
4AEE
100
AcDbEntity
  8
0
  6
Continuous
 62
     6
100
AcDbCircle
 10
14936.44145656868
 20
-35400.28053646436
 30
0.0
 40
44.0
100
AcDbArc
 50
180.0
 51
270.0
  0
LINE
  5
4ADF
330
4AEE
100
AcDbEntity
  8
0
  6
Continuous
 62
     6
100
AcDbLine
 10
14892.44145656868
 20
-35400.28053646436
 30
0.0
 11
14892.44145656868
 21
-35002.28053646436
 31
0.0
  0
LINE
  5
4AE0
330
4AEE
100
AcDbEntity
  8
0
  6
Continuous
 62
     6
100
AcDbLine
 10
14892.44145656868
 20
-35002.28053646436
 30
0.0
 11
14975.44145656868
 21
-34919.28053646436
 31
0.0
  0
LINE
  5
4AE1
330
4AEE
100
AcDbEntity
  8
0
  6
Continuous
 62
     6
100
AcDbLine
 10
14975.44145656868
 20
-34919.28053646436
 30
0.0
 11
15257.44145656867
 21
-34919.28053646436
 31
0.0
  0
ARC
  5
4AE2
330
4AEE
100
AcDbEntity
  8
0
  6
Continuous
 62
     6
100
AcDbCircle
 10
15255.37038875681
 20
-34924.28053646435
 30
0.0
 40
4.999999999998635
100
AcDbArc
 50
44.9999999999263
 51
90.0
  0
LINE
  5
4AE3
330
4AEE
100
AcDbEntity
  8
0
  6
Continuous
 62
     6
100
AcDbLine
 10
15257.44145656867
 20
-34919.28053646436
 30
0.0
 11
15306.58359219241
 21
-34968.42267208808
 31
0.0
  0
ARC
  5
4AE4
330
4AEE
100
AcDbEntity
  8
0
  6
Continuous
 62
     6
100
AcDbCircle
 10
15320.72572781614
 20
-34954.28053646436
 30
0.0
 40
19.9999999999992
100
AcDbArc
 50
224.9999999999263
 51
270.0
  0
LINE
  5
4AE5
330
4AEE
100
AcDbEntity
  8
0
  6
Continuous
 62
     6
100
AcDbLine
 10
15320.72572781614
 20
-34974.28053646436
 30
0.0
 11
15627.44145656868
 21
-34974.28053646436
 31
0.0
  0
LINE
  5
4AE6
330
4AEE
100
AcDbEntity
  8
0
  6
Continuous
 62
     6
100
AcDbLine
 10
15627.44145656868
 20
-34974.28053646436
 30
0.0
 11
15700.44145656868
 21
-35047.28053646436
 31
0.0
  0
LINE
  5
4AE7
330
4AEE
100
AcDbEntity
  8
0
  6
Continuous
 62
     6
100
AcDbLine
 10
15700.44145656868
 20
-35047.28053646436
 30
0.0
 11
15700.44145656868
 21
-35400.28053646436
 31
0.0
  0
LINE
  5
4AE8
330
4AEE
100
AcDbEntity
  8
中心线
 62
     6
100
AcDbLine
 10
15115.44145656868
 20
-35467.50075225686
 30
0.0
 11
15115.44145656868
 21
-34894.17195184366
 31
0.0
  0
LWPOLYLINE
  5
4AE9
330
4AEE
100
AcDbEntity
  8
0
  6
Continuous
 62
     6
100
AcDbPolyline
 90
        8
 70
     1
 43
0.0
 10
15208.5177899475
 20
-34948.61681900915
 42
0.0358445850162056
 10
15022.36512318986
 20
-34948.61681900915
 42
0.3711091461104271
 10
14920.57284388104
 20
-35049.7942276052
 42
0.038878178780141
 10
14920.57284388104
 20
-35313.76684532352
 42
0.371109146110429
 10
15022.36512318986
 20
-35414.94425391956
 42
0.0358445850162057
 10
15208.5177899475
 20
-35414.94425391956
 42
0.3711091461104255
 10
15310.31006925632
 20
-35313.76684532352
 42
0.038878178780141
 10
15310.31006925632
 20
-35049.7942276052
 42
0.3711091461104283
  0
LINE
  5
4AEA
330
4AEE
100
AcDbEntity
  8
中心线
 62
     6
100
AcDbLine
 10
15512.44145656868
 20
-35461.04018242596
 30
0.0
 11
15512.44145656868
 21
-34962.54535299281
 31
0.0
  0
LWPOLYLINE
  5
4AEB
330
4AEE
100
AcDbEntity
  8
0
  6
Continuous
 62
     6
100
AcDbPolyline
 90
        8
 70
     1
 43
0.0
 10
15669.69069007892
 20
-35078.92865923855
 42
0.3509132999428012
 10
15593.94988328237
 20
-35004.44363333994
 42
0.0510756622773311
 10
15430.933029855
 20
-35004.44363333994
 42
0.3509132999428013
 10
15355.19222305844
 20
-35078.92865923855
 42
0.0594603365499113
 10
15355.19222305844
 20
-35339.63241369016
 42
0.3509132999428015
 10
15430.933029855
 20
-35414.11743958877
 42
0.0510756622773312
 10
15593.94988328237
 20
-35414.11743958877
 42
0.3509132999427997
 10
15669.69069007892
 20
-35339.63241369016
 42
0.0594603365499112
  0
LINE
  5
4AEC
330
4AEE
100
AcDbEntity
  8
中心线
 62
     6
100
AcDbLine
 10
14892.44145656868
 20
-35201.28053646436
 30
0.0
 11
15700.44145656868
 21
-35201.28053646436
 31
0.0
  0
ENDBLK
  5
4AF0
330
4AEE
100
AcDbEntity
  8
0
100
AcDbBlockEnd
  0
BLOCK
  5
4EC2
330
4EC1
100
AcDbEntity
  8
0
100
AcDbBlockBegin
  2
*D77
 70
     1
 10
0.0
 20
0.0
 30
0.0
  3
*D77
  1

  0
LINE
  5
4EB7
330
4EC1
100
AcDbEntity
  8
标注
 62
     0
370
    -2
100
AcDbLine
 10
1977.629244530788
 20
-393.6371305902982
 30
0.0
 11
1680.454039979584
 21
-393.6371305902982
 31
0.0
  0
LINE
  5
4EB8
330
4EC1
100
AcDbEntity
  8
标注
 62
     0
370
    -2
100
AcDbLine
 10
1977.629244530788
 20
-886.6371305902982
 30
0.0
 11
1680.454039979584
 21
-886.6371305902982
 31
0.0
  0
LINE
  5
4EB9
330
4EC1
100
AcDbEntity
  8
标注
 62
     0
370
    -2
100
AcDbLine
 10
1686.454039979584
 20
-407.6371305902982
 30
0.0
 11
1686.454039979584
 21
-872.6371305902981
 31
0.0
  0
SOLID
  5
4EBA
330
4EC1
100
AcDbEntity
  8
标注
 62
     0
100
AcDbTrace
 10
1684.120706646252
 20
-407.6371305902982
 30
0.0
 11
1688.787373312916
 21
-407.6371305902982
 31
0.0
 12
1686.454039979584
 22
-393.6371305902982
 32
0.0
 13
1686.454039979584
 23
-393.6371305902982
 33
0.0
  0
SOLID
  5
4EBB
330
4EC1
100
AcDbEntity
  8
标注
 62
     0
100
AcDbTrace
 10
1684.120706646252
 20
-872.6371305902981
 30
0.0
 11
1688.787373312916
 21
-872.6371305902981
 31
0.0
 12
1686.454039979584
 22
-886.6371305902982
 32
0.0
 13
1686.454039979584
 23
-886.6371305902982
 33
0.0
  0
MTEXT
  5
4EBC
330
4EC1
100
AcDbEntity
  8
标注
 62
     0
100
AcDbMText
 10
1674.954039979588
 20
-678.4327182776802
 30
0.0
 40
20.0
 41
0.0
 71
     5
 72
     1
  1
493
 11
0.0
 21
1.0
 31
0.0
 73
     1
 44
1.0
1001
ACAD
1000
MTEXTBEGIN
1070
    73
1070
     1
1070
    44
1040
1.0
1070
    74
1070
     0
1000
MTEXTEND
  0
POINT
  5
4EBD
330
4EC1
100
AcDbEntity
  8
Defpoints
 62
     0
100
AcDbPoint
 10
1977.629244530788
 20
-393.6371305902982
 30
0.0
  0
POINT
  5
4EBE
330
4EC1
100
AcDbEntity
  8
Defpoints
 62
     0
100
AcDbPoint
 10
1977.629244530788
 20
-886.6371305902982
 30
0.0
  0
POINT
  5
4EBF
330
4EC1
100
AcDbEntity
  8
Defpoints
 62
     0
100
AcDbPoint
 10
1686.454039979584
 20
-886.6371305902982
 30
0.0
  0
ENDBLK
  5
4EC3
330
4EC1
100
AcDbEntity
  8
0
100
AcDbBlockEnd
  0
BLOCK
  5
4ED1
330
4ED0
100
AcDbEntity
  8
0
100
AcDbBlockBegin
  2
*D78
 70
     1
 10
0.0
 20
0.0
 30
0.0
  3
*D78
  1

  0
LINE
  5
4EC6
330
4ED0
100
AcDbEntity
  8
标注
 62
     0
370
    -2
100
AcDbLine
 10
2157.629244530788
 20
-858.6371305902982
 30
0.0
 11
2157.629244530788
 21
-961.7998564509221
 31
0.0
  0
LINE
  5
4EC7
330
4ED0
100
AcDbEntity
  8
标注
 62
     0
370
    -2
100
AcDbLine
 10
2547.629244530792
 20
-667.6371305902981
 30
0.0
 11
2547.629244530792
 21
-961.7998564509221
 31
0.0
  0
LINE
  5
4EC8
330
4ED0
100
AcDbEntity
  8
标注
 62
     0
370
    -2
100
AcDbLine
 10
2171.629244530788
 20
-955.7998564509222
 30
0.0
 11
2533.629244530792
 21
-955.7998564509222
 31
0.0
  0
SOLID
  5
4EC9
330
4ED0
100
AcDbEntity
  8
标注
 62
     0
100
AcDbTrace
 10
2171.629244530788
 20
-953.4665231175864
 30
0.0
 11
2171.629244530788
 21
-958.1331897842579
 31
0.0
 12
2157.629244530788
 22
-955.7998564509222
 32
0.0
 13
2157.629244530788
 23
-955.7998564509222
 33
0.0
  0
SOLID
  5
4ECA
330
4ED0
100
AcDbEntity
  8
标注
 62
     0
100
AcDbTrace
 10
2533.629244530792
 20
-953.4665231175864
 30
0.0
 11
2533.629244530792
 21
-958.1331897842579
 31
0.0
 12
2547.629244530792
 22
-955.7998564509222
 32
0.0
 13
2547.629244530792
 23
-955.7998564509222
 33
0.0
  0
MTEXT
  5
4ECB
330
4ED0
100
AcDbEntity
  8
标注
 62
     0
100
AcDbMText
 10
2369.348567222195
 20
-944.2998564509222
 30
0.0
 40
20.0
 41
0.0
 71
     5
 72
     1
  1
(390)
 73
     1
 44
1.0
1001
ACAD
1000
MTEXTBEGIN
1070
    73
1070
     1
1070
    44
1040
1.0
1070
    74
1070
     0
1000
MTEXTEND
  0
POINT
  5
4ECC
330
4ED0
100
AcDbEntity
  8
Defpoints
 62
     0
100
AcDbPoint
 10
2157.629244530788
 20
-858.6371305902982
 30
0.0
  0
POINT
  5
4ECD
330
4ED0
100
AcDbEntity
  8
Defpoints
 62
     0
100
AcDbPoint
 10
2547.629244530792
 20
-667.6371305902981
 30
0.0
  0
POINT
  5
4ECE
330
4ED0
100
AcDbEntity
  8
Defpoints
 62
     0
100
AcDbPoint
 10
2547.629244530792
 20
-955.7998564509222
 30
0.0
  0
ENDBLK
  5
4ED2
330
4ED0
100
AcDbEntity
  8
0
100
AcDbBlockEnd
  0
BLOCK
  5
4EE2
330
4EE1
100
AcDbEntity
  8
0
100
AcDbBlockBegin
  2
*D79
 70
     1
 10
0.0
 20
0.0
 30
0.0
  3
*D79
  1

  0
LINE
  5
4ED5
330
4EE1
100
AcDbEntity
  8
标注
 62
     0
370
    -2
100
AcDbLine
 10
2522.58068623914
 20
-637.1371305902909
 30
0.0
 11
2522.58068623914
 21
-610.0591495605373
 31
0.0
  0
LINE
  5
4ED6
330
4EE1
100
AcDbEntity
  8
标注
 62
     0
370
    -2
100
AcDbLine
 10
2547.629244530792
 20
-667.6371305902981
 30
0.0
 11
2547.629244530792
 21
-610.0591495605373
 31
0.0
  0
LINE
  5
4ED7
330
4EE1
100
AcDbEntity
  8
标注
 62
     0
370
    -2
100
AcDbLine
 10
2508.58068623914
 20
-616.0591495605373
 30
0.0
 11
2494.58068623914
 21
-616.0591495605373
 31
0.0
  0
LINE
  5
4ED8
330
4EE1
100
AcDbEntity
  8
标注
 62
     0
370
    -2
100
AcDbLine
 10
2561.629244530792
 20
-616.0591495605373
 30
0.0
 11
2625.295911197456
 21
-616.0591495605373
 31
0.0
  0
LINE
  5
4ED9
330
4EE1
100
AcDbEntity
  8
标注
 62
     0
370
    -2
100
AcDbLine
 10
2522.58068623914
 20
-616.0591495605373
 30
0.0
 11
2547.629244530792
 21
-616.0591495605373
 31
0.0
  0
SOLID
  5
4EDA
330
4EE1
100
AcDbEntity
  8
标注
 62
     0
100
AcDbTrace
 10
2508.58068623914
 20
-613.7258162272015
 30
0.0
 11
2508.58068623914
 21
-618.3924828938731
 31
0.0
 12
2522.58068623914
 22
-616.0591495605373
 32
0.0
 13
2522.58068623914
 23
-616.0591495605373
 33
0.0
  0
SOLID
  5
4EDB
330
4EE1
100
AcDbEntity
  8
标注
 62
     0
100
AcDbTrace
 10
2561.629244530792
 20
-613.7258162272015
 30
0.0
 11
2561.629244530792
 21
-618.3924828938731
 31
0.0
 12
2547.629244530792
 22
-616.0591495605373
 32
0.0
 13
2547.629244530792
 23
-616.0591495605373
 33
0.0
  0
MTEXT
  5
4EDC
330
4EE1
100
AcDbEntity
  8
标注
 62
     0
100
AcDbMText
 10
2607.129244530792
 20
-604.5591495605373
 30
0.0
 40
20.0
 41
0.0
 71
     5
 72
     1
  1
25
 73
     1
 44
1.0
1001
ACAD
1000
MTEXTBEGIN
1070
    73
1070
     1
1070
    44
1040
1.0
1070
    74
1070
     0
1000
MTEXTEND
  0
POINT
  5
4EDD
330
4EE1
100
AcDbEntity
  8
Defpoints
 62
     0
100
AcDbPoint
 10
2522.58068623914
 20
-637.1371305902909
 30
0.0
  0
POINT
  5
4EDE
330
4EE1
100
AcDbEntity
  8
Defpoints
 62
     0
100
AcDbPoint
 10
2547.629244530792
 20
-667.6371305902981
 30
0.0
  0
POINT
  5
4EDF
330
4EE1
100
AcDbEntity
  8
Defpoints
 62
     0
100
AcDbPoint
 10
2547.629244530792
 20
-616.0591495605373
 30
0.0
  0
ENDBLK
  5
4EE3
330
4EE1
100
AcDbEntity
  8
0
100
AcDbBlockEnd
  0
BLOCK
  5
4EF3
330
4EF2
100
AcDbEntity
  8
0
100
AcDbBlockBegin
  2
*D80
 70
     1
 10
0.0
 20
0.0
 30
0.0
  3
*D80
  1

  0
LINE
  5
4EE6
330
4EF2
100
AcDbEntity
  8
标注
 62
     0
370
    -2
100
AcDbLine
 10
1773.629244530788
 20
-640.1371305902982
 30
0.0
 11
1773.629244530788
 21
-692.0180772195786
 31
0.0
  0
LINE
  5
4EE7
330
4EF2
100
AcDbEntity
  8
标注
 62
     0
370
    -2
100
AcDbLine
 10
1767.629244530788
 20
-640.1371305902982
 30
0.0
 11
1767.629244530788
 21
-692.0180772195786
 31
0.0
  0
LINE
  5
4EE8
330
4EF2
100
AcDbEntity
  8
标注
 62
     0
370
    -2
100
AcDbLine
 10
1787.629244530788
 20
-686.0180772195787
 30
0.0
 11
1801.629244530788
 21
-686.0180772195787
 31
0.0
  0
LINE
  5
4EE9
330
4EF2
100
AcDbEntity
  8
标注
 62
     0
370
    -2
100
AcDbLine
 10
1753.629244530788
 20
-686.0180772195787
 30
0.0
 11
1723.295911197456
 21
-686.0180772195787
 31
0.0
  0
LINE
  5
4EEA
330
4EF2
100
AcDbEntity
  8
标注
 62
     0
370
    -2
100
AcDbLine
 10
1773.629244530788
 20
-686.0180772195787
 30
0.0
 11
1767.629244530788
 21
-686.0180772195787
 31
0.0
  0
SOLID
  5
4EEB
330
4EF2
100
AcDbEntity
  8
标注
 62
     0
100
AcDbTrace
 10
1787.629244530788
 20
-683.6847438862429
 30
0.0
 11
1787.629244530788
 21
-688.3514105529144
 31
0.0
 12
1773.629244530788
 22
-686.0180772195787
 32
0.0
 13
1773.629244530788
 23
-686.0180772195787
 33
0.0
  0
SOLID
  5
4EEC
330
4EF2
100
AcDbEntity
  8
标注
 62
     0
100
AcDbTrace
 10
1753.629244530788
 20
-683.6847438862429
 30
0.0
 11
1753.629244530788
 21
-688.3514105529144
 31
0.0
 12
1767.629244530788
 22
-686.0180772195787
 32
0.0
 13
1767.629244530788
 23
-686.0180772195787
 33
0.0
  0
MTEXT
  5
4EED
330
4EF2
100
AcDbEntity
  8
标注
 62
     0
100
AcDbMText
 10
1731.46257786412
 20
-674.5180772195786
 30
0.0
 40
20.0
 41
0.0
 71
     5
 72
     1
  1
6
 73
     1
 44
1.0
1001
ACAD
1000
MTEXTBEGIN
1070
    73
1070
     1
1070
    44
1040
1.0
1070
    74
1070
     0
1000
MTEXTEND
  0
POINT
  5
4EEE
330
4EF2
100
AcDbEntity
  8
Defpoints
 62
     0
100
AcDbPoint
 10
1773.629244530788
 20
-640.1371305902982
 30
0.0
  0
POINT
  5
4EEF
330
4EF2
100
AcDbEntity
  8
Defpoints
 62
     0
100
AcDbPoint
 10
1767.629244530788
 20
-640.1371305902982
 30
0.0
  0
POINT
  5
4EF0
330
4EF2
100
AcDbEntity
  8
Defpoints
 62
     0
100
AcDbPoint
 10
1767.629244530788
 20
-686.0180772195787
 30
0.0
  0
ENDBLK
  5
4EF4
330
4EF2
100
AcDbEntity
  8
0
100
AcDbBlockEnd
  0
BLOCK
  5
4F02
330
4F01
100
AcDbEntity
  8
0
100
AcDbBlockBegin
  2
*D81
 70
     1
 10
0.0
 20
0.0
 30
0.0
  3
*D81
  1

  0
LINE
  5
4EF8
330
4F01
100
AcDbEntity
  8
标注
  6
ByBlock
 62
     0
370
    -2
100
AcDbLine
 10
2143.480154479021
 20
-630.7135829193545
 30
0.0
 11
2035.080661842254
 21
-558.5175771951149
 31
0.0
  0
LINE
  5
4EF9
330
4F01
100
AcDbEntity
  8
标注
  6
ByBlock
 62
     0
370
    -2
100
AcDbLine
 10
2171.778334582563
 20
-649.5606782612709
 30
0.0
 11
2183.430526389904
 21
-657.3212469314718
 31
0.0
  0
LINE
  5
4EFA
330
4F01
100
AcDbEntity
  8
标注
  6
ByBlock
 62
     0
370
    -2
100
AcDbLine
 10
2155.132346286362
 20
-638.4741515895553
 30
0.0
 11
2160.126142775222
 21
-641.8001095910701
 31
0.0
  0
SOLID
  5
4EFB
330
4F01
100
AcDbEntity
  8
标注
  6
ByBlock
 62
     0
100
AcDbTrace
 10
2160.126142775222
 20
-641.8001095910701
 30
0.0
 11
2173.071762694264
 21
-647.6186462933807
 31
0.0
 12
2170.484906470862
 22
-651.5027102291611
 32
0.0
 13
2170.484906470862
 23
-651.5027102291611
 33
0.0
  0
SOLID
  5
4EFC
330
4F01
100
AcDbEntity
  8
标注
  6
ByBlock
 62
     0
100
AcDbTrace
 10
2155.132346286362
 20
-638.4741515895553
 30
0.0
 11
2144.773582590722
 21
-628.7715509514643
 31
0.0
 12
2142.186726367319
 22
-632.6556148872447
 32
0.0
 13
2142.186726367319
 23
-632.6556148872447
 33
0.0
  0
MTEXT
  5
4EFD
102
{ACAD_XDICTIONARY
360
5224
102
}
330
4F01
100
AcDbEntity
  8
标注
  6
ByBlock
 62
     0
100
AcDbMText
 10
2073.221509010411
 20
-570.1029223233241
 30
0.0
 40
19.99999999999982
 41
0.0
 71
     5
 72
     1
  1
\A0;\ftxt.shx,gbcbig.shx;5-\U+22056
 11
0.8322994148103951
 21
-0.5543263335854375
 31
0.0
 73
     1
 44
1.0
1001
ACAD
1000
MTEXTBEGIN
1070
    73
1070
     1
1070
    44
1040
1.0
1070
    74
1070
     0
1000
MTEXTEND
  0
POINT
  5
4EFE
330
4F01
100
AcDbEntity
  8
Defpoints
  6
ByBlock
100
AcDbPoint
 10
2160.126142775222
 20
-641.8001095910701
 30
0.0
  0
POINT
  5
4EFF
330
4F01
100
AcDbEntity
  8
Defpoints
  6
ByBlock
100
AcDbPoint
 10
2155.132346286362
 20
-638.4741515895553
 30
0.0
  0
ENDBLK
  5
4F03
330
4F01
100
AcDbEntity
  8
0
100
AcDbBlockEnd
  0
BLOCK
  5
4F37
330
4F36
100
AcDbEntity
  8
0
100
AcDbBlockBegin
  2
*D82
 70
     1
 10
0.0
 20
0.0
 30
0.0
  3
*D82
  1

  0
LINE
  5
4F2C
330
4F36
100
AcDbEntity
  8
标注
 62
     0
370
    -2
100
AcDbLine
 10
1767.629244530788
 20
-640.1371305902982
 30
0.0
 11
1767.629244530788
 21
-348.9201927331056
 31
0.0
  0
LINE
  5
4F2D
330
4F36
100
AcDbEntity
  8
标注
 62
     0
370
    -2
100
AcDbLine
 10
1977.629244530788
 20
-393.6371305902982
 30
0.0
 11
1977.629244530788
 21
-348.9201927331056
 31
0.0
  0
LINE
  5
4F2E
330
4F36
100
AcDbEntity
  8
标注
 62
     0
370
    -2
100
AcDbLine
 10
1781.629244530788
 20
-354.9201927331056
 30
0.0
 11
1963.629244530788
 21
-354.9201927331056
 31
0.0
  0
SOLID
  5
4F2F
330
4F36
100
AcDbEntity
  8
标注
 62
     0
100
AcDbTrace
 10
1781.629244530788
 20
-352.5868593997699
 30
0.0
 11
1781.629244530788
 21
-357.2535260664414
 31
0.0
 12
1767.629244530788
 22
-354.9201927331056
 32
0.0
 13
1767.629244530788
 23
-354.9201927331056
 33
0.0
  0
SOLID
  5
4F30
330
4F36
100
AcDbEntity
  8
标注
 62
     0
100
AcDbTrace
 10
1963.629244530788
 20
-352.5868593997699
 30
0.0
 11
1963.629244530788
 21
-357.2535260664414
 31
0.0
 12
1977.629244530788
 22
-354.9201927331056
 32
0.0
 13
1977.629244530788
 23
-354.9201927331056
 33
0.0
  0
MTEXT
  5
4F31
330
4F36
100
AcDbEntity
  8
标注
 62
     0
100
AcDbMText
 10
1872.629244530788
 20
-343.4201927331056
 30
0.0
 40
20.0
 41
0.0
 71
     5
 72
     1
  1
(210)
 73
     1
 44
1.0
1001
ACAD
1000
MTEXTBEGIN
1070
    73
1070
     1
1070
    44
1040
1.0
1070
    74
1070
     0
1000
MTEXTEND
  0
POINT
  5
4F32
330
4F36
100
AcDbEntity
  8
Defpoints
 62
     0
100
AcDbPoint
 10
1767.629244530788
 20
-640.1371305902982
 30
0.0
  0
POINT
  5
4F33
330
4F36
100
AcDbEntity
  8
Defpoints
 62
     0
100
AcDbPoint
 10
1977.629244530788
 20
-393.6371305902982
 30
0.0
  0
POINT
  5
4F34
330
4F36
100
AcDbEntity
  8
Defpoints
 62
     0
100
AcDbPoint
 10
1977.629244530788
 20
-354.9201927331056
 30
0.0
  0
ENDBLK
  5
4F38
330
4F36
100
AcDbEntity
  8
0
100
AcDbBlockEnd
  0
BLOCK
  5
4F46
330
4F45
100
AcDbEntity
  8
0
100
AcDbBlockBegin
  2
*D83
 70
     1
 10
0.0
 20
0.0
 30
0.0
  3
*D83
  1

  0
LINE
  5
4F3B
330
4F45
100
AcDbEntity
  8
标注
 62
     0
370
    -2
100
AcDbLine
 10
2187.629244530788
 20
-448.6371305902982
 30
0.0
 11
2187.629244530788
 21
-306.6244878037293
 31
0.0
  0
LINE
  5
4F3C
330
4F45
100
AcDbEntity
  8
标注
 62
     0
370
    -2
100
AcDbLine
 10
1767.629244530788
 20
-640.1371305902982
 30
0.0
 11
1767.629244530788
 21
-306.6244878037293
 31
0.0
  0
LINE
  5
4F3D
330
4F45
100
AcDbEntity
  8
标注
 62
     0
370
    -2
100
AcDbLine
 10
2173.629244530788
 20
-312.6244878037293
 30
0.0
 11
1781.629244530788
 21
-312.6244878037293
 31
0.0
  0
SOLID
  5
4F3E
330
4F45
100
AcDbEntity
  8
标注
 62
     0
100
AcDbTrace
 10
2173.629244530788
 20
-310.2911544703935
 30
0.0
 11
2173.629244530788
 21
-314.957821137065
 31
0.0
 12
2187.629244530788
 22
-312.6244878037293
 32
0.0
 13
2187.629244530788
 23
-312.6244878037293
 33
0.0
  0
SOLID
  5
4F3F
330
4F45
100
AcDbEntity
  8
标注
 62
     0
100
AcDbTrace
 10
1781.629244530788
 20
-310.2911544703935
 30
0.0
 11
1781.629244530788
 21
-314.957821137065
 31
0.0
 12
1767.629244530788
 22
-312.6244878037293
 32
0.0
 13
1767.629244530788
 23
-312.6244878037293
 33
0.0
  0
MTEXT
  5
4F40
330
4F45
100
AcDbEntity
  8
标注
 62
     0
100
AcDbMText
 10
1977.629244530788
 20
-301.1244878037293
 30
0.0
 40
20.0
 41
0.0
 71
     5
 72
     1
  1
420
 73
     1
 44
1.0
1001
ACAD
1000
MTEXTBEGIN
1070
    73
1070
     1
1070
    44
1040
1.0
1070
    74
1070
     0
1000
MTEXTEND
  0
POINT
  5
4F41
330
4F45
100
AcDbEntity
  8
Defpoints
 62
     0
100
AcDbPoint
 10
2187.629244530788
 20
-448.6371305902982
 30
0.0
  0
POINT
  5
4F42
330
4F45
100
AcDbEntity
  8
Defpoints
 62
     0
100
AcDbPoint
 10
1767.629244530788
 20
-640.1371305902982
 30
0.0
  0
POINT
  5
4F43
330
4F45
100
AcDbEntity
  8
Defpoints
 62
     0
100
AcDbPoint
 10
1767.629244530788
 20
-312.6244878037293
 30
0.0
  0
ENDBLK
  5
4F47
330
4F45
100
AcDbEntity
  8
0
100
AcDbBlockEnd
  0
BLOCK
  5
4F55
330
4F54
100
AcDbEntity
  8
0
100
AcDbBlockBegin
  2
*D84
 70
     1
 10
0.0
 20
0.0
 30
0.0
  3
*D84
  1

  0
LINE
  5
4F4A
330
4F54
100
AcDbEntity
  8
标注
 62
     0
370
    -2
100
AcDbLine
 10
1767.629244530788
 20
-640.1371305902982
 30
0.0
 11
1767.629244530788
 21
-265.2992827015302
 31
0.0
  0
LINE
  5
4F4B
330
4F54
100
AcDbEntity
  8
标注
 62
     0
370
    -2
100
AcDbLine
 10
2547.629244530792
 20
-667.6371305902981
 30
0.0
 11
2547.629244530792
 21
-265.2992827015302
 31
0.0
  0
LINE
  5
4F4C
330
4F54
100
AcDbEntity
  8
标注
 62
     0
370
    -2
100
AcDbLine
 10
1781.629244530788
 20
-271.2992827015302
 30
0.0
 11
2533.629244530792
 21
-271.2992827015302
 31
0.0
  0
SOLID
  5
4F4D
330
4F54
100
AcDbEntity
  8
标注
 62
     0
100
AcDbTrace
 10
1781.629244530788
 20
-268.9659493681944
 30
0.0
 11
1781.629244530788
 21
-273.6326160348659
 31
0.0
 12
1767.629244530788
 22
-271.2992827015302
 32
0.0
 13
1767.629244530788
 23
-271.2992827015302
 33
0.0
  0
SOLID
  5
4F4E
330
4F54
100
AcDbEntity
  8
标注
 62
     0
100
AcDbTrace
 10
2533.629244530792
 20
-268.9659493681944
 30
0.0
 11
2533.629244530792
 21
-273.6326160348659
 31
0.0
 12
2547.629244530792
 22
-271.2992827015302
 32
0.0
 13
2547.629244530792
 23
-271.2992827015302
 33
0.0
  0
MTEXT
  5
4F4F
330
4F54
100
AcDbEntity
  8
标注
 62
     0
100
AcDbMText
 10
2157.629244530788
 20
-259.7992827015302
 30
0.0
 40
20.0
 41
0.0
 71
     5
 72
     1
  1
780
 73
     1
 44
1.0
1001
ACAD
1000
MTEXTBEGIN
1070
    73
1070
     1
1070
    44
1040
1.0
1070
    74
1070
     0
1000
MTEXTEND
  0
POINT
  5
4F50
330
4F54
100
AcDbEntity
  8
Defpoints
 62
     0
100
AcDbPoint
 10
1767.629244530788
 20
-640.1371305902982
 30
0.0
  0
POINT
  5
4F51
330
4F54
100
AcDbEntity
  8
Defpoints
 62
     0
100
AcDbPoint
 10
2547.629244530792
 20
-667.6371305902981
 30
0.0
  0
POINT
  5
4F52
330
4F54
100
AcDbEntity
  8
Defpoints
 62
     0
100
AcDbPoint
 10
2547.629244530792
 20
-271.2992827015302
 30
0.0
  0
ENDBLK
  5
4F56
330
4F54
100
AcDbEntity
  8
0
100
AcDbBlockEnd
  0
BLOCK
  5
4F60
330
4F5F
100
AcDbEntity
  8
0
100
AcDbBlockBegin
  2
*D85
 70
     1
 10
0.0
 20
0.0
 30
0.0
  3
*D85
  1

  0
LINE
  5
4F59
330
4F5F
100
AcDbEntity
  8
标注
 62
     0
370
    -2
100
AcDbLine
 10
1874.267856871101
 20
-498.553715740473
 30
0.0
 11
1817.42708660071
 21
-441.7860200015098
 31
0.0
  0
MTEXT
  5
4F5A
330
4F5F
100
AcDbEntity
  8
标注
 62
     0
100
AcDbMText
 10
1858.926897788497
 20
-466.9794738302776
 30
0.0
 40
20.00000000000025
 41
0.0
 71
     5
 72
     1
  1
R120
 11
0.7075614556472287
 21
-0.7066518141789313
 31
0.0
 73
     1
 44
1.0
1001
ACAD
1000
MTEXTBEGIN
1070
    73
1070
     1
1070
    44
1040
1.0
1070
    74
1070
     0
1000
MTEXTEND
  0
SOLID
  5
4F5B
330
4F5F
100
AcDbEntity
  8
标注
 62
     0
100
AcDbTrace
 10
1819.075940833794
 20
-440.1350432716614
 30
0.0
 11
1815.778232367629
 21
-443.4369967313511
 31
0.0
 12
1807.521226221633
 22
-431.8928946030106
 32
0.0
 13
1807.521226221633
 23
-431.8928946030106
 33
0.0
  0
POINT
  5
4F5C
330
4F5F
100
AcDbEntity
  8
Defpoints
 62
     0
100
AcDbPoint
 10
1807.521226221633
 20
-431.8928946030106
 30
0.0
  0
POINT
  5
4F5D
330
4F5F
100
AcDbEntity
  8
Defpoints
 62
     0
100
AcDbPoint
 10
1892.428600899402
 20
-516.6911123043652
 30
0.0
  0
ENDBLK
  5
4F61
330
4F5F
100
AcDbEntity
  8
0
100
AcDbBlockEnd
  0
BLOCK
  5
4F6F
330
4F6E
100
AcDbEntity
  8
0
100
AcDbBlockBegin
  2
*D86
 70
     1
 10
0.0
 20
0.0
 30
0.0
  3
*D86
  1

  0
LINE
  5
4F64
330
4F6E
100
AcDbEntity
  8
标注
 62
     0
370
    -2
100
AcDbLine
 10
1795.629244530788
 20
-640.1371305902982
 30
0.0
 11
1721.810444405746
 21
-640.1371305902982
 31
0.0
  0
LINE
  5
4F65
330
4F6E
100
AcDbEntity
  8
标注
 62
     0
370
    -2
100
AcDbLine
 10
1977.629244530788
 20
-393.6371305902982
 30
0.0
 11
1721.810444405746
 21
-393.6371305902982
 31
0.0
  0
LINE
  5
4F66
330
4F6E
100
AcDbEntity
  8
标注
 62
     0
370
    -2
100
AcDbLine
 10
1727.810444405746
 20
-626.1371305902981
 30
0.0
 11
1727.810444405746
 21
-407.6371305902982
 31
0.0
  0
SOLID
  5
4F67
330
4F6E
100
AcDbEntity
  8
标注
 62
     0
100
AcDbTrace
 10
1725.477111072414
 20
-626.1371305902981
 30
0.0
 11
1730.143777739078
 21
-626.1371305902981
 31
0.0
 12
1727.810444405746
 22
-640.1371305902982
 32
0.0
 13
1727.810444405746
 23
-640.1371305902982
 33
0.0
  0
SOLID
  5
4F68
330
4F6E
100
AcDbEntity
  8
标注
 62
     0
100
AcDbTrace
 10
1725.477111072414
 20
-407.6371305902982
 30
0.0
 11
1730.143777739078
 21
-407.6371305902982
 31
0.0
 12
1727.810444405746
 22
-393.6371305902982
 32
0.0
 13
1727.810444405746
 23
-393.6371305902982
 33
0.0
  0
MTEXT
  5
4F69
330
4F6E
100
AcDbEntity
  8
标注
 62
     0
100
AcDbMText
 10
1716.31044440575
 20
-516.8871305902909
 30
0.0
 40
20.0
 41
0.0
 71
     5
 72
     1
  1
246.5
 11
0.0
 21
1.0
 31
0.0
 73
     1
 44
1.0
1001
ACAD
1000
MTEXTBEGIN
1070
    73
1070
     1
1070
    44
1040
1.0
1070
    74
1070
     0
1000
MTEXTEND
  0
POINT
  5
4F6A
330
4F6E
100
AcDbEntity
  8
Defpoints
 62
     0
100
AcDbPoint
 10
1795.629244530788
 20
-640.1371305902982
 30
0.0
  0
POINT
  5
4F6B
330
4F6E
100
AcDbEntity
  8
Defpoints
 62
     0
100
AcDbPoint
 10
1977.629244530788
 20
-393.6371305902982
 30
0.0
  0
POINT
  5
4F6C
330
4F6E
100
AcDbEntity
  8
Defpoints
 62
     0
100
AcDbPoint
 10
1727.810444405746
 20
-393.6371305902982
 30
0.0
  0
ENDBLK
  5
4F70
330
4F6E
100
AcDbEntity
  8
0
100
AcDbBlockEnd
  0
BLOCK
  5
4F7B
330
4F7A
100
AcDbEntity
  8
0
100
AcDbBlockBegin
  2
*D87
 70
     1
 10
0.0
 20
0.0
 30
0.0
  3
*D87
  1

  0
LINE
  5
4F73
330
4F7A
100
AcDbEntity
  8
标注
 62
     0
370
    -2
100
AcDbLine
 10
1701.909455750356
 20
-970.6876796562761
 30
0.0
 11
1801.707416063287
 21
-862.2019433422289
 31
0.0
  0
MTEXT
  5
4F74
330
4F7A
100
AcDbEntity
  8
标注
 62
     0
100
AcDbMText
 10
1715.900524113825
 20
-938.4925280985378
 30
0.0
 40
19.99999999999758
 41
0.0
 71
     5
 72
     1
  1
R120
 11
0.6770237674363744
 21
0.7359611527290406
 31
0.0
 73
     1
 44
1.0
1001
ACAD
1000
MTEXTBEGIN
1070
    73
1070
     1
1070
    44
1040
1.0
1070
    74
1070
     0
1000
MTEXTEND
  0
LINE
  5
4F75
330
4F7A
100
AcDbEntity
  8
标注
 62
     0
370
    -2
100
AcDbLine
 10
1892.428600899398
 20
-763.5831488762238
 30
0.0
 11
1811.185748807362
 21
-851.8984872039915
 31
0.0
  0
SOLID
  5
4F76
330
4F7A
100
AcDbEntity
  8
标注
 62
     0
100
AcDbTrace
 10
1799.990173373578
 20
-860.6222212182226
 30
0.0
 11
1803.424658752996
 21
-863.7816654662499
 31
0.0
 12
1811.185748807362
 22
-851.8984872039915
 32
0.0
 13
1811.185748807362
 23
-851.8984872039915
 33
0.0
  0
POINT
  5
4F77
330
4F7A
100
AcDbEntity
  8
Defpoints
 62
     0
100
AcDbPoint
 10
1811.185748807362
 20
-851.8984872039915
 30
0.0
  0
POINT
  5
4F78
330
4F7A
100
AcDbEntity
  8
Defpoints
 62
     0
100
AcDbPoint
 10
1892.428600899398
 20
-763.5831488762238
 30
0.0
  0
ENDBLK
  5
4F7C
330
4F7A
100
AcDbEntity
  8
0
100
AcDbBlockEnd
  0
BLOCK
  5
4F86
330
4F85
100
AcDbEntity
  8
0
100
AcDbBlockBegin
  2
*D88
 70
     1
 10
0.0
 20
0.0
 30
0.0
  3
*D88
  1

  0
LINE
  5
4F7F
330
4F85
100
AcDbEntity
  8
标注
 62
     0
370
    -2
100
AcDbLine
 10
2452.03681790732
 20
-796.3277732448374
 30
0.0
 11
2495.287973758739
 21
-851.7905111442056
 31
0.0
  0
MTEXT
  5
4F80
330
4F85
100
AcDbEntity
  8
标注
 62
     0
100
AcDbMText
 10
2478.42633035743
 20
-811.4672826079809
 30
0.0
 40
19.99999999999821
 41
0.0
 71
     5
 72
     1
  1
R95
 11
0.6149453438593703
 21
-0.788569733166117
 31
0.0
 73
     1
 44
1.0
1001
ACAD
1000
MTEXTBEGIN
1070
    73
1070
     1
1070
    44
1040
1.0
1070
    74
1070
     0
1000
MTEXTEND
  0
SOLID
  5
4F81
330
4F85
100
AcDbEntity
  8
标注
 62
     0
100
AcDbTrace
 10
2497.127969802794
 20
-850.3556386751993
 30
0.0
 11
2493.447977714684
 21
-853.2253836132046
 31
0.0
 12
2503.897208572769
 22
-862.8304874085339
 32
0.0
 13
2503.897208572769
 23
-862.8304874085339
 33
0.0
  0
POINT
  5
4F82
330
4F85
100
AcDbEntity
  8
Defpoints
 62
     0
100
AcDbPoint
 10
2503.897208572769
 20
-862.8304874085339
 30
0.0
  0
POINT
  5
4F83
330
4F85
100
AcDbEntity
  8
Defpoints
 62
     0
100
AcDbPoint
 10
2445.477400906162
 20
-787.9163627577406
 30
0.0
  0
ENDBLK
  5
4F87
330
4F85
100
AcDbEntity
  8
0
100
AcDbBlockEnd
  0
BLOCK
  5
4F92
330
4F91
100
AcDbEntity
  8
0
100
AcDbBlockBegin
  2
*D89
 70
     1
 10
0.0
 20
0.0
 30
0.0
  3
*D89
  1

  0
LINE
  5
4F8A
330
4F91
100
AcDbEntity
  8
标注
 62
     0
370
    -2
100
AcDbLine
 10
2615.528624648287
 20
-402.8553188604824
 30
0.0
 11
2528.53865863433
 21
-476.7758365047381
 31
0.0
  0
MTEXT
  5
4F8B
330
4F91
100
AcDbEntity
  8
标注
 62
     0
100
AcDbMText
 10
2586.618051516162
 20
-412.3310706661619
 30
0.0
 40
20.0
 41
0.0
 71
     5
 72
     1
  1
R95
 11
0.7620298874154751
 21
0.6475418524586333
 31
0.0
 73
     1
 44
1.0
1001
ACAD
1000
MTEXTBEGIN
1070
    73
1070
     1
1070
    44
1040
1.0
1070
    74
1070
     0
1000
MTEXTEND
  0
LINE
  5
4F8C
330
4F91
100
AcDbEntity
  8
标注
 62
     0
370
    -2
100
AcDbLine
 10
2445.477400906148
 20
-547.3578984228412
 30
0.0
 11
2517.870240210523
 21
-485.8414224391786
 31
0.0
  0
SOLID
  5
4F8D
330
4F91
100
AcDbEntity
  8
标注
 62
     0
100
AcDbTrace
 10
2527.027727645258
 20
-474.9977667674362
 30
0.0
 11
2530.049589623406
 21
-478.5539062420399
 31
0.0
 12
2517.870240210523
 22
-485.8414224391786
 32
0.0
 13
2517.870240210523
 23
-485.8414224391786
 33
0.0
  0
POINT
  5
4F8E
330
4F91
100
AcDbEntity
  8
Defpoints
 62
     0
100
AcDbPoint
 10
2517.870240210523
 20
-485.8414224391786
 30
0.0
  0
POINT
  5
4F8F
330
4F91
100
AcDbEntity
  8
Defpoints
 62
     0
100
AcDbPoint
 10
2445.477400906148
 20
-547.3578984228412
 30
0.0
  0
ENDBLK
  5
4F93
330
4F91
100
AcDbEntity
  8
0
100
AcDbBlockEnd
  0
BLOCK
  5
4FA1
330
4FA0
100
AcDbEntity
  8
0
100
AcDbBlockBegin
  2
*D90
 70
     1
 10
0.0
 20
0.0
 30
0.0
  3
*D90
  1

  0
LINE
  5
4F96
330
4FA0
100
AcDbEntity
  8
标注
 62
     0
370
    -2
100
AcDbLine
 10
2372.629244530788
 20
-448.6371305902909
 30
0.0
 11
2372.629244530788
 21
-390.1382689061471
 31
0.0
  0
LINE
  5
4F97
330
4FA0
100
AcDbEntity
  8
标注
 62
     0
370
    -2
100
AcDbLine
 10
2547.629244530792
 20
-638.8481400754141
 30
0.0
 11
2547.629244530792
 21
-390.1382689061471
 31
0.0
  0
LINE
  5
4F98
330
4FA0
100
AcDbEntity
  8
标注
 62
     0
370
    -2
100
AcDbLine
 10
2386.629244530788
 20
-396.1382689061471
 30
0.0
 11
2533.629244530792
 21
-396.1382689061471
 31
0.0
  0
SOLID
  5
4F99
330
4FA0
100
AcDbEntity
  8
标注
 62
     0
100
AcDbTrace
 10
2386.629244530788
 20
-393.8049355728113
 30
0.0
 11
2386.629244530788
 21
-398.4716022394829
 31
0.0
 12
2372.629244530788
 22
-396.1382689061471
 32
0.0
 13
2372.629244530788
 23
-396.1382689061471
 33
0.0
  0
SOLID
  5
4F9A
330
4FA0
100
AcDbEntity
  8
标注
 62
     0
100
AcDbTrace
 10
2533.629244530792
 20
-393.8049355728113
 30
0.0
 11
2533.629244530792
 21
-398.4716022394829
 31
0.0
 12
2547.629244530792
 22
-396.1382689061471
 32
0.0
 13
2547.629244530792
 23
-396.1382689061471
 33
0.0
  0
MTEXT
  5
4F9B
330
4FA0
100
AcDbEntity
  8
标注
 62
     0
100
AcDbMText
 10
2460.129244530788
 20
-384.6382689061471
 30
0.0
 40
20.0
 41
0.0
 71
     5
 72
     1
  1
175
 73
     1
 44
1.0
1001
ACAD
1000
MTEXTBEGIN
1070
    73
1070
     1
1070
    44
1040
1.0
1070
    74
1070
     0
1000
MTEXTEND
  0
POINT
  5
4F9C
330
4FA0
100
AcDbEntity
  8
Defpoints
 62
     0
100
AcDbPoint
 10
2372.629244530788
 20
-448.6371305902909
 30
0.0
  0
POINT
  5
4F9D
330
4FA0
100
AcDbEntity
  8
Defpoints
 62
     0
100
AcDbPoint
 10
2547.629244530792
 20
-638.8481400754141
 30
0.0
  0
POINT
  5
4F9E
330
4FA0
100
AcDbEntity
  8
Defpoints
 62
     0
100
AcDbPoint
 10
2547.629244530792
 20
-396.1382689061471
 30
0.0
  0
ENDBLK
  5
4FA2
330
4FA0
100
AcDbEntity
  8
0
100
AcDbBlockEnd
  0
BLOCK
  5
4FAC
330
4FAB
100
AcDbEntity
  8
0
100
AcDbBlockBegin
  2
*D91
 70
     1
 10
0.0
 20
0.0
 30
0.0
  3
*D91
  1

  0
LINE
  5
4FA5
330
4FAB
100
AcDbEntity
  8
标注
 62
     0
370
    -2
100
AcDbLine
 10
2225.948502796939
 20
-384.9824957544739
 30
0.0
 11
2175.607516447326
 21
-429.1954474015625
 31
0.0
  0
MTEXT
  5
4FA6
330
4FAB
100
AcDbEntity
  8
标注
 62
     0
100
AcDbMText
 10
2198.448725450576
 20
-393.8290909130925
 30
0.0
 40
20.00000000000268
 41
0.0
 71
     5
 72
     1
  1
R30
 11
0.7513580052189847
 21
0.6598948007018607
 31
0.0
 73
     1
 44
1.0
1001
ACAD
1000
MTEXTBEGIN
1070
    73
1070
     1
1070
    44
1040
1.0
1070
    74
1070
     0
1000
MTEXTEND
  0
SOLID
  5
4FA7
330
4FAB
100
AcDbEntity
  8
标注
 62
     0
100
AcDbTrace
 10
2174.067761912349
 20
-427.4422787227201
 30
0.0
 11
2177.147270982299
 21
-430.948616080405
 31
0.0
 12
2165.088504374271
 22
-438.4339746114025
 32
0.0
 13
2165.088504374271
 23
-438.4339746114025
 33
0.0
  0
POINT
  5
4FA8
330
4FAB
100
AcDbEntity
  8
Defpoints
 62
     0
100
AcDbPoint
 10
2165.088504374271
 20
-438.4339746114025
 30
0.0
  0
POINT
  5
4FA9
330
4FAB
100
AcDbEntity
  8
Defpoints
 62
     0
100
AcDbPoint
 10
2187.629244530803
 20
-418.6371305903345
 30
0.0
  0
ENDBLK
  5
4FAD
330
4FAB
100
AcDbEntity
  8
0
100
AcDbBlockEnd
  0
BLOCK
  5
4FB7
330
4FB6
100
AcDbEntity
  8
0
100
AcDbBlockBegin
  2
*D92
 70
     1
 10
0.0
 20
0.0
 30
0.0
  3
*D92
  1

  0
LINE
  5
4FB0
330
4FB6
100
AcDbEntity
  8
标注
 62
     0
370
    -2
100
AcDbLine
 10
2085.997966136518
 20
-494.4658062144268
 30
0.0
 11
2120.653210234934
 21
-421.9919592010016
 31
0.0
  0
MTEXT
  5
4FB1
330
4FB6
100
AcDbEntity
  8
标注
 62
     0
100
AcDbMText
 10
2089.930949812162
 20
-459.5830107819389
 30
0.0
 40
19.99999999999928
 41
0.0
 71
     5
 72
     1
  1
R120
 11
0.4313930800634822
 21
0.9021640707062889
 31
0.0
 73
     1
 44
1.0
1001
ACAD
1000
MTEXTBEGIN
1070
    73
1070
     1
1070
    44
1040
1.0
1070
    74
1070
     0
1000
MTEXTEND
  0
SOLID
  5
4FB2
330
4FB6
100
AcDbEntity
  8
标注
 62
     0
100
AcDbTrace
 10
2118.54816073662
 20
-420.9853753475223
 30
0.0
 11
2122.758259733247
 21
-422.9985430544807
 31
0.0
 12
2126.69271335582
 22
-409.3616622111118
 32
0.0
 13
2126.69271335582
 23
-409.3616622111118
 33
0.0
  0
POINT
  5
4FB3
330
4FB6
100
AcDbEntity
  8
Defpoints
 62
     0
100
AcDbPoint
 10
2126.69271335582
 20
-409.3616622111118
 30
0.0
  0
POINT
  5
4FB4
330
4FB6
100
AcDbEntity
  8
Defpoints
 62
     0
100
AcDbPoint
 10
2074.925543748213
 20
-517.6213506959144
 30
0.0
  0
ENDBLK
  5
4FB8
330
4FB6
100
AcDbEntity
  8
0
100
AcDbBlockEnd
  0
BLOCK
  5
4FD1
330
4FD0
100
AcDbEntity
  8
0
100
AcDbBlockBegin
  2
*D93
 70
     1
 10
0.0
 20
0.0
 30
0.0
  3
*D93
  1

  0
LINE
  5
4FC6
330
4FD0
100
AcDbEntity
  8
标注
 62
     0
370
    -2
100
AcDbLine
 10
2491.62633964049
 20
-667.6371305902981
 30
0.0
 11
2603.575892759494
 21
-667.6371305902981
 31
0.0
  0
LINE
  5
4FC7
330
4FD0
100
AcDbEntity
  8
标注
 62
     0
370
    -2
100
AcDbLine
 10
2372.629244530788
 20
-886.6371305902982
 30
0.0
 11
2603.575892759494
 21
-886.6371305902982
 31
0.0
  0
LINE
  5
4FC8
330
4FD0
100
AcDbEntity
  8
标注
 62
     0
370
    -2
100
AcDbLine
 10
2597.575892759494
 20
-681.6371305902982
 30
0.0
 11
2597.575892759494
 21
-872.6371305902981
 31
0.0
  0
SOLID
  5
4FC9
330
4FD0
100
AcDbEntity
  8
标注
 62
     0
100
AcDbTrace
 10
2595.242559426162
 20
-681.6371305902982
 30
0.0
 11
2599.909226092826
 21
-681.6371305902982
 31
0.0
 12
2597.575892759494
 22
-667.6371305902981
 32
0.0
 13
2597.575892759494
 23
-667.6371305902981
 33
0.0
  0
SOLID
  5
4FCA
330
4FD0
100
AcDbEntity
  8
标注
 62
     0
100
AcDbTrace
 10
2595.242559426162
 20
-872.6371305902981
 30
0.0
 11
2599.909226092826
 21
-872.6371305902981
 31
0.0
 12
2597.575892759494
 22
-886.6371305902982
 32
0.0
 13
2597.575892759494
 23
-886.6371305902982
 33
0.0
  0
MTEXT
  5
4FCB
330
4FD0
100
AcDbEntity
  8
标注
 62
     0
100
AcDbMText
 10
2586.075892759498
 20
-777.1371305902909
 30
0.0
 40
20.0
 41
0.0
 71
     5
 72
     1
  1
219
 11
0.0
 21
1.0
 31
0.0
 73
     1
 44
1.0
1001
ACAD
1000
MTEXTBEGIN
1070
    73
1070
     1
1070
    44
1040
1.0
1070
    74
1070
     0
1000
MTEXTEND
  0
POINT
  5
4FCC
330
4FD0
100
AcDbEntity
  8
Defpoints
 62
     0
100
AcDbPoint
 10
2491.62633964049
 20
-667.6371305902981
 30
0.0
  0
POINT
  5
4FCD
330
4FD0
100
AcDbEntity
  8
Defpoints
 62
     0
100
AcDbPoint
 10
2372.629244530788
 20
-886.6371305902982
 30
0.0
  0
POINT
  5
4FCE
330
4FD0
100
AcDbEntity
  8
Defpoints
 62
     0
100
AcDbPoint
 10
2597.575892759494
 20
-886.6371305902982
 30
0.0
  0
ENDBLK
  5
4FD2
330
4FD0
100
AcDbEntity
  8
0
100
AcDbBlockEnd
  0
BLOCK
  5
4FE0
330
4FDF
100
AcDbEntity
  8
0
100
AcDbBlockBegin
  2
*D94
 70
     1
 10
0.0
 20
0.0
 30
0.0
  3
*D94
  1

  0
LINE
  5
4FD5
330
4FDF
100
AcDbEntity
  8
标注
 62
     0
370
    -2
100
AcDbLine
 10
2372.629244530788
 20
-886.6371305902982
 30
0.0
 11
2674.244613151215
 21
-886.6371305902982
 31
0.0
  0
LINE
  5
4FD6
330
4FDF
100
AcDbEntity
  8
标注
 62
     0
370
    -2
100
AcDbLine
 10
2372.629244530788
 20
-448.6371305902909
 30
0.0
 11
2674.244613151215
 21
-448.6371305902909
 31
0.0
  0
LINE
  5
4FD7
330
4FDF
100
AcDbEntity
  8
标注
 62
     0
370
    -2
100
AcDbLine
 10
2668.244613151215
 20
-872.6371305902981
 30
0.0
 11
2668.244613151215
 21
-462.6371305902909
 31
0.0
  0
SOLID
  5
4FD8
330
4FDF
100
AcDbEntity
  8
标注
 62
     0
100
AcDbTrace
 10
2665.911279817883
 20
-872.6371305902981
 30
0.0
 11
2670.577946484547
 21
-872.6371305902981
 31
0.0
 12
2668.244613151215
 22
-886.6371305902982
 32
0.0
 13
2668.244613151215
 23
-886.6371305902982
 33
0.0
  0
SOLID
  5
4FD9
330
4FDF
100
AcDbEntity
  8
标注
 62
     0
100
AcDbTrace
 10
2665.911279817883
 20
-462.6371305902909
 30
0.0
 11
2670.577946484547
 21
-462.6371305902909
 31
0.0
 12
2668.244613151215
 22
-448.6371305902909
 32
0.0
 13
2668.244613151215
 23
-448.6371305902909
 33
0.0
  0
MTEXT
  5
4FDA
330
4FDF
100
AcDbEntity
  8
标注
 62
     0
100
AcDbMText
 10
2656.744613151219
 20
-669.2874273543171
 30
0.0
 40
20.0
 41
0.0
 71
     5
 72
     1
  1
438
 11
0.0
 21
1.0
 31
0.0
 73
     1
 44
1.0
1001
ACAD
1000
MTEXTBEGIN
1070
    73
1070
     1
1070
    44
1040
1.0
1070
    74
1070
     0
1000
MTEXTEND
  0
POINT
  5
4FDB
330
4FDF
100
AcDbEntity
  8
Defpoints
 62
     0
100
AcDbPoint
 10
2372.629244530788
 20
-886.6371305902982
 30
0.0
  0
POINT
  5
4FDC
330
4FDF
100
AcDbEntity
  8
Defpoints
 62
     0
100
AcDbPoint
 10
2372.629244530788
 20
-448.6371305902909
 30
0.0
  0
POINT
  5
4FDD
330
4FDF
100
AcDbEntity
  8
Defpoints
 62
     0
100
AcDbPoint
 10
2668.244613151215
 20
-448.6371305902909
 30
0.0
  0
ENDBLK
  5
4FE1
330
4FDF
100
AcDbEntity
  8
0
100
AcDbBlockEnd
  0
ENDSEC
  0
SECTION
  2
ENTITIES
  0
LINE
  5
374D
330
1F
100
AcDbEntity
  8
粗实线
100
AcDbLine
 10
1312.153269004954
 20
104.7772279732067
 30
0.0
 11
800.8621056624861
 21
104.7772279732067
 31
0.0
  0
LINE
  5
374E
330
1F
100
AcDbEntity
  8
图框线
100
AcDbLine
 10
1141.722881224121
 20
235.440525271842
 30
0.0
 11
1141.722881224121
 21
104.7772279732067
 31
0.0
  0
LINE
  5
374F
330
1F
100
AcDbEntity
  8
图框线
100
AcDbLine
 10
971.2924934432926
 20
235.440525271842
 30
0.0
 11
971.2924934432926
 21
104.7772279732067
 31
0.0
  0
LINE
  5
3750
330
1F
100
AcDbEntity
  8
图框线
100
AcDbLine
 10
992.5962919159251
 20
155.9063443074537
 30
0.0
 11
992.5962919159251
 21
124.6607732143136
 31
0.0
  0
LINE
  5
3751
330
1F
100
AcDbEntity
  8
图框线
100
AcDbLine
 10
1013.90009038851
 20
155.9063443074537
 30
0.0
 11
1013.90009038851
 21
124.6607732143136
 31
0.0
  0
LINE
  5
3752
330
1F
100
AcDbEntity
  8
图框线
100
AcDbLine
 10
1056.507687333696
 20
124.6607732143136
 30
0.0
 11
1056.507687333696
 21
104.7772279732067
 31
0.0
  0
LINE
  5
3753
330
1F
100
AcDbEntity
  8
图框线
100
AcDbLine
 10
1035.203888861099
 20
172.9493830855488
 30
0.0
 11
1035.203888861099
 21
124.6607732143136
 31
0.0
  0
LINE
  5
3754
330
1F
100
AcDbEntity
  8
图框线
100
AcDbLine
 10
1069.289966417271
 20
172.9493830855488
 30
0.0
 11
1069.289966417271
 21
124.6607732143136
 31
0.0
  0
LINE
  5
3755
330
1F
100
AcDbEntity
  8
图框线
100
AcDbLine
 10
1107.636803667952
 20
172.9493830855488
 30
0.0
 11
1107.636803667952
 21
124.6607732143136
 31
0.0
  0
LINE
  5
3756
330
1F
100
AcDbEntity
  8
粗实线
100
AcDbLine
 10
1312.153269004954
 20
104.7772279732067
 30
0.0
 11
800.8621056624861
 21
104.7772279732067
 31
0.0
  0
LINE
  5
3757
330
1F
100
AcDbEntity
  8
粗实线
100
AcDbLine
 10
1312.153269004954
 20
235.440525271842
 30
0.0
 11
800.8621056624861
 21
235.440525271842
 31
0.0
  0
LINE
  5
3758
330
1F
100
AcDbEntity
  8
图框线
100
AcDbLine
 10
1141.722881224121
 20
172.9493830855488
 30
0.0
 11
800.8621056624861
 21
172.9493830855488
 31
0.0
  0
LINE
  5
3759
330
1F
100
AcDbEntity
  8
图框线
100
AcDbLine
 10
971.2924934432926
 20
185.4476115228044
 30
0.0
 11
800.8621056624861
 21
185.4476115228044
 31
0.0
  0
LINE
  5
375A
330
1F
100
AcDbEntity
  8
图框线
100
AcDbLine
 10
971.2924934432926
 20
197.9458399600567
 30
0.0
 11
800.8621056624861
 21
197.9458399600567
 31
0.0
  0
LINE
  5
375B
330
1F
100
AcDbEntity
  8
图框线
100
AcDbLine
 10
971.2924934432926
 20
210.4440683973211
 30
0.0
 11
800.8621056624861
 21
210.4440683973211
 31
0.0
  0
LINE
  5
375C
330
1F
100
AcDbEntity
  8
图框线
100
AcDbLine
 10
971.2924934432926
 20
222.9422968345865
 30
0.0
 11
800.8621056624861
 21
222.9422968345865
 31
0.0
  0
LINE
  5
375D
330
1F
100
AcDbEntity
  8
图框线
100
AcDbLine
 10
1141.722881224121
 20
155.9063443074537
 30
0.0
 11
800.8621056624861
 21
155.9063443074537
 31
0.0
  0
LINE
  5
375E
330
1F
100
AcDbEntity
  8
图框线
100
AcDbLine
 10
1141.722881224121
 20
138.8633055293685
 30
0.0
 11
800.8621056624861
 21
138.8633055293685
 31
0.0
  0
LINE
  5
375F
330
1F
100
AcDbEntity
  8
图框线
100
AcDbLine
 10
971.2924934432926
 20
121.8202667512876
 30
0.0
 11
800.8621056624861
 21
121.8202667512876
 31
0.0
  0
LINE
  5
3760
330
1F
100
AcDbEntity
  8
图框线
100
AcDbLine
 10
1141.722881224121
 20
155.9063443074537
 30
0.0
 11
971.2924934432926
 21
155.9063443074537
 31
0.0
  0
LINE
  5
3761
330
1F
100
AcDbEntity
  8
图框线
100
AcDbLine
 10
1141.722881224121
 20
138.8633055293685
 30
0.0
 11
971.2924934432926
 21
138.8633055293685
 31
0.0
  0
LINE
  5
3762
330
1F
100
AcDbEntity
  8
图框线
100
AcDbLine
 10
1141.722881224121
 20
124.6607732143136
 30
0.0
 11
971.2924934432926
 21
124.6607732143136
 31
0.0
  0
LINE
  5
3763
330
1F
100
AcDbEntity
  8
图框线
100
AcDbLine
 10
1312.153269004954
 20
189.9924218636209
 30
0.0
 11
1141.722881224121
 21
189.9924218636209
 31
0.0
  0
LINE
  5
3764
330
1F
100
AcDbEntity
  8
图框线
100
AcDbLine
 10
1312.153269004954
 20
147.3848249183975
 30
0.0
 11
1141.722881224121
 21
147.3848249183975
 31
0.0
  0
LINE
  5
3765
330
1F
100
AcDbEntity
  8
图框线
100
AcDbLine
 10
823.5861573665806
 20
172.9493830855258
 30
0.0
 11
823.5861573665806
 21
235.440525271842
 31
0.0
  0
LINE
  5
3766
330
1F
100
AcDbEntity
  8
图框线
100
AcDbLine
 10
846.3102090706888
 20
172.9493830855258
 30
0.0
 11
846.3102090706888
 21
235.440525271842
 31
0.0
  0
LINE
  5
3767
330
1F
100
AcDbEntity
  8
图框线
100
AcDbLine
 10
894.5988189419422
 20
172.9493830855488
 30
0.0
 11
894.5988189419422
 21
235.440525271842
 31
0.0
  0
LINE
  5
3768
330
1F
100
AcDbEntity
  8
图框线
100
AcDbLine
 10
937.206415887133
 20
172.9493830855488
 30
0.0
 11
937.206415887133
 21
235.440525271842
 31
0.0
  0
LINE
  5
3769
330
1F
100
AcDbEntity
  8
图框线
100
AcDbLine
 10
834.9481832186411
 20
104.7772279732067
 30
0.0
 11
834.9481832186411
 21
172.9493830855258
 31
0.0
  0
LINE
  5
376A
330
1F
100
AcDbEntity
  8
图框线
100
AcDbLine
 10
886.0772995528936
 20
104.7772279732067
 30
0.0
 11
886.0772995528936
 21
172.9493830855488
 31
0.0
  0
LINE
  5
376B
330
1F
100
AcDbEntity
  8
图框线
100
AcDbLine
 10
920.1633771090492
 20
104.7772279732067
 30
0.0
 11
920.1633771090492
 21
172.9493830855488
 31
0.0
  0
MTEXT
  5
376C
330
1F
100
AcDbEntity
  8
文字
100
AcDbMText
 10
805.2046618666018
 20
182.7231602168328
 30
0.0
 40
5.76616404792258
 41
37.05480222297226
 71
     1
 72
     5
  1
{\fSimSun|b0|i0|c134|p2;标记}
 73
     1
 44
1.0
1001
ACAD
1000
MTEXTBEGIN
1070
    73
1070
     1
1070
    44
1040
1.0
1070
    74
1070
     0
1000
MTEXTEND
  0
MTEXT
  5
376D
330
1F
100
AcDbEntity
  8
文字
100
AcDbMText
 10
827.4454467951972
 20
182.6556312063843
 30
0.0
 40
5.76616404792258
 41
37.05480222297226
 71
     1
 72
     5
  1
{\fSimSun|b0|i0|c134|p2;处数}
 73
     1
 44
1.0
1001
ACAD
1000
MTEXTBEGIN
1070
    73
1070
     1
1070
    44
1040
1.0
1070
    74
1070
     0
1000
MTEXTEND
  0
MTEXT
  5
376E
330
1F
100
AcDbEntity
  8
文字
100
AcDbMText
 10
855.0144261336141
 20
181.9338139648403
 30
0.0
 40
4.612931238338064
 41
78.79313184560102
 71
     1
 72
     5
  1
{\fSimSun|b0|i0|c134|p2;\C1;更改文件号}
 73
     1
 44
1.0
1001
ACAD
1000
MTEXTBEGIN
1070
    73
1070
     1
1070
    44
1040
1.0
1070
    74
1070
     0
1000
MTEXTEND
  0
MTEXT
  5
376F
330
1F
100
AcDbEntity
  8
文字
100
AcDbMText
 10
906.9972141803036
 20
183.0779492374174
 30
0.0
 40
5.76616404792258
 41
37.05480222297226
 71
     1
 72
     5
  1
{\fSimSun|b0|i0|c134|p2;签名}
 73
     1
 44
1.0
1001
ACAD
1000
MTEXTBEGIN
1070
    73
1070
     1
1070
    44
1040
1.0
1070
    74
1070
     0
1000
MTEXTEND
  0
MTEXT
  5
3770
330
1F
100
AcDbEntity
  8
文字
100
AcDbMText
 10
947.8446941743658
 20
182.7384334443704
 30
0.0
 40
5.76616404792258
 41
37.05480222297226
 71
     1
 72
     5
  1
{\fSimSun|b0|i0|c134|p2;日期}
 73
     1
 44
1.0
1001
ACAD
1000
MTEXTBEGIN
1070
    73
1070
     1
1070
    44
1040
1.0
1070
    74
1070
     0
1000
MTEXTEND
  0
MTEXT
  5
3771
330
1F
100
AcDbEntity
  8
文字
100
AcDbMText
 10
808.2301018565075
 20
168.5096935566863
 30
0.0
 40
7.207705059903223
 41
46.31850277871532
 71
     1
 72
     5
  1
{\fSimSun|b0|i0|c134|p2;设计}
 73
     1
 44
1.0
1001
ACAD
1000
MTEXTBEGIN
1070
    73
1070
     1
1070
    44
1040
1.0
1070
    74
1070
     0
1000
MTEXTEND
  0
MTEXT
  5
3772
330
1F
100
AcDbEntity
  8
文字
100
AcDbMText
 10
808.2301018565075
 20
151.3507319122731
 30
0.0
 40
7.207705059903223
 41
46.31850277871532
 71
     1
 72
     5
  1
{\fSimSun|b0|i0|c134|p2;校对}
 73
     1
 44
1.0
1001
ACAD
1000
MTEXTBEGIN
1070
    73
1070
     1
1070
    44
1040
1.0
1070
    74
1070
     0
1000
MTEXTEND
  0
MTEXT
  5
3773
330
1F
100
AcDbEntity
  8
文字
100
AcDbMText
 10
808.2301018565075
 20
134.3599952654141
 30
0.0
 40
7.207705059903223
 41
46.31850277871532
 71
     1
 72
     5
  1
{\fSimSun|b0|i0|c134|p2;会签}
 73
     1
 44
1.0
1001
ACAD
1000
MTEXTBEGIN
1070
    73
1070
     1
1070
    44
1040
1.0
1070
    74
1070
     0
1000
MTEXTEND
  0
MTEXT
  5
3774
330
1F
100
AcDbEntity
  8
文字
100
AcDbMText
 10
808.2301018565075
 20
117.5537034342869
 30
0.0
 40
7.207705059903223
 41
46.31850277871532
 71
     1
 72
     5
  1
{\fSimSun|b0|i0|c134|p2;工艺}
 73
     1
 44
1.0
1001
ACAD
1000
MTEXTBEGIN
1070
    73
1070
     1
1070
    44
1040
1.0
1070
    74
1070
     0
1000
MTEXTEND
  0
MTEXT
  5
3775
330
1F
100
AcDbEntity
  8
文字
100
AcDbMText
 10
893.3282976802974
 20
150.3366625013145
 30
0.0
 40
7.207705059903223
 41
46.31850277871532
 71
     1
 72
     5
  1
{\fSimSun|b0|i0|c134|p2;批准}
 73
     1
 44
1.0
1001
ACAD
1000
MTEXTBEGIN
1070
    73
1070
     1
1070
    44
1040
1.0
1070
    74
1070
     0
1000
MTEXTEND
  0
MTEXT
  5
3776
330
1F
100
AcDbEntity
  8
文字
100
AcDbMText
 10
894.864398994132
 20
116.5396471905496
 30
0.0
 40
7.207705059903223
 41
46.31850277871532
 71
     1
 72
     5
  1
{\fSimSun|b0|i0|c134|p2;日期}
 73
     1
 44
1.0
1001
ACAD
1000
MTEXTBEGIN
1070
    73
1070
     1
1070
    44
1040
1.0
1070
    74
1070
     0
1000
MTEXTEND
  0
MTEXT
  5
3777
330
1F
100
AcDbEntity
  8
文字
100
AcDbMText
 10
983.7481539452765
 20
168.6501223582166
 30
0.0
 40
7.207705059903223
 41
46.31850277871532
 71
     1
 72
     5
  1
{\fSimSun|b0|i0|c134|p2;图样标记}
 73
     1
 44
1.0
1001
ACAD
1000
MTEXTBEGIN
1070
    73
1070
     1
1070
    44
1040
1.0
1070
    74
1070
     0
1000
MTEXTEND
  0
MTEXT
  5
3778
330
1F
100
AcDbEntity
  8
文字
100
AcDbMText
 10
995.0843186082666
 20
118.1693283463431
 30
0.0
 40
7.207705059903223
 41
46.31850277871532
 71
     1
 72
     5
  1
{\fSimSun|b0|i0|c134|p2;共  页}
 73
     1
 44
1.0
1001
ACAD
1000
MTEXTBEGIN
1070
    73
1070
     1
1070
    44
1040
1.0
1070
    74
1070
     0
1000
MTEXTEND
  0
MTEXT
  5
3779
330
1F
100
AcDbEntity
  8
文字
100
AcDbMText
 10
1044.041784847759
 20
168.5853855989993
 30
0.0
 40
7.207705059903223
 41
46.31850277871532
 71
     1
 72
     5
  1
{\fSimSun|b0|i0|c134|p2;数量}
 73
     1
 44
1.0
1001
ACAD
1000
MTEXTBEGIN
1070
    73
1070
     1
1070
    44
1040
1.0
1070
    74
1070
     0
1000
MTEXTEND
  0
MTEXT
  5
377A
330
1F
100
AcDbEntity
  8
文字
100
AcDbMText
 10
1074.325185452586
 20
168.1165798552199
 30
0.0
 40
7.207705059903223
 41
46.31850277871532
 71
     1
 72
     5
  1
{\fSimSun|b0|i0|c134|p2;重量}
 73
     1
 44
1.0
1001
ACAD
1000
MTEXTBEGIN
1070
    73
1070
     1
1070
    44
1040
1.0
1070
    74
1070
     0
1000
MTEXTEND
  0
MTEXT
  5
377B
330
1F
100
AcDbEntity
  8
文字
100
AcDbMText
 10
1115.756801074705
 20
168.4916218168018
 30
0.0
 40
7.207705059903223
 41
46.31850277871532
 71
     1
 72
     5
  1
{\fSimSun|b0|i0|c134|p2;比例}
 73
     1
 44
1.0
1001
ACAD
1000
MTEXTBEGIN
1070
    73
1070
     1
1070
    44
1040
1.0
1070
    74
1070
     0
1000
MTEXTEND
  0
MTEXT
  5
377C
330
1F
100
AcDbEntity
  8
文字
100
AcDbMText
 10
1096.295006113289
 20
167.3686407050439
 30
0.0
 40
8.376994420203065
 41
166.3293400774424
 71
     1
 72
     5
  1
{\fArial|b0|i0|c0|p34;kg}
  7
样式 8
 73
     1
 44
1.0
1001
ACAD
1000
MTEXTBEGIN
1070
    73
1070
     1
1070
    44
1040
1.0
1070
    74
1070
     0
1000
MTEXTEND
  0
MTEXT
  5
377D
330
1F
100
AcDbEntity
  8
文字
100
AcDbMText
 10
1080.948608479091
 20
118.1693283463431
 30
0.0
 40
7.207705059903223
 41
46.31850277871532
 71
     1
 72
     5
  1
{\fSimSun|b0|i0|c134|p2;第  页}
 73
     1
 44
1.0
1001
ACAD
1000
MTEXTBEGIN
1070
    73
1070
     1
1070
    44
1040
1.0
1070
    74
1070
     0
1000
MTEXTEND
  0
MTEXT
  5
377E
330
1F
100
AcDbEntity
  8
文字
100
AcDbMText
 10
1150.049658846503
 20
215.6831650146785
 30
0.0
 40
10.47124302525383
 41
207.911675096803
 71
     1
 72
     5
  1
{\fSimSun|b0|i0|c134|p2;\C1;泰捷不锈钢制品（泰国）有限公司}
  7
样式 8
 73
     1
 44
1.0
1001
ACAD
1000
MTEXTBEGIN
1070
    73
1070
     1
1070
    44
1040
1.0
1070
    74
1070
     0
1000
MTEXTEND
  0
MTEXT
  5
377F
330
1F
100
AcDbEntity
  8
文字
100
AcDbMText
 10
1165.500389003744
 20
178.0142003842902
 30
0.0
 40
13.63443102246592
 41
270.7183269489622
 71
     1
 72
     5
  1
{\fSimSun|b0|i0|c134|p2;\C1;开孔纸板（FD2001R）}
  7
样式 8
 73
     1
 44
1.0
1001
ACAD
1000
MTEXTBEGIN
1070
    73
1070
     1
1070
    44
1040
1.0
1070
    74
1070
     0
1000
MTEXTEND
  0
LINE
  5
3780
330
1F
100
AcDbEntity
  8
不可见
100
AcDbLine
 10
1326.355801320022
 20
934.2051151732198
 30
0.0
 11
1326.355801320022
 21
90.57469565813875
 31
0.0
  0
LINE
  5
3781
330
1F
100
AcDbEntity
  8
粗实线
100
AcDbLine
 10
1312.153269004954
 20
920.0025828581672
 30
0.0
 11
1312.153269004954
 21
104.7772279732067
 31
0.0
  0
LINE
  5
3782
330
1F
100
AcDbEntity
  8
不可见
100
AcDbLine
 10
1326.355801320022
 20
90.57469565813875
 30
0.0
 11
133.3430868542532
 21
90.57469565813875
 31
0.0
  0
LINE
  5
3783
330
1F
100
AcDbEntity
  8
粗实线
100
AcDbLine
 10
1312.153269004954
 20
104.7772279732067
 30
0.0
 11
204.3557484295843
 21
104.7772279732067
 31
0.0
  0
LINE
  5
3784
330
1F
100
AcDbEntity
  8
粗实线
100
AcDbLine
 10
1312.153269004954
 20
104.7772279732067
 30
0.0
 11
204.3557484295843
 21
104.7772279732067
 31
0.0
  0
MTEXT
  5
3785
330
1F
100
AcDbEntity
  8
文字
100
AcDbMText
 10
1018.2542304243
 20
207.2976249649265
 30
0.0
 40
13.63443102246592
 41
270.7183269489622
 71
     1
 72
     5
  1
{\fSimSun|b0|i0|c0|p2;\C1;0.3\fSimSun|b0|i0|c134|p2;mm厚白纸板}
  7
样式 8
 73
     1
 44
1.0
1001
ACAD
1000
MTEXTBEGIN
1070
    73
1070
     1
1070
    44
1040
1.0
1070
    74
1070
     0
1000
MTEXTEND
  0
MTEXT
  5
3786
330
1F
100
AcDbEntity
  8
文字
100
AcDbMText
 10
978.7461583391122
 20
228.5163790124311
 30
0.0
 40
13.63443102246592
 41
270.7183269489622
 71
     1
 72
     5
  1
{\fSimSun|b0|i0|c134|p2;材料:}
  7
样式 8
 73
     1
 44
1.0
1001
ACAD
1000
MTEXTBEGIN
1070
    73
1070
     1
1070
    44
1040
1.0
1070
    74
1070
     0
1000
MTEXTEND
  0
MTEXT
  5
3787
330
1F
100
AcDbEntity
  8
文字
100
AcDbMText
 10
893.3282976802974
 20
167.4241467036117
 30
0.0
 40
7.207705059903223
 41
46.31850277871532
 71
     1
 72
     5
  1
{\fSimSun|b0|i0|c134|p2;审核}
 73
     1
 44
1.0
1001
ACAD
1000
MTEXTBEGIN
1070
    73
1070
     1
1070
    44
1040
1.0
1070
    74
1070
     0
1000
MTEXTEND
  0
LINE
  5
3788
330
1F
100
AcDbEntity
  8
不可见
100
AcDbLine
 10
133.3430868542532
 20
934.2051151732198
 30
0.0
 11
1326.355801320022
 21
934.2051151732198
 31
0.0
  0
LINE
  5
3789
330
1F
100
AcDbEntity
  8
粗实线
100
AcDbLine
 10
204.3557484295843
 20
920.0025828581486
 30
0.0
 11
1312.153269004954
 21
920.0025828581486
 31
0.0
  0
LINE
  5
378A
330
1F
100
AcDbEntity
  8
不可见
100
AcDbLine
 10
133.3430868542532
 20
90.57469565813875
 30
0.0
 11
133.3430868542532
 21
934.2051151732198
 31
0.0
  0
LINE
  5
378B
330
1F
100
AcDbEntity
  8
粗实线
100
AcDbLine
 10
204.3557484295843
 20
104.7772279732067
 30
0.0
 11
204.3557484295843
 21
920.0025828581486
 31
0.0
  0
LINE
  5
378C
330
1F
100
AcDbEntity
  8
粗实线
100
AcDbLine
 10
204.3557484295843
 20
890.5457369119361
 30
0.0
 11
344.4026727599758
 21
890.5457369119361
 31
0.0
  0
LINE
  5
378D
330
1F
100
AcDbEntity
  8
粗实线
100
AcDbLine
 10
344.4026727599758
 20
890.5457369119361
 30
0.0
 11
344.4026727599758
 21
920.0025828581486
 31
0.0
  0
LINE
  5
378E
330
1F
100
AcDbEntity
  8
图框线
100
AcDbLine
 10
204.3557484295843
 20
127.5012796773123
 30
0.0
 11
133.3430868542532
 21
127.5012796773123
 31
0.0
  0
LINE
  5
378F
330
1F
100
AcDbEntity
  8
图框线
100
AcDbLine
 10
204.3557484295843
 20
144.5443184554074
 30
0.0
 11
133.3430868542532
 21
144.5443184554074
 31
0.0
  0
LINE
  5
3790
330
1F
100
AcDbEntity
  8
图框线
100
AcDbLine
 10
204.3557484295843
 20
167.2683701595043
 30
0.0
 11
133.3430868542532
 21
167.2683701595043
 31
0.0
  0
LINE
  5
3791
330
1F
100
AcDbEntity
  8
图框线
100
AcDbLine
 10
204.3557484295843
 20
184.3114089375896
 30
0.0
 11
133.3430868542532
 21
184.3114089375896
 31
0.0
  0
LINE
  5
3792
330
1F
100
AcDbEntity
  8
图框线
100
AcDbLine
 10
204.3557484295843
 20
207.0354606416974
 30
0.0
 11
133.3430868542532
 21
207.0354606416974
 31
0.0
  0
LINE
  5
3793
330
1F
100
AcDbEntity
  8
图框线
100
AcDbLine
 10
204.3557484295843
 20
224.0784994197739
 30
0.0
 11
133.3430868542532
 21
224.0784994197739
 31
0.0
  0
LINE
  5
3794
330
1F
100
AcDbEntity
  8
图框线
100
AcDbLine
 10
204.3557484295843
 20
246.8025511238982
 30
0.0
 11
133.3430868542532
 21
246.8025511238982
 31
0.0
  0
LINE
  5
3795
330
1F
100
AcDbEntity
  8
图框线
100
AcDbLine
 10
204.3557484295843
 20
263.8455899019736
 30
0.0
 11
133.3430868542532
 21
263.8455899019736
 31
0.0
  0
LINE
  5
3796
330
1F
100
AcDbEntity
  8
图框线
100
AcDbLine
 10
204.3557484295843
 20
286.5696416060989
 30
0.0
 11
133.3430868542532
 21
286.5696416060989
 31
0.0
  0
LINE
  5
3797
330
1F
100
AcDbEntity
  8
图框线
100
AcDbLine
 10
204.3557484295843
 20
303.6126803841885
 30
0.0
 11
133.3430868542532
 21
303.6126803841885
 31
0.0
  0
LINE
  5
3798
330
1F
100
AcDbEntity
  8
图框线
100
AcDbLine
 10
204.3557484295843
 20
326.3367320882712
 30
0.0
 11
133.3430868542532
 21
326.3367320882712
 31
0.0
  0
LINE
  5
3799
330
1F
100
AcDbEntity
  8
图框线
100
AcDbLine
 10
204.3557484295843
 20
343.3797708663576
 30
0.0
 11
133.3430868542532
 21
343.3797708663576
 31
0.0
  0
LINE
  5
379A
330
1F
100
AcDbEntity
  8
图框线
100
AcDbLine
 10
204.3557484295843
 20
360.4228096444341
 30
0.0
 11
133.3430868542532
 21
360.4228096444341
 31
0.0
  0
LINE
  5
379B
330
1F
100
AcDbEntity
  8
图框线
100
AcDbLine
 10
204.3557484295843
 20
104.7772279732067
 30
0.0
 11
133.3430868542532
 21
104.7772279732067
 31
0.0
  0
MTEXT
  5
379C
102
{ACAD_XDICTIONARY
360
51FE
102
}
330
1F
100
AcDbEntity
  8
文字
100
AcDbMText
 10
140.9543054598834
 20
139.8463363545808
 30
0.0
 40
5.915354709226101
 41
150.277363855773
 71
     1
 72
     5
  1
\U+65E5   
 73
     1
 44
1.0
1001
ACAD
1000
MTEXTBEGIN
1070
    73
1070
     1
1070
    44
1040
1.0
1070
    74
1070
     0
1000
MTEXTEND
  0
MTEXT
  5
379D
102
{ACAD_XDICTIONARY
360
5200
102
}
330
1F
100
AcDbEntity
  8
文字
100
AcDbMText
 10
140.9543054598834
 20
179.591647076336
 30
0.0
 40
5.915354709226101
 41
150.277363855773
 71
     1
 72
     5
  1
\U+7B7E   
 73
     1
 44
1.0
1001
ACAD
1000
MTEXTBEGIN
1070
    73
1070
     1
1070
    44
1040
1.0
1070
    74
1070
     0
1000
MTEXTEND
  0
MTEXT
  5
379E
102
{ACAD_XDICTIONARY
360
5202
102
}
330
1F
100
AcDbEntity
  8
文字
100
AcDbMText
 10
140.9543054598834
 20
220.4479840757238
 30
0.0
 40
5.915354709226101
 41
150.277363855773
 71
     1
 72
     5
  1
\U+5E95
 73
     1
 44
1.0
1001
ACAD
1000
MTEXTBEGIN
1070
    73
1070
     1
1070
    44
1040
1.0
1070
    74
1070
     0
1000
MTEXTEND
  0
MTEXT
  5
379F
102
{ACAD_XDICTIONARY
360
5204
102
}
330
1F
100
AcDbEntity
  8
文字
100
AcDbMText
 10
140.9543054598834
 20
259.0603306663783
 30
0.0
 40
5.915354709226101
 41
150.277363855773
 71
     1
 72
     5
  1
\U+65E7
 73
     1
 44
1.0
1001
ACAD
1000
MTEXTBEGIN
1070
    73
1070
     1
1070
    44
1040
1.0
1070
    74
1070
     0
1000
MTEXTEND
  0
MTEXT
  5
37A0
102
{ACAD_XDICTIONARY
360
5206
102
}
330
1F
100
AcDbEntity
  8
文字
100
AcDbMText
 10
139.8857943943148
 20
340.5718264789393
 30
0.0
 40
5.915354709226101
 41
150.277363855773
 71
     1
 72
     5
  1
\U+63CF   
 73
     1
 44
1.0
1001
ACAD
1000
MTEXTBEGIN
1070
    73
1070
     1
1070
    44
1040
1.0
1070
    74
1070
     0
1000
MTEXTEND
  0
MTEXT
  5
37A1
102
{ACAD_XDICTIONARY
360
5208
102
}
330
1F
100
AcDbEntity
  8
文字
100
AcDbMText
 10
137.0355211677711
 20
357.9048914772025
 30
0.0
 40
5.915354709226101
 41
150.277363855773
 71
     1
 72
     5
  1
\ftxt.shx,gbcbig.shx;\H1x;\C1;\U+501F\U+FF08\U+901A\U+FF09\U+7528\U+4EF6\U+767B\U+8BB0
 73
     1
 44
1.0
1001
ACAD
1000
MTEXTBEGIN
1070
    73
1070
     1
1070
    44
1040
1.0
1070
    74
1070
     0
1000
MTEXTEND
  0
MTEXT
  5
37A2
102
{ACAD_XDICTIONARY
360
520A
102
}
330
1F
100
AcDbEntity
  8
文字
100
AcDbMText
 10
190.3090572523288
 20
340.5718264789393
 30
0.0
 40
5.915354709226101
 41
150.277363855773
 71
     1
 72
     5
  1
\U+56FE   
 73
     1
 44
1.0
1001
ACAD
1000
MTEXTBEGIN
1070
    73
1070
     1
1070
    44
1040
1.0
1070
    74
1070
     0
1000
MTEXTEND
  0
MTEXT
  5
37A3
102
{ACAD_XDICTIONARY
360
520C
102
}
330
1F
100
AcDbEntity
  8
文字
100
AcDbMText
 10
139.8857943943148
 20
300.467173564864
 30
0.0
 40
5.915354709226101
 41
150.277363855773
 71
     1
 72
     5
  1
\U+63CF   
 73
     1
 44
1.0
1001
ACAD
1000
MTEXTBEGIN
1070
    73
1070
     1
1070
    44
1040
1.0
1070
    74
1070
     0
1000
MTEXTEND
  0
MTEXT
  5
37A4
102
{ACAD_XDICTIONARY
360
520E
102
}
330
1F
100
AcDbEntity
  8
文字
100
AcDbMText
 10
190.3090572523288
 20
300.467173564864
 30
0.0
 40
5.915354709226101
 41
150.277363855773
 71
     1
 72
     5
  1
\U+6821   
 73
     1
 44
1.0
1001
ACAD
1000
MTEXTBEGIN
1070
    73
1070
     1
1070
    44
1040
1.0
1070
    74
1070
     0
1000
MTEXTEND
  0
MTEXT
  5
37A5
102
{ACAD_XDICTIONARY
360
5210
102
}
330
1F
100
AcDbEntity
  8
文字
100
AcDbMText
 10
151.9221217114432
 20
259.1823545202583
 30
0.0
 40
5.915354709226101
 41
150.277363855773
 71
     1
 72
     5
  1
\U+5E95
 73
     1
 44
1.0
1001
ACAD
1000
MTEXTBEGIN
1070
    73
1070
     1
1070
    44
1040
1.0
1070
    74
1070
     0
1000
MTEXTEND
  0
MTEXT
  5
37A6
102
{ACAD_XDICTIONARY
360
5212
102
}
330
1F
100
AcDbEntity
  8
文字
100
AcDbMText
 10
165.8044543144147
 20
259.0603306663783
 30
0.0
 40
5.915354709226101
 41
150.277363855773
 71
     1
 72
     5
  1
\U+56FE
 73
     1
 44
1.0
1001
ACAD
1000
MTEXTBEGIN
1070
    73
1070
     1
1070
    44
1040
1.0
1070
    74
1070
     0
1000
MTEXTEND
  0
MTEXT
  5
37A7
102
{ACAD_XDICTIONARY
360
5214
102
}
330
1F
100
AcDbEntity
  8
文字
100
AcDbMText
 10
178.7245040721854
 20
259.0603306663783
 30
0.0
 40
5.915354709226101
 41
150.277363855773
 71
     1
 72
     5
  1
\U+603B
 73
     1
 44
1.0
1001
ACAD
1000
MTEXTBEGIN
1070
    73
1070
     1
1070
    44
1040
1.0
1070
    74
1070
     0
1000
MTEXTEND
  0
MTEXT
  5
37A8
102
{ACAD_XDICTIONARY
360
5216
102
}
330
1F
100
AcDbEntity
  8
文字
100
AcDbMText
 10
191.6080921039333
 20
259.0603306663783
 30
0.0
 40
5.915354709226101
 41
150.277363855773
 71
     1
 72
     5
  1
\U+53F7
 73
     1
 44
1.0
1001
ACAD
1000
MTEXTBEGIN
1070
    73
1070
     1
1070
    44
1040
1.0
1070
    74
1070
     0
1000
MTEXTEND
  0
MTEXT
  5
37A9
102
{ACAD_XDICTIONARY
360
5218
102
}
330
1F
100
AcDbEntity
  8
文字
100
AcDbMText
 10
157.091062742671
 20
220.4479840757238
 30
0.0
 40
5.915354709226101
 41
150.277363855773
 71
     1
 72
     5
  1
\U+56FE
 73
     1
 44
1.0
1001
ACAD
1000
MTEXTBEGIN
1070
    73
1070
     1
1070
    44
1040
1.0
1070
    74
1070
     0
1000
MTEXTEND
  0
MTEXT
  5
37AA
102
{ACAD_XDICTIONARY
360
521A
102
}
330
1F
100
AcDbEntity
  8
文字
100
AcDbMText
 10
172.9448813030917
 20
220.4479840757238
 30
0.0
 40
5.915354709226101
 41
150.277363855773
 71
     1
 72
     5
  1
\U+603B
 73
     1
 44
1.0
1001
ACAD
1000
MTEXTBEGIN
1070
    73
1070
     1
1070
    44
1040
1.0
1070
    74
1070
     0
1000
MTEXTEND
  0
MTEXT
  5
37AB
102
{ACAD_XDICTIONARY
360
521C
102
}
330
1F
100
AcDbEntity
  8
文字
100
AcDbMText
 10
190.0421354714285
 20
220.4479840757238
 30
0.0
 40
5.915354709226101
 41
150.277363855773
 71
     1
 72
     5
  1
\U+53F7
 73
     1
 44
1.0
1001
ACAD
1000
MTEXTBEGIN
1070
    73
1070
     1
1070
    44
1040
1.0
1070
    74
1070
     0
1000
MTEXTEND
  0
MTEXT
  5
37AC
102
{ACAD_XDICTIONARY
360
521E
102
}
330
1F
100
AcDbEntity
  8
文字
100
AcDbMText
 10
190.1690356723266
 20
179.591647076336
 30
0.0
 40
5.915354709226101
 41
150.277363855773
 71
     1
 72
     5
  1
\U+5B57  
 73
     1
 44
1.0
1001
ACAD
1000
MTEXTBEGIN
1070
    73
1070
     1
1070
    44
1040
1.0
1070
    74
1070
     0
1000
MTEXTEND
  0
MTEXT
  5
37AD
102
{ACAD_XDICTIONARY
360
5220
102
}
330
1F
100
AcDbEntity
  8
文字
100
AcDbMText
 10
189.1461321138745
 20
139.8463363545808
 30
0.0
 40
5.915354709226101
 41
150.277363855773
 71
     1
 72
     5
  1
\U+671F  
 73
     1
 44
1.0
1001
ACAD
1000
MTEXTBEGIN
1070
    73
1070
     1
1070
    44
1040
1.0
1070
    74
1070
     0
1000
MTEXTEND
  0
MTEXT
  5
37AE
330
1F
100
AcDbEntity
  8
文字
100
AcDbMText
 10
1209.688810718493
 20
130.3001624320884
 30
0.0
 40
13.63443102246592
 41
270.7183269489622
 71
     1
 72
     5
  1
{\fNSimSun|b0|i0|c134|p49;\C1;1b6}
  7
样式 8
 73
     1
 44
1.0
1001
ACAD
1000
MTEXTBEGIN
1070
    73
1070
     1
1070
    44
1040
1.0
1070
    74
1070
     0
1000
MTEXTEND
  0
LINE
  5
37B5
330
1F
100
AcDbEntity
  8
粗实线
100
AcDbLine
 10
800.8621056624861
 20
235.440525271842
 30
0.0
 11
800.8621056624861
 21
104.7772279732067
 31
0.0
  0
MTEXT
  5
3924
330
1F
100
AcDbEntity
  8
文字
100
AcDbMText
 10
1102.7542304243
 20
275.2976249649265
 30
0.0
 40
13.63443102246592
 41
270.7183269489622
 71
     1
 72
     5
  1
{\fSimSun|b0|i0|c134|p2;\C1;注：图纸上标注尺寸不用印刷}
  7
样式 8
 73
     1
 44
1.0
1001
ACAD
1000
MTEXTBEGIN
1070
    73
1070
     1
1070
    44
1040
1.0
1070
    74
1070
     0
1000
MTEXTEND
  0
LWPOLYLINE
  5
3FC0
330
1F
100
AcDbEntity
  8
虚线
 48
2.0
100
AcDbPolyline
 90
       14
 70
     1
 43
0.0
 10
971.6830735264194
 20
697.6590880851149
 10
773.3976663887842
 20
697.6590880851149
 42
-0.2179409382094902
 10
743.1272799271864
 20
711.5113596280284
 42
0.1992463919673594
 10
667.7594069052393
 20
749.3228055403164
 42
0.0358445850162057
 10
481.6067401475993
 20
749.3228055403164
 42
0.371109146110434
 10
379.8144608387775
 20
648.1453969442741
 42
0.038878178780141
 10
379.8144608387775
 20
384.1727792259558
 42
0.3711091461104268
 10
481.6067401475993
 20
282.9953706299061
 42
0.0179165394094723
 10
574.6830735264193
 20
279.6590880851149
 10
971.6830735264338
 20
279.6590880851077
 42
0.0255211975441815
 10
1053.191500240103
 20
283.822184960693
 42
0.3509132999428131
 10
1128.932307036655
 20
358.3072108593047
 42
0.0594603365499112
 10
1128.932307036655
 20
619.0109653109179
 42
0.3509132999428133
 10
1053.191500240103
 20
693.4959912095296
 42
0.025521197544188
  0
LWPOLYLINE
  5
3FC1
330
1F
100
AcDbEntity
  8
虚线
 48
2.0
100
AcDbPolyline
 90
       14
 70
     1
 43
0.0
 10
971.6830735264194
 20
691.3090880851163
 10
773.3976663887842
 20
691.3090880851091
 42
-0.2179409900222171
 10
738.3218500817129
 20
707.360414675321
 42
0.1992463689703561
 10
667.3047648152678
 20
742.9891019973588
 42
0.0358445850162057
 10
482.0613822375562
 20
742.9891019973661
 42
0.3711091822401602
 10
386.1452925757294
 20
647.6523761348003
 42
0.03887817683375
 10
386.1452935979287
 20
384.6657869090491
 42
0.3711091461104268
 10
482.0613822375634
 20
289.3290741728638
 42
0.0179165394094723
 10
574.6830735264193
 20
286.0090880851135
 10
971.6830735264338
 20
286.0090880851062
 42
0.0255211975441815
 10
1052.544527103058
 20
290.1391403792445
 42
0.350913302839041
 10
1122.627050097751
 20
359.0596966960224
 42
0.0594603365499112
 10
1122.627050097751
 20
618.2584794742074
 42
0.3509133220463067
 10
1052.544520943924
 20
687.1790364217891
 42
0.0255211955926393
  0
LWPOLYLINE
  5
3FC2
330
1F
100
AcDbEntity
  8
粗实线
100
AcDbPolyline
 90
       14
 70
     1
 43
0.0
 10
971.6830735264194
 20
704.0090880851135
 10
773.3976663887842
 20
704.0090880851135
 42
-0.2179410028101564
 10
747.9326983516767
 20
715.6623178024242
 42
0.1992463734230789
 10
668.2140489951962
 20
755.6565090832669
 42
0.0358445850162057
 10
481.1520980576278
 20
755.6565090832741
 42
0.3711091797136981
 10
373.4836270124033
 20
648.6383909230067
 42
0.0388781767631707
 10
373.4836280796117
 20
383.6797715428625
 42
0.3711091461104268
 10
481.1520980576278
 20
276.6616670869557
 42
0.0179165394094723
 10
574.6830735264193
 20
273.3090880851164
 10
971.683073526441
 20
273.3090880851091
 42
0.0255211975441815
 10
1053.838473377134
 20
277.5052295421415
 42
0.3509132999428131
 10
1135.237563975552
 20
357.5547250225941
 42
0.0594603365499112
 10
1135.237563975552
 20
619.7634511476285
 42
0.350913319231317
 10
1053.838467134515
 20
699.8129472674413
 42
0.0255211955973389
  0
DIMENSION
  5
40F7
330
1F
100
AcDbEntity
  8
标注
100
AcDbDimension
  2
*D1
 10
374.6830735264205
 20
821.7601288539771
 30
0.0
 11
778.3803201253322
 21
821.7601288539771
 31
0.0
 70
   160
  1
{\fArial|b0|i0|c0|p34;<>}
 71
     5
 42
761.9999999999883
  3
英寸
100
AcDbAlignedDimension
 13
1136.683073526409
 23
746.756309265661
 33
0.0
 14
374.6830735264205
 24
761.2382902013994
 34
0.0
100
AcDbRotatedDimension
1001
ACAD
1000
DSTYLE
1002
{
1070
    41
1040
8.0
1002
}
  0
DIMENSION
  5
40F8
330
1F
100
AcDbEntity
  8
标注
100
AcDbDimension
  2
*D2
 10
314.1165496900976
 20
279.6590880851149
 30
0.0
 11
314.1165496900976
 21
483.1590880851106
 31
0.0
 70
   160
  1
{\fArial|b0|i0|c0|p34;<>}
 71
     5
 42
472.9999999999953
  3
英寸
100
AcDbAlignedDimension
 13
371.1830492154659
 23
752.6590880851101
 33
0.0
 14
364.8853704162712
 24
279.6590880851149
 34
0.0
 50
90.0
100
AcDbRotatedDimension
1001
ACAD
1000
DSTYLE
1002
{
1070
    41
1040
8.0
1002
}
  0
DIMENSION
  5
40F9
330
1F
100
AcDbEntity
  8
标注
100
AcDbDimension
  2
*D3
 10
368.333073526414
 20
855.2601288539772
 30
0.0
 11
778.3803201253322
 21
855.2601288539772
 31
0.0
 70
   160
  1
{\fArial|b0|i0|c0|p34;<>}
 71
     5
 42
774.6999999999971
  3
英寸
100
AcDbAlignedDimension
 13
1143.033073526411
 23
746.4836335461809
 33
0.0
 14
368.333073526414
 24
761.5182194571603
 34
0.0
100
AcDbRotatedDimension
1001
ACAD
1000
DSTYLE
1002
{
1070
    41
1040
8.0
1002
}
  0
DIMENSION
  5
40FA
330
1F
100
AcDbEntity
  8
标注
100
AcDbDimension
  2
*D4
 10
283.1165496900976
 20
273.3090880851164
 30
0.0
 11
283.1165496900976
 21
483.1590880851106
 31
0.0
 70
   160
  1
{\fArial|b0|i0|c0|p34;<>}
 71
     5
 42
485.6999999999935
  3
英寸
100
AcDbAlignedDimension
 13
372.1830492154659
 23
759.0090880851098
 33
0.0
 14
364.552602647399
 24
273.3090880851164
 34
0.0
 50
90.0
100
AcDbRotatedDimension
1001
ACAD
1000
DSTYLE
1002
{
1070
    41
1040
8.0
1002
}
  0
DIMENSION
  5
40FB
330
1F
100
AcDbEntity
  8
标注
100
AcDbDimension
  2
*D5
 10
381.0330735264172
 20
790.7601288539772
 30
0.0
 11
778.3803201253294
 21
790.7601288539772
 31
0.0
 70
   160
  1
{\fArial|b0|i0|c0|p34;<>}
 71
     5
 42
749.2999999999895
  3
英寸
100
AcDbAlignedDimension
 13
1130.333073526406
 23
745.7563092656609
 33
0.0
 14
381.0330735264172
 24
760.7744476914892
 34
0.0
100
AcDbRotatedDimension
1001
ACAD
1000
DSTYLE
1002
{
1070
    41
1040
8.0
1002
}
  0
DIMENSION
  5
40FC
330
1F
100
AcDbEntity
  8
标注
100
AcDbDimension
  2
*D6
 10
342.1165496900976
 20
286.0090880851135
 30
0.0
 11
342.1165496900976
 21
483.1590880851106
 31
0.0
 70
   160
  1
{\fArial|b0|i0|c0|p34;<>}
 71
     5
 42
460.299999999997
  3
英寸
100
AcDbAlignedDimension
 13
371.6830492154659
 23
746.3090880851105
 33
0.0
 14
366.2164414917634
 24
286.0090880851135
 34
0.0
 50
90.0
100
AcDbRotatedDimension
1001
ACAD
1000
DSTYLE
1002
{
1070
    41
1040
8.0
1002
}
  0
DIMENSION
  5
4196
330
1F
100
AcDbEntity
  8
标注
100
AcDbDimension
  2
*D7
 10
1136.683073526409
 20
452.5316612293095
 30
0.0
 11
1056.333073526406
 21
452.5316612293095
 31
0.0
 70
   160
  1
{\fArial|b0|i0|c0|p34;<>}
 71
     5
 42
6.350000000002182
  3
英寸
100
AcDbAlignedDimension
 13
1130.333073526406
 23
488.6590880851112
 33
0.0
 14
1136.683073526409
 24
488.659088085104
 34
0.0
100
AcDbRotatedDimension
1001
ACAD
1000
DSTYLE
1002
{
1070
    41
1040
8.0
1002
}
  0
DIMENSION
  5
4197
330
1F
100
AcDbEntity
  8
标注
100
AcDbDimension
  2
*D8
 10
1143.033073526411
 20
416.1323115989257
 30
0.0
 11
1062.683073526409
 21
416.1323115989257
 31
0.0
 70
   160
  1
{\fArial|b0|i0|c0|p34;<>}
 71
     5
 42
6.350000000002182
  3
英寸
100
AcDbAlignedDimension
 13
1136.683073526409
 23
488.659088085104
 33
0.0
 14
1143.033073526411
 24
488.6590880851112
 34
0.0
100
AcDbRotatedDimension
1001
ACAD
1000
DSTYLE
1002
{
1070
    41
1040
8.0
1002
}
  0
ENDSEC
  0
SECTION
  2
OBJECTS
  0
DICTIONARY
  5
C
330
0
100
AcDbDictionary
281
     1
  3
ACAD_2007HEADERVARS_RT
350
51EE
  3
ACAD_COLOR
350
3513
  3
ACAD_GROUP
350
D
  3
ACAD_LAYOUT
350
1A
  3
ACAD_MATERIAL
350
350F
  3
ACAD_MLINESTYLE
350
17
  3
ACAD_PLOTSETTINGS
350
19
  3
ACAD_PLOTSTYLENAME
350
E
  3
ACAD_TABLESTYLE
350
E9
  3
ACAD_VISUALSTYLE
350
28
  3
AcDbVariableDictionary
350
366A
  3
DWGPROPS
350
51ED
  0
DICTIONARY
  5
36E2
330
2
100
AcDbDictionary
280
     1
281
     1
  3
ACAD_LAYERSTATES
360
36E3
  0
DICTIONARY
  5
3C62
330
1F
100
AcDbDictionary
280
     1
281
     1
  3
ACAD_SORTENTS
360
3C63
  0
DICTIONARY
  5
5224
330
4EFD
100
AcDbDictionary
280
     1
281
     1
  3
ACAD_MTEXT_RT
360
5225
  0
DICTIONARY
  5
51FE
330
379C
100
AcDbDictionary
280
     1
281
     1
  3
ACAD_MTEXT_RT
360
51FF
  0
DICTIONARY
  5
5200
330
379D
100
AcDbDictionary
280
     1
281
     1
  3
ACAD_MTEXT_RT
360
5201
  0
DICTIONARY
  5
5202
330
379E
100
AcDbDictionary
280
     1
281
     1
  3
ACAD_MTEXT_RT
360
5203
  0
DICTIONARY
  5
5204
330
379F
100
AcDbDictionary
280
     1
281
     1
  3
ACAD_MTEXT_RT
360
5205
  0
DICTIONARY
  5
5206
330
37A0
100
AcDbDictionary
280
     1
281
     1
  3
ACAD_MTEXT_RT
360
5207
  0
DICTIONARY
  5
5208
330
37A1
100
AcDbDictionary
280
     1
281
     1
  3
ACAD_MTEXT_RT
360
5209
  0
DICTIONARY
  5
520A
330
37A2
100
AcDbDictionary
280
     1
281
     1
  3
ACAD_MTEXT_RT
360
520B
  0
DICTIONARY
  5
520C
330
37A3
100
AcDbDictionary
280
     1
281
     1
  3
ACAD_MTEXT_RT
360
520D
  0
DICTIONARY
  5
520E
330
37A4
100
AcDbDictionary
280
     1
281
     1
  3
ACAD_MTEXT_RT
360
520F
  0
DICTIONARY
  5
5210
330
37A5
100
AcDbDictionary
280
     1
281
     1
  3
ACAD_MTEXT_RT
360
5211
  0
DICTIONARY
  5
5212
330
37A6
100
AcDbDictionary
280
     1
281
     1
  3
ACAD_MTEXT_RT
360
5213
  0
DICTIONARY
  5
5214
330
37A7
100
AcDbDictionary
280
     1
281
     1
  3
ACAD_MTEXT_RT
360
5215
  0
DICTIONARY
  5
5216
330
37A8
100
AcDbDictionary
280
     1
281
     1
  3
ACAD_MTEXT_RT
360
5217
  0
DICTIONARY
  5
5218
330
37A9
100
AcDbDictionary
280
     1
281
     1
  3
ACAD_MTEXT_RT
360
5219
  0
DICTIONARY
  5
521A
330
37AA
100
AcDbDictionary
280
     1
281
     1
  3
ACAD_MTEXT_RT
360
521B
  0
DICTIONARY
  5
521C
330
37AB
100
AcDbDictionary
280
     1
281
     1
  3
ACAD_MTEXT_RT
360
521D
  0
DICTIONARY
  5
521E
330
37AC
100
AcDbDictionary
280
     1
281
     1
  3
ACAD_MTEXT_RT
360
521F
  0
DICTIONARY
  5
5220
330
37AD
100
AcDbDictionary
280
     1
281
     1
  3
ACAD_MTEXT_RT
360
5221
  0
DICTIONARY
  5
51EE
102
{ACAD_REACTORS
330
C
102
}
330
C
100
AcDbDictionary
281
     1
  3
INTERFERECOLOR
350
51EF
  0
DICTIONARY
  5
3513
102
{ACAD_REACTORS
330
C
102
}
330
C
100
AcDbDictionary
281
     1
  0
DICTIONARY
  5
D
102
{ACAD_REACTORS
330
C
102
}
330
C
100
AcDbDictionary
281
     1
  0
DICTIONARY
  5
1A
102
{ACAD_REACTORS
330
C
102
}
330
C
100
AcDbDictionary
281
     1
  3
Layout1
350
1E
  3
Layout2
350
24
  3
Model
350
22
  0
DICTIONARY
  5
350F
102
{ACAD_REACTORS
330
C
102
}
330
C
100
AcDbDictionary
281
     1
  3
ByBlock
350
3511
  3
ByLayer
350
3510
  3
Global
350
3512
  0
DICTIONARY
  5
17
102
{ACAD_REACTORS
330
C
102
}
330
C
100
AcDbDictionary
281
     1
  3
Standard
350
18
  0
DICTIONARY
  5
19
102
{ACAD_REACTORS
330
C
102
}
330
C
100
AcDbDictionary
281
     1
  0
ACDBDICTIONARYWDFLT
  5
E
102
{ACAD_REACTORS
330
C
102
}
330
C
100
AcDbDictionary
281
     1
  3
Normal
350
F
100
AcDbDictionaryWithDefault
340
F
  0
DICTIONARY
  5
E9
102
{ACAD_REACTORS
330
C
102
}
330
C
100
AcDbDictionary
281
     1
  3
Standard
350
3514
  0
DICTIONARY
  5
28
102
{ACAD_REACTORS
330
C
102
}
330
C
100
AcDbDictionary
281
     1
  3
2dWireframe
350
2D
  3
3D Hidden
350
2F
  3
3dWireframe
350
2E
  3
Basic
350
30
  3
Brighten
350
34
  3
ColorChange
350
38
  3
Conceptual
350
32
  3
Dim
350
33
  3
Facepattern
350
37
  3
Flat
350
29
  3
FlatWithEdges
350
2A
  3
Gouraud
350
2B
  3
GouraudWithEdges
350
2C
  3
Linepattern
350
36
  3
Realistic
350
31
  3
Thicken
350
35
  0
DICTIONARY
  5
366A
102
{ACAD_REACTORS
330
C
102
}
330
C
100
AcDbDictionary
281
     1
  3
CTABLESTYLE
350
366B
  3
DGNFRAME
350
51EC
  3
DIMASSOC
350
51EB
  3
HIDETEXT
350
51EA
  3
INDEXCTL
350
51E9
  3
SORTENTS
350
51E8
  0
XRECORD
  5
51ED
102
{ACAD_REACTORS
330
C
102
}
330
C
100
AcDbXrecord
280
     1
  1
DWGPROPS COOKIE
  2

  3

  4

  6

  7

  8
Administrator
  9

300
=
301
=
302
=
303
=
304
=
305
=
306
=
307
=
308
=
309
=
 40
0.0359469444444445
 41
2455841.60680022
 42
2459756.634276111
  1

 90
        0
  0
DICTIONARY
  5
36E3
102
{ACAD_REACTORS
330
36E2
102
}
330
36E2
100
AcDbDictionary
281
     1
  0
SORTENTSTABLE
  5
3C63
102
{ACAD_REACTORS
330
3C62
102
}
330
3C62
100
AcDbSortentsTable
330
1F
331
378C
  5
378C
331
3758
  5
3758
331
3785
  5
3785
331
3753
  5
3753
331
3780
  5
3780
331
374E
  5
374E
331
377B
  5
377B
331
37AA
  5
37AA
331
3776
  5
3776
331
37A3
  5
37A3
331
3771
  5
3771
331
379E
  5
379E
331
376C
  5
376C
331
3799
  5
3799
331
3765
  5
3765
331
3794
  5
3794
331
3760
  5
3760
331
378F
  5
378F
331
375B
  5
375B
331
3924
  5
3924
331
378A
  5
378A
331
3756
  5
3756
331
3783
  5
3783
331
3751
  5
3751
331
377E
  5
377E
331
37AD
  5
37AD
331
3779
  5
3779
331
37A8
  5
37A8
331
37A6
  5
37A6
331
3774
  5
3774
331
37A1
  5
37A1
331
376F
  5
376F
331
379C
  5
379C
331
376A
  5
376A
331
3797
  5
3797
331
3763
  5
3763
331
3792
  5
3792
331
375E
  5
375E
331
378D
  5
378D
331
3759
  5
3759
331
3788
  5
3788
331
3786
  5
3786
331
3754
  5
3754
331
37B5
  5
37B5
331
3781
  5
3781
331
374F
  5
374F
331
377C
  5
377C
331
37AB
  5
37AB
331
3777
  5
3777
331
37A4
  5
37A4
331
3772
  5
3772
331
379F
  5
379F
331
376D
  5
376D
331
379A
  5
379A
331
3768
  5
3768
331
3766
  5
3766
331
3795
  5
3795
331
3761
  5
3761
331
3790
  5
3790
331
375C
  5
375C
331
378B
  5
378B
331
3757
  5
3757
331
3784
  5
3784
331
3752
  5
3752
331
377F
  5
377F
331
374D
  5
374D
331
37AE
  5
37AE
331
377A
  5
377A
331
37A9
  5
37A9
331
37A7
  5
37A7
331
3775
  5
3775
331
37A2
  5
37A2
331
3770
  5
3770
331
379D
  5
379D
331
376B
  5
376B
331
3798
  5
3798
331
3764
  5
3764
331
3793
  5
3793
331
375F
  5
375F
331
378E
  5
378E
331
375A
  5
375A
331
3789
  5
3789
331
3787
  5
3787
331
3755
  5
3755
331
3782
  5
3782
331
3750
  5
3750
331
377D
  5
377D
331
37AC
  5
37AC
331
3778
  5
3778
331
37A5
  5
37A5
331
3773
  5
3773
331
37A0
  5
37A0
331
376E
  5
376E
331
379B
  5
379B
331
3769
  5
3769
331
3767
  5
3767
331
3796
  5
3796
331
3762
  5
3762
331
3791
  5
3791
331
375D
  5
375D
  0
XRECORD
  5
5225
102
{ACAD_REACTORS
330
5224
102
}
330
5224
100
AcDbXrecord
280
     1
 40
47847.0
  1
\A0;\ftxt.shx,gbcbig.shx;5-\U+22056
  0
XRECORD
  5
51FF
102
{ACAD_REACTORS
330
51FE
102
}
330
51FE
100
AcDbXrecord
280
     1
 40
2521.0
  1
日   
  0
XRECORD
  5
5201
102
{ACAD_REACTORS
330
5200
102
}
330
5200
100
AcDbXrecord
280
     1
 40
2618.0
  1
签   
  0
XRECORD
  5
5203
102
{ACAD_REACTORS
330
5202
102
}
330
5202
100
AcDbXrecord
280
     1
 40
1661.0
  1
底
  0
XRECORD
  5
5205
102
{ACAD_REACTORS
330
5204
102
}
330
5204
100
AcDbXrecord
280
     1
 40
1671.0
  1
旧
  0
XRECORD
  5
5207
102
{ACAD_REACTORS
330
5206
102
}
330
5206
100
AcDbXrecord
280
     1
 40
2618.0
  1
描   
  0
XRECORD
  5
5209
102
{ACAD_REACTORS
330
5208
102
}
330
5208
100
AcDbXrecord
280
     1
 40
249260.0
  1
\ftxt.shx,gbcbig.shx;\H1x;\C1;借（通）用件登记
  0
XRECORD
  5
520B
102
{ACAD_REACTORS
330
520A
102
}
330
520A
100
AcDbXrecord
280
     1
 40
2640.0
  1
图   
  0
XRECORD
  5
520D
102
{ACAD_REACTORS
330
520C
102
}
330
520C
100
AcDbXrecord
280
     1
 40
2618.0
  1
描   
  0
XRECORD
  5
520F
102
{ACAD_REACTORS
330
520E
102
}
330
520E
100
AcDbXrecord
280
     1
 40
2394.0
  1
校   
  0
XRECORD
  5
5211
102
{ACAD_REACTORS
330
5210
102
}
330
5210
100
AcDbXrecord
280
     1
 40
1661.0
  1
底
  0
XRECORD
  5
5213
102
{ACAD_REACTORS
330
5212
102
}
330
5212
100
AcDbXrecord
280
     1
 40
1776.0
  1
图
  0
XRECORD
  5
5215
102
{ACAD_REACTORS
330
5214
102
}
330
5214
100
AcDbXrecord
280
     1
 40
1615.0
  1
总
  0
XRECORD
  5
5217
102
{ACAD_REACTORS
330
5216
102
}
330
5216
100
AcDbXrecord
280
     1
 40
1663.0
  1
号
  0
XRECORD
  5
5219
102
{ACAD_REACTORS
330
5218
102
}
330
5218
100
AcDbXrecord
280
     1
 40
1776.0
  1
图
  0
XRECORD
  5
521B
102
{ACAD_REACTORS
330
521A
102
}
330
521A
100
AcDbXrecord
280
     1
 40
1615.0
  1
总
  0
XRECORD
  5
521D
102
{ACAD_REACTORS
330
521C
102
}
330
521C
100
AcDbXrecord
280
     1
 40
1663.0
  1
号
  0
XRECORD
  5
521F
102
{ACAD_REACTORS
330
521E
102
}
330
521E
100
AcDbXrecord
280
     1
 40
2180.0
  1
字  
  0
XRECORD
  5
5221
102
{ACAD_REACTORS
330
5220
102
}
330
5220
100
AcDbXrecord
280
     1
 40
2210.0
  1
期  
  0
XRECORD
  5
51EF
102
{ACAD_REACTORS
330
51EE
102
}
330
51EE
100
AcDbXrecord
280
     1
1004
1800000001000000000000C0000000000000000000000000
  0
LAYOUT
  5
1E
102
{ACAD_XDICTIONARY
360
51F0
102
}
102
{ACAD_REACTORS
330
1A
102
}
330
1A
100
AcDbPlotSettings
  1

  2
none_device
  4

  6

 40
0.0
 41
0.0
 42
0.0
 43
0.0
 44
0.0
 45
0.0
 46
0.0
 47
0.0
 48
0.0
 49
0.0
140
0.0
141
0.0
142
1.0
143
1.0
 70
   688
 72
     0
 73
     0
 74
     5
  7

 75
    16
147
1.0
148
0.0
149
0.0
100
AcDbLayout
  1
Layout1
 70
     1
 71
     1
 10
0.0
 20
0.0
 11
12.0
 21
9.0
 12
0.0
 22
0.0
 32
0.0
 14
1.000000000000000E+20
 24
1.000000000000000E+20
 34
1.000000000000000E+20
 15
-1.000000000000000E+20
 25
-1.000000000000000E+20
 35
-1.000000000000000E+20
146
0.0
 13
0.0
 23
0.0
 33
0.0
 16
1.0
 26
0.0
 36
0.0
 17
0.0
 27
1.0
 37
0.0
 76
     0
330
1B
  0
LAYOUT
  5
24
102
{ACAD_XDICTIONARY
360
51F4
102
}
102
{ACAD_REACTORS
330
1A
102
}
330
1A
100
AcDbPlotSettings
  1

  2
none_device
  4

  6

 40
0.0
 41
0.0
 42
0.0
 43
0.0
 44
0.0
 45
0.0
 46
0.0
 47
0.0
 48
0.0
 49
0.0
140
0.0
141
0.0
142
1.0
143
1.0
 70
   688
 72
     0
 73
     0
 74
     5
  7

 75
    16
147
1.0
148
0.0
149
0.0
100
AcDbLayout
  1
Layout2
 70
     1
 71
     2
 10
0.0
 20
0.0
 11
0.0
 21
0.0
 12
0.0
 22
0.0
 32
0.0
 14
0.0
 24
0.0
 34
0.0
 15
0.0
 25
0.0
 35
0.0
146
0.0
 13
0.0
 23
0.0
 33
0.0
 16
1.0
 26
0.0
 36
0.0
 17
0.0
 27
1.0
 37
0.0
 76
     0
330
23
  0
LAYOUT
  5
22
102
{ACAD_XDICTIONARY
360
51F2
102
}
102
{ACAD_REACTORS
330
1A
102
}
330
1A
100
AcDbPlotSettings
  1

  2
pdfFactory Pro
  4
A4
  6

 40
6.349999999999999
 41
6.350000000000009
 42
6.350000000000017
 43
6.349999999999999
 44
210.0
 45
297.0
 46
0.0000000000000137
 47
2.64494949494991
 48
1477.027463857464
 49
-1180.232708621499
140
2908.642721216386
141
-167.876205203402
142
1.0
143
4.387049216535598
 70
  1716
 72
     1
 73
     1
 74
     4
  7
Monochrome.ctb
 75
     0
147
0.2279436474591658
148
0.0
149
0.0
100
AcDbLayout
  1
Model
 70
     1
 71
     0
 10
0.0
 20
0.0
 11
12.0
 21
9.0
 12
0.0
 22
0.0
 32
0.0
 14
110.6061847905475
 24
-1180.232708621499
 34
0.0
 15
4041.659506145047
 25
934.2051151732198
 35
0.0
146
0.0
 13
0.0
 23
0.0
 33
0.0
 16
1.0
 26
0.0
 36
0.0
 17
0.0
 27
1.0
 37
0.0
 76
     0
330
1F
331
27
  0
MATERIAL
  5
3511
102
{ACAD_XDICTIONARY
360
51F8
102
}
102
{ACAD_REACTORS
330
350F
102
}
330
350F
100
AcDbMaterial
  1
ByBlock
  0
MATERIAL
  5
3510
102
{ACAD_XDICTIONARY
360
51F6
102
}
102
{ACAD_REACTORS
330
350F
102
}
330
350F
100
AcDbMaterial
  1
ByLayer
  0
MATERIAL
  5
3512
102
{ACAD_XDICTIONARY
360
51FA
102
}
102
{ACAD_REACTORS
330
350F
102
}
330
350F
100
AcDbMaterial
  1
Global
  0
MLINESTYLE
  5
18
102
{ACAD_REACTORS
330
17
102
}
330
17
100
AcDbMlineStyle
  2
STANDARD
 70
     0
  3

 62
   256
 51
90.0
 52
90.0
 71
     2
 49
0.5
 62
   256
  6
BYLAYER
 49
-0.5
 62
   256
  6
BYLAYER
  0
ACDBPLACEHOLDER
  5
F
102
{ACAD_REACTORS
330
E
102
}
330
E
  0
TABLESTYLE
  5
3514
102
{ACAD_XDICTIONARY
360
51FC
102
}
102
{ACAD_REACTORS
330
E9
102
}
330
E9
100
AcDbTableStyle
  3
Standard
 70
     0
 71
     0
 40
0.06
 41
0.06
280
     0
281
     0
  7
Standard
140
0.18
170
     2
 62
     0
 63
     7
283
     0
274
    -2
284
     1
 64
     0
275
    -2
285
     1
 65
     0
276
    -2
286
     1
 66
     0
277
    -2
287
     1
 67
     0
278
    -2
288
     1
 68
     0
279
    -2
289
     1
 69
     0
  7
Standard
140
0.25
170
     5
 62
     0
 63
     7
283
     0
274
    -2
284
     1
 64
     0
275
    -2
285
     1
 65
     0
276
    -2
286
     1
 66
     0
277
    -2
287
     1
 67
     0
278
    -2
288
     1
 68
     0
279
    -2
289
     1
 69
     0
  7
Standard
140
0.18
170
     5
 62
     0
 63
     7
283
     0
274
    -2
284
     1
 64
     0
275
    -2
285
     1
 65
     0
276
    -2
286
     1
 66
     0
277
    -2
287
     1
 67
     0
278
    -2
288
     1
 68
     0
279
    -2
289
     1
 69
     0
  0
VISUALSTYLE
  5
2D
102
{ACAD_REACTORS
330
28
102
}
330
28
100
AcDbVisualStyle
  2
2dWireframe
 70
     4
 71
     0
 72
     2
 73
     0
 90
        0
 40
-0.6
 41
-30.0
 62
     5
 63
     7
 74
     1
 91
        4
 64
     7
 65
   257
 75
     1
175
     1
 42
1.0
 92
        0
 66
   257
 43
1.0
 76
     1
 77
     6
 78
     2
 67
     7
 79
     5
170
     0
171
     0
290
     0
174
     0
 93
        1
 44
0.0
173
     0
291
     0
 45
0.0
1001
ACAD
1000
AcDbSavedByObjectVersion
1070
     0
  0
VISUALSTYLE
  5
2F
102
{ACAD_REACTORS
330
28
102
}
330
28
100
AcDbVisualStyle
  2
3D Hidden
 70
     6
 71
     1
 72
     2
 73
     2
 90
        0
 40
-0.6
 41
-30.0
 62
     5
 63
     7
 74
     2
 91
        2
 64
     7
 65
   257
 75
     2
175
     1
 42
40.0
 92
        0
 66
   257
 43
1.0
 76
     1
 77
     6
 78
     2
 67
     7
 79
     3
170
     0
171
     0
290
     0
174
     0
 93
        1
 44
0.0
173
     0
291
     0
 45
0.0
1001
ACAD
1000
AcDbSavedByObjectVersion
1070
     0
  0
VISUALSTYLE
  5
2E
102
{ACAD_REACTORS
330
28
102
}
330
28
100
AcDbVisualStyle
  2
3dWireframe
 70
     5
 71
     0
 72
     2
 73
     0
 90
        0
 40
-0.6
 41
-30.0
 62
     5
 63
     7
 74
     1
 91
        4
 64
     7
 65
   257
 75
     1
175
     1
 42
1.0
 92
        0
 66
   257
 43
1.0
 76
     1
 77
     6
 78
     2
 67
     7
 79
     5
170
     0
171
     0
290
     0
174
     0
 93
        1
 44
0.0
173
     0
291
     0
 45
0.0
1001
ACAD
1000
AcDbSavedByObjectVersion
1070
     0
  0
VISUALSTYLE
  5
30
102
{ACAD_REACTORS
330
28
102
}
330
28
100
AcDbVisualStyle
  2
Basic
 70
     7
 71
     1
 72
     0
 73
     1
 90
        0
 40
-0.6
 41
-30.0
 62
     5
 63
     7
 74
     0
 91
        4
 64
     7
 65
   257
 75
     1
175
     1
 42
1.0
 92
        8
 66
     7
 43
1.0
 76
     1
 77
     6
 78
     2
 67
     7
 79
     5
170
     0
171
     0
290
     0
174
     0
 93
        1
 44
0.0
173
     0
291
     1
 45
0.0
1001
ACAD
1000
AcDbSavedByObjectVersion
1070
     0
  0
VISUALSTYLE
  5
34
102
{ACAD_REACTORS
330
28
102
}
330
28
100
AcDbVisualStyle
  2
Brighten
 70
    12
 71
     2
 72
     2
 73
     0
 90
        0
 40
-0.6
 41
-30.0
 62
     5
 63
     7
 74
     1
 91
        4
 64
     7
 65
   257
 75
     1
175
     1
 42
1.0
 92
        8
 66
     7
 43
1.0
 76
     1
 77
     6
 78
     2
 67
     7
 79
     5
170
     0
171
     0
290
     0
174
     0
 93
        1
 44
50.0
173
     0
291
     1
 45
0.0
1001
ACAD
1000
AcDbSavedByObjectVersion
1070
     0
  0
VISUALSTYLE
  5
38
102
{ACAD_REACTORS
330
28
102
}
330
28
100
AcDbVisualStyle
  2
ColorChange
 70
    16
 71
     2
 72
     2
 73
     3
 90
        0
 40
-0.6
 41
-30.0
 62
     5
 63
     8
 74
     1
 91
        4
 64
     7
 65
   257
 75
     1
175
     1
 42
1.0
 92
        8
 66
     8
 43
1.0
 76
     1
 77
     6
 78
     2
 67
     7
 79
     5
170
     0
171
     0
290
     0
174
     0
 93
        1
 44
0.0
173
     0
291
     1
 45
0.0
1001
ACAD
1000
AcDbSavedByObjectVersion
1070
     0
  0
VISUALSTYLE
  5
32
102
{ACAD_REACTORS
330
28
102
}
330
28
100
AcDbVisualStyle
  2
Conceptual
 70
     9
 71
     3
 72
     2
 73
     0
 90
        0
 40
-0.6
 41
-30.0
 62
     5
 63
     7
 74
     2
 91
        2
 64
     7
 65
   257
 75
     1
175
     1
 42
40.0
 92
        8
 66
     7
 43
1.0
 76
     1
 77
     6
 78
     2
 67
     7
 79
     3
170
     0
171
     0
290
     0
174
     0
 93
        1
 44
0.0
173
     0
291
     0
 45
0.0
1001
ACAD
1000
AcDbSavedByObjectVersion
1070
     0
  0
VISUALSTYLE
  5
33
102
{ACAD_REACTORS
330
28
102
}
330
28
100
AcDbVisualStyle
  2
Dim
 70
    11
 71
     2
 72
     2
 73
     0
 90
        0
 40
-0.6
 41
-30.0
 62
     5
 63
     7
 74
     1
 91
        4
 64
     7
 65
   257
 75
     1
175
     1
 42
1.0
 92
        8
 66
     7
 43
1.0
 76
     1
 77
     6
 78
     2
 67
     7
 79
     5
170
     0
171
     0
290
     0
174
     0
 93
        1
 44
-50.0
173
     0
291
     1
 45
0.0
1001
ACAD
1000
AcDbSavedByObjectVersion
1070
     0
  0
VISUALSTYLE
  5
37
102
{ACAD_REACTORS
330
28
102
}
330
28
100
AcDbVisualStyle
  2
Facepattern
 70
    15
 71
     2
 72
     2
 73
     0
 90
        0
 40
-0.6
 41
-30.0
 62
     5
 63
     7
 74
     1
 91
        4
 64
     7
 65
   257
 75
     1
175
     1
 42
1.0
 92
        8
 66
     7
 43
1.0
 76
     1
 77
     6
 78
     2
 67
     7
 79
     5
170
     0
171
     0
290
     0
174
     0
 93
        1
 44
0.0
173
     0
291
     1
 45
0.0
1001
ACAD
1000
AcDbSavedByObjectVersion
1070
     0
  0
VISUALSTYLE
  5
29
102
{ACAD_REACTORS
330
28
102
}
330
28
100
AcDbVisualStyle
  2
Flat
 70
     0
 71
     2
 72
     1
 73
     1
 90
        2
 40
-0.6
 41
30.0
 62
     5
 63
     7
 74
     0
 91
        4
 64
     7
 65
   257
 75
     1
175
     1
 42
1.0
 92
        8
 66
     7
 43
1.0
 76
     1
 77
     6
 78
     2
 67
     7
 79
     5
170
     0
171
     0
290
     0
174
     0
 93
       13
 44
0.0
173
     0
291
     1
 45
0.0
1001
ACAD
1000
AcDbSavedByObjectVersion
1070
     0
  0
VISUALSTYLE
  5
2A
102
{ACAD_REACTORS
330
28
102
}
330
28
100
AcDbVisualStyle
  2
FlatWithEdges
 70
     1
 71
     2
 72
     1
 73
     1
 90
        2
 40
-0.6
 41
30.0
 62
     5
 63
     7
 74
     1
 91
        4
 64
     7
 65
   257
 75
     1
175
     1
 42
1.0
 92
        0
 66
   257
 43
1.0
 76
     1
 77
     6
 78
     2
 67
     7
 79
     5
170
     0
171
     0
290
     0
174
     0
 93
       13
 44
0.0
173
     0
291
     1
 45
0.0
1001
ACAD
1000
AcDbSavedByObjectVersion
1070
     0
  0
VISUALSTYLE
  5
2B
102
{ACAD_REACTORS
330
28
102
}
330
28
100
AcDbVisualStyle
  2
Gouraud
 70
     2
 71
     2
 72
     2
 73
     1
 90
        2
 40
-0.6
 41
30.0
 62
     5
 63
     7
 74
     0
 91
        4
 64
     7
 65
   257
 75
     1
175
     1
 42
1.0
 92
        0
 66
     7
 43
1.0
 76
     1
 77
     6
 78
     2
 67
     7
 79
     5
170
     0
171
     0
290
     0
174
     0
 93
       13
 44
0.0
173
     0
291
     1
 45
0.0
1001
ACAD
1000
AcDbSavedByObjectVersion
1070
     0
  0
VISUALSTYLE
  5
2C
102
{ACAD_REACTORS
330
28
102
}
330
28
100
AcDbVisualStyle
  2
GouraudWithEdges
 70
     3
 71
     2
 72
     2
 73
     1
 90
        2
 40
-0.6
 41
30.0
 62
     5
 63
     7
 74
     1
 91
        4
 64
     7
 65
   257
 75
     1
175
     1
 42
1.0
 92
        0
 66
   257
 43
1.0
 76
     1
 77
     6
 78
     2
 67
     7
 79
     5
170
     0
171
     0
290
     0
174
     0
 93
       13
 44
0.0
173
     0
291
     1
 45
0.0
1001
ACAD
1000
AcDbSavedByObjectVersion
1070
     0
  0
VISUALSTYLE
  5
36
102
{ACAD_REACTORS
330
28
102
}
330
28
100
AcDbVisualStyle
  2
Linepattern
 70
    14
 71
     2
 72
     2
 73
     0
 90
        0
 40
-0.6
 41
-30.0
 62
     5
 63
     7
 74
     1
 91
        4
 64
     7
 65
   257
 75
     7
175
     7
 42
1.0
 92
        8
 66
     7
 43
1.0
 76
     1
 77
     6
 78
     2
 67
     7
 79
     5
170
     0
171
     0
290
     0
174
     0
 93
        1
 44
0.0
173
     0
291
     1
 45
0.0
1001
ACAD
1000
AcDbSavedByObjectVersion
1070
     0
  0
VISUALSTYLE
  5
31
102
{ACAD_REACTORS
330
28
102
}
330
28
100
AcDbVisualStyle
  2
Realistic
 70
     8
 71
     2
 72
     2
 73
     0
 90
        0
 40
-0.6
 41
-30.0
 62
     5
 63
     7
 74
     1
 91
        0
 64
     7
 65
   257
 75
     1
175
     1
 42
1.0
 92
        8
 66
     8
 43
1.0
 76
     1
 77
     6
 78
     2
 67
     7
 79
     5
170
     0
171
     0
290
     0
174
     0
 93
       13
 44
0.0
173
     0
291
     0
 45
0.0
1001
ACAD
1000
AcDbSavedByObjectVersion
1070
     0
  0
VISUALSTYLE
  5
35
102
{ACAD_REACTORS
330
28
102
}
330
28
100
AcDbVisualStyle
  2
Thicken
 70
    13
 71
     2
 72
     2
 73
     0
 90
        0
 40
-0.6
 41
-30.0
 62
     5
 63
     7
 74
     1
 91
        4
 64
     7
 65
   257
 75
     1
175
     1
 42
1.0
 92
       12
 66
     7
 43
1.0
 76
     1
 77
     6
 78
     2
 67
     7
 79
     5
170
     0
171
     0
290
     0
174
     0
 93
        1
 44
0.0
173
     0
291
     1
 45
0.0
1001
ACAD
1000
AcDbSavedByObjectVersion
1070
     0
  0
DICTIONARYVAR
  5
366B
102
{ACAD_REACTORS
330
366A
102
}
330
366A
100
DictionaryVariables
280
     0
  1
STANDARD
  0
DICTIONARYVAR
  5
51EC
102
{ACAD_REACTORS
330
366A
102
}
330
366A
100
DictionaryVariables
280
     0
  1
2
  0
DICTIONARYVAR
  5
51EB
102
{ACAD_REACTORS
330
366A
102
}
330
366A
100
DictionaryVariables
280
     0
  1
2
  0
DICTIONARYVAR
  5
51EA
102
{ACAD_REACTORS
330
366A
102
}
330
366A
100
DictionaryVariables
280
     0
  1
1
  0
DICTIONARYVAR
  5
51E9
102
{ACAD_REACTORS
330
366A
102
}
330
366A
100
DictionaryVariables
280
     0
  1
0
  0
DICTIONARYVAR
  5
51E8
102
{ACAD_REACTORS
330
366A
102
}
330
366A
100
DictionaryVariables
280
     0
  1
127
  0
DICTIONARY
  5
51F0
330
1E
100
AcDbDictionary
280
     1
281
     1
  3
ACAD_XREC_ROUNDTRIP
360
51F1
  0
DICTIONARY
  5
51F4
330
24
100
AcDbDictionary
280
     1
281
     1
  3
ACAD_XREC_ROUNDTRIP
360
51F5
  0
DICTIONARY
  5
51F2
330
22
100
AcDbDictionary
280
     1
281
     1
  3
ACAD_XREC_ROUNDTRIP
360
51F3
  0
DICTIONARY
  5
51F8
330
3511
100
AcDbDictionary
280
     1
281
     1
  3
ACAD_XREC_ROUNDTRIP
360
51F9
  0
DICTIONARY
  5
51F6
330
3510
100
AcDbDictionary
280
     1
281
     1
  3
ACAD_XREC_ROUNDTRIP
360
51F7
  0
DICTIONARY
  5
51FA
330
3512
100
AcDbDictionary
280
     1
281
     1
  3
ACAD_XREC_ROUNDTRIP
360
51FB
  0
DICTIONARY
  5
51FC
330
3514
100
AcDbDictionary
280
     1
281
     1
  3
ACAD_XREC_ROUNDTRIP
360
51FD
  0
XRECORD
  5
51F1
102
{ACAD_REACTORS
330
51F0
102
}
330
51F0
100
AcDbXrecord
280
     1
102
SHADEPLOT
 70
     0
102
SHADEPLOTRESLEVEL
 70
     2
102
SHADEPLOTCUSTOMDPI
 70
   300
  0
XRECORD
  5
51F5
102
{ACAD_REACTORS
330
51F4
102
}
330
51F4
100
AcDbXrecord
280
     1
102
SHADEPLOT
 70
     0
102
SHADEPLOTRESLEVEL
 70
     2
102
SHADEPLOTCUSTOMDPI
 70
   300
  0
XRECORD
  5
51F3
102
{ACAD_REACTORS
330
51F2
102
}
330
51F2
100
AcDbXrecord
280
     1
102
SHADEPLOT
 70
     0
102
SHADEPLOTRESLEVEL
 70
     2
102
SHADEPLOTCUSTOMDPI
 70
   300
  0
XRECORD
  5
51F9
102
{ACAD_REACTORS
330
51F8
102
}
330
51F8
100
AcDbXrecord
280
     1
102
MATERIAL
148
0.0
149
0.0
149
0.0
 93
        0
 94
       63
282
     0
 72
     1
 77
     1
171
     1
175
     1
179
     1
273
     0
  0
XRECORD
  5
51F7
102
{ACAD_REACTORS
330
51F6
102
}
330
51F6
100
AcDbXrecord
280
     1
102
MATERIAL
148
0.0
149
0.0
149
0.0
 93
        0
 94
       63
282
     0
 72
     1
 77
     1
171
     1
175
     1
179
     1
273
     0
  0
XRECORD
  5
51FB
102
{ACAD_REACTORS
330
51FA
102
}
330
51FA
100
AcDbXrecord
280
     1
102
MATERIAL
148
0.0
149
0.0
149
0.0
 93
        0
 94
       63
282
     0
 72
     1
 77
     1
171
     1
175
     1
179
     1
273
     0
  0
XRECORD
  5
51FD
102
{ACAD_REACTORS
330
51FC
102
}
330
51FC
100
AcDbXrecord
280
     1
102
ACAD_ROUNDTRIP_PRE2007_TABLESTYLE
 90
      512
 91
        0
  1

 92
      512
 93
        0
  2

 94
      512
 95
        0
  3

  0
ENDSEC
  0
EOF
