  0
SECTION
  2
HEADER
  9
$ACADVER
  1
AC1015
  9
$ACADMAINTVER
 70
    20
  9
$DWGCODEPAGE
  3
ANSI_936
  9
$INSBASE
 10
0.0
 20
0.0
 30
0.0
  9
$EXTMIN
 10
133.3430868542532
 20
90.57469565813875
 30
0.0
  9
$EXTMAX
 10
3984.355801320023
 20
934.2051151732198
 30
0.0
  9
$LIMMIN
 10
0.0
 20
0.0
  9
$LIMMAX
 10
12.0
 20
9.0
  9
$ORTHOMODE
 70
     1
  9
$REGENMODE
 70
     1
  9
$FILLMODE
 70
     1
  9
$QTEXTMODE
 70
     0
  9
$MIRRTEXT
 70
     1
  9
$LTSCALE
 40
1.0
  9
$ATTMODE
 70
     1
  9
$TEXTSIZE
 40
0.2
  9
$TRACEWID
 40
0.05
  9
$TEXTSTYLE
  7
Standard
  9
$CLAYER
  8
0
  9
$CELTYPE
  6
ByLayer
  9
$CECOLOR
 62
   256
  9
$CELTSCALE
 40
1.0
  9
$DISPSILH
 70
     0
  9
$DIMSCALE
 40
1.0
  9
$DIMASZ
 40
0.18
  9
$DIMEXO
 40
0.0625
  9
$DIMDLI
 40
0.38
  9
$DIMRND
 40
0.0
  9
$DIMDLE
 40
0.0
  9
$DIMEXE
 40
0.18
  9
$DIMTP
 40
0.0
  9
$DIMTM
 40
0.0
  9
$DIMTXT
 40
0.18
  9
$DIMCEN
 40
0.09
  9
$DIMTSZ
 40
0.0
  9
$DIMTOL
 70
     0
  9
$DIMLIM
 70
     0
  9
$DIMTIH
 70
     1
  9
$DIMTOH
 70
     1
  9
$DIMSE1
 70
     0
  9
$DIMSE2
 70
     0
  9
$DIMTAD
 70
     0
  9
$DIMZIN
 70
     0
  9
$DIMBLK
  1

  9
$DIMASO
 70
     1
  9
$DIMSHO
 70
     1
  9
$DIMPOST
  1

  9
$DIMAPOST
  1

  9
$DIMALT
 70
     0
  9
$DIMALTD
 70
     2
  9
$DIMALTF
 40
25.4
  9
$DIMLFAC
 40
1.0
  9
$DIMTOFL
 70
     0
  9
$DIMTVP
 40
0.0
  9
$DIMTIX
 70
     0
  9
$DIMSOXD
 70
     0
  9
$DIMSAH
 70
     0
  9
$DIMBLK1
  1

  9
$DIMBLK2
  1

  9
$DIMSTYLE
  2
Standard
  9
$DIMCLRD
 70
     0
  9
$DIMCLRE
 70
     0
  9
$DIMCLRT
 70
     0
  9
$DIMTFAC
 40
1.0
  9
$DIMGAP
 40
0.09
  9
$DIMJUST
 70
     0
  9
$DIMSD1
 70
     0
  9
$DIMSD2
 70
     0
  9
$DIMTOLJ
 70
     1
  9
$DIMTZIN
 70
     0
  9
$DIMALTZ
 70
     0
  9
$DIMALTTZ
 70
     0
  9
$DIMUPT
 70
     0
  9
$DIMDEC
 70
     4
  9
$DIMTDEC
 70
     4
  9
$DIMALTU
 70
     2
  9
$DIMALTTD
 70
     2
  9
$DIMTXSTY
  7
Standard
  9
$DIMAUNIT
 70
     0
  9
$DIMADEC
 70
     0
  9
$DIMALTRND
 40
0.0
  9
$DIMAZIN
 70
     0
  9
$DIMDSEP
 70
    46
  9
$DIMATFIT
 70
     3
  9
$DIMFRAC
 70
     0
  9
$DIMLDRBLK
  1

  9
$DIMLUNIT
 70
     2
  9
$DIMLWD
 70
    -2
  9
$DIMLWE
 70
    -2
  9
$DIMTMOVE
 70
     0
  9
$LUNITS
 70
     2
  9
$LUPREC
 70
     4
  9
$SKETCHINC
 40
0.1
  9
$FILLETRAD
 40
0.0
  9
$AUNITS
 70
     0
  9
$AUPREC
 70
     0
  9
$MENU
  1
.
  9
$ELEVATION
 40
0.0
  9
$PELEVATION
 40
0.0
  9
$THICKNESS
 40
0.0
  9
$LIMCHECK
 70
     0
  9
$CHAMFERA
 40
0.5
  9
$CHAMFERB
 40
0.5
  9
$CHAMFERC
 40
1.0
  9
$CHAMFERD
 40
0.0
  9
$SKPOLY
 70
     0
  9
$TDCREATE
 40
2455841.606800220
  9
$TDUCREATE
 40
2455841.273466887
  9
$TDUPDATE
 40
2459756.623939318
  9
$TDUUPDATE
 40
2459756.290605984
  9
$TDINDWG
 40
0.0590555671
  9
$TDUSRTIMER
 40
0.0590555671
  9
$USRTIMER
 70
     1
  9
$ANGBASE
 50
0.0
  9
$ANGDIR
 70
     0
  9
$PDMODE
 70
     0
  9
$PDSIZE
 40
0.0
  9
$PLINEWID
 40
0.0
  9
$SPLFRAME
 70
     0
  9
$SPLINETYPE
 70
     6
  9
$SPLINESEGS
 70
     8
  9
$HANDSEED
  5
421A
  9
$SURFTAB1
 70
     6
  9
$SURFTAB2
 70
     6
  9
$SURFTYPE
 70
     6
  9
$SURFU
 70
     6
  9
$SURFV
 70
     6
  9
$UCSBASE
  2

  9
$UCSNAME
  2

  9
$UCSORG
 10
0.0
 20
0.0
 30
0.0
  9
$UCSXDIR
 10
1.0
 20
0.0
 30
0.0
  9
$UCSYDIR
 10
0.0
 20
1.0
 30
0.0
  9
$UCSORTHOREF
  2

  9
$UCSORTHOVIEW
 70
     0
  9
$UCSORGTOP
 10
0.0
 20
0.0
 30
0.0
  9
$UCSORGBOTTOM
 10
0.0
 20
0.0
 30
0.0
  9
$UCSORGLEFT
 10
0.0
 20
0.0
 30
0.0
  9
$UCSORGRIGHT
 10
0.0
 20
0.0
 30
0.0
  9
$UCSORGFRONT
 10
0.0
 20
0.0
 30
0.0
  9
$UCSORGBACK
 10
0.0
 20
0.0
 30
0.0
  9
$PUCSBASE
  2

  9
$PUCSNAME
  2

  9
$PUCSORG
 10
0.0
 20
0.0
 30
0.0
  9
$PUCSXDIR
 10
1.0
 20
0.0
 30
0.0
  9
$PUCSYDIR
 10
0.0
 20
1.0
 30
0.0
  9
$PUCSORTHOREF
  2

  9
$PUCSORTHOVIEW
 70
     0
  9
$PUCSORGTOP
 10
0.0
 20
0.0
 30
0.0
  9
$PUCSORGBOTTOM
 10
0.0
 20
0.0
 30
0.0
  9
$PUCSORGLEFT
 10
0.0
 20
0.0
 30
0.0
  9
$PUCSORGRIGHT
 10
0.0
 20
0.0
 30
0.0
  9
$PUCSORGFRONT
 10
0.0
 20
0.0
 30
0.0
  9
$PUCSORGBACK
 10
0.0
 20
0.0
 30
0.0
  9
$USERI1
 70
     0
  9
$USERI2
 70
     0
  9
$USERI3
 70
     0
  9
$USERI4
 70
     0
  9
$USERI5
 70
     0
  9
$USERR1
 40
0.0
  9
$USERR2
 40
0.0
  9
$USERR3
 40
0.0
  9
$USERR4
 40
0.0
  9
$USERR5
 40
0.0
  9
$WORLDVIEW
 70
     1
  9
$SHADEDGE
 70
     3
  9
$SHADEDIF
 70
    70
  9
$TILEMODE
 70
     1
  9
$MAXACTVP
 70
    64
  9
$PINSBASE
 10
0.0
 20
0.0
 30
0.0
  9
$PLIMCHECK
 70
     0
  9
$PEXTMIN
 10
1.000000000000000E+20
 20
1.000000000000000E+20
 30
1.000000000000000E+20
  9
$PEXTMAX
 10
-1.000000000000000E+20
 20
-1.000000000000000E+20
 30
-1.000000000000000E+20
  9
$PLIMMIN
 10
0.0
 20
0.0
  9
$PLIMMAX
 10
12.0
 20
9.0
  9
$UNITMODE
 70
     0
  9
$VISRETAIN
 70
     1
  9
$PLINEGEN
 70
     0
  9
$PSLTSCALE
 70
     1
  9
$TREEDEPTH
 70
  3020
  9
$CMLSTYLE
  2
Standard
  9
$CMLJUST
 70
     0
  9
$CMLSCALE
 40
1.0
  9
$PROXYGRAPHICS
 70
     1
  9
$MEASUREMENT
 70
     0
  9
$CELWEIGHT
370
    -1
  9
$ENDCAPS
280
     0
  9
$JOINSTYLE
280
     0
  9
$LWDISPLAY
290
     0
  9
$INSUNITS
 70
     1
  9
$HYPERLINKBASE
  1

  9
$STYLESHEET
  1
Monochrome.ctb
  9
$XEDIT
290
     1
  9
$CEPSNTYPE
380
     0
  9
$PSTYLEMODE
290
     1
  9
$FINGERPRINTGUID
  2
{168A8766-4015-4ABD-915A-AD1ECBE2E3C2}
  9
$VERSIONGUID
  2
{07C21497-C608-430A-BD99-7766771A6385}
  9
$EXTNAMES
290
     1
  9
$PSVPSCALE
 40
0.0
  9
$OLESTARTUP
290
     0
  0
ENDSEC
  0
SECTION
  2
CLASSES
  0
CLASS
  1
ACDBDICTIONARYWDFLT
  2
AcDbDictionaryWithDefault
  3
ObjectDBX Classes
 90
        0
280
     0
281
     0
  0
CLASS
  1
VISUALSTYLE
  2
AcDbVisualStyle
  3
ObjectDBX Classes
 90
     4095
280
     0
281
     0
  0
CLASS
  1
DIMASSOC
  2
AcDbDimAssoc
  3
"AcDbDimAssoc|Product Desc:     AcDim ARX App For Dimension|Company:          Autodesk, Inc.|WEB Address:      www.autodesk.com"
 90
    32768
280
     0
281
     0
  0
CLASS
  1
MATERIAL
  2
AcDbMaterial
  3
ObjectDBX Classes
 90
     1024
280
     0
281
     0
  0
CLASS
  1
TABLESTYLE
  2
AcDbTableStyle
  3
ObjectDBX Classes
 90
     4095
280
     0
281
     0
  0
CLASS
  1
DICTIONARYVAR
  2
AcDbDictionaryVar
  3
ObjectDBX Classes
 90
        0
280
     0
281
     0
  0
CLASS
  1
SORTENTSTABLE
  2
AcDbSortentsTable
  3
ObjectDBX Classes
 90
    32768
280
     0
281
     0
  0
CLASS
  1
ACDBPLACEHOLDER
  2
AcDbPlaceHolder
  3
ObjectDBX Classes
 90
        0
280
     0
281
     0
  0
CLASS
  1
LAYOUT
  2
AcDbLayout
  3
ObjectDBX Classes
 90
        0
280
     0
281
     0
  0
ENDSEC
  0
SECTION
  2
TABLES
  0
TABLE
  2
VPORT
  5
8
330
0
100
AcDbSymbolTable
 70
     1
  0
VPORT
  5
27
330
8
100
AcDbSymbolTableRecord
100
AcDbViewportTableRecord
  2
*Active
 70
     0
 10
0.0
 20
0.0
 11
1.0
 21
1.0
 12
935.6186055864018
 22
555.4504957906532
 13
0.0
 23
0.0
 14
0.5
 24
0.5
 15
0.5
 25
0.5
 16
0.0
 26
0.0
 36
1.0
 17
0.0
 27
0.0
 37
0.0
 40
1209.129209402967
 41
2.294999999999999
 42
50.0
 43
0.0
 44
0.0
 50
0.0
 51
0.0
 71
     0
 72
   100
 73
     1
 74
     3
 75
     1
 76
     0
 77
     0
 78
     0
281
     0
 65
     1
110
0.0
120
0.0
130
0.0
111
1.0
121
0.0
131
0.0
112
0.0
122
1.0
132
0.0
 79
     0
146
0.0
  0
ENDTAB
  0
TABLE
  2
LTYPE
  5
5
330
0
100
AcDbSymbolTable
 70
     6
  0
LTYPE
  5
14
330
5
100
AcDbSymbolTableRecord
100
AcDbLinetypeTableRecord
  2
ByBlock
 70
     0
  3

 72
    65
 73
     0
 40
0.0
  0
LTYPE
  5
15
330
5
100
AcDbSymbolTableRecord
100
AcDbLinetypeTableRecord
  2
ByLayer
 70
     0
  3

 72
    65
 73
     0
 40
0.0
  0
LTYPE
  5
16
330
5
100
AcDbSymbolTableRecord
100
AcDbLinetypeTableRecord
  2
Continuous
 70
     0
  3
Solid line
 72
    65
 73
     0
 40
0.0
  0
LTYPE
  5
5B
330
5
100
AcDbSymbolTableRecord
100
AcDbLinetypeTableRecord
  2
CENTERX2
 70
     0
  3
Center (2x) ________  __  ________  __  _____
 72
    65
 73
     4
 40
101.6
 49
63.5
 74
     4
 75
     0
340
0
 46
1.0
 50
0.0
 44
0.0
 45
0.0
 49
-12.7
 74
     4
 75
     0
340
0
 46
1.0
 50
0.0
 44
0.0
 45
0.0
 49
12.7
 74
     4
 75
     0
340
0
 46
1.0
 50
0.0
 44
0.0
 45
0.0
 49
-12.7
 74
     4
 75
     0
340
0
 46
1.0
 50
0.0
 44
0.0
 45
0.0
  0
LTYPE
  5
192
330
5
100
AcDbSymbolTableRecord
100
AcDbLinetypeTableRecord
  2
CENTER
 70
     0
  3
Center ____ _ ____ _ ____ _ ____ _ ____ _ ____
 72
    65
 73
     4
 40
50.8
 49
31.75
 74
     4
 75
     0
340
0
 46
1.0
 50
0.0
 44
0.0
 45
0.0
 49
-6.349999999999999
 74
     4
 75
     0
340
0
 46
1.0
 50
0.0
 44
0.0
 45
0.0
 49
6.349999999999999
 74
     4
 75
     0
340
0
 46
1.0
 50
0.0
 44
0.0
 45
0.0
 49
-6.349999999999999
 74
     4
 75
     0
340
0
 46
1.0
 50
0.0
 44
0.0
 45
0.0
  0
LTYPE
  5
112E
330
5
100
AcDbSymbolTableRecord
100
AcDbLinetypeTableRecord
  2
DASHED
 70
     0
  3
Dashed __ __ __ __ __ __ __ __ __ __ __ __ __ _
 72
    65
 73
     2
 40
19.05
 49
12.7
 74
     4
 75
     0
340
0
 46
1.0
 50
0.0
 44
0.0
 45
0.0
 49
-6.349999999999999
 74
     4
 75
     0
340
0
 46
1.0
 50
0.0
 44
0.0
 45
0.0
  0
LTYPE
  5
121B
330
5
100
AcDbSymbolTableRecord
100
AcDbLinetypeTableRecord
  2
ACAD_ISO02W100
 70
     0
  3
ISO dash __ __ __ __ __ __ __ __ __ __ __ __ __
 72
    65
 73
     2
 40
15.0
 49
12.0
 74
     4
 75
     0
340
0
 46
1.0
 50
0.0
 44
0.0
 45
0.0
 49
-3.0
 74
     4
 75
     0
340
0
 46
1.0
 50
0.0
 44
0.0
 45
0.0
  0
LTYPE
  5
121C
330
5
100
AcDbSymbolTableRecord
100
AcDbLinetypeTableRecord
  2
DIVIDE
 70
     0
  3
Divide ____ . . ____ . . ____ . . ____ . . ____
 72
    65
 73
     6
 40
31.75
 49
12.7
 74
     4
 75
     0
340
0
 46
1.0
 50
0.0
 44
0.0
 45
0.0
 49
-6.349999999999999
 74
     4
 75
     0
340
0
 46
1.0
 50
0.0
 44
0.0
 45
0.0
 49
0.0
 74
     4
 75
     0
340
0
 46
1.0
 50
0.0
 44
0.0
 45
0.0
 49
-6.349999999999999
 74
     4
 75
     0
340
0
 46
1.0
 50
0.0
 44
0.0
 45
0.0
 49
0.0
 74
     4
 75
     0
340
0
 46
1.0
 50
0.0
 44
0.0
 45
0.0
 49
-6.349999999999999
 74
     4
 75
     0
340
0
 46
1.0
 50
0.0
 44
0.0
 45
0.0
  0
ENDTAB
  0
TABLE
  2
LAYER
  5
2
102
{ACAD_XDICTIONARY
360
36E2
102
}
330
0
100
AcDbSymbolTable
 70
    17
  0
LAYER
  5
10
330
2
100
AcDbSymbolTableRecord
100
AcDbLayerTableRecord
  2
0
 70
     0
 62
     7
  6
Continuous
370
    -3
390
F
  0
LAYER
  5
5C
330
2
100
AcDbSymbolTableRecord
100
AcDbLayerTableRecord
  2
粗实线
 70
     0
 62
     7
  6
Continuous
370
    30
390
F
1001
AcAecLayerStandard
1000

1000

  0
LAYER
  5
5D
330
2
100
AcDbSymbolTableRecord
100
AcDbLayerTableRecord
  2
中心线
 70
     0
 62
     1
  6
CENTERX2
370
    15
390
F
1001
AcAecLayerStandard
1000

1000

  0
LAYER
  5
5E
330
2
100
AcDbSymbolTableRecord
100
AcDbLayerTableRecord
  2
标注
 70
     0
 62
     4
  6
Continuous
370
    15
390
F
1001
AcAecLayerStandard
1000

1000

  0
LAYER
  5
5F
330
2
100
AcDbSymbolTableRecord
100
AcDbLayerTableRecord
  2
Defpoints
 70
     0
 62
     7
  6
Continuous
290
     0
370
    -3
390
F
  0
LAYER
  5
118
330
2
100
AcDbSymbolTableRecord
100
AcDbLayerTableRecord
  2
图层1粗线
 70
     0
 62
     7
  6
Continuous
370
    -3
390
F
1001
AcAecLayerStandard
1000

1000

  0
LAYER
  5
193
330
2
100
AcDbSymbolTableRecord
100
AcDbLayerTableRecord
  2
细实线
 70
     0
 62
     3
  6
Continuous
370
    15
390
F
1001
AcAecLayerStandard
1000

1000

  0
LAYER
  5
357
330
2
100
AcDbSymbolTableRecord
100
AcDbLayerTableRecord
  2
图层2
 70
     0
 62
     7
  6
Continuous
370
    30
390
F
1001
AcAecLayerStandard
1000

1000

  0
LAYER
  5
358
330
2
100
AcDbSymbolTableRecord
100
AcDbLayerTableRecord
  2
图层3
 70
     0
 62
     7
  6
Continuous
370
    18
390
F
1001
AcAecLayerStandard
1000

1000

  0
LAYER
  5
4E7
330
2
100
AcDbSymbolTableRecord
100
AcDbLayerTableRecord
  2
文字
 70
     0
 62
     1
  6
Continuous
370
    15
390
F
1001
AcAecLayerStandard
1000

1000

  0
LAYER
  5
4E8
330
2
100
AcDbSymbolTableRecord
100
AcDbLayerTableRecord
  2
不可见
 70
     0
 62
     2
  6
Continuous
290
     0
370
    15
390
F
1001
AcAecLayerStandard
1000

1000

  0
LAYER
  5
4E9
330
2
100
AcDbSymbolTableRecord
100
AcDbLayerTableRecord
  2
图层2细线
 70
     0
 62
     3
  6
Continuous
370
    -3
390
F
1001
AcAecLayerStandard
1000

1000

  0
LAYER
  5
4EA
330
2
100
AcDbSymbolTableRecord
100
AcDbLayerTableRecord
  2
图框线
 70
     0
 62
     7
  6
Continuous
370
    13
390
F
1001
AcAecLayerStandard
1000

1000

  0
LAYER
  5
4EB
330
2
100
AcDbSymbolTableRecord
100
AcDbLayerTableRecord
  2
图层 1
 70
     0
 62
     7
  6
Continuous
370
    -3
390
F
  0
LAYER
  5
112F
330
2
100
AcDbSymbolTableRecord
100
AcDbLayerTableRecord
  2
图层1
 70
     0
 62
     7
  6
DASHED
370
    25
390
F
1001
AcAecLayerStandard
1000

1000

  0
LAYER
  5
121D
330
2
100
AcDbSymbolTableRecord
100
AcDbLayerTableRecord
  2
虚线
 70
     0
 62
     2
  6
ACAD_ISO02W100
370
    15
390
F
1001
AcAecLayerStandard
1000

1000

  0
LAYER
  5
121E
330
2
100
AcDbSymbolTableRecord
100
AcDbLayerTableRecord
  2
剖切线
 70
     0
 62
   241
  6
Continuous
370
    15
390
F
1001
AcAecLayerStandard
1000

1000

  0
ENDTAB
  0
TABLE
  2
STYLE
  5
3
330
0
100
AcDbSymbolTable
 70
     5
  0
STYLE
  5
11
330
3
100
AcDbSymbolTableRecord
100
AcDbTextStyleTableRecord
  2
Standard
 70
     0
 40
0.0
 41
1.0
 50
0.0
 71
     0
 42
0.2
  3
txt
  4

  0
STYLE
  5
5A
330
3
100
AcDbSymbolTableRecord
100
AcDbTextStyleTableRecord
  2
样式 8
 70
     0
 40
10.0
 41
0.7
 50
0.0
 71
     0
 42
10.0
  3
txt.shx
  4
gbcbig.shx
  0
STYLE
  5
117
330
3
100
AcDbSymbolTableRecord
100
AcDbTextStyleTableRecord
  2
样式 1
 70
     0
 40
5.0
 41
1.0
 50
0.0
 71
     0
 42
5.0
  3
txt.shx
  4
gbcbig.shx
  0
STYLE
  5
356
330
3
100
AcDbSymbolTableRecord
100
AcDbTextStyleTableRecord
  2
样式 2
 70
     0
 40
0.0
 41
0.35
 50
0.0
 71
     0
 42
2.5
  3
txt.shx
  4
gbcbig.shx
  0
STYLE
  5
4E6
330
3
100
AcDbSymbolTableRecord
100
AcDbTextStyleTableRecord
  2
样式 3
 70
     0
 40
3.5
 41
0.7
 50
0.0
 71
     0
 42
5.0
  3
txt.shx
  4
gbcbig.shx
  0
ENDTAB
  0
TABLE
  2
VIEW
  5
6
330
0
100
AcDbSymbolTable
 70
     0
  0
ENDTAB
  0
TABLE
  2
UCS
  5
7
330
0
100
AcDbSymbolTable
 70
     0
  0
ENDTAB
  0
TABLE
  2
APPID
  5
9
330
0
100
AcDbSymbolTable
 70
    45
  0
APPID
  5
12
330
9
100
AcDbSymbolTableRecord
100
AcDbRegAppTableRecord
  2
ACAD
 70
     0
  0
APPID
  5
3B
330
9
100
AcDbSymbolTableRecord
100
AcDbRegAppTableRecord
  2
ACAD_PSEXT
 70
     0
  0
APPID
  5
3C
330
9
100
AcDbSymbolTableRecord
100
AcDbRegAppTableRecord
  2
AcAecLayerStandard
 70
     0
  0
APPID
  5
3D
330
9
100
AcDbSymbolTableRecord
100
AcDbRegAppTableRecord
  2
ACAD_DSTYLE_DIMTEXT_FILL
 70
     0
  0
APPID
  5
3E
330
9
100
AcDbSymbolTableRecord
100
AcDbRegAppTableRecord
  2
DCO15
 70
     0
  0
APPID
  5
3F
330
9
100
AcDbSymbolTableRecord
100
AcDbRegAppTableRecord
  2
ACAD_DSTYLE_DIMEXT_LENGTH
 70
     0
  0
APPID
  5
40
330
9
100
AcDbSymbolTableRecord
100
AcDbRegAppTableRecord
  2
ACAD_DSTYLE_DIMEXT_ENABLED
 70
     0
  0
APPID
  5
41
330
9
100
AcDbSymbolTableRecord
100
AcDbRegAppTableRecord
  2
ACAD_DSTYLE_DIM_LINETYPE
 70
     0
  0
APPID
  5
42
330
9
100
AcDbSymbolTableRecord
100
AcDbRegAppTableRecord
  2
ACAD_DSTYLE_DIM_EXT1_LINETYPE
 70
     0
  0
APPID
  5
43
330
9
100
AcDbSymbolTableRecord
100
AcDbRegAppTableRecord
  2
ACAD_DSTYLE_DIM_EXT2_LINETYPE
 70
     0
  0
APPID
  5
44
330
9
100
AcDbSymbolTableRecord
100
AcDbRegAppTableRecord
  2
ACAD_EXEMPT_FROM_CAD_STANDARDS
 70
     0
  0
APPID
  5
45
330
9
100
AcDbSymbolTableRecord
100
AcDbRegAppTableRecord
  2
AcadAnnoPO
 70
     0
  0
APPID
  5
46
330
9
100
AcDbSymbolTableRecord
100
AcDbRegAppTableRecord
  2
AcadAnnotative
 70
     0
  0
APPID
  5
47
330
9
100
AcDbSymbolTableRecord
100
AcDbRegAppTableRecord
  2
ACAD_DSTYLE_DIMJAG
 70
     0
  0
APPID
  5
48
330
9
100
AcDbSymbolTableRecord
100
AcDbRegAppTableRecord
  2
ACAD_DSTYLE_DIMTALN
 70
     0
  0
APPID
  5
49
330
9
100
AcDbSymbolTableRecord
100
AcDbRegAppTableRecord
  2
ACAD_MLEADERVER
 70
     0
  0
APPID
  5
4A
330
9
100
AcDbSymbolTableRecord
100
AcDbRegAppTableRecord
  2
ACAD_DSTYLE_DIMRADIAL_EXTENSION
 70
     0
  0
APPID
  5
4B
330
9
100
AcDbSymbolTableRecord
100
AcDbRegAppTableRecord
  2
ACAD_DSTYLE_DIMBREAK
 70
     0
  0
APPID
  5
4C
330
9
100
AcDbSymbolTableRecord
100
AcDbRegAppTableRecord
  2
ACAD_DSTYLE_DIMARC_LENGTH_SYMBOL
 70
     0
  0
APPID
  5
4D
330
9
100
AcDbSymbolTableRecord
100
AcDbRegAppTableRecord
  2
ACAD_DSTYLE_DIMJOGGED_JOGANGLE_SYMBOL
 70
     0
  0
APPID
  5
4E
330
9
100
AcDbSymbolTableRecord
100
AcDbRegAppTableRecord
  2
MCAD_NO_VIS
 70
     0
  0
APPID
  5
4F
330
9
100
AcDbSymbolTableRecord
100
AcDbRegAppTableRecord
  2
ACAD_TEMP_GRAPHIC
 70
     0
  0
APPID
  5
50
330
9
100
AcDbSymbolTableRecord
100
AcDbRegAppTableRecord
  2
AD_DRAW
 70
     0
  0
APPID
  5
51
330
9
100
AcDbSymbolTableRecord
100
AcDbRegAppTableRecord
  2
ACATTRIBSERVICES
 70
     0
  0
APPID
  5
52
330
9
100
AcDbSymbolTableRecord
100
AcDbRegAppTableRecord
  2
DESIGNERASSEMBLIES
 70
     0
  0
APPID
  5
53
330
9
100
AcDbSymbolTableRecord
100
AcDbRegAppTableRecord
  2
ACADM_DIM_EDIT
 70
     0
  0
APPID
  5
54
330
9
100
AcDbSymbolTableRecord
100
AcDbRegAppTableRecord
  2
AMDT_DM_ADJ
 70
     0
  0
APPID
  5
55
330
9
100
AcDbSymbolTableRecord
100
AcDbRegAppTableRecord
  2
GENIUS_GENODEF_13
 70
     0
  0
APPID
  5
56
330
9
100
AcDbSymbolTableRecord
100
AcDbRegAppTableRecord
  2
GENIUS_GENOBJ-N-FIL_13
 70
     0
  0
APPID
  5
57
330
9
100
AcDbSymbolTableRecord
100
AcDbRegAppTableRecord
  2
ACAD_DIMASSOC_CALC_DIMLFAC
 70
     0
  0
APPID
  5
58
330
9
100
AcDbSymbolTableRecord
100
AcDbRegAppTableRecord
  2
ACAD_DIMASSOC_DIMLFAC
 70
     0
  0
APPID
  5
59
330
9
100
AcDbSymbolTableRecord
100
AcDbRegAppTableRecord
  2
ACAD_DIMASSOC_OVERRIDDEN_DIMLFAC
 70
     0
  0
APPID
  5
4E5
330
9
100
AcDbSymbolTableRecord
100
AcDbRegAppTableRecord
  2
CAXA
 70
     0
  0
APPID
  5
1BF7
330
9
100
AcDbSymbolTableRecord
100
AcDbRegAppTableRecord
  2
AVE_RENDER
 70
     0
  0
APPID
  5
1BF8
330
9
100
AcDbSymbolTableRecord
100
AcDbRegAppTableRecord
  2
AVE_ENTITY_MATERIAL
 70
     0
  0
APPID
  5
1BF9
330
9
100
AcDbSymbolTableRecord
100
AcDbRegAppTableRecord
  2
AVE_FINISH
 70
     0
  0
APPID
  5
1BFA
330
9
100
AcDbSymbolTableRecord
100
AcDbRegAppTableRecord
  2
AVE_MATERIAL
 70
     0
  0
APPID
  5
1BFB
330
9
100
AcDbSymbolTableRecord
100
AcDbRegAppTableRecord
  2
AVE_GLOBAL
 70
     0
  0
APPID
  5
1BFC
330
9
100
AcDbSymbolTableRecord
100
AcDbRegAppTableRecord
  2
GENIUS_GENBLLY_14
 70
     0
  0
APPID
  5
1BFD
330
9
100
AcDbSymbolTableRecord
100
AcDbRegAppTableRecord
  2
ODA
 70
     0
  0
APPID
  5
1BFE
330
9
100
AcDbSymbolTableRecord
100
AcDbRegAppTableRecord
  2
RAK
 70
     0
  0
APPID
  5
1BFF
330
9
100
AcDbSymbolTableRecord
100
AcDbRegAppTableRecord
  2
AcDbDynamicBlockGUID
 70
     0
  0
APPID
  5
1C00
330
9
100
AcDbSymbolTableRecord
100
AcDbRegAppTableRecord
  2
AcDbBlockRepETag
 70
     0
  0
APPID
  5
1C01
330
9
100
AcDbSymbolTableRecord
100
AcDbRegAppTableRecord
  2
ACAUTHENVIRON
 70
     0
  0
APPID
  5
1C02
330
9
100
AcDbSymbolTableRecord
100
AcDbRegAppTableRecord
  2
AcDbDynamicBlockTrueName
 70
     0
  0
ENDTAB
  0
TABLE
  2
DIMSTYLE
  5
A
330
0
100
AcDbSymbolTable
 70
     5
100
AcDbDimStyleTable
 71
     0
  0
DIMSTYLE
105
25
330
A
100
AcDbSymbolTableRecord
100
AcDbDimStyleTableRecord
  2
Standard
 70
     0
340
11
  0
DIMSTYLE
105
60
330
A
100
AcDbSymbolTableRecord
100
AcDbDimStyleTableRecord
  2
副本 (3) ISO-25 4
 70
     0
 41
14.0
 42
0.0
 43
10.0
 44
6.0
 73
     0
 74
     0
 77
     1
 78
     8
140
20.0
141
7.5
143
0.03937007874016
147
1.5
171
     3
172
     1
271
     1
272
     1
274
     3
283
     0
284
     8
340
11
  0
DIMSTYLE
105
119
330
A
100
AcDbSymbolTableRecord
100
AcDbDimStyleTableRecord
  2
副本 ISO-25
 70
     0
 41
12.0
 42
0.0
 43
10.0
 44
5.0
 73
     0
 74
     0
 77
     1
 78
     8
140
18.0
141
1.5
143
0.03937007874016
147
1.5
171
     3
172
     1
271
     1
272
     1
274
     3
278
    44
283
     0
284
     8
340
11
  0
DIMSTYLE
105
359
330
A
100
AcDbSymbolTableRecord
100
AcDbDimStyleTableRecord
  2
ISO-25
 70
     0
 41
17.0
 42
3.0
 43
3.75
 44
1.25
 73
     0
 77
     1
 78
     8
140
19.0
141
80.0
143
0.03937007874016
147
7.0
170
     1
171
     3
172
     1
271
     2
272
     2
273
     7
274
     3
283
     0
284
     8
340
11
  0
DIMSTYLE
105
4EC
330
A
100
AcDbSymbolTableRecord
100
AcDbDimStyleTableRecord
  2
英寸
 70
     0
 41
12.0
 42
0.0
 43
10.0
 44
3.75
 73
     0
 74
     0
 77
     1
 78
     8
140
16.0
141
7.5
143
0.03937007874016
147
2.0
170
     1
171
     3
172
     1
179
     1
271
     1
272
     1
273
     7
274
     3
283
     0
284
     8
340
11
  0
ENDTAB
  0
TABLE
  2
BLOCK_RECORD
  5
1
330
0
100
AcDbSymbolTable
 70
    17
  0
BLOCK_RECORD
  5
1F
330
1
100
AcDbSymbolTableRecord
100
AcDbBlockTableRecord
  2
*Model_Space
340
22
  0
BLOCK_RECORD
  5
1B
330
1
100
AcDbSymbolTableRecord
100
AcDbBlockTableRecord
  2
*Paper_Space
340
1E
  0
BLOCK_RECORD
  5
23
330
1
100
AcDbSymbolTableRecord
100
AcDbBlockTableRecord
  2
*Paper_Space0
340
24
  0
BLOCK_RECORD
  5
3F92
330
1
100
AcDbSymbolTableRecord
100
AcDbBlockTableRecord
  2
*D1
340
0
  0
BLOCK_RECORD
  5
3F9F
330
1
100
AcDbSymbolTableRecord
100
AcDbBlockTableRecord
  2
*D2
340
0
  0
BLOCK_RECORD
  5
3FAC
330
1
100
AcDbSymbolTableRecord
100
AcDbBlockTableRecord
  2
*D3
340
0
  0
BLOCK_RECORD
  5
3FB9
330
1
100
AcDbSymbolTableRecord
100
AcDbBlockTableRecord
  2
*D4
340
0
  0
BLOCK_RECORD
  5
3FC6
330
1
100
AcDbSymbolTableRecord
100
AcDbBlockTableRecord
  2
*D5
340
0
  0
BLOCK_RECORD
  5
3FD3
330
1
100
AcDbSymbolTableRecord
100
AcDbBlockTableRecord
  2
*D6
340
0
  0
BLOCK_RECORD
  5
4029
330
1
100
AcDbSymbolTableRecord
100
AcDbBlockTableRecord
  2
*D7
340
0
  0
BLOCK_RECORD
  5
4049
330
1
100
AcDbSymbolTableRecord
100
AcDbBlockTableRecord
  2
*D8
340
0
  0
ENDTAB
  0
ENDSEC
  0
SECTION
  2
BLOCKS
  0
BLOCK
  5
20
330
1F
100
AcDbEntity
  8
0
100
AcDbBlockBegin
  2
*Model_Space
 70
     0
 10
0.0
 20
0.0
 30
0.0
  3
*Model_Space
  1

  0
ENDBLK
  5
21
330
1F
100
AcDbEntity
  8
0
100
AcDbBlockEnd
  0
BLOCK
  5
1C
330
1B
100
AcDbEntity
 67
     1
  8
0
100
AcDbBlockBegin
  2
*Paper_Space
 70
     0
 10
0.0
 20
0.0
 30
0.0
  3
*Paper_Space
  1

  0
ENDBLK
  5
1D
330
1B
100
AcDbEntity
 67
     1
  8
0
100
AcDbBlockEnd
  0
BLOCK
  5
39
330
23
100
AcDbEntity
 67
     1
  8
0
100
AcDbBlockBegin
  2
*Paper_Space0
 70
     0
 10
0.0
 20
0.0
 30
0.0
  3
*Paper_Space0
  1

  0
ENDBLK
  5
3A
330
23
100
AcDbEntity
 67
     1
  8
0
100
AcDbBlockEnd
  0
BLOCK
  5
3F93
330
3F92
100
AcDbEntity
  8
0
100
AcDbBlockBegin
  2
*D1
 70
     1
 10
0.0
 20
0.0
 30
0.0
  3
*D1
  1

  0
POINT
  5
3F89
330
3F92
100
AcDbEntity
  8
Defpoints
  6
ByBlock
100
AcDbPoint
 10
348.9560469317166
 20
780.5
 30
0.0
  0
POINT
  5
3F8A
330
3F92
100
AcDbEntity
  8
Defpoints
  6
ByBlock
100
AcDbPoint
 10
1098.956046931711
 20
785.5
 30
0.0
  0
LINE
  5
3F8B
330
3F92
100
AcDbEntity
  8
标注
  6
ByBlock
 62
     0
370
    -2
100
AcDbLine
 10
348.9560469317166
 20
780.5
 30
0.0
 11
348.9560469317166
 21
847.2725673309666
 31
0.0
  0
LINE
  5
3F8C
330
3F92
100
AcDbEntity
  8
标注
  6
ByBlock
 62
     0
370
    -2
100
AcDbLine
 10
1098.956046931711
 20
785.5
 30
0.0
 11
1098.956046931711
 21
847.2725673309666
 31
0.0
  0
LINE
  5
3F8D
330
3F92
100
AcDbEntity
  8
标注
  6
ByBlock
 62
     0
370
    -2
100
AcDbLine
 10
356.9560469317166
 20
843.5225673309666
 30
0.0
 11
1090.956046931711
 21
843.5225673309666
 31
0.0
  0
SOLID
  5
3F8E
330
3F92
100
AcDbEntity
  8
标注
  6
ByBlock
 62
     0
100
AcDbTrace
 10
348.9560469317166
 20
843.5225673309666
 30
0.0
 11
356.9560469317166
 21
842.1892339976331
 31
0.0
 12
356.9560469317166
 22
844.8559006643003
 32
0.0
 13
356.9560469317166
 23
844.8559006643003
 33
0.0
  0
SOLID
  5
3F8F
330
3F92
100
AcDbEntity
  8
标注
  6
ByBlock
 62
     0
100
AcDbTrace
 10
1098.956046931711
 20
843.5225673309666
 30
0.0
 11
1090.956046931711
 21
842.1892339976331
 31
0.0
 12
1090.956046931711
 22
844.8559006643003
 32
0.0
 13
1090.956046931711
 23
844.8559006643003
 33
0.0
  0
MTEXT
  5
3F90
330
3F92
100
AcDbEntity
  8
标注
  6
ByBlock
 62
     0
100
AcDbMText
 10
716.4999999999991
 20
856.0164281768056
 30
0.0
 40
16.0
 41
0.0
 71
     5
 72
     1
  1
\A0;{\fArial|b0|i0|c0|p34;750 [29 1/2]}
 73
     1
 44
1.0
1001
ACAD
1000
MTEXTBEGIN
1070
    73
1070
     1
1070
    44
1040
1.0
1070
    74
1070
     0
1000
MTEXTEND
  0
ENDBLK
  5
3F94
330
3F92
100
AcDbEntity
  8
0
100
AcDbBlockEnd
  0
BLOCK
  5
3FA0
330
3F9F
100
AcDbEntity
  8
0
100
AcDbBlockBegin
  2
*D2
 70
     1
 10
0.0
 20
0.0
 30
0.0
  3
*D2
  1

  0
POINT
  5
3F96
330
3F9F
100
AcDbEntity
  8
Defpoints
  6
ByBlock
100
AcDbPoint
 10
1096.5
 20
771.8764225820248
 30
0.0
  0
POINT
  5
3F97
330
3F9F
100
AcDbEntity
  8
Defpoints
  6
ByBlock
100
AcDbPoint
 10
1100.5
 20
301.8764225820269
 30
0.0
  0
LINE
  5
3F98
330
3F9F
100
AcDbEntity
  8
标注
  6
ByBlock
 62
     0
370
    -2
100
AcDbLine
 10
1096.5
 20
771.8764225820248
 30
0.0
 11
1174.513770435233
 21
771.8764225820248
 31
0.0
  0
LINE
  5
3F99
330
3F9F
100
AcDbEntity
  8
标注
  6
ByBlock
 62
     0
370
    -2
100
AcDbLine
 10
1100.5
 20
301.8764225820269
 30
0.0
 11
1174.513770435233
 21
301.8764225820269
 31
0.0
  0
LINE
  5
3F9A
330
3F9F
100
AcDbEntity
  8
标注
  6
ByBlock
 62
     0
370
    -2
100
AcDbLine
 10
1170.763770435233
 20
763.8764225820247
 30
0.0
 11
1170.763770435233
 21
309.8764225820269
 31
0.0
  0
SOLID
  5
3F9B
330
3F9F
100
AcDbEntity
  8
标注
  6
ByBlock
 62
     0
100
AcDbTrace
 10
1170.763770435233
 20
771.8764225820248
 30
0.0
 11
1169.4304371019
 21
763.8764225820247
 31
0.0
 12
1172.097103768567
 22
763.8764225820247
 32
0.0
 13
1172.097103768567
 23
763.8764225820247
 33
0.0
  0
SOLID
  5
3F9C
330
3F9F
100
AcDbEntity
  8
标注
  6
ByBlock
 62
     0
100
AcDbTrace
 10
1170.763770435233
 20
301.8764225820269
 30
0.0
 11
1169.4304371019
 21
309.8764225820269
 31
0.0
 12
1172.097103768567
 22
309.8764225820269
 32
0.0
 13
1172.097103768567
 23
309.8764225820269
 33
0.0
  0
MTEXT
  5
3F9D
330
3F9F
100
AcDbEntity
  8
标注
  6
ByBlock
 62
     0
100
AcDbMText
 10
1158.269909589394
 20
536.6500000000008
 30
0.0
 40
16.0
 41
0.0
 71
     5
 72
     1
  1
\A0;{\fArial|b0|i0|c0|p34;470 [18 1/2]}
 11
-0.0000000000000002
 21
1.0
 31
0.0
 73
     1
 44
1.0
1001
ACAD
1000
MTEXTBEGIN
1070
    73
1070
     1
1070
    44
1040
1.0
1070
    74
1070
     0
1000
MTEXTEND
  0
ENDBLK
  5
3FA1
330
3F9F
100
AcDbEntity
  8
0
100
AcDbBlockEnd
  0
BLOCK
  5
3FAD
330
3FAC
100
AcDbEntity
  8
0
100
AcDbBlockBegin
  2
*D3
 70
     1
 10
0.0
 20
0.0
 30
0.0
  3
*D3
  1

  0
POINT
  5
3FA3
330
3FAC
100
AcDbEntity
  8
Defpoints
  6
ByBlock
100
AcDbPoint
 10
342.6060468756223
 20
778.5
 30
0.0
  0
POINT
  5
3FA4
330
3FAC
100
AcDbEntity
  8
Defpoints
  6
ByBlock
100
AcDbPoint
 10
1105.306046931714
 20
789.0
 30
0.0
  0
LINE
  5
3FA5
330
3FAC
100
AcDbEntity
  8
标注
  6
ByBlock
 62
     0
370
    -2
100
AcDbLine
 10
342.6060468756223
 20
778.5
 30
0.0
 11
342.6060468756223
 21
880.7725673309667
 31
0.0
  0
LINE
  5
3FA6
330
3FAC
100
AcDbEntity
  8
标注
  6
ByBlock
 62
     0
370
    -2
100
AcDbLine
 10
1105.306046931714
 20
789.0
 30
0.0
 11
1105.306046931714
 21
880.7725673309667
 31
0.0
  0
LINE
  5
3FA7
330
3FAC
100
AcDbEntity
  8
标注
  6
ByBlock
 62
     0
370
    -2
100
AcDbLine
 10
350.6060468756223
 20
877.0225673309667
 30
0.0
 11
1097.306046931714
 21
877.0225673309667
 31
0.0
  0
SOLID
  5
3FA8
330
3FAC
100
AcDbEntity
  8
标注
  6
ByBlock
 62
     0
100
AcDbTrace
 10
342.6060468756223
 20
877.0225673309667
 30
0.0
 11
350.6060468756223
 21
875.689233997633
 31
0.0
 12
350.6060468756223
 22
878.3559006643002
 32
0.0
 13
350.6060468756223
 23
878.3559006643002
 33
0.0
  0
SOLID
  5
3FA9
330
3FAC
100
AcDbEntity
  8
标注
  6
ByBlock
 62
     0
100
AcDbTrace
 10
1105.306046931714
 20
877.0225673309667
 30
0.0
 11
1097.306046931714
 21
875.689233997633
 31
0.0
 12
1097.306046931714
 22
878.3559006643002
 32
0.0
 13
1097.306046931714
 23
878.3559006643002
 33
0.0
  0
MTEXT
  5
3FAA
330
3FAC
100
AcDbEntity
  8
标注
  6
ByBlock
 62
     0
100
AcDbMText
 10
716.4999999999991
 20
889.3090611918125
 30
0.0
 40
16.0
 41
0.0
 71
     5
 72
     1
  1
\A0;{\fArial|b0|i0|c0|p34;762.7 [30]}
 73
     1
 44
1.0
1001
ACAD
1000
MTEXTBEGIN
1070
    73
1070
     1
1070
    44
1040
1.0
1070
    74
1070
     0
1000
MTEXTEND
  0
ENDBLK
  5
3FAE
330
3FAC
100
AcDbEntity
  8
0
100
AcDbBlockEnd
  0
BLOCK
  5
3FBA
330
3FB9
100
AcDbEntity
  8
0
100
AcDbBlockBegin
  2
*D4
 70
     1
 10
0.0
 20
0.0
 30
0.0
  3
*D4
  1

  0
POINT
  5
3FB0
330
3FB9
100
AcDbEntity
  8
Defpoints
  6
ByBlock
100
AcDbPoint
 10
1092.5
 20
778.2264225820223
 30
0.0
  0
POINT
  5
3FB1
330
3FB9
100
AcDbEntity
  8
Defpoints
  6
ByBlock
100
AcDbPoint
 10
1096.5
 20
295.5264225820283
 30
0.0
  0
LINE
  5
3FB2
330
3FB9
100
AcDbEntity
  8
标注
  6
ByBlock
 62
     0
370
    -2
100
AcDbLine
 10
1092.5
 20
778.2264225820223
 30
0.0
 11
1205.513770435233
 21
778.2264225820223
 31
0.0
  0
LINE
  5
3FB3
330
3FB9
100
AcDbEntity
  8
标注
  6
ByBlock
 62
     0
370
    -2
100
AcDbLine
 10
1096.5
 20
295.5264225820283
 30
0.0
 11
1205.513770435233
 21
295.5264225820283
 31
0.0
  0
LINE
  5
3FB4
330
3FB9
100
AcDbEntity
  8
标注
  6
ByBlock
 62
     0
370
    -2
100
AcDbLine
 10
1201.763770435233
 20
770.2264225820223
 30
0.0
 11
1201.763770435233
 21
303.5264225820283
 31
0.0
  0
SOLID
  5
3FB5
330
3FB9
100
AcDbEntity
  8
标注
  6
ByBlock
 62
     0
100
AcDbTrace
 10
1201.763770435233
 20
778.2264225820223
 30
0.0
 11
1200.4304371019
 21
770.2264225820223
 31
0.0
 12
1203.097103768567
 22
770.2264225820223
 32
0.0
 13
1203.097103768567
 23
770.2264225820223
 33
0.0
  0
SOLID
  5
3FB6
330
3FB9
100
AcDbEntity
  8
标注
  6
ByBlock
 62
     0
100
AcDbTrace
 10
1201.763770435233
 20
295.5264225820283
 30
0.0
 11
1200.4304371019
 21
303.5264225820283
 31
0.0
 12
1203.097103768567
 22
303.5264225820283
 32
0.0
 13
1203.097103768567
 23
303.5264225820283
 33
0.0
  0
MTEXT
  5
3FB7
330
3FB9
100
AcDbEntity
  8
标注
  6
ByBlock
 62
     0
100
AcDbMText
 10
1189.477276574388
 20
536.6500000000018
 30
0.0
 40
16.0
 41
0.0
 71
     5
 72
     1
  1
\A0;{\fArial|b0|i0|c0|p34;482.7 [19]}
 11
-0.0000000000000002
 21
1.0
 31
0.0
 73
     1
 44
1.0
1001
ACAD
1000
MTEXTBEGIN
1070
    73
1070
     1
1070
    44
1040
1.0
1070
    74
1070
     0
1000
MTEXTEND
  0
ENDBLK
  5
3FBB
330
3FB9
100
AcDbEntity
  8
0
100
AcDbBlockEnd
  0
BLOCK
  5
3FC7
330
3FC6
100
AcDbEntity
  8
0
100
AcDbBlockBegin
  2
*D5
 70
     1
 10
0.0
 20
0.0
 30
0.0
  3
*D5
  1

  0
POINT
  5
3FBD
330
3FC6
100
AcDbEntity
  8
Defpoints
  6
ByBlock
100
AcDbPoint
 10
355.3060468760932
 20
777.5
 30
0.0
  0
POINT
  5
3FBE
330
3FC6
100
AcDbEntity
  8
Defpoints
  6
ByBlock
100
AcDbPoint
 10
1092.606046931714
 20
787.5
 30
0.0
  0
LINE
  5
3FBF
330
3FC6
100
AcDbEntity
  8
标注
  6
ByBlock
 62
     0
370
    -2
100
AcDbLine
 10
355.3060468760932
 20
777.5
 30
0.0
 11
355.3060468760932
 21
816.2725673309667
 31
0.0
  0
LINE
  5
3FC0
330
3FC6
100
AcDbEntity
  8
标注
  6
ByBlock
 62
     0
370
    -2
100
AcDbLine
 10
1092.606046931714
 20
787.5
 30
0.0
 11
1092.606046931714
 21
816.2725673309667
 31
0.0
  0
LINE
  5
3FC1
330
3FC6
100
AcDbEntity
  8
标注
  6
ByBlock
 62
     0
370
    -2
100
AcDbLine
 10
363.3060468760932
 20
812.5225673309667
 30
0.0
 11
1084.606046931714
 21
812.5225673309667
 31
0.0
  0
SOLID
  5
3FC2
330
3FC6
100
AcDbEntity
  8
标注
  6
ByBlock
 62
     0
100
AcDbTrace
 10
355.3060468760932
 20
812.5225673309667
 30
0.0
 11
363.3060468760932
 21
811.189233997633
 31
0.0
 12
363.3060468760932
 22
813.8559006643003
 32
0.0
 13
363.3060468760932
 23
813.8559006643003
 33
0.0
  0
SOLID
  5
3FC3
330
3FC6
100
AcDbEntity
  8
标注
  6
ByBlock
 62
     0
100
AcDbTrace
 10
1092.606046931714
 20
812.5225673309667
 30
0.0
 11
1084.606046931714
 21
811.189233997633
 31
0.0
 12
1084.606046931714
 22
813.8559006643003
 32
0.0
 13
1084.606046931714
 23
813.8559006643003
 33
0.0
  0
MTEXT
  5
3FC4
330
3FC6
100
AcDbEntity
  8
标注
  6
ByBlock
 62
     0
100
AcDbMText
 10
716.5000000000018
 20
824.8090611918126
 30
0.0
 40
16.0
 41
0.0
 71
     5
 72
     1
  1
\A0;{\fArial|b0|i0|c0|p34;737.3 [29]}
 73
     1
 44
1.0
1001
ACAD
1000
MTEXTBEGIN
1070
    73
1070
     1
1070
    44
1040
1.0
1070
    74
1070
     0
1000
MTEXTEND
  0
ENDBLK
  5
3FC8
330
3FC6
100
AcDbEntity
  8
0
100
AcDbBlockEnd
  0
BLOCK
  5
3FD4
330
3FD3
100
AcDbEntity
  8
0
100
AcDbBlockBegin
  2
*D6
 70
     1
 10
0.0
 20
0.0
 30
0.0
  3
*D6
  1

  0
POINT
  5
3FCA
330
3FD3
100
AcDbEntity
  8
Defpoints
  6
ByBlock
100
AcDbPoint
 10
1096.5
 20
765.5264225820274
 30
0.0
  0
POINT
  5
3FCB
330
3FD3
100
AcDbEntity
  8
Defpoints
  6
ByBlock
100
AcDbPoint
 10
1096.5
 20
308.2264225820254
 30
0.0
  0
LINE
  5
3FCC
330
3FD3
100
AcDbEntity
  8
标注
  6
ByBlock
 62
     0
370
    -2
100
AcDbLine
 10
1096.5
 20
765.5264225820274
 30
0.0
 11
1146.513770435233
 21
765.5264225820274
 31
0.0
  0
LINE
  5
3FCD
330
3FD3
100
AcDbEntity
  8
标注
  6
ByBlock
 62
     0
370
    -2
100
AcDbLine
 10
1096.5
 20
308.2264225820254
 30
0.0
 11
1146.513770435233
 21
308.2264225820254
 31
0.0
  0
LINE
  5
3FCE
330
3FD3
100
AcDbEntity
  8
标注
  6
ByBlock
 62
     0
370
    -2
100
AcDbLine
 10
1142.763770435234
 20
757.5264225820274
 30
0.0
 11
1142.763770435234
 21
316.2264225820254
 31
0.0
  0
SOLID
  5
3FCF
330
3FD3
100
AcDbEntity
  8
标注
  6
ByBlock
 62
     0
100
AcDbTrace
 10
1142.763770435234
 20
765.5264225820274
 30
0.0
 11
1141.4304371019
 21
757.5264225820274
 31
0.0
 12
1144.097103768567
 22
757.5264225820274
 32
0.0
 13
1144.097103768567
 23
757.5264225820274
 33
0.0
  0
SOLID
  5
3FD0
330
3FD3
100
AcDbEntity
  8
标注
  6
ByBlock
 62
     0
100
AcDbTrace
 10
1142.763770435234
 20
308.2264225820254
 30
0.0
 11
1141.4304371019
 21
316.2264225820254
 31
0.0
 12
1144.097103768567
 22
316.2264225820254
 32
0.0
 13
1144.097103768567
 23
316.2264225820254
 33
0.0
  0
MTEXT
  5
3FD1
330
3FD3
100
AcDbEntity
  8
标注
  6
ByBlock
 62
     0
100
AcDbMText
 10
1130.477276574388
 20
536.8300000000003
 30
0.0
 40
16.0
 41
0.0
 71
     5
 72
     1
  1
\A0;{\fArial|b0|i0|c0|p34;457.3 [18]}
 11
-0.0000000000000002
 21
1.0
 31
0.0
 73
     1
 44
1.0
1001
ACAD
1000
MTEXTBEGIN
1070
    73
1070
     1
1070
    44
1040
1.0
1070
    74
1070
     0
1000
MTEXTEND
  0
ENDBLK
  5
3FD5
330
3FD3
100
AcDbEntity
  8
0
100
AcDbBlockEnd
  0
BLOCK
  5
402A
330
4029
100
AcDbEntity
  8
0
100
AcDbBlockBegin
  2
*D7
 70
     1
 10
0.0
 20
0.0
 30
0.0
  3
*D7
  1

  0
POINT
  5
401D
330
4029
100
AcDbEntity
  8
Defpoints
  6
ByBlock
100
AcDbPoint
 10
355.3060468756275
 20
504.8764167687637
 30
0.0
  0
POINT
  5
401E
330
4029
100
AcDbEntity
  8
Defpoints
  6
ByBlock
100
AcDbPoint
 10
348.9560468756254
 20
504.8764167687564
 30
0.0
  0
LINE
  5
401F
330
4029
100
AcDbEntity
  8
标注
  6
ByBlock
 62
     0
370
    -2
100
AcDbLine
 10
355.3060468756275
 20
504.8764167687637
 30
0.0
 11
355.3060468756275
 21
464.998989912962
 31
0.0
  0
LINE
  5
4020
330
4029
100
AcDbEntity
  8
标注
  6
ByBlock
 62
     0
370
    -2
100
AcDbLine
 10
348.9560468756254
 20
504.8764167687564
 30
0.0
 11
348.9560468756254
 21
464.998989912962
 31
0.0
  0
LINE
  5
4021
330
4029
100
AcDbEntity
  8
标注
  6
ByBlock
 62
     0
370
    -2
100
AcDbLine
 10
363.3060468756275
 20
468.7489899129619
 30
0.0
 11
371.3060468756276
 21
468.7489899129619
 31
0.0
  0
LINE
  5
4022
330
4029
100
AcDbEntity
  8
标注
  6
ByBlock
 62
     0
370
    -2
100
AcDbLine
 10
234.8383356070942
 20
468.7489899129619
 30
0.0
 11
340.9560468756254
 21
468.7489899129619
 31
0.0
  0
SOLID
  5
4023
330
4029
100
AcDbEntity
  8
标注
  6
ByBlock
 62
     0
100
AcDbTrace
 10
355.3060468756275
 20
468.7489899129619
 30
0.0
 11
363.3060468756275
 21
470.0823232462956
 31
0.0
 12
363.3060468756275
 22
467.4156565796283
 32
0.0
 13
363.3060468756275
 23
467.4156565796283
 33
0.0
  0
SOLID
  5
4024
330
4029
100
AcDbEntity
  8
标注
  6
ByBlock
 62
     0
100
AcDbTrace
 10
348.9560468756254
 20
468.7489899129619
 30
0.0
 11
340.9560468756254
 21
470.0823232462956
 31
0.0
 12
340.9560468756254
 22
467.4156565796283
 32
0.0
 13
340.9560468756254
 23
467.4156565796283
 33
0.0
  0
LINE
  5
4025
330
4029
100
AcDbEntity
  8
标注
  6
ByBlock
 62
     0
370
    -2
100
AcDbLine
 10
355.3060468756275
 20
468.7489899129619
 30
0.0
 11
348.9560468756254
 21
468.7489899129619
 31
0.0
  0
LINE
  5
4026
330
4029
100
AcDbEntity
  8
标注
  6
ByBlock
 62
     0
370
    -2
100
AcDbLine
 10
355.3060468756275
 20
504.8764167687637
 30
0.0
 11
355.3060468756275
 21
504.8764167687637
 31
0.0
  0
MTEXT
  5
4027
330
4029
100
AcDbEntity
  8
标注
  6
ByBlock
 62
     0
100
AcDbMText
 10
276.5
 20
481.242850758801
 30
0.0
 40
16.0
 41
0.0
 71
     5
 72
     1
  1
\A0;{\fArial|b0|i0|c0|p34;6.4 [1/4]}
 73
     1
 44
1.0
1001
ACAD
1000
MTEXTBEGIN
1070
    73
1070
     1
1070
    44
1040
1.0
1070
    74
1070
     0
1000
MTEXTEND
  0
ENDBLK
  5
402B
330
4029
100
AcDbEntity
  8
0
100
AcDbBlockEnd
  0
BLOCK
  5
404A
330
4049
100
AcDbEntity
  8
0
100
AcDbBlockBegin
  2
*D8
 70
     1
 10
0.0
 20
0.0
 30
0.0
  3
*D8
  1

  0
POINT
  5
403D
330
4049
100
AcDbEntity
  8
Defpoints
  6
ByBlock
100
AcDbPoint
 10
348.9560468756254
 20
504.8764167687564
 30
0.0
  0
POINT
  5
403E
330
4049
100
AcDbEntity
  8
Defpoints
  6
ByBlock
100
AcDbPoint
 10
342.6060468756232
 20
504.8764167687637
 30
0.0
  0
LINE
  5
403F
330
4049
100
AcDbEntity
  8
标注
  6
ByBlock
 62
     0
370
    -2
100
AcDbLine
 10
348.9560468756254
 20
504.8764167687564
 30
0.0
 11
348.9560468756254
 21
428.5996402825782
 31
0.0
  0
LINE
  5
4040
330
4049
100
AcDbEntity
  8
标注
  6
ByBlock
 62
     0
370
    -2
100
AcDbLine
 10
342.6060468756232
 20
504.8764167687637
 30
0.0
 11
342.6060468756232
 21
428.5996402825782
 31
0.0
  0
LINE
  5
4041
330
4049
100
AcDbEntity
  8
标注
  6
ByBlock
 62
     0
370
    -2
100
AcDbLine
 10
356.9560468756254
 20
432.3496402825782
 30
0.0
 11
364.9560468756253
 21
432.3496402825782
 31
0.0
  0
LINE
  5
4042
330
4049
100
AcDbEntity
  8
标注
  6
ByBlock
 62
     0
370
    -2
100
AcDbLine
 10
239.8383356070942
 20
432.3496402825782
 30
0.0
 11
334.6060468756232
 21
432.3496402825782
 31
0.0
  0
SOLID
  5
4043
330
4049
100
AcDbEntity
  8
标注
  6
ByBlock
 62
     0
100
AcDbTrace
 10
348.9560468756254
 20
432.3496402825782
 30
0.0
 11
356.9560468756254
 21
433.6829736159118
 31
0.0
 12
356.9560468756254
 22
431.0163069492445
 32
0.0
 13
356.9560468756254
 23
431.0163069492445
 33
0.0
  0
SOLID
  5
4044
330
4049
100
AcDbEntity
  8
标注
  6
ByBlock
 62
     0
100
AcDbTrace
 10
342.6060468756232
 20
432.3496402825782
 30
0.0
 11
334.6060468756232
 21
433.6829736159118
 31
0.0
 12
334.6060468756232
 22
431.0163069492445
 32
0.0
 13
334.6060468756232
 23
431.0163069492445
 33
0.0
  0
LINE
  5
4045
330
4049
100
AcDbEntity
  8
标注
  6
ByBlock
 62
     0
370
    -2
100
AcDbLine
 10
348.9560468756254
 20
432.3496402825782
 30
0.0
 11
342.6060468756232
 21
432.3496402825782
 31
0.0
  0
LINE
  5
4046
330
4049
100
AcDbEntity
  8
标注
  6
ByBlock
 62
     0
370
    -2
100
AcDbLine
 10
348.9560468756254
 20
504.8764167687564
 30
0.0
 11
348.9560468756254
 21
504.8764167687564
 31
0.0
  0
MTEXT
  5
4047
330
4049
100
AcDbEntity
  8
标注
  6
ByBlock
 62
     0
100
AcDbMText
 10
281.5
 20
444.8435011284172
 30
0.0
 40
16.0
 41
0.0
 71
     5
 72
     1
  1
\A0;{\fArial|b0|i0|c0|p34;6.4 [1/4]}
 73
     1
 44
1.0
1001
ACAD
1000
MTEXTBEGIN
1070
    73
1070
     1
1070
    44
1040
1.0
1070
    74
1070
     0
1000
MTEXTEND
  0
ENDBLK
  5
404B
330
4049
100
AcDbEntity
  8
0
100
AcDbBlockEnd
  0
ENDSEC
  0
SECTION
  2
ENTITIES
  0
LINE
  5
374D
330
1F
100
AcDbEntity
  8
粗实线
100
AcDbLine
 10
1312.153269004954
 20
104.7772279732067
 30
0.0
 11
800.8621056624861
 21
104.7772279732067
 31
0.0
  0
LINE
  5
374E
330
1F
100
AcDbEntity
  8
图框线
100
AcDbLine
 10
1141.722881224121
 20
235.440525271842
 30
0.0
 11
1141.722881224121
 21
104.7772279732067
 31
0.0
  0
LINE
  5
374F
330
1F
100
AcDbEntity
  8
图框线
100
AcDbLine
 10
971.2924934432926
 20
235.440525271842
 30
0.0
 11
971.2924934432926
 21
104.7772279732067
 31
0.0
  0
LINE
  5
3750
330
1F
100
AcDbEntity
  8
图框线
100
AcDbLine
 10
992.5962919159251
 20
155.9063443074537
 30
0.0
 11
992.5962919159251
 21
124.6607732143136
 31
0.0
  0
LINE
  5
3751
330
1F
100
AcDbEntity
  8
图框线
100
AcDbLine
 10
1013.90009038851
 20
155.9063443074537
 30
0.0
 11
1013.90009038851
 21
124.6607732143136
 31
0.0
  0
LINE
  5
3752
330
1F
100
AcDbEntity
  8
图框线
100
AcDbLine
 10
1056.507687333696
 20
124.6607732143136
 30
0.0
 11
1056.507687333696
 21
104.7772279732067
 31
0.0
  0
LINE
  5
3753
330
1F
100
AcDbEntity
  8
图框线
100
AcDbLine
 10
1035.203888861099
 20
172.9493830855488
 30
0.0
 11
1035.203888861099
 21
124.6607732143136
 31
0.0
  0
LINE
  5
3754
330
1F
100
AcDbEntity
  8
图框线
100
AcDbLine
 10
1069.289966417271
 20
172.9493830855488
 30
0.0
 11
1069.289966417271
 21
124.6607732143136
 31
0.0
  0
LINE
  5
3755
330
1F
100
AcDbEntity
  8
图框线
100
AcDbLine
 10
1107.636803667952
 20
172.9493830855488
 30
0.0
 11
1107.636803667952
 21
124.6607732143136
 31
0.0
  0
LINE
  5
3756
330
1F
100
AcDbEntity
  8
粗实线
100
AcDbLine
 10
1312.153269004954
 20
104.7772279732067
 30
0.0
 11
800.8621056624861
 21
104.7772279732067
 31
0.0
  0
LINE
  5
3757
330
1F
100
AcDbEntity
  8
粗实线
100
AcDbLine
 10
1312.153269004954
 20
235.440525271842
 30
0.0
 11
800.8621056624861
 21
235.440525271842
 31
0.0
  0
LINE
  5
3758
330
1F
100
AcDbEntity
  8
图框线
100
AcDbLine
 10
1141.722881224121
 20
172.9493830855488
 30
0.0
 11
800.8621056624861
 21
172.9493830855488
 31
0.0
  0
LINE
  5
3759
330
1F
100
AcDbEntity
  8
图框线
100
AcDbLine
 10
971.2924934432926
 20
185.4476115228044
 30
0.0
 11
800.8621056624861
 21
185.4476115228044
 31
0.0
  0
LINE
  5
375A
330
1F
100
AcDbEntity
  8
图框线
100
AcDbLine
 10
971.2924934432926
 20
197.9458399600567
 30
0.0
 11
800.8621056624861
 21
197.9458399600567
 31
0.0
  0
LINE
  5
375B
330
1F
100
AcDbEntity
  8
图框线
100
AcDbLine
 10
971.2924934432926
 20
210.4440683973211
 30
0.0
 11
800.8621056624861
 21
210.4440683973211
 31
0.0
  0
LINE
  5
375C
330
1F
100
AcDbEntity
  8
图框线
100
AcDbLine
 10
971.2924934432926
 20
222.9422968345865
 30
0.0
 11
800.8621056624861
 21
222.9422968345865
 31
0.0
  0
LINE
  5
375D
330
1F
100
AcDbEntity
  8
图框线
100
AcDbLine
 10
1141.722881224121
 20
155.9063443074537
 30
0.0
 11
800.8621056624861
 21
155.9063443074537
 31
0.0
  0
LINE
  5
375E
330
1F
100
AcDbEntity
  8
图框线
100
AcDbLine
 10
1141.722881224121
 20
138.8633055293685
 30
0.0
 11
800.8621056624861
 21
138.8633055293685
 31
0.0
  0
LINE
  5
375F
330
1F
100
AcDbEntity
  8
图框线
100
AcDbLine
 10
971.2924934432926
 20
121.8202667512876
 30
0.0
 11
800.8621056624861
 21
121.8202667512876
 31
0.0
  0
LINE
  5
3760
330
1F
100
AcDbEntity
  8
图框线
100
AcDbLine
 10
1141.722881224121
 20
155.9063443074537
 30
0.0
 11
971.2924934432926
 21
155.9063443074537
 31
0.0
  0
LINE
  5
3761
330
1F
100
AcDbEntity
  8
图框线
100
AcDbLine
 10
1141.722881224121
 20
138.8633055293685
 30
0.0
 11
971.2924934432926
 21
138.8633055293685
 31
0.0
  0
LINE
  5
3762
330
1F
100
AcDbEntity
  8
图框线
100
AcDbLine
 10
1141.722881224121
 20
124.6607732143136
 30
0.0
 11
971.2924934432926
 21
124.6607732143136
 31
0.0
  0
LINE
  5
3763
330
1F
100
AcDbEntity
  8
图框线
100
AcDbLine
 10
1312.153269004954
 20
189.9924218636209
 30
0.0
 11
1141.722881224121
 21
189.9924218636209
 31
0.0
  0
LINE
  5
3764
330
1F
100
AcDbEntity
  8
图框线
100
AcDbLine
 10
1312.153269004954
 20
147.3848249183975
 30
0.0
 11
1141.722881224121
 21
147.3848249183975
 31
0.0
  0
LINE
  5
3765
330
1F
100
AcDbEntity
  8
图框线
100
AcDbLine
 10
823.5861573665806
 20
172.9493830855258
 30
0.0
 11
823.5861573665806
 21
235.440525271842
 31
0.0
  0
LINE
  5
3766
330
1F
100
AcDbEntity
  8
图框线
100
AcDbLine
 10
846.3102090706888
 20
172.9493830855258
 30
0.0
 11
846.3102090706888
 21
235.440525271842
 31
0.0
  0
LINE
  5
3767
330
1F
100
AcDbEntity
  8
图框线
100
AcDbLine
 10
894.5988189419422
 20
172.9493830855488
 30
0.0
 11
894.5988189419422
 21
235.440525271842
 31
0.0
  0
LINE
  5
3768
330
1F
100
AcDbEntity
  8
图框线
100
AcDbLine
 10
937.206415887133
 20
172.9493830855488
 30
0.0
 11
937.206415887133
 21
235.440525271842
 31
0.0
  0
LINE
  5
3769
330
1F
100
AcDbEntity
  8
图框线
100
AcDbLine
 10
834.9481832186411
 20
104.7772279732067
 30
0.0
 11
834.9481832186411
 21
172.9493830855258
 31
0.0
  0
LINE
  5
376A
330
1F
100
AcDbEntity
  8
图框线
100
AcDbLine
 10
886.0772995528936
 20
104.7772279732067
 30
0.0
 11
886.0772995528936
 21
172.9493830855488
 31
0.0
  0
LINE
  5
376B
330
1F
100
AcDbEntity
  8
图框线
100
AcDbLine
 10
920.1633771090492
 20
104.7772279732067
 30
0.0
 11
920.1633771090492
 21
172.9493830855488
 31
0.0
  0
MTEXT
  5
376C
330
1F
100
AcDbEntity
  8
文字
100
AcDbMText
 10
805.2046618666018
 20
182.7231602168328
 30
0.0
 40
5.76616404792258
 41
37.05480222297226
 71
     1
 72
     5
  1
{\fSimSun|b0|i0|c134|p2;标记}
 73
     1
 44
1.0
1001
ACAD
1000
MTEXTBEGIN
1070
    73
1070
     1
1070
    44
1040
1.0
1070
    74
1070
     0
1000
MTEXTEND
  0
MTEXT
  5
376D
330
1F
100
AcDbEntity
  8
文字
100
AcDbMText
 10
827.4454467951972
 20
182.6556312063843
 30
0.0
 40
5.76616404792258
 41
37.05480222297226
 71
     1
 72
     5
  1
{\fSimSun|b0|i0|c134|p2;处数}
 73
     1
 44
1.0
1001
ACAD
1000
MTEXTBEGIN
1070
    73
1070
     1
1070
    44
1040
1.0
1070
    74
1070
     0
1000
MTEXTEND
  0
MTEXT
  5
376E
330
1F
100
AcDbEntity
  8
文字
100
AcDbMText
 10
855.0144261336141
 20
181.9338139648403
 30
0.0
 40
4.612931238338064
 41
78.79313184560102
 71
     1
 72
     5
  1
{\fSimSun|b0|i0|c134|p2;\C1;更改文件号}
 73
     1
 44
1.0
1001
ACAD
1000
MTEXTBEGIN
1070
    73
1070
     1
1070
    44
1040
1.0
1070
    74
1070
     0
1000
MTEXTEND
  0
MTEXT
  5
376F
330
1F
100
AcDbEntity
  8
文字
100
AcDbMText
 10
906.9972141803036
 20
183.0779492374174
 30
0.0
 40
5.76616404792258
 41
37.05480222297226
 71
     1
 72
     5
  1
{\fSimSun|b0|i0|c134|p2;签名}
 73
     1
 44
1.0
1001
ACAD
1000
MTEXTBEGIN
1070
    73
1070
     1
1070
    44
1040
1.0
1070
    74
1070
     0
1000
MTEXTEND
  0
MTEXT
  5
3770
330
1F
100
AcDbEntity
  8
文字
100
AcDbMText
 10
947.8446941743658
 20
182.7384334443704
 30
0.0
 40
5.76616404792258
 41
37.05480222297226
 71
     1
 72
     5
  1
{\fSimSun|b0|i0|c134|p2;日期}
 73
     1
 44
1.0
1001
ACAD
1000
MTEXTBEGIN
1070
    73
1070
     1
1070
    44
1040
1.0
1070
    74
1070
     0
1000
MTEXTEND
  0
MTEXT
  5
3771
330
1F
100
AcDbEntity
  8
文字
100
AcDbMText
 10
808.2301018565075
 20
168.5096935566863
 30
0.0
 40
7.207705059903223
 41
46.31850277871532
 71
     1
 72
     5
  1
{\fSimSun|b0|i0|c134|p2;设计}
 73
     1
 44
1.0
1001
ACAD
1000
MTEXTBEGIN
1070
    73
1070
     1
1070
    44
1040
1.0
1070
    74
1070
     0
1000
MTEXTEND
  0
MTEXT
  5
3772
330
1F
100
AcDbEntity
  8
文字
100
AcDbMText
 10
808.2301018565075
 20
151.3507319122731
 30
0.0
 40
7.207705059903223
 41
46.31850277871532
 71
     1
 72
     5
  1
{\fSimSun|b0|i0|c134|p2;校对}
 73
     1
 44
1.0
1001
ACAD
1000
MTEXTBEGIN
1070
    73
1070
     1
1070
    44
1040
1.0
1070
    74
1070
     0
1000
MTEXTEND
  0
MTEXT
  5
3773
330
1F
100
AcDbEntity
  8
文字
100
AcDbMText
 10
808.2301018565075
 20
134.3599952654141
 30
0.0
 40
7.207705059903223
 41
46.31850277871532
 71
     1
 72
     5
  1
{\fSimSun|b0|i0|c134|p2;会签}
 73
     1
 44
1.0
1001
ACAD
1000
MTEXTBEGIN
1070
    73
1070
     1
1070
    44
1040
1.0
1070
    74
1070
     0
1000
MTEXTEND
  0
MTEXT
  5
3774
330
1F
100
AcDbEntity
  8
文字
100
AcDbMText
 10
808.2301018565075
 20
117.5537034342869
 30
0.0
 40
7.207705059903223
 41
46.31850277871532
 71
     1
 72
     5
  1
{\fSimSun|b0|i0|c134|p2;工艺}
 73
     1
 44
1.0
1001
ACAD
1000
MTEXTBEGIN
1070
    73
1070
     1
1070
    44
1040
1.0
1070
    74
1070
     0
1000
MTEXTEND
  0
MTEXT
  5
3775
330
1F
100
AcDbEntity
  8
文字
100
AcDbMText
 10
893.3282976802974
 20
150.3366625013145
 30
0.0
 40
7.207705059903223
 41
46.31850277871532
 71
     1
 72
     5
  1
{\fSimSun|b0|i0|c134|p2;批准}
 73
     1
 44
1.0
1001
ACAD
1000
MTEXTBEGIN
1070
    73
1070
     1
1070
    44
1040
1.0
1070
    74
1070
     0
1000
MTEXTEND
  0
MTEXT
  5
3776
330
1F
100
AcDbEntity
  8
文字
100
AcDbMText
 10
894.864398994132
 20
116.5396471905496
 30
0.0
 40
7.207705059903223
 41
46.31850277871532
 71
     1
 72
     5
  1
{\fSimSun|b0|i0|c134|p2;日期}
 73
     1
 44
1.0
1001
ACAD
1000
MTEXTBEGIN
1070
    73
1070
     1
1070
    44
1040
1.0
1070
    74
1070
     0
1000
MTEXTEND
  0
MTEXT
  5
3777
330
1F
100
AcDbEntity
  8
文字
100
AcDbMText
 10
983.7481539452765
 20
168.6501223582166
 30
0.0
 40
7.207705059903223
 41
46.31850277871532
 71
     1
 72
     5
  1
{\fSimSun|b0|i0|c134|p2;图样标记}
 73
     1
 44
1.0
1001
ACAD
1000
MTEXTBEGIN
1070
    73
1070
     1
1070
    44
1040
1.0
1070
    74
1070
     0
1000
MTEXTEND
  0
MTEXT
  5
3778
330
1F
100
AcDbEntity
  8
文字
100
AcDbMText
 10
995.0843186082666
 20
118.1693283463431
 30
0.0
 40
7.207705059903223
 41
46.31850277871532
 71
     1
 72
     5
  1
{\fSimSun|b0|i0|c134|p2;共  页}
 73
     1
 44
1.0
1001
ACAD
1000
MTEXTBEGIN
1070
    73
1070
     1
1070
    44
1040
1.0
1070
    74
1070
     0
1000
MTEXTEND
  0
MTEXT
  5
3779
330
1F
100
AcDbEntity
  8
文字
100
AcDbMText
 10
1044.041784847759
 20
168.5853855989993
 30
0.0
 40
7.207705059903223
 41
46.31850277871532
 71
     1
 72
     5
  1
{\fSimSun|b0|i0|c134|p2;数量}
 73
     1
 44
1.0
1001
ACAD
1000
MTEXTBEGIN
1070
    73
1070
     1
1070
    44
1040
1.0
1070
    74
1070
     0
1000
MTEXTEND
  0
MTEXT
  5
377A
330
1F
100
AcDbEntity
  8
文字
100
AcDbMText
 10
1074.325185452586
 20
168.1165798552199
 30
0.0
 40
7.207705059903223
 41
46.31850277871532
 71
     1
 72
     5
  1
{\fSimSun|b0|i0|c134|p2;重量}
 73
     1
 44
1.0
1001
ACAD
1000
MTEXTBEGIN
1070
    73
1070
     1
1070
    44
1040
1.0
1070
    74
1070
     0
1000
MTEXTEND
  0
MTEXT
  5
377B
330
1F
100
AcDbEntity
  8
文字
100
AcDbMText
 10
1115.756801074705
 20
168.4916218168018
 30
0.0
 40
7.207705059903223
 41
46.31850277871532
 71
     1
 72
     5
  1
{\fSimSun|b0|i0|c134|p2;比例}
 73
     1
 44
1.0
1001
ACAD
1000
MTEXTBEGIN
1070
    73
1070
     1
1070
    44
1040
1.0
1070
    74
1070
     0
1000
MTEXTEND
  0
MTEXT
  5
377C
330
1F
100
AcDbEntity
  8
文字
100
AcDbMText
 10
1096.295006113289
 20
167.3686407050439
 30
0.0
 40
8.376994420203065
 41
166.3293400774424
 71
     1
 72
     5
  1
{\fArial|b0|i0|c0|p34;kg}
  7
样式 8
 73
     1
 44
1.0
1001
ACAD
1000
MTEXTBEGIN
1070
    73
1070
     1
1070
    44
1040
1.0
1070
    74
1070
     0
1000
MTEXTEND
  0
MTEXT
  5
377D
330
1F
100
AcDbEntity
  8
文字
100
AcDbMText
 10
1080.948608479091
 20
118.1693283463431
 30
0.0
 40
7.207705059903223
 41
46.31850277871532
 71
     1
 72
     5
  1
{\fSimSun|b0|i0|c134|p2;第  页}
 73
     1
 44
1.0
1001
ACAD
1000
MTEXTBEGIN
1070
    73
1070
     1
1070
    44
1040
1.0
1070
    74
1070
     0
1000
MTEXTEND
  0
MTEXT
  5
377E
330
1F
100
AcDbEntity
  8
文字
100
AcDbMText
 10
1150.049658846503
 20
215.6831650146785
 30
0.0
 40
10.47124302525383
 41
207.911675096803
 71
     1
 72
     5
  1
{\fSimSun|b0|i0|c134|p2;\C1;泰捷不锈钢制品（泰国）有限公司}
  7
样式 8
 73
     1
 44
1.0
1001
ACAD
1000
MTEXTBEGIN
1070
    73
1070
     1
1070
    44
1040
1.0
1070
    74
1070
     0
1000
MTEXTEND
  0
MTEXT
  5
377F
330
1F
100
AcDbEntity
  8
文字
100
AcDbMText
 10
1165.500389003744
 20
178.0142003842902
 30
0.0
 40
13.63443102246592
 41
270.7183269489622
 71
     1
 72
     5
  1
\fSimSun|b0|i0|c134|p2;\H1x;\C1;开孔纸板（FD2038L）
  7
样式 8
 73
     1
 44
1.0
1001
ACAD
1000
MTEXTBEGIN
1070
    73
1070
     1
1070
    44
1040
1.0
1070
    74
1070
     0
1000
MTEXTEND
  0
LINE
  5
3780
330
1F
100
AcDbEntity
  8
不可见
100
AcDbLine
 10
1326.355801320022
 20
934.2051151732198
 30
0.0
 11
1326.355801320022
 21
90.57469565813875
 31
0.0
  0
LINE
  5
3781
330
1F
100
AcDbEntity
  8
粗实线
100
AcDbLine
 10
1312.153269004954
 20
920.0025828581672
 30
0.0
 11
1312.153269004954
 21
104.7772279732067
 31
0.0
  0
LINE
  5
3782
330
1F
100
AcDbEntity
  8
不可见
100
AcDbLine
 10
1326.355801320022
 20
90.57469565813875
 30
0.0
 11
133.3430868542532
 21
90.57469565813875
 31
0.0
  0
LINE
  5
3783
330
1F
100
AcDbEntity
  8
粗实线
100
AcDbLine
 10
1312.153269004954
 20
104.7772279732067
 30
0.0
 11
204.3557484295843
 21
104.7772279732067
 31
0.0
  0
LINE
  5
3784
330
1F
100
AcDbEntity
  8
粗实线
100
AcDbLine
 10
1312.153269004954
 20
104.7772279732067
 30
0.0
 11
204.3557484295843
 21
104.7772279732067
 31
0.0
  0
MTEXT
  5
3785
330
1F
100
AcDbEntity
  8
文字
100
AcDbMText
 10
1018.2542304243
 20
207.2976249649265
 30
0.0
 40
13.63443102246592
 41
270.7183269489622
 71
     1
 72
     5
  1
{\fSimSun|b0|i0|c0|p2;\C1;0.3\fSimSun|b0|i0|c134|p2;mm厚白纸板}
  7
样式 8
 73
     1
 44
1.0
1001
ACAD
1000
MTEXTBEGIN
1070
    73
1070
     1
1070
    44
1040
1.0
1070
    74
1070
     0
1000
MTEXTEND
  0
MTEXT
  5
3786
330
1F
100
AcDbEntity
  8
文字
100
AcDbMText
 10
978.7461583391122
 20
228.5163790124311
 30
0.0
 40
13.63443102246592
 41
270.7183269489622
 71
     1
 72
     5
  1
{\fSimSun|b0|i0|c134|p2;材料:}
  7
样式 8
 73
     1
 44
1.0
1001
ACAD
1000
MTEXTBEGIN
1070
    73
1070
     1
1070
    44
1040
1.0
1070
    74
1070
     0
1000
MTEXTEND
  0
MTEXT
  5
3787
330
1F
100
AcDbEntity
  8
文字
100
AcDbMText
 10
893.3282976802974
 20
167.4241467036117
 30
0.0
 40
7.207705059903223
 41
46.31850277871532
 71
     1
 72
     5
  1
{\fSimSun|b0|i0|c134|p2;审核}
 73
     1
 44
1.0
1001
ACAD
1000
MTEXTBEGIN
1070
    73
1070
     1
1070
    44
1040
1.0
1070
    74
1070
     0
1000
MTEXTEND
  0
LINE
  5
3788
330
1F
100
AcDbEntity
  8
不可见
100
AcDbLine
 10
133.3430868542532
 20
934.2051151732198
 30
0.0
 11
1326.355801320022
 21
934.2051151732198
 31
0.0
  0
LINE
  5
3789
330
1F
100
AcDbEntity
  8
粗实线
100
AcDbLine
 10
204.3557484295843
 20
920.0025828581486
 30
0.0
 11
1312.153269004954
 21
920.0025828581486
 31
0.0
  0
LINE
  5
378A
330
1F
100
AcDbEntity
  8
不可见
100
AcDbLine
 10
133.3430868542532
 20
90.57469565813875
 30
0.0
 11
133.3430868542532
 21
934.2051151732198
 31
0.0
  0
LINE
  5
378B
330
1F
100
AcDbEntity
  8
粗实线
100
AcDbLine
 10
204.3557484295843
 20
104.7772279732067
 30
0.0
 11
204.3557484295843
 21
920.0025828581486
 31
0.0
  0
LINE
  5
378C
330
1F
100
AcDbEntity
  8
粗实线
100
AcDbLine
 10
204.3557484295843
 20
890.5457369119361
 30
0.0
 11
344.4026727599758
 21
890.5457369119361
 31
0.0
  0
LINE
  5
378D
330
1F
100
AcDbEntity
  8
粗实线
100
AcDbLine
 10
344.4026727599758
 20
890.5457369119361
 30
0.0
 11
344.4026727599758
 21
920.0025828581486
 31
0.0
  0
LINE
  5
378E
330
1F
100
AcDbEntity
  8
图框线
100
AcDbLine
 10
204.3557484295843
 20
127.5012796773123
 30
0.0
 11
133.3430868542532
 21
127.5012796773123
 31
0.0
  0
LINE
  5
378F
330
1F
100
AcDbEntity
  8
图框线
100
AcDbLine
 10
204.3557484295843
 20
144.5443184554074
 30
0.0
 11
133.3430868542532
 21
144.5443184554074
 31
0.0
  0
LINE
  5
3790
330
1F
100
AcDbEntity
  8
图框线
100
AcDbLine
 10
204.3557484295843
 20
167.2683701595043
 30
0.0
 11
133.3430868542532
 21
167.2683701595043
 31
0.0
  0
LINE
  5
3791
330
1F
100
AcDbEntity
  8
图框线
100
AcDbLine
 10
204.3557484295843
 20
184.3114089375896
 30
0.0
 11
133.3430868542532
 21
184.3114089375896
 31
0.0
  0
LINE
  5
3792
330
1F
100
AcDbEntity
  8
图框线
100
AcDbLine
 10
204.3557484295843
 20
207.0354606416974
 30
0.0
 11
133.3430868542532
 21
207.0354606416974
 31
0.0
  0
LINE
  5
3793
330
1F
100
AcDbEntity
  8
图框线
100
AcDbLine
 10
204.3557484295843
 20
224.0784994197739
 30
0.0
 11
133.3430868542532
 21
224.0784994197739
 31
0.0
  0
LINE
  5
3794
330
1F
100
AcDbEntity
  8
图框线
100
AcDbLine
 10
204.3557484295843
 20
246.8025511238982
 30
0.0
 11
133.3430868542532
 21
246.8025511238982
 31
0.0
  0
LINE
  5
3795
330
1F
100
AcDbEntity
  8
图框线
100
AcDbLine
 10
204.3557484295843
 20
263.8455899019736
 30
0.0
 11
133.3430868542532
 21
263.8455899019736
 31
0.0
  0
LINE
  5
3796
330
1F
100
AcDbEntity
  8
图框线
100
AcDbLine
 10
204.3557484295843
 20
286.5696416060989
 30
0.0
 11
133.3430868542532
 21
286.5696416060989
 31
0.0
  0
LINE
  5
3797
330
1F
100
AcDbEntity
  8
图框线
100
AcDbLine
 10
204.3557484295843
 20
303.6126803841885
 30
0.0
 11
133.3430868542532
 21
303.6126803841885
 31
0.0
  0
LINE
  5
3798
330
1F
100
AcDbEntity
  8
图框线
100
AcDbLine
 10
204.3557484295843
 20
326.3367320882712
 30
0.0
 11
133.3430868542532
 21
326.3367320882712
 31
0.0
  0
LINE
  5
3799
330
1F
100
AcDbEntity
  8
图框线
100
AcDbLine
 10
204.3557484295843
 20
343.3797708663576
 30
0.0
 11
133.3430868542532
 21
343.3797708663576
 31
0.0
  0
LINE
  5
379A
330
1F
100
AcDbEntity
  8
图框线
100
AcDbLine
 10
204.3557484295843
 20
360.4228096444341
 30
0.0
 11
133.3430868542532
 21
360.4228096444341
 31
0.0
  0
LINE
  5
379B
330
1F
100
AcDbEntity
  8
图框线
100
AcDbLine
 10
204.3557484295843
 20
104.7772279732067
 30
0.0
 11
133.3430868542532
 21
104.7772279732067
 31
0.0
  0
MTEXT
  5
379C
102
{ACAD_XDICTIONARY
360
41F6
102
}
330
1F
100
AcDbEntity
  8
文字
100
AcDbMText
 10
140.9543054598834
 20
139.8463363545808
 30
0.0
 40
5.915354709226101
 41
150.277363855773
 71
     1
 72
     5
  1
\U+65E5   
 73
     1
 44
1.0
1001
ACAD
1000
MTEXTBEGIN
1070
    73
1070
     1
1070
    44
1040
1.0
1070
    74
1070
     0
1000
MTEXTEND
  0
MTEXT
  5
379D
102
{ACAD_XDICTIONARY
360
41F8
102
}
330
1F
100
AcDbEntity
  8
文字
100
AcDbMText
 10
140.9543054598834
 20
179.591647076336
 30
0.0
 40
5.915354709226101
 41
150.277363855773
 71
     1
 72
     5
  1
\U+7B7E   
 73
     1
 44
1.0
1001
ACAD
1000
MTEXTBEGIN
1070
    73
1070
     1
1070
    44
1040
1.0
1070
    74
1070
     0
1000
MTEXTEND
  0
MTEXT
  5
379E
102
{ACAD_XDICTIONARY
360
41FA
102
}
330
1F
100
AcDbEntity
  8
文字
100
AcDbMText
 10
140.9543054598834
 20
220.4479840757238
 30
0.0
 40
5.915354709226101
 41
150.277363855773
 71
     1
 72
     5
  1
\U+5E95
 73
     1
 44
1.0
1001
ACAD
1000
MTEXTBEGIN
1070
    73
1070
     1
1070
    44
1040
1.0
1070
    74
1070
     0
1000
MTEXTEND
  0
MTEXT
  5
379F
102
{ACAD_XDICTIONARY
360
41FC
102
}
330
1F
100
AcDbEntity
  8
文字
100
AcDbMText
 10
140.9543054598834
 20
259.0603306663783
 30
0.0
 40
5.915354709226101
 41
150.277363855773
 71
     1
 72
     5
  1
\U+65E7
 73
     1
 44
1.0
1001
ACAD
1000
MTEXTBEGIN
1070
    73
1070
     1
1070
    44
1040
1.0
1070
    74
1070
     0
1000
MTEXTEND
  0
MTEXT
  5
37A0
102
{ACAD_XDICTIONARY
360
41FE
102
}
330
1F
100
AcDbEntity
  8
文字
100
AcDbMText
 10
139.8857943943148
 20
340.5718264789393
 30
0.0
 40
5.915354709226101
 41
150.277363855773
 71
     1
 72
     5
  1
\U+63CF   
 73
     1
 44
1.0
1001
ACAD
1000
MTEXTBEGIN
1070
    73
1070
     1
1070
    44
1040
1.0
1070
    74
1070
     0
1000
MTEXTEND
  0
MTEXT
  5
37A1
102
{ACAD_XDICTIONARY
360
4200
102
}
330
1F
100
AcDbEntity
  8
文字
100
AcDbMText
 10
137.0355211677711
 20
357.9048914772025
 30
0.0
 40
5.915354709226101
 41
150.277363855773
 71
     1
 72
     5
  1
\ftxt.shx,gbcbig.shx;\H1x;\C1;\U+501F\U+FF08\U+901A\U+FF09\U+7528\U+4EF6\U+767B\U+8BB0
 73
     1
 44
1.0
1001
ACAD
1000
MTEXTBEGIN
1070
    73
1070
     1
1070
    44
1040
1.0
1070
    74
1070
     0
1000
MTEXTEND
  0
MTEXT
  5
37A2
102
{ACAD_XDICTIONARY
360
4202
102
}
330
1F
100
AcDbEntity
  8
文字
100
AcDbMText
 10
190.3090572523288
 20
340.5718264789393
 30
0.0
 40
5.915354709226101
 41
150.277363855773
 71
     1
 72
     5
  1
\U+56FE   
 73
     1
 44
1.0
1001
ACAD
1000
MTEXTBEGIN
1070
    73
1070
     1
1070
    44
1040
1.0
1070
    74
1070
     0
1000
MTEXTEND
  0
MTEXT
  5
37A3
102
{ACAD_XDICTIONARY
360
4204
102
}
330
1F
100
AcDbEntity
  8
文字
100
AcDbMText
 10
139.8857943943148
 20
300.467173564864
 30
0.0
 40
5.915354709226101
 41
150.277363855773
 71
     1
 72
     5
  1
\U+63CF   
 73
     1
 44
1.0
1001
ACAD
1000
MTEXTBEGIN
1070
    73
1070
     1
1070
    44
1040
1.0
1070
    74
1070
     0
1000
MTEXTEND
  0
MTEXT
  5
37A4
102
{ACAD_XDICTIONARY
360
4206
102
}
330
1F
100
AcDbEntity
  8
文字
100
AcDbMText
 10
190.3090572523288
 20
300.467173564864
 30
0.0
 40
5.915354709226101
 41
150.277363855773
 71
     1
 72
     5
  1
\U+6821   
 73
     1
 44
1.0
1001
ACAD
1000
MTEXTBEGIN
1070
    73
1070
     1
1070
    44
1040
1.0
1070
    74
1070
     0
1000
MTEXTEND
  0
MTEXT
  5
37A5
102
{ACAD_XDICTIONARY
360
4208
102
}
330
1F
100
AcDbEntity
  8
文字
100
AcDbMText
 10
151.9221217114432
 20
259.1823545202583
 30
0.0
 40
5.915354709226101
 41
150.277363855773
 71
     1
 72
     5
  1
\U+5E95
 73
     1
 44
1.0
1001
ACAD
1000
MTEXTBEGIN
1070
    73
1070
     1
1070
    44
1040
1.0
1070
    74
1070
     0
1000
MTEXTEND
  0
MTEXT
  5
37A6
102
{ACAD_XDICTIONARY
360
420A
102
}
330
1F
100
AcDbEntity
  8
文字
100
AcDbMText
 10
165.8044543144147
 20
259.0603306663783
 30
0.0
 40
5.915354709226101
 41
150.277363855773
 71
     1
 72
     5
  1
\U+56FE
 73
     1
 44
1.0
1001
ACAD
1000
MTEXTBEGIN
1070
    73
1070
     1
1070
    44
1040
1.0
1070
    74
1070
     0
1000
MTEXTEND
  0
MTEXT
  5
37A7
102
{ACAD_XDICTIONARY
360
420C
102
}
330
1F
100
AcDbEntity
  8
文字
100
AcDbMText
 10
178.7245040721854
 20
259.0603306663783
 30
0.0
 40
5.915354709226101
 41
150.277363855773
 71
     1
 72
     5
  1
\U+603B
 73
     1
 44
1.0
1001
ACAD
1000
MTEXTBEGIN
1070
    73
1070
     1
1070
    44
1040
1.0
1070
    74
1070
     0
1000
MTEXTEND
  0
MTEXT
  5
37A8
102
{ACAD_XDICTIONARY
360
420E
102
}
330
1F
100
AcDbEntity
  8
文字
100
AcDbMText
 10
191.6080921039333
 20
259.0603306663783
 30
0.0
 40
5.915354709226101
 41
150.277363855773
 71
     1
 72
     5
  1
\U+53F7
 73
     1
 44
1.0
1001
ACAD
1000
MTEXTBEGIN
1070
    73
1070
     1
1070
    44
1040
1.0
1070
    74
1070
     0
1000
MTEXTEND
  0
MTEXT
  5
37A9
102
{ACAD_XDICTIONARY
360
4210
102
}
330
1F
100
AcDbEntity
  8
文字
100
AcDbMText
 10
157.091062742671
 20
220.4479840757238
 30
0.0
 40
5.915354709226101
 41
150.277363855773
 71
     1
 72
     5
  1
\U+56FE
 73
     1
 44
1.0
1001
ACAD
1000
MTEXTBEGIN
1070
    73
1070
     1
1070
    44
1040
1.0
1070
    74
1070
     0
1000
MTEXTEND
  0
MTEXT
  5
37AA
102
{ACAD_XDICTIONARY
360
4212
102
}
330
1F
100
AcDbEntity
  8
文字
100
AcDbMText
 10
172.9448813030917
 20
220.4479840757238
 30
0.0
 40
5.915354709226101
 41
150.277363855773
 71
     1
 72
     5
  1
\U+603B
 73
     1
 44
1.0
1001
ACAD
1000
MTEXTBEGIN
1070
    73
1070
     1
1070
    44
1040
1.0
1070
    74
1070
     0
1000
MTEXTEND
  0
MTEXT
  5
37AB
102
{ACAD_XDICTIONARY
360
4214
102
}
330
1F
100
AcDbEntity
  8
文字
100
AcDbMText
 10
190.0421354714285
 20
220.4479840757238
 30
0.0
 40
5.915354709226101
 41
150.277363855773
 71
     1
 72
     5
  1
\U+53F7
 73
     1
 44
1.0
1001
ACAD
1000
MTEXTBEGIN
1070
    73
1070
     1
1070
    44
1040
1.0
1070
    74
1070
     0
1000
MTEXTEND
  0
MTEXT
  5
37AC
102
{ACAD_XDICTIONARY
360
4216
102
}
330
1F
100
AcDbEntity
  8
文字
100
AcDbMText
 10
190.1690356723266
 20
179.591647076336
 30
0.0
 40
5.915354709226101
 41
150.277363855773
 71
     1
 72
     5
  1
\U+5B57  
 73
     1
 44
1.0
1001
ACAD
1000
MTEXTBEGIN
1070
    73
1070
     1
1070
    44
1040
1.0
1070
    74
1070
     0
1000
MTEXTEND
  0
MTEXT
  5
37AD
102
{ACAD_XDICTIONARY
360
4218
102
}
330
1F
100
AcDbEntity
  8
文字
100
AcDbMText
 10
189.1461321138745
 20
139.8463363545808
 30
0.0
 40
5.915354709226101
 41
150.277363855773
 71
     1
 72
     5
  1
\U+671F  
 73
     1
 44
1.0
1001
ACAD
1000
MTEXTBEGIN
1070
    73
1070
     1
1070
    44
1040
1.0
1070
    74
1070
     0
1000
MTEXTEND
  0
MTEXT
  5
37AE
330
1F
100
AcDbEntity
  8
文字
100
AcDbMText
 10
1209.688810718493
 20
130.3001624320884
 30
0.0
 40
13.63443102246592
 41
270.7183269489622
 71
     1
 72
     5
  1
\fNSimSun|b0|i0|c134|p49;\H1x;\C1;1b11
  7
样式 8
 73
     1
 44
1.0
1001
ACAD
1000
MTEXTBEGIN
1070
    73
1070
     1
1070
    44
1040
1.0
1070
    74
1070
     0
1000
MTEXTEND
  0
LINE
  5
37B5
330
1F
100
AcDbEntity
  8
粗实线
100
AcDbLine
 10
800.8621056624861
 20
235.440525271842
 30
0.0
 11
800.8621056624861
 21
104.7772279732067
 31
0.0
  0
MTEXT
  5
3924
330
1F
100
AcDbEntity
  8
文字
100
AcDbMText
 10
1102.7542304243
 20
265.7976249649265
 30
0.0
 40
13.63443102246592
 41
270.7183269489622
 71
     1
 72
     5
  1
{\fSimSun|b0|i0|c134|p2;\C1;注：图纸上标注尺寸不用印刷}
  7
样式 8
 73
     1
 44
1.0
1001
ACAD
1000
MTEXTBEGIN
1070
    73
1070
     1
1070
    44
1040
1.0
1070
    74
1070
     0
1000
MTEXTEND
  0
LWPOLYLINE
  5
3EA9
330
1F
100
AcDbEntity
  8
虚线
 48
3.0
100
AcDbPolyline
 90
       15
 70
     0
 43
0.0
 10
355.2757564054628
 20
642.4234679643705
 42
-0.3694296208365686
 10
420.5418423062438
 20
705.8637164148312
 42
-0.0158655269025378
 10
483.9560469316711
 20
707.8764225820268
 10
671.2321688208248
 20
707.8764225820268
 42
0.2061575227368402
 10
693.0276217832942
 20
717.261907546228
 42
-0.1519702509036232
 10
770.7400686170804
 20
760.8948576782132
 42
-0.1053731222139582
 10
979.171990269031
 20
760.8948651323153
 42
-0.3463545867129854
 10
1097.852004773514
 20
618.2584478706921
 42
-0.0197738800363851
 10
1094.908045707118
 20
381.0829020695601
 42
-0.3852360558781482
 10
1018.853251186483
 20
305.3294774120295
 42
-0.0119966120562112
 10
874.9560469317147
 20
301.8764225820269
 10
483.9560469317002
 20
301.8764225820269
 42
-0.0158655269025502
 10
420.5418423062365
 20
303.8891287492297
 42
-0.3694296208365414
 10
355.2757564054628
 20
367.3293771996978
 42
-0.0459458035760589
 10
355.2757566284199
 20
642.4234703855327
 42
-21.76477332352224
  0
LWPOLYLINE
  5
3EAA
330
1F
100
AcDbEntity
  8
虚线
 48
3.0
100
AcDbPolyline
 90
       14
 70
     1
 43
0.0
 10
361.5990029686873
 20
641.8411854722507
 42
-0.3694296208365686
 10
420.9445225056115
 20
699.5264970989956
 42
-0.0158655269025378
 10
483.9560469316711
 20
701.5264225820283
 10
671.2321688208248
 20
701.5264225820283
 42
0.2061575227368402
 10
697.6409926603446
 20
712.8985018636521
 42
-0.1519702490762712
 10
772.0636115416709
 20
754.6843235524939
 42
-0.1053731222139582
 10
977.8484477886449
 20
754.6843309119285
 42
-0.3463546147007706
 10
1091.504342068641
 20
618.0861742937704
 42
-0.019773878786399
 10
1088.566613976371
 20
381.4126650213148
 42
-0.3852360903271856
 10
1018.548659943801
 20
311.6721680220871
 42
-0.0119966113181109
 10
874.9560469317147
 20
308.2264225820254
 10
483.9560469317002
 20
308.2264225820327
 42
-0.0158655269025502
 10
420.9445225056042
 20
310.2263480650654
 42
-0.3694296646460422
 10
361.5990020687241
 20
367.9116694649056
 42
-0.0459458019298967
  0
LWPOLYLINE
  5
3EAB
330
1F
100
AcDbEntity
  8
粗实线
100
AcDbPolyline
 90
       14
 70
     1
 43
0.0
 10
348.9525098422382
 20
643.0057504564829
 42
-0.3694296208365686
 10
420.1391621068687
 20
712.2009357306669
 42
-0.0158655269025378
 10
483.9560469316711
 20
714.2264225820253
 10
671.2321688208248
 20
714.2264225820253
 42
0.2061575227368402
 10
688.4142509062367
 20
721.6253132288038
 42
-0.1519702511945238
 10
769.4165248299031
 20
767.1053916201053
 42
-0.1053731226542366
 10
980.4955327494171
 20
767.1053993527021
 42
-0.3463546147007706
 10
1104.19966829189
 20
618.4306914707121
 42
-0.019773878786399
 10
1101.249477437857
 20
380.7531391178054
 42
-0.3852360926433778
 10
1019.157822557208
 20
298.9867858476937
 42
-0.0119966111365519
 10
874.9560469317147
 20
295.5264225820283
 10
483.9560469317002
 20
295.5264225820283
 42
-0.0158655269025502
 10
420.1391621068614
 20
297.5519094333868
 42
-0.3694296528992902
 10
348.9525090521565
 20
366.7471032873363
 42
-0.0459458021430836
  0
DIMENSION
  5
3EFB
330
1F
100
AcDbEntity
  8
标注
100
AcDbDimension
  2
*D7
 10
348.9560468756254
 20
468.7489899129619
 30
0.0
 11
276.5
 21
468.7489899129619
 31
0.0
 70
   160
  1
{\fArial|b0|i0|c0|p34;<>}
 71
     5
 42
6.350000000002182
  3
英寸
100
AcDbAlignedDimension
 13
355.3060468756275
 23
504.8764167687637
 33
0.0
 14
348.9560468756254
 24
504.8764167687564
 34
0.0
 50
180.0
100
AcDbRotatedDimension
1001
ACAD
1000
DSTYLE
1002
{
1070
    41
1040
8.0
1002
}
  0
DIMENSION
  5
3F0A
330
1F
100
AcDbEntity
  8
标注
100
AcDbDimension
  2
*D8
 10
342.6060468756232
 20
432.3496402825782
 30
0.0
 11
281.5
 21
432.3496402825782
 31
0.0
 70
   160
  1
{\fArial|b0|i0|c0|p34;<>}
 71
     5
 42
6.350000000002182
  3
英寸
100
AcDbAlignedDimension
 13
348.9560468756254
 23
504.8764167687564
 33
0.0
 14
342.6060468756232
 24
504.8764167687637
 34
0.0
 50
180.0
100
AcDbRotatedDimension
1001
ACAD
1000
DSTYLE
1002
{
1070
    41
1040
8.0
1002
}
  0
DIMENSION
  5
3F19
330
1F
100
AcDbEntity
  8
标注
100
AcDbDimension
  2
*D1
 10
1098.956046931711
 20
843.5225673309666
 30
0.0
 11
716.4999999999991
 21
843.5225673309666
 31
0.0
 70
   160
  1
{\fArial|b0|i0|c0|p34;<>}
 71
     5
 42
749.999999999995
  3
英寸
100
AcDbAlignedDimension
 13
348.9560469317166
 23
780.5
 33
0.0
 14
1098.956046931711
 24
785.5
 34
0.0
 50
180.0
100
AcDbRotatedDimension
1001
ACAD
1000
DSTYLE
1002
{
1070
    41
1040
8.0
1002
}
  0
DIMENSION
  5
3F26
330
1F
100
AcDbEntity
  8
标注
100
AcDbDimension
  2
*D2
 10
1170.763770435233
 20
301.8764225820269
 30
0.0
 11
1170.763770435233
 21
536.6500000000008
 31
0.0
 70
   160
  1
{\fArial|b0|i0|c0|p34;<>}
 71
     5
 42
469.9999999999979
  3
英寸
100
AcDbAlignedDimension
 13
1096.5
 23
771.8764225820248
 33
0.0
 14
1100.5
 24
301.8764225820269
 34
0.0
 50
90.00000000000001
100
AcDbRotatedDimension
1001
ACAD
1000
DSTYLE
1002
{
1070
    41
1040
8.0
1002
}
  0
DIMENSION
  5
3F33
330
1F
100
AcDbEntity
  8
标注
100
AcDbDimension
  2
*D3
 10
1105.306046931714
 20
877.0225673309667
 30
0.0
 11
716.4999999999991
 21
877.0225673309667
 31
0.0
 70
   160
  1
{\fArial|b0|i0|c0|p34;<>}
 71
     5
 42
762.7000000560915
  3
英寸
100
AcDbAlignedDimension
 13
342.6060468756223
 23
778.5
 33
0.0
 14
1105.306046931714
 24
789.0
 34
0.0
 50
180.0
100
AcDbRotatedDimension
1001
ACAD
1000
DSTYLE
1002
{
1070
    41
1040
8.0
1002
}
  0
DIMENSION
  5
3F40
330
1F
100
AcDbEntity
  8
标注
100
AcDbDimension
  2
*D4
 10
1201.763770435233
 20
295.5264225820283
 30
0.0
 11
1201.763770435233
 21
536.6500000000018
 31
0.0
 70
   160
  1
{\fArial|b0|i0|c0|p34;<>}
 71
     5
 42
482.699999999994
  3
英寸
100
AcDbAlignedDimension
 13
1092.5
 23
778.2264225820223
 33
0.0
 14
1096.5
 24
295.5264225820283
 34
0.0
 50
90.00000000000001
100
AcDbRotatedDimension
1001
ACAD
1000
DSTYLE
1002
{
1070
    41
1040
8.0
1002
}
  0
DIMENSION
  5
3F4D
330
1F
100
AcDbEntity
  8
标注
100
AcDbDimension
  2
*D5
 10
1092.606046931714
 20
812.5225673309667
 30
0.0
 11
716.5000000000018
 21
812.5225673309667
 31
0.0
 70
   160
  1
{\fArial|b0|i0|c0|p34;<>}
 71
     5
 42
737.3000000556207
  3
英寸
100
AcDbAlignedDimension
 13
355.3060468760932
 23
777.5
 33
0.0
 14
1092.606046931714
 24
787.5
 34
0.0
 50
180.0
100
AcDbRotatedDimension
1001
ACAD
1000
DSTYLE
1002
{
1070
    41
1040
8.0
1002
}
  0
DIMENSION
  5
3F5A
330
1F
100
AcDbEntity
  8
标注
100
AcDbDimension
  2
*D6
 10
1142.763770435234
 20
308.2264225820254
 30
0.0
 11
1142.763770435234
 21
536.8300000000003
 31
0.0
 70
   160
  1
{\fArial|b0|i0|c0|p34;<>}
 71
     5
 42
457.3000000000019
  3
英寸
100
AcDbAlignedDimension
 13
1096.5
 23
765.5264225820274
 33
0.0
 14
1096.5
 24
308.2264225820254
 34
0.0
 50
90.00000000000001
100
AcDbRotatedDimension
1001
ACAD
1000
DSTYLE
1002
{
1070
    41
1040
8.0
1002
}
  0
ENDSEC
  0
SECTION
  2
OBJECTS
  0
DICTIONARY
  5
C
330
0
100
AcDbDictionary
281
     1
  3
ACAD_2007HEADERVARS_RT
350
41E6
  3
ACAD_COLOR
350
3513
  3
ACAD_GROUP
350
D
  3
ACAD_LAYOUT
350
1A
  3
ACAD_MATERIAL
350
350F
  3
ACAD_MLINESTYLE
350
17
  3
ACAD_PLOTSETTINGS
350
19
  3
ACAD_PLOTSTYLENAME
350
E
  3
ACAD_TABLESTYLE
350
E9
  3
ACAD_VISUALSTYLE
350
28
  3
AcDbVariableDictionary
350
366A
  3
DWGPROPS
350
41E5
  0
DICTIONARY
  5
36E2
330
2
100
AcDbDictionary
280
     1
281
     1
  3
ACAD_LAYERSTATES
360
36E3
  0
DICTIONARY
  5
41F6
330
379C
100
AcDbDictionary
280
     1
281
     1
  3
ACAD_MTEXT_RT
360
41F7
  0
DICTIONARY
  5
41F8
330
379D
100
AcDbDictionary
280
     1
281
     1
  3
ACAD_MTEXT_RT
360
41F9
  0
DICTIONARY
  5
41FA
330
379E
100
AcDbDictionary
280
     1
281
     1
  3
ACAD_MTEXT_RT
360
41FB
  0
DICTIONARY
  5
41FC
330
379F
100
AcDbDictionary
280
     1
281
     1
  3
ACAD_MTEXT_RT
360
41FD
  0
DICTIONARY
  5
41FE
330
37A0
100
AcDbDictionary
280
     1
281
     1
  3
ACAD_MTEXT_RT
360
41FF
  0
DICTIONARY
  5
4200
330
37A1
100
AcDbDictionary
280
     1
281
     1
  3
ACAD_MTEXT_RT
360
4201
  0
DICTIONARY
  5
4202
330
37A2
100
AcDbDictionary
280
     1
281
     1
  3
ACAD_MTEXT_RT
360
4203
  0
DICTIONARY
  5
4204
330
37A3
100
AcDbDictionary
280
     1
281
     1
  3
ACAD_MTEXT_RT
360
4205
  0
DICTIONARY
  5
4206
330
37A4
100
AcDbDictionary
280
     1
281
     1
  3
ACAD_MTEXT_RT
360
4207
  0
DICTIONARY
  5
4208
330
37A5
100
AcDbDictionary
280
     1
281
     1
  3
ACAD_MTEXT_RT
360
4209
  0
DICTIONARY
  5
420A
330
37A6
100
AcDbDictionary
280
     1
281
     1
  3
ACAD_MTEXT_RT
360
420B
  0
DICTIONARY
  5
420C
330
37A7
100
AcDbDictionary
280
     1
281
     1
  3
ACAD_MTEXT_RT
360
420D
  0
DICTIONARY
  5
420E
330
37A8
100
AcDbDictionary
280
     1
281
     1
  3
ACAD_MTEXT_RT
360
420F
  0
DICTIONARY
  5
4210
330
37A9
100
AcDbDictionary
280
     1
281
     1
  3
ACAD_MTEXT_RT
360
4211
  0
DICTIONARY
  5
4212
330
37AA
100
AcDbDictionary
280
     1
281
     1
  3
ACAD_MTEXT_RT
360
4213
  0
DICTIONARY
  5
4214
330
37AB
100
AcDbDictionary
280
     1
281
     1
  3
ACAD_MTEXT_RT
360
4215
  0
DICTIONARY
  5
4216
330
37AC
100
AcDbDictionary
280
     1
281
     1
  3
ACAD_MTEXT_RT
360
4217
  0
DICTIONARY
  5
4218
330
37AD
100
AcDbDictionary
280
     1
281
     1
  3
ACAD_MTEXT_RT
360
4219
  0
DICTIONARY
  5
41E6
102
{ACAD_REACTORS
330
C
102
}
330
C
100
AcDbDictionary
281
     1
  3
INTERFERECOLOR
350
41E7
  0
DICTIONARY
  5
3513
102
{ACAD_REACTORS
330
C
102
}
330
C
100
AcDbDictionary
281
     1
  0
DICTIONARY
  5
D
102
{ACAD_REACTORS
330
C
102
}
330
C
100
AcDbDictionary
281
     1
  0
DICTIONARY
  5
1A
102
{ACAD_REACTORS
330
C
102
}
330
C
100
AcDbDictionary
281
     1
  3
Layout1
350
1E
  3
Layout2
350
24
  3
Model
350
22
  0
DICTIONARY
  5
350F
102
{ACAD_REACTORS
330
C
102
}
330
C
100
AcDbDictionary
281
     1
  3
ByBlock
350
3511
  3
ByLayer
350
3510
  3
Global
350
3512
  0
DICTIONARY
  5
17
102
{ACAD_REACTORS
330
C
102
}
330
C
100
AcDbDictionary
281
     1
  3
Standard
350
18
  0
DICTIONARY
  5
19
102
{ACAD_REACTORS
330
C
102
}
330
C
100
AcDbDictionary
281
     1
  0
ACDBDICTIONARYWDFLT
  5
E
102
{ACAD_REACTORS
330
C
102
}
330
C
100
AcDbDictionary
281
     1
  3
Normal
350
F
100
AcDbDictionaryWithDefault
340
F
  0
DICTIONARY
  5
E9
102
{ACAD_REACTORS
330
C
102
}
330
C
100
AcDbDictionary
281
     1
  3
Standard
350
3514
  0
DICTIONARY
  5
28
102
{ACAD_REACTORS
330
C
102
}
330
C
100
AcDbDictionary
281
     1
  3
2dWireframe
350
2D
  3
3D Hidden
350
2F
  3
3dWireframe
350
2E
  3
Basic
350
30
  3
Brighten
350
34
  3
ColorChange
350
38
  3
Conceptual
350
32
  3
Dim
350
33
  3
Facepattern
350
37
  3
Flat
350
29
  3
FlatWithEdges
350
2A
  3
Gouraud
350
2B
  3
GouraudWithEdges
350
2C
  3
Linepattern
350
36
  3
Realistic
350
31
  3
Thicken
350
35
  0
DICTIONARY
  5
366A
102
{ACAD_REACTORS
330
C
102
}
330
C
100
AcDbDictionary
281
     1
  3
CTABLESTYLE
350
366B
  3
DGNFRAME
350
41E4
  3
DIMASSOC
350
41E3
  3
HIDETEXT
350
41E2
  3
INDEXCTL
350
41E1
  3
SORTENTS
350
41E0
  0
XRECORD
  5
41E5
102
{ACAD_REACTORS
330
C
102
}
330
C
100
AcDbXrecord
280
     1
  1
DWGPROPS COOKIE
  2

  3

  4

  6

  7

  8
Administrator
  9

300
=
301
=
302
=
303
=
304
=
305
=
306
=
307
=
308
=
309
=
 40
0.0590551157407408
 41
2455841.60680022
 42
2459756.623939318
  1

 90
        0
  0
DICTIONARY
  5
36E3
102
{ACAD_REACTORS
330
36E2
102
}
330
36E2
100
AcDbDictionary
281
     1
  0
XRECORD
  5
41F7
102
{ACAD_REACTORS
330
41F6
102
}
330
41F6
100
AcDbXrecord
280
     1
 40
2521.0
  1
日   
  0
XRECORD
  5
41F9
102
{ACAD_REACTORS
330
41F8
102
}
330
41F8
100
AcDbXrecord
280
     1
 40
2618.0
  1
签   
  0
XRECORD
  5
41FB
102
{ACAD_REACTORS
330
41FA
102
}
330
41FA
100
AcDbXrecord
280
     1
 40
1661.0
  1
底
  0
XRECORD
  5
41FD
102
{ACAD_REACTORS
330
41FC
102
}
330
41FC
100
AcDbXrecord
280
     1
 40
1671.0
  1
旧
  0
XRECORD
  5
41FF
102
{ACAD_REACTORS
330
41FE
102
}
330
41FE
100
AcDbXrecord
280
     1
 40
2618.0
  1
描   
  0
XRECORD
  5
4201
102
{ACAD_REACTORS
330
4200
102
}
330
4200
100
AcDbXrecord
280
     1
 40
249260.0
  1
\ftxt.shx,gbcbig.shx;\H1x;\C1;借（通）用件登记
  0
XRECORD
  5
4203
102
{ACAD_REACTORS
330
4202
102
}
330
4202
100
AcDbXrecord
280
     1
 40
2640.0
  1
图   
  0
XRECORD
  5
4205
102
{ACAD_REACTORS
330
4204
102
}
330
4204
100
AcDbXrecord
280
     1
 40
2618.0
  1
描   
  0
XRECORD
  5
4207
102
{ACAD_REACTORS
330
4206
102
}
330
4206
100
AcDbXrecord
280
     1
 40
2394.0
  1
校   
  0
XRECORD
  5
4209
102
{ACAD_REACTORS
330
4208
102
}
330
4208
100
AcDbXrecord
280
     1
 40
1661.0
  1
底
  0
XRECORD
  5
420B
102
{ACAD_REACTORS
330
420A
102
}
330
420A
100
AcDbXrecord
280
     1
 40
1776.0
  1
图
  0
XRECORD
  5
420D
102
{ACAD_REACTORS
330
420C
102
}
330
420C
100
AcDbXrecord
280
     1
 40
1615.0
  1
总
  0
XRECORD
  5
420F
102
{ACAD_REACTORS
330
420E
102
}
330
420E
100
AcDbXrecord
280
     1
 40
1663.0
  1
号
  0
XRECORD
  5
4211
102
{ACAD_REACTORS
330
4210
102
}
330
4210
100
AcDbXrecord
280
     1
 40
1776.0
  1
图
  0
XRECORD
  5
4213
102
{ACAD_REACTORS
330
4212
102
}
330
4212
100
AcDbXrecord
280
     1
 40
1615.0
  1
总
  0
XRECORD
  5
4215
102
{ACAD_REACTORS
330
4214
102
}
330
4214
100
AcDbXrecord
280
     1
 40
1663.0
  1
号
  0
XRECORD
  5
4217
102
{ACAD_REACTORS
330
4216
102
}
330
4216
100
AcDbXrecord
280
     1
 40
2180.0
  1
字  
  0
XRECORD
  5
4219
102
{ACAD_REACTORS
330
4218
102
}
330
4218
100
AcDbXrecord
280
     1
 40
2210.0
  1
期  
  0
XRECORD
  5
41E7
102
{ACAD_REACTORS
330
41E6
102
}
330
41E6
100
AcDbXrecord
280
     1
1004
1800000001000000000000C0000000000000000000000000
  0
LAYOUT
  5
1E
102
{ACAD_XDICTIONARY
360
41E8
102
}
102
{ACAD_REACTORS
330
1A
102
}
330
1A
100
AcDbPlotSettings
  1

  2
none_device
  4

  6

 40
0.0
 41
0.0
 42
0.0
 43
0.0
 44
0.0
 45
0.0
 46
0.0
 47
0.0
 48
0.0
 49
0.0
140
0.0
141
0.0
142
1.0
143
1.0
 70
   688
 72
     0
 73
     0
 74
     5
  7

 75
    16
147
1.0
148
0.0
149
0.0
100
AcDbLayout
  1
Layout1
 70
     1
 71
     1
 10
0.0
 20
0.0
 11
12.0
 21
9.0
 12
0.0
 22
0.0
 32
0.0
 14
1.000000000000000E+20
 24
1.000000000000000E+20
 34
1.000000000000000E+20
 15
-1.000000000000000E+20
 25
-1.000000000000000E+20
 35
-1.000000000000000E+20
146
0.0
 13
0.0
 23
0.0
 33
0.0
 16
1.0
 26
0.0
 36
0.0
 17
0.0
 27
1.0
 37
0.0
 76
     0
330
1B
  0
LAYOUT
  5
24
102
{ACAD_XDICTIONARY
360
41EC
102
}
102
{ACAD_REACTORS
330
1A
102
}
330
1A
100
AcDbPlotSettings
  1

  2
none_device
  4

  6

 40
0.0
 41
0.0
 42
0.0
 43
0.0
 44
0.0
 45
0.0
 46
0.0
 47
0.0
 48
0.0
 49
0.0
140
0.0
141
0.0
142
1.0
143
1.0
 70
   688
 72
     0
 73
     0
 74
     5
  7

 75
    16
147
1.0
148
0.0
149
0.0
100
AcDbLayout
  1
Layout2
 70
     1
 71
     2
 10
0.0
 20
0.0
 11
0.0
 21
0.0
 12
0.0
 22
0.0
 32
0.0
 14
0.0
 24
0.0
 34
0.0
 15
0.0
 25
0.0
 35
0.0
146
0.0
 13
0.0
 23
0.0
 33
0.0
 16
1.0
 26
0.0
 36
0.0
 17
0.0
 27
1.0
 37
0.0
 76
     0
330
23
  0
LAYOUT
  5
22
102
{ACAD_XDICTIONARY
360
41EA
102
}
102
{ACAD_REACTORS
330
1A
102
}
330
1A
100
AcDbPlotSettings
  1

  2
pdfFactory
  4
A4
  6

 40
6.349999999999999
 41
6.350000000000009
 42
6.350000000000017
 43
6.349999999999999
 44
210.0
 45
297.0
 46
-0.0000000000000082
 47
2.644949494949759
 48
1470.343086854253
 49
90.57469565813875
140
2663.355801320022
141
934.2051151732198
142
1.0
143
4.275876429371926
 70
  1716
 72
     1
 73
     1
 74
     4
  7
Monochrome.ctb
 75
     0
147
0.2338701822931042
148
0.0
149
0.0
100
AcDbLayout
  1
Model
 70
     1
 71
     0
 10
0.0
 20
0.0
 11
12.0
 21
9.0
 12
0.0
 22
0.0
 32
0.0
 14
133.3430868542532
 24
90.57469565813875
 34
0.0
 15
3984.355801320023
 25
934.2051151732198
 35
0.0
146
0.0
 13
0.0
 23
0.0
 33
0.0
 16
1.0
 26
0.0
 36
0.0
 17
0.0
 27
1.0
 37
0.0
 76
     0
330
1F
331
27
  0
MATERIAL
  5
3511
102
{ACAD_XDICTIONARY
360
41F0
102
}
102
{ACAD_REACTORS
330
350F
102
}
330
350F
100
AcDbMaterial
  1
ByBlock
  0
MATERIAL
  5
3510
102
{ACAD_XDICTIONARY
360
41EE
102
}
102
{ACAD_REACTORS
330
350F
102
}
330
350F
100
AcDbMaterial
  1
ByLayer
  0
MATERIAL
  5
3512
102
{ACAD_XDICTIONARY
360
41F2
102
}
102
{ACAD_REACTORS
330
350F
102
}
330
350F
100
AcDbMaterial
  1
Global
  0
MLINESTYLE
  5
18
102
{ACAD_REACTORS
330
17
102
}
330
17
100
AcDbMlineStyle
  2
STANDARD
 70
     0
  3

 62
   256
 51
90.0
 52
90.0
 71
     2
 49
0.5
 62
   256
  6
BYLAYER
 49
-0.5
 62
   256
  6
BYLAYER
  0
ACDBPLACEHOLDER
  5
F
102
{ACAD_REACTORS
330
E
102
}
330
E
  0
TABLESTYLE
  5
3514
102
{ACAD_XDICTIONARY
360
41F4
102
}
102
{ACAD_REACTORS
330
E9
102
}
330
E9
100
AcDbTableStyle
  3
Standard
 70
     0
 71
     0
 40
0.06
 41
0.06
280
     0
281
     0
  7
Standard
140
0.18
170
     2
 62
     0
 63
     7
283
     0
274
    -2
284
     1
 64
     0
275
    -2
285
     1
 65
     0
276
    -2
286
     1
 66
     0
277
    -2
287
     1
 67
     0
278
    -2
288
     1
 68
     0
279
    -2
289
     1
 69
     0
  7
Standard
140
0.25
170
     5
 62
     0
 63
     7
283
     0
274
    -2
284
     1
 64
     0
275
    -2
285
     1
 65
     0
276
    -2
286
     1
 66
     0
277
    -2
287
     1
 67
     0
278
    -2
288
     1
 68
     0
279
    -2
289
     1
 69
     0
  7
Standard
140
0.18
170
     5
 62
     0
 63
     7
283
     0
274
    -2
284
     1
 64
     0
275
    -2
285
     1
 65
     0
276
    -2
286
     1
 66
     0
277
    -2
287
     1
 67
     0
278
    -2
288
     1
 68
     0
279
    -2
289
     1
 69
     0
  0
VISUALSTYLE
  5
2D
102
{ACAD_REACTORS
330
28
102
}
330
28
100
AcDbVisualStyle
  2
2dWireframe
 70
     4
 71
     0
 72
     2
 73
     0
 90
        0
 40
-0.6
 41
-30.0
 62
     5
 63
     7
 74
     1
 91
        4
 64
     7
 65
   257
 75
     1
175
     1
 42
1.0
 92
        0
 66
   257
 43
1.0
 76
     1
 77
     6
 78
     2
 67
     7
 79
     5
170
     0
171
     0
290
     0
174
     0
 93
        1
 44
0.0
173
     0
291
     0
 45
0.0
1001
ACAD
1000
AcDbSavedByObjectVersion
1070
     0
  0
VISUALSTYLE
  5
2F
102
{ACAD_REACTORS
330
28
102
}
330
28
100
AcDbVisualStyle
  2
3D Hidden
 70
     6
 71
     1
 72
     2
 73
     2
 90
        0
 40
-0.6
 41
-30.0
 62
     5
 63
     7
 74
     2
 91
        2
 64
     7
 65
   257
 75
     2
175
     1
 42
40.0
 92
        0
 66
   257
 43
1.0
 76
     1
 77
     6
 78
     2
 67
     7
 79
     3
170
     0
171
     0
290
     0
174
     0
 93
        1
 44
0.0
173
     0
291
     0
 45
0.0
1001
ACAD
1000
AcDbSavedByObjectVersion
1070
     0
  0
VISUALSTYLE
  5
2E
102
{ACAD_REACTORS
330
28
102
}
330
28
100
AcDbVisualStyle
  2
3dWireframe
 70
     5
 71
     0
 72
     2
 73
     0
 90
        0
 40
-0.6
 41
-30.0
 62
     5
 63
     7
 74
     1
 91
        4
 64
     7
 65
   257
 75
     1
175
     1
 42
1.0
 92
        0
 66
   257
 43
1.0
 76
     1
 77
     6
 78
     2
 67
     7
 79
     5
170
     0
171
     0
290
     0
174
     0
 93
        1
 44
0.0
173
     0
291
     0
 45
0.0
1001
ACAD
1000
AcDbSavedByObjectVersion
1070
     0
  0
VISUALSTYLE
  5
30
102
{ACAD_REACTORS
330
28
102
}
330
28
100
AcDbVisualStyle
  2
Basic
 70
     7
 71
     1
 72
     0
 73
     1
 90
        0
 40
-0.6
 41
-30.0
 62
     5
 63
     7
 74
     0
 91
        4
 64
     7
 65
   257
 75
     1
175
     1
 42
1.0
 92
        8
 66
     7
 43
1.0
 76
     1
 77
     6
 78
     2
 67
     7
 79
     5
170
     0
171
     0
290
     0
174
     0
 93
        1
 44
0.0
173
     0
291
     1
 45
0.0
1001
ACAD
1000
AcDbSavedByObjectVersion
1070
     0
  0
VISUALSTYLE
  5
34
102
{ACAD_REACTORS
330
28
102
}
330
28
100
AcDbVisualStyle
  2
Brighten
 70
    12
 71
     2
 72
     2
 73
     0
 90
        0
 40
-0.6
 41
-30.0
 62
     5
 63
     7
 74
     1
 91
        4
 64
     7
 65
   257
 75
     1
175
     1
 42
1.0
 92
        8
 66
     7
 43
1.0
 76
     1
 77
     6
 78
     2
 67
     7
 79
     5
170
     0
171
     0
290
     0
174
     0
 93
        1
 44
50.0
173
     0
291
     1
 45
0.0
1001
ACAD
1000
AcDbSavedByObjectVersion
1070
     0
  0
VISUALSTYLE
  5
38
102
{ACAD_REACTORS
330
28
102
}
330
28
100
AcDbVisualStyle
  2
ColorChange
 70
    16
 71
     2
 72
     2
 73
     3
 90
        0
 40
-0.6
 41
-30.0
 62
     5
 63
     8
 74
     1
 91
        4
 64
     7
 65
   257
 75
     1
175
     1
 42
1.0
 92
        8
 66
     8
 43
1.0
 76
     1
 77
     6
 78
     2
 67
     7
 79
     5
170
     0
171
     0
290
     0
174
     0
 93
        1
 44
0.0
173
     0
291
     1
 45
0.0
1001
ACAD
1000
AcDbSavedByObjectVersion
1070
     0
  0
VISUALSTYLE
  5
32
102
{ACAD_REACTORS
330
28
102
}
330
28
100
AcDbVisualStyle
  2
Conceptual
 70
     9
 71
     3
 72
     2
 73
     0
 90
        0
 40
-0.6
 41
-30.0
 62
     5
 63
     7
 74
     2
 91
        2
 64
     7
 65
   257
 75
     1
175
     1
 42
40.0
 92
        8
 66
     7
 43
1.0
 76
     1
 77
     6
 78
     2
 67
     7
 79
     3
170
     0
171
     0
290
     0
174
     0
 93
        1
 44
0.0
173
     0
291
     0
 45
0.0
1001
ACAD
1000
AcDbSavedByObjectVersion
1070
     0
  0
VISUALSTYLE
  5
33
102
{ACAD_REACTORS
330
28
102
}
330
28
100
AcDbVisualStyle
  2
Dim
 70
    11
 71
     2
 72
     2
 73
     0
 90
        0
 40
-0.6
 41
-30.0
 62
     5
 63
     7
 74
     1
 91
        4
 64
     7
 65
   257
 75
     1
175
     1
 42
1.0
 92
        8
 66
     7
 43
1.0
 76
     1
 77
     6
 78
     2
 67
     7
 79
     5
170
     0
171
     0
290
     0
174
     0
 93
        1
 44
-50.0
173
     0
291
     1
 45
0.0
1001
ACAD
1000
AcDbSavedByObjectVersion
1070
     0
  0
VISUALSTYLE
  5
37
102
{ACAD_REACTORS
330
28
102
}
330
28
100
AcDbVisualStyle
  2
Facepattern
 70
    15
 71
     2
 72
     2
 73
     0
 90
        0
 40
-0.6
 41
-30.0
 62
     5
 63
     7
 74
     1
 91
        4
 64
     7
 65
   257
 75
     1
175
     1
 42
1.0
 92
        8
 66
     7
 43
1.0
 76
     1
 77
     6
 78
     2
 67
     7
 79
     5
170
     0
171
     0
290
     0
174
     0
 93
        1
 44
0.0
173
     0
291
     1
 45
0.0
1001
ACAD
1000
AcDbSavedByObjectVersion
1070
     0
  0
VISUALSTYLE
  5
29
102
{ACAD_REACTORS
330
28
102
}
330
28
100
AcDbVisualStyle
  2
Flat
 70
     0
 71
     2
 72
     1
 73
     1
 90
        2
 40
-0.6
 41
30.0
 62
     5
 63
     7
 74
     0
 91
        4
 64
     7
 65
   257
 75
     1
175
     1
 42
1.0
 92
        8
 66
     7
 43
1.0
 76
     1
 77
     6
 78
     2
 67
     7
 79
     5
170
     0
171
     0
290
     0
174
     0
 93
       13
 44
0.0
173
     0
291
     1
 45
0.0
1001
ACAD
1000
AcDbSavedByObjectVersion
1070
     0
  0
VISUALSTYLE
  5
2A
102
{ACAD_REACTORS
330
28
102
}
330
28
100
AcDbVisualStyle
  2
FlatWithEdges
 70
     1
 71
     2
 72
     1
 73
     1
 90
        2
 40
-0.6
 41
30.0
 62
     5
 63
     7
 74
     1
 91
        4
 64
     7
 65
   257
 75
     1
175
     1
 42
1.0
 92
        0
 66
   257
 43
1.0
 76
     1
 77
     6
 78
     2
 67
     7
 79
     5
170
     0
171
     0
290
     0
174
     0
 93
       13
 44
0.0
173
     0
291
     1
 45
0.0
1001
ACAD
1000
AcDbSavedByObjectVersion
1070
     0
  0
VISUALSTYLE
  5
2B
102
{ACAD_REACTORS
330
28
102
}
330
28
100
AcDbVisualStyle
  2
Gouraud
 70
     2
 71
     2
 72
     2
 73
     1
 90
        2
 40
-0.6
 41
30.0
 62
     5
 63
     7
 74
     0
 91
        4
 64
     7
 65
   257
 75
     1
175
     1
 42
1.0
 92
        0
 66
     7
 43
1.0
 76
     1
 77
     6
 78
     2
 67
     7
 79
     5
170
     0
171
     0
290
     0
174
     0
 93
       13
 44
0.0
173
     0
291
     1
 45
0.0
1001
ACAD
1000
AcDbSavedByObjectVersion
1070
     0
  0
VISUALSTYLE
  5
2C
102
{ACAD_REACTORS
330
28
102
}
330
28
100
AcDbVisualStyle
  2
GouraudWithEdges
 70
     3
 71
     2
 72
     2
 73
     1
 90
        2
 40
-0.6
 41
30.0
 62
     5
 63
     7
 74
     1
 91
        4
 64
     7
 65
   257
 75
     1
175
     1
 42
1.0
 92
        0
 66
   257
 43
1.0
 76
     1
 77
     6
 78
     2
 67
     7
 79
     5
170
     0
171
     0
290
     0
174
     0
 93
       13
 44
0.0
173
     0
291
     1
 45
0.0
1001
ACAD
1000
AcDbSavedByObjectVersion
1070
     0
  0
VISUALSTYLE
  5
36
102
{ACAD_REACTORS
330
28
102
}
330
28
100
AcDbVisualStyle
  2
Linepattern
 70
    14
 71
     2
 72
     2
 73
     0
 90
        0
 40
-0.6
 41
-30.0
 62
     5
 63
     7
 74
     1
 91
        4
 64
     7
 65
   257
 75
     7
175
     7
 42
1.0
 92
        8
 66
     7
 43
1.0
 76
     1
 77
     6
 78
     2
 67
     7
 79
     5
170
     0
171
     0
290
     0
174
     0
 93
        1
 44
0.0
173
     0
291
     1
 45
0.0
1001
ACAD
1000
AcDbSavedByObjectVersion
1070
     0
  0
VISUALSTYLE
  5
31
102
{ACAD_REACTORS
330
28
102
}
330
28
100
AcDbVisualStyle
  2
Realistic
 70
     8
 71
     2
 72
     2
 73
     0
 90
        0
 40
-0.6
 41
-30.0
 62
     5
 63
     7
 74
     1
 91
        0
 64
     7
 65
   257
 75
     1
175
     1
 42
1.0
 92
        8
 66
     8
 43
1.0
 76
     1
 77
     6
 78
     2
 67
     7
 79
     5
170
     0
171
     0
290
     0
174
     0
 93
       13
 44
0.0
173
     0
291
     0
 45
0.0
1001
ACAD
1000
AcDbSavedByObjectVersion
1070
     0
  0
VISUALSTYLE
  5
35
102
{ACAD_REACTORS
330
28
102
}
330
28
100
AcDbVisualStyle
  2
Thicken
 70
    13
 71
     2
 72
     2
 73
     0
 90
        0
 40
-0.6
 41
-30.0
 62
     5
 63
     7
 74
     1
 91
        4
 64
     7
 65
   257
 75
     1
175
     1
 42
1.0
 92
       12
 66
     7
 43
1.0
 76
     1
 77
     6
 78
     2
 67
     7
 79
     5
170
     0
171
     0
290
     0
174
     0
 93
        1
 44
0.0
173
     0
291
     1
 45
0.0
1001
ACAD
1000
AcDbSavedByObjectVersion
1070
     0
  0
DICTIONARYVAR
  5
366B
102
{ACAD_REACTORS
330
366A
102
}
330
366A
100
DictionaryVariables
280
     0
  1
STANDARD
  0
DICTIONARYVAR
  5
41E4
102
{ACAD_REACTORS
330
366A
102
}
330
366A
100
DictionaryVariables
280
     0
  1
2
  0
DICTIONARYVAR
  5
41E3
102
{ACAD_REACTORS
330
366A
102
}
330
366A
100
DictionaryVariables
280
     0
  1
2
  0
DICTIONARYVAR
  5
41E2
102
{ACAD_REACTORS
330
366A
102
}
330
366A
100
DictionaryVariables
280
     0
  1
1
  0
DICTIONARYVAR
  5
41E1
102
{ACAD_REACTORS
330
366A
102
}
330
366A
100
DictionaryVariables
280
     0
  1
0
  0
DICTIONARYVAR
  5
41E0
102
{ACAD_REACTORS
330
366A
102
}
330
366A
100
DictionaryVariables
280
     0
  1
127
  0
DICTIONARY
  5
41E8
330
1E
100
AcDbDictionary
280
     1
281
     1
  3
ACAD_XREC_ROUNDTRIP
360
41E9
  0
DICTIONARY
  5
41EC
330
24
100
AcDbDictionary
280
     1
281
     1
  3
ACAD_XREC_ROUNDTRIP
360
41ED
  0
DICTIONARY
  5
41EA
330
22
100
AcDbDictionary
280
     1
281
     1
  3
ACAD_XREC_ROUNDTRIP
360
41EB
  0
DICTIONARY
  5
41F0
330
3511
100
AcDbDictionary
280
     1
281
     1
  3
ACAD_XREC_ROUNDTRIP
360
41F1
  0
DICTIONARY
  5
41EE
330
3510
100
AcDbDictionary
280
     1
281
     1
  3
ACAD_XREC_ROUNDTRIP
360
41EF
  0
DICTIONARY
  5
41F2
330
3512
100
AcDbDictionary
280
     1
281
     1
  3
ACAD_XREC_ROUNDTRIP
360
41F3
  0
DICTIONARY
  5
41F4
330
3514
100
AcDbDictionary
280
     1
281
     1
  3
ACAD_XREC_ROUNDTRIP
360
41F5
  0
XRECORD
  5
41E9
102
{ACAD_REACTORS
330
41E8
102
}
330
41E8
100
AcDbXrecord
280
     1
102
SHADEPLOT
 70
     0
102
SHADEPLOTRESLEVEL
 70
     2
102
SHADEPLOTCUSTOMDPI
 70
   300
  0
XRECORD
  5
41ED
102
{ACAD_REACTORS
330
41EC
102
}
330
41EC
100
AcDbXrecord
280
     1
102
SHADEPLOT
 70
     0
102
SHADEPLOTRESLEVEL
 70
     2
102
SHADEPLOTCUSTOMDPI
 70
   300
  0
XRECORD
  5
41EB
102
{ACAD_REACTORS
330
41EA
102
}
330
41EA
100
AcDbXrecord
280
     1
102
SHADEPLOT
 70
     0
102
SHADEPLOTRESLEVEL
 70
     2
102
SHADEPLOTCUSTOMDPI
 70
   300
  0
XRECORD
  5
41F1
102
{ACAD_REACTORS
330
41F0
102
}
330
41F0
100
AcDbXrecord
280
     1
102
MATERIAL
148
0.0
149
0.0
149
0.0
 93
        0
 94
       63
282
     0
 72
     1
 77
     1
171
     1
175
     1
179
     1
273
     0
  0
XRECORD
  5
41EF
102
{ACAD_REACTORS
330
41EE
102
}
330
41EE
100
AcDbXrecord
280
     1
102
MATERIAL
148
0.0
149
0.0
149
0.0
 93
        0
 94
       63
282
     0
 72
     1
 77
     1
171
     1
175
     1
179
     1
273
     0
  0
XRECORD
  5
41F3
102
{ACAD_REACTORS
330
41F2
102
}
330
41F2
100
AcDbXrecord
280
     1
102
MATERIAL
148
0.0
149
0.0
149
0.0
 93
        0
 94
       63
282
     0
 72
     1
 77
     1
171
     1
175
     1
179
     1
273
     0
  0
XRECORD
  5
41F5
102
{ACAD_REACTORS
330
41F4
102
}
330
41F4
100
AcDbXrecord
280
     1
102
ACAD_ROUNDTRIP_PRE2007_TABLESTYLE
 90
      512
 91
        0
  1

 92
      512
 93
        0
  2

 94
      512
 95
        0
  3

  0
ENDSEC
  0
EOF
