  0
SECTION
  2
HEADER
  9
$ACADVER
  1
AC1015
  9
$ACADMAINTVER
 70
    20
  9
$DWGCODEPAGE
  3
ANSI_936
  9
$INSBASE
 10
0.0
 20
0.0
 30
0.0
  9
$EXTMIN
 10
148.3587781688279
 20
-2901.8942513925
 30
0.0
  9
$EXTMAX
 10
4056.991514310023
 20
850.7846036558978
 30
0.0
  9
$LIMMIN
 10
0.0
 20
0.0
  9
$LIMMAX
 10
12.0
 20
9.0
  9
$ORTHOMODE
 70
     0
  9
$REGENMODE
 70
     1
  9
$FILLMODE
 70
     1
  9
$QTEXTMODE
 70
     0
  9
$MIRRTEXT
 70
     1
  9
$LTSCALE
 40
1.0
  9
$ATTMODE
 70
     1
  9
$TEXTSIZE
 40
0.2
  9
$TRACEWID
 40
0.05
  9
$TEXTSTYLE
  7
Standard
  9
$CLAYER
  8
0
  9
$CELTYPE
  6
ByLayer
  9
$CECOLOR
 62
   256
  9
$CELTSCALE
 40
1.0
  9
$DISPSILH
 70
     0
  9
$DIMSCALE
 40
1.0
  9
$DIMASZ
 40
0.18
  9
$DIMEXO
 40
0.0625
  9
$DIMDLI
 40
0.38
  9
$DIMRND
 40
0.0
  9
$DIMDLE
 40
0.0
  9
$DIMEXE
 40
0.18
  9
$DIMTP
 40
0.0
  9
$DIMTM
 40
0.0
  9
$DIMTXT
 40
0.18
  9
$DIMCEN
 40
0.09
  9
$DIMTSZ
 40
0.0
  9
$DIMTOL
 70
     0
  9
$DIMLIM
 70
     0
  9
$DIMTIH
 70
     1
  9
$DIMTOH
 70
     1
  9
$DIMSE1
 70
     0
  9
$DIMSE2
 70
     0
  9
$DIMTAD
 70
     0
  9
$DIMZIN
 70
     0
  9
$DIMBLK
  1

  9
$DIMASO
 70
     1
  9
$DIMSHO
 70
     1
  9
$DIMPOST
  1

  9
$DIMAPOST
  1

  9
$DIMALT
 70
     0
  9
$DIMALTD
 70
     2
  9
$DIMALTF
 40
25.4
  9
$DIMLFAC
 40
1.0
  9
$DIMTOFL
 70
     0
  9
$DIMTVP
 40
0.0
  9
$DIMTIX
 70
     0
  9
$DIMSOXD
 70
     0
  9
$DIMSAH
 70
     0
  9
$DIMBLK1
  1

  9
$DIMBLK2
  1

  9
$DIMSTYLE
  2
Standard
  9
$DIMCLRD
 70
     0
  9
$DIMCLRE
 70
     0
  9
$DIMCLRT
 70
     0
  9
$DIMTFAC
 40
1.0
  9
$DIMGAP
 40
0.09
  9
$DIMJUST
 70
     0
  9
$DIMSD1
 70
     0
  9
$DIMSD2
 70
     0
  9
$DIMTOLJ
 70
     1
  9
$DIMTZIN
 70
     0
  9
$DIMALTZ
 70
     0
  9
$DIMALTTZ
 70
     0
  9
$DIMUPT
 70
     0
  9
$DIMDEC
 70
     4
  9
$DIMTDEC
 70
     4
  9
$DIMALTU
 70
     2
  9
$DIMALTTD
 70
     2
  9
$DIMTXSTY
  7
Standard
  9
$DIMAUNIT
 70
     0
  9
$DIMADEC
 70
     0
  9
$DIMALTRND
 40
0.0
  9
$DIMAZIN
 70
     0
  9
$DIMDSEP
 70
    46
  9
$DIMATFIT
 70
     3
  9
$DIMFRAC
 70
     0
  9
$DIMLDRBLK
  1

  9
$DIMLUNIT
 70
     2
  9
$DIMLWD
 70
    -2
  9
$DIMLWE
 70
    -2
  9
$DIMTMOVE
 70
     0
  9
$LUNITS
 70
     2
  9
$LUPREC
 70
     4
  9
$SKETCHINC
 40
0.1
  9
$FILLETRAD
 40
0.0
  9
$AUNITS
 70
     0
  9
$AUPREC
 70
     0
  9
$MENU
  1
.
  9
$ELEVATION
 40
0.0
  9
$PELEVATION
 40
0.0
  9
$THICKNESS
 40
0.0
  9
$LIMCHECK
 70
     0
  9
$CHAMFERA
 40
0.5
  9
$CHAMFERB
 40
0.5
  9
$CHAMFERC
 40
1.0
  9
$CHAMFERD
 40
0.0
  9
$SKPOLY
 70
     0
  9
$TDCREATE
 40
2455841.606800220
  9
$TDUCREATE
 40
2455841.273466887
  9
$TDUPDATE
 40
2459756.620584884
  9
$TDUUPDATE
 40
2459756.287251551
  9
$TDINDWG
 40
0.0396852083
  9
$TDUSRTIMER
 40
0.0396852083
  9
$USRTIMER
 70
     1
  9
$ANGBASE
 50
0.0
  9
$ANGDIR
 70
     0
  9
$PDMODE
 70
     0
  9
$PDSIZE
 40
0.0
  9
$PLINEWID
 40
0.0
  9
$SPLFRAME
 70
     0
  9
$SPLINETYPE
 70
     6
  9
$SPLINESEGS
 70
     8
  9
$HANDSEED
  5
56C8
  9
$SURFTAB1
 70
     6
  9
$SURFTAB2
 70
     6
  9
$SURFTYPE
 70
     6
  9
$SURFU
 70
     6
  9
$SURFV
 70
     6
  9
$UCSBASE
  2

  9
$UCSNAME
  2

  9
$UCSORG
 10
0.0
 20
0.0
 30
0.0
  9
$UCSXDIR
 10
1.0
 20
0.0
 30
0.0
  9
$UCSYDIR
 10
0.0
 20
1.0
 30
0.0
  9
$UCSORTHOREF
  2

  9
$UCSORTHOVIEW
 70
     0
  9
$UCSORGTOP
 10
0.0
 20
0.0
 30
0.0
  9
$UCSORGBOTTOM
 10
0.0
 20
0.0
 30
0.0
  9
$UCSORGLEFT
 10
0.0
 20
0.0
 30
0.0
  9
$UCSORGRIGHT
 10
0.0
 20
0.0
 30
0.0
  9
$UCSORGFRONT
 10
0.0
 20
0.0
 30
0.0
  9
$UCSORGBACK
 10
0.0
 20
0.0
 30
0.0
  9
$PUCSBASE
  2

  9
$PUCSNAME
  2

  9
$PUCSORG
 10
0.0
 20
0.0
 30
0.0
  9
$PUCSXDIR
 10
1.0
 20
0.0
 30
0.0
  9
$PUCSYDIR
 10
0.0
 20
1.0
 30
0.0
  9
$PUCSORTHOREF
  2

  9
$PUCSORTHOVIEW
 70
     0
  9
$PUCSORGTOP
 10
0.0
 20
0.0
 30
0.0
  9
$PUCSORGBOTTOM
 10
0.0
 20
0.0
 30
0.0
  9
$PUCSORGLEFT
 10
0.0
 20
0.0
 30
0.0
  9
$PUCSORGRIGHT
 10
0.0
 20
0.0
 30
0.0
  9
$PUCSORGFRONT
 10
0.0
 20
0.0
 30
0.0
  9
$PUCSORGBACK
 10
0.0
 20
0.0
 30
0.0
  9
$USERI1
 70
     0
  9
$USERI2
 70
     0
  9
$USERI3
 70
     0
  9
$USERI4
 70
     0
  9
$USERI5
 70
     0
  9
$USERR1
 40
0.0
  9
$USERR2
 40
0.0
  9
$USERR3
 40
0.0
  9
$USERR4
 40
0.0
  9
$USERR5
 40
0.0
  9
$WORLDVIEW
 70
     1
  9
$SHADEDGE
 70
     3
  9
$SHADEDIF
 70
    70
  9
$TILEMODE
 70
     1
  9
$MAXACTVP
 70
    64
  9
$PINSBASE
 10
0.0
 20
0.0
 30
0.0
  9
$PLIMCHECK
 70
     0
  9
$PEXTMIN
 10
1.000000000000000E+20
 20
1.000000000000000E+20
 30
1.000000000000000E+20
  9
$PEXTMAX
 10
-1.000000000000000E+20
 20
-1.000000000000000E+20
 30
-1.000000000000000E+20
  9
$PLIMMIN
 10
0.0
 20
0.0
  9
$PLIMMAX
 10
12.0
 20
9.0
  9
$UNITMODE
 70
     0
  9
$VISRETAIN
 70
     1
  9
$PLINEGEN
 70
     0
  9
$PSLTSCALE
 70
     1
  9
$TREEDEPTH
 70
  3020
  9
$CMLSTYLE
  2
Standard
  9
$CMLJUST
 70
     0
  9
$CMLSCALE
 40
1.0
  9
$PROXYGRAPHICS
 70
     1
  9
$MEASUREMENT
 70
     0
  9
$CELWEIGHT
370
    -1
  9
$ENDCAPS
280
     0
  9
$JOINSTYLE
280
     0
  9
$LWDISPLAY
290
     0
  9
$INSUNITS
 70
     1
  9
$HYPERLINKBASE
  1

  9
$STYLESHEET
  1
Monochrome.ctb
  9
$XEDIT
290
     1
  9
$CEPSNTYPE
380
     0
  9
$PSTYLEMODE
290
     1
  9
$FINGERPRINTGUID
  2
{168A8766-4015-4ABD-915A-AD1ECBE2E3C2}
  9
$VERSIONGUID
  2
{A1034AE5-2576-4560-AF59-F47C58DC185A}
  9
$EXTNAMES
290
     1
  9
$PSVPSCALE
 40
0.0
  9
$OLESTARTUP
290
     0
  0
ENDSEC
  0
SECTION
  2
CLASSES
  0
CLASS
  1
ACDBDICTIONARYWDFLT
  2
AcDbDictionaryWithDefault
  3
ObjectDBX Classes
 90
        0
280
     0
281
     0
  0
CLASS
  1
VISUALSTYLE
  2
AcDbVisualStyle
  3
ObjectDBX Classes
 90
     4095
280
     0
281
     0
  0
CLASS
  1
DIMASSOC
  2
AcDbDimAssoc
  3
"AcDbDimAssoc|Product Desc:     AcDim ARX App For Dimension|Company:          Autodesk, Inc.|WEB Address:      www.autodesk.com"
 90
    32768
280
     0
281
     0
  0
CLASS
  1
MATERIAL
  2
AcDbMaterial
  3
ObjectDBX Classes
 90
     1024
280
     0
281
     0
  0
CLASS
  1
TABLESTYLE
  2
AcDbTableStyle
  3
ObjectDBX Classes
 90
     4095
280
     0
281
     0
  0
CLASS
  1
DICTIONARYVAR
  2
AcDbDictionaryVar
  3
ObjectDBX Classes
 90
        0
280
     0
281
     0
  0
CLASS
  1
SORTENTSTABLE
  2
AcDbSortentsTable
  3
ObjectDBX Classes
 90
    32768
280
     0
281
     0
  0
CLASS
  1
IMAGEDEF_REACTOR
  2
AcDbRasterImageDefReactor
  3
ISM
 90
        1
280
     0
281
     0
  0
CLASS
  1
IMAGEDEF
  2
AcDbRasterImageDef
  3
ISM
 90
        0
280
     0
281
     0
  0
CLASS
  1
IMAGE
  2
AcDbRasterImage
  3
ISM
 90
     2175
280
     0
281
     1
  0
CLASS
  1
RASTERVARIABLES
  2
AcDbRasterVariables
  3
ISM
 90
        0
280
     0
281
     0
  0
CLASS
  1
ACDBPLACEHOLDER
  2
AcDbPlaceHolder
  3
ObjectDBX Classes
 90
        0
280
     0
281
     0
  0
CLASS
  1
LAYOUT
  2
AcDbLayout
  3
ObjectDBX Classes
 90
        0
280
     0
281
     0
  0
ENDSEC
  0
SECTION
  2
TABLES
  0
TABLE
  2
VPORT
  5
8
330
0
100
AcDbSymbolTable
 70
     1
  0
VPORT
  5
27
330
8
100
AcDbSymbolTableRecord
100
AcDbViewportTableRecord
  2
*Active
 70
     0
 10
0.0
 20
0.0
 11
1.0
 21
1.0
 12
3712.434577304536
 22
-297.3208091280239
 13
0.0
 23
0.0
 14
0.5
 24
0.5
 15
0.5
 25
0.5
 16
0.0
 26
0.0
 36
1.0
 17
0.0
 27
0.0
 37
0.0
 40
1127.926254374413
 41
2.294999999999999
 42
50.0
 43
0.0
 44
0.0
 50
0.0
 51
0.0
 71
     0
 72
   100
 73
     1
 74
     3
 75
     1
 76
     0
 77
     0
 78
     0
281
     0
 65
     1
110
0.0
120
0.0
130
0.0
111
1.0
121
0.0
131
0.0
112
0.0
122
1.0
132
0.0
 79
     0
146
0.0
  0
ENDTAB
  0
TABLE
  2
LTYPE
  5
5
330
0
100
AcDbSymbolTable
 70
     6
  0
LTYPE
  5
14
330
5
100
AcDbSymbolTableRecord
100
AcDbLinetypeTableRecord
  2
ByBlock
 70
     0
  3

 72
    65
 73
     0
 40
0.0
  0
LTYPE
  5
15
330
5
100
AcDbSymbolTableRecord
100
AcDbLinetypeTableRecord
  2
ByLayer
 70
     0
  3

 72
    65
 73
     0
 40
0.0
  0
LTYPE
  5
16
330
5
100
AcDbSymbolTableRecord
100
AcDbLinetypeTableRecord
  2
Continuous
 70
     0
  3
Solid line
 72
    65
 73
     0
 40
0.0
  0
LTYPE
  5
5B
330
5
100
AcDbSymbolTableRecord
100
AcDbLinetypeTableRecord
  2
CENTERX2
 70
     0
  3
Center (2x) ________  __  ________  __  _____
 72
    65
 73
     4
 40
101.6
 49
63.5
 74
     4
 75
     0
340
0
 46
1.0
 50
0.0
 44
0.0
 45
0.0
 49
-12.7
 74
     4
 75
     0
340
0
 46
1.0
 50
0.0
 44
0.0
 45
0.0
 49
12.7
 74
     4
 75
     0
340
0
 46
1.0
 50
0.0
 44
0.0
 45
0.0
 49
-12.7
 74
     4
 75
     0
340
0
 46
1.0
 50
0.0
 44
0.0
 45
0.0
  0
LTYPE
  5
192
330
5
100
AcDbSymbolTableRecord
100
AcDbLinetypeTableRecord
  2
CENTER
 70
     0
  3
Center ____ _ ____ _ ____ _ ____ _ ____ _ ____
 72
    65
 73
     4
 40
50.8
 49
31.75
 74
     4
 75
     0
340
0
 46
1.0
 50
0.0
 44
0.0
 45
0.0
 49
-6.349999999999999
 74
     4
 75
     0
340
0
 46
1.0
 50
0.0
 44
0.0
 45
0.0
 49
6.349999999999999
 74
     4
 75
     0
340
0
 46
1.0
 50
0.0
 44
0.0
 45
0.0
 49
-6.349999999999999
 74
     4
 75
     0
340
0
 46
1.0
 50
0.0
 44
0.0
 45
0.0
  0
LTYPE
  5
112E
330
5
100
AcDbSymbolTableRecord
100
AcDbLinetypeTableRecord
  2
DASHED
 70
     0
  3
Dashed __ __ __ __ __ __ __ __ __ __ __ __ __ _
 72
    65
 73
     2
 40
19.05
 49
12.7
 74
     4
 75
     0
340
0
 46
1.0
 50
0.0
 44
0.0
 45
0.0
 49
-6.349999999999999
 74
     4
 75
     0
340
0
 46
1.0
 50
0.0
 44
0.0
 45
0.0
  0
LTYPE
  5
121B
330
5
100
AcDbSymbolTableRecord
100
AcDbLinetypeTableRecord
  2
ACAD_ISO02W100
 70
     0
  3
ISO dash __ __ __ __ __ __ __ __ __ __ __ __ __
 72
    65
 73
     2
 40
15.0
 49
12.0
 74
     4
 75
     0
340
0
 46
1.0
 50
0.0
 44
0.0
 45
0.0
 49
-3.0
 74
     4
 75
     0
340
0
 46
1.0
 50
0.0
 44
0.0
 45
0.0
  0
LTYPE
  5
121C
330
5
100
AcDbSymbolTableRecord
100
AcDbLinetypeTableRecord
  2
DIVIDE
 70
     0
  3
Divide ____ . . ____ . . ____ . . ____ . . ____
 72
    65
 73
     6
 40
31.75
 49
12.7
 74
     4
 75
     0
340
0
 46
1.0
 50
0.0
 44
0.0
 45
0.0
 49
-6.349999999999999
 74
     4
 75
     0
340
0
 46
1.0
 50
0.0
 44
0.0
 45
0.0
 49
0.0
 74
     4
 75
     0
340
0
 46
1.0
 50
0.0
 44
0.0
 45
0.0
 49
-6.349999999999999
 74
     4
 75
     0
340
0
 46
1.0
 50
0.0
 44
0.0
 45
0.0
 49
0.0
 74
     4
 75
     0
340
0
 46
1.0
 50
0.0
 44
0.0
 45
0.0
 49
-6.349999999999999
 74
     4
 75
     0
340
0
 46
1.0
 50
0.0
 44
0.0
 45
0.0
  0
ENDTAB
  0
TABLE
  2
LAYER
  5
2
102
{ACAD_XDICTIONARY
360
36E2
102
}
330
0
100
AcDbSymbolTable
 70
    18
  0
LAYER
  5
10
330
2
100
AcDbSymbolTableRecord
100
AcDbLayerTableRecord
  2
0
 70
     0
 62
     7
  6
Continuous
370
    -3
390
F
  0
LAYER
  5
5C
330
2
100
AcDbSymbolTableRecord
100
AcDbLayerTableRecord
  2
粗实线
 70
     0
 62
     7
  6
Continuous
370
    30
390
F
1001
AcAecLayerStandard
1000

1000

  0
LAYER
  5
5D
330
2
100
AcDbSymbolTableRecord
100
AcDbLayerTableRecord
  2
中心线
 70
     0
 62
     1
  6
CENTERX2
370
    15
390
F
1001
AcAecLayerStandard
1000

1000

  0
LAYER
  5
5E
330
2
100
AcDbSymbolTableRecord
100
AcDbLayerTableRecord
  2
标注
 70
     0
 62
     4
  6
Continuous
370
    15
390
F
1001
AcAecLayerStandard
1000

1000

  0
LAYER
  5
5F
330
2
100
AcDbSymbolTableRecord
100
AcDbLayerTableRecord
  2
Defpoints
 70
     0
 62
     7
  6
Continuous
290
     0
370
    -3
390
F
  0
LAYER
  5
118
330
2
100
AcDbSymbolTableRecord
100
AcDbLayerTableRecord
  2
图层1粗线
 70
     0
 62
     7
  6
Continuous
370
    -3
390
F
1001
AcAecLayerStandard
1000

1000

  0
LAYER
  5
193
330
2
100
AcDbSymbolTableRecord
100
AcDbLayerTableRecord
  2
细实线
 70
     0
 62
     3
  6
Continuous
370
    15
390
F
1001
AcAecLayerStandard
1000

1000

  0
LAYER
  5
357
330
2
100
AcDbSymbolTableRecord
100
AcDbLayerTableRecord
  2
图层2
 70
     0
 62
     7
  6
Continuous
370
    30
390
F
1001
AcAecLayerStandard
1000

1000

  0
LAYER
  5
358
330
2
100
AcDbSymbolTableRecord
100
AcDbLayerTableRecord
  2
图层3
 70
     0
 62
     7
  6
Continuous
370
    18
390
F
1001
AcAecLayerStandard
1000

1000

  0
LAYER
  5
4E7
330
2
100
AcDbSymbolTableRecord
100
AcDbLayerTableRecord
  2
文字
 70
     0
 62
     1
  6
Continuous
370
    15
390
F
1001
AcAecLayerStandard
1000

1000

  0
LAYER
  5
4E8
330
2
100
AcDbSymbolTableRecord
100
AcDbLayerTableRecord
  2
不可见
 70
     0
 62
     2
  6
Continuous
290
     0
370
    15
390
F
1001
AcAecLayerStandard
1000

1000

  0
LAYER
  5
4E9
330
2
100
AcDbSymbolTableRecord
100
AcDbLayerTableRecord
  2
图层2细线
 70
     0
 62
     3
  6
Continuous
370
    -3
390
F
1001
AcAecLayerStandard
1000

1000

  0
LAYER
  5
4EA
330
2
100
AcDbSymbolTableRecord
100
AcDbLayerTableRecord
  2
图框线
 70
     0
 62
     7
  6
Continuous
370
    13
390
F
1001
AcAecLayerStandard
1000

1000

  0
LAYER
  5
4EB
330
2
100
AcDbSymbolTableRecord
100
AcDbLayerTableRecord
  2
图层 1
 70
     0
 62
     7
  6
Continuous
370
    -3
390
F
  0
LAYER
  5
112F
330
2
100
AcDbSymbolTableRecord
100
AcDbLayerTableRecord
  2
图层1
 70
     0
 62
     7
  6
DASHED
370
    25
390
F
1001
AcAecLayerStandard
1000

1000

  0
LAYER
  5
121D
330
2
100
AcDbSymbolTableRecord
100
AcDbLayerTableRecord
  2
虚线
 70
     0
 62
     2
  6
ACAD_ISO02W100
370
    15
390
F
1001
AcAecLayerStandard
1000

1000

  0
LAYER
  5
121E
330
2
100
AcDbSymbolTableRecord
100
AcDbLayerTableRecord
  2
剖切线
 70
     0
 62
   241
  6
Continuous
370
    15
390
F
1001
AcAecLayerStandard
1000

1000

  0
LAYER
  5
4915
330
2
100
AcDbSymbolTableRecord
100
AcDbLayerTableRecord
  2
Layer 1
 70
     0
 62
     7
  6
Continuous
370
    -3
390
F
  0
ENDTAB
  0
TABLE
  2
STYLE
  5
3
330
0
100
AcDbSymbolTable
 70
     5
  0
STYLE
  5
11
330
3
100
AcDbSymbolTableRecord
100
AcDbTextStyleTableRecord
  2
Standard
 70
     0
 40
0.0
 41
1.0
 50
0.0
 71
     0
 42
0.2
  3
txt
  4

  0
STYLE
  5
5A
330
3
100
AcDbSymbolTableRecord
100
AcDbTextStyleTableRecord
  2
样式 8
 70
     0
 40
10.0
 41
0.7
 50
0.0
 71
     0
 42
10.0
  3
txt.shx
  4
gbcbig.shx
  0
STYLE
  5
117
330
3
100
AcDbSymbolTableRecord
100
AcDbTextStyleTableRecord
  2
样式 1
 70
     0
 40
5.0
 41
1.0
 50
0.0
 71
     0
 42
5.0
  3
txt.shx
  4
gbcbig.shx
  0
STYLE
  5
356
330
3
100
AcDbSymbolTableRecord
100
AcDbTextStyleTableRecord
  2
样式 2
 70
     0
 40
0.0
 41
0.35
 50
0.0
 71
     0
 42
2.5
  3
txt.shx
  4
gbcbig.shx
  0
STYLE
  5
4E6
330
3
100
AcDbSymbolTableRecord
100
AcDbTextStyleTableRecord
  2
样式 3
 70
     0
 40
3.5
 41
0.7
 50
0.0
 71
     0
 42
5.0
  3
txt.shx
  4
gbcbig.shx
  0
ENDTAB
  0
TABLE
  2
VIEW
  5
6
330
0
100
AcDbSymbolTable
 70
     0
  0
ENDTAB
  0
TABLE
  2
UCS
  5
7
330
0
100
AcDbSymbolTable
 70
     0
  0
ENDTAB
  0
TABLE
  2
APPID
  5
9
330
0
100
AcDbSymbolTable
 70
    55
  0
APPID
  5
12
330
9
100
AcDbSymbolTableRecord
100
AcDbRegAppTableRecord
  2
ACAD
 70
     0
  0
APPID
  5
3B
330
9
100
AcDbSymbolTableRecord
100
AcDbRegAppTableRecord
  2
ACAD_PSEXT
 70
     0
  0
APPID
  5
3C
330
9
100
AcDbSymbolTableRecord
100
AcDbRegAppTableRecord
  2
AcAecLayerStandard
 70
     0
  0
APPID
  5
3D
330
9
100
AcDbSymbolTableRecord
100
AcDbRegAppTableRecord
  2
ACAD_DSTYLE_DIMTEXT_FILL
 70
     0
  0
APPID
  5
3E
330
9
100
AcDbSymbolTableRecord
100
AcDbRegAppTableRecord
  2
DCO15
 70
     0
  0
APPID
  5
3F
330
9
100
AcDbSymbolTableRecord
100
AcDbRegAppTableRecord
  2
ACAD_DSTYLE_DIMEXT_LENGTH
 70
     0
  0
APPID
  5
40
330
9
100
AcDbSymbolTableRecord
100
AcDbRegAppTableRecord
  2
ACAD_DSTYLE_DIMEXT_ENABLED
 70
     0
  0
APPID
  5
41
330
9
100
AcDbSymbolTableRecord
100
AcDbRegAppTableRecord
  2
ACAD_DSTYLE_DIM_LINETYPE
 70
     0
  0
APPID
  5
42
330
9
100
AcDbSymbolTableRecord
100
AcDbRegAppTableRecord
  2
ACAD_DSTYLE_DIM_EXT1_LINETYPE
 70
     0
  0
APPID
  5
43
330
9
100
AcDbSymbolTableRecord
100
AcDbRegAppTableRecord
  2
ACAD_DSTYLE_DIM_EXT2_LINETYPE
 70
     0
  0
APPID
  5
44
330
9
100
AcDbSymbolTableRecord
100
AcDbRegAppTableRecord
  2
ACAD_EXEMPT_FROM_CAD_STANDARDS
 70
     0
  0
APPID
  5
45
330
9
100
AcDbSymbolTableRecord
100
AcDbRegAppTableRecord
  2
AcadAnnoPO
 70
     0
  0
APPID
  5
46
330
9
100
AcDbSymbolTableRecord
100
AcDbRegAppTableRecord
  2
AcadAnnotative
 70
     0
  0
APPID
  5
47
330
9
100
AcDbSymbolTableRecord
100
AcDbRegAppTableRecord
  2
ACAD_DSTYLE_DIMJAG
 70
     0
  0
APPID
  5
48
330
9
100
AcDbSymbolTableRecord
100
AcDbRegAppTableRecord
  2
ACAD_DSTYLE_DIMTALN
 70
     0
  0
APPID
  5
49
330
9
100
AcDbSymbolTableRecord
100
AcDbRegAppTableRecord
  2
ACAD_MLEADERVER
 70
     0
  0
APPID
  5
4A
330
9
100
AcDbSymbolTableRecord
100
AcDbRegAppTableRecord
  2
ACAD_DSTYLE_DIMRADIAL_EXTENSION
 70
     0
  0
APPID
  5
4B
330
9
100
AcDbSymbolTableRecord
100
AcDbRegAppTableRecord
  2
ACAD_DSTYLE_DIMBREAK
 70
     0
  0
APPID
  5
4C
330
9
100
AcDbSymbolTableRecord
100
AcDbRegAppTableRecord
  2
ACAD_DSTYLE_DIMARC_LENGTH_SYMBOL
 70
     0
  0
APPID
  5
4D
330
9
100
AcDbSymbolTableRecord
100
AcDbRegAppTableRecord
  2
ACAD_DSTYLE_DIMJOGGED_JOGANGLE_SYMBOL
 70
     0
  0
APPID
  5
4E
330
9
100
AcDbSymbolTableRecord
100
AcDbRegAppTableRecord
  2
MCAD_NO_VIS
 70
     0
  0
APPID
  5
4F
330
9
100
AcDbSymbolTableRecord
100
AcDbRegAppTableRecord
  2
ACAD_TEMP_GRAPHIC
 70
     0
  0
APPID
  5
50
330
9
100
AcDbSymbolTableRecord
100
AcDbRegAppTableRecord
  2
AD_DRAW
 70
     0
  0
APPID
  5
51
330
9
100
AcDbSymbolTableRecord
100
AcDbRegAppTableRecord
  2
ACATTRIBSERVICES
 70
     0
  0
APPID
  5
52
330
9
100
AcDbSymbolTableRecord
100
AcDbRegAppTableRecord
  2
DESIGNERASSEMBLIES
 70
     0
  0
APPID
  5
53
330
9
100
AcDbSymbolTableRecord
100
AcDbRegAppTableRecord
  2
ACADM_DIM_EDIT
 70
     0
  0
APPID
  5
54
330
9
100
AcDbSymbolTableRecord
100
AcDbRegAppTableRecord
  2
AMDT_DM_ADJ
 70
     0
  0
APPID
  5
55
330
9
100
AcDbSymbolTableRecord
100
AcDbRegAppTableRecord
  2
GENIUS_GENODEF_13
 70
     0
  0
APPID
  5
56
330
9
100
AcDbSymbolTableRecord
100
AcDbRegAppTableRecord
  2
GENIUS_GENOBJ-N-FIL_13
 70
     0
  0
APPID
  5
57
330
9
100
AcDbSymbolTableRecord
100
AcDbRegAppTableRecord
  2
ACAD_DIMASSOC_CALC_DIMLFAC
 70
     0
  0
APPID
  5
58
330
9
100
AcDbSymbolTableRecord
100
AcDbRegAppTableRecord
  2
ACAD_DIMASSOC_DIMLFAC
 70
     0
  0
APPID
  5
59
330
9
100
AcDbSymbolTableRecord
100
AcDbRegAppTableRecord
  2
ACAD_DIMASSOC_OVERRIDDEN_DIMLFAC
 70
     0
  0
APPID
  5
4E5
330
9
100
AcDbSymbolTableRecord
100
AcDbRegAppTableRecord
  2
CAXA
 70
     0
  0
APPID
  5
1BF7
330
9
100
AcDbSymbolTableRecord
100
AcDbRegAppTableRecord
  2
AVE_RENDER
 70
     0
  0
APPID
  5
1BF8
330
9
100
AcDbSymbolTableRecord
100
AcDbRegAppTableRecord
  2
AVE_ENTITY_MATERIAL
 70
     0
  0
APPID
  5
1BF9
330
9
100
AcDbSymbolTableRecord
100
AcDbRegAppTableRecord
  2
AVE_FINISH
 70
     0
  0
APPID
  5
1BFA
330
9
100
AcDbSymbolTableRecord
100
AcDbRegAppTableRecord
  2
AVE_MATERIAL
 70
     0
  0
APPID
  5
1BFB
330
9
100
AcDbSymbolTableRecord
100
AcDbRegAppTableRecord
  2
AVE_GLOBAL
 70
     0
  0
APPID
  5
1BFC
330
9
100
AcDbSymbolTableRecord
100
AcDbRegAppTableRecord
  2
GENIUS_GENBLLY_14
 70
     0
  0
APPID
  5
1BFD
330
9
100
AcDbSymbolTableRecord
100
AcDbRegAppTableRecord
  2
ODA
 70
     0
  0
APPID
  5
1BFE
330
9
100
AcDbSymbolTableRecord
100
AcDbRegAppTableRecord
  2
RAK
 70
     0
  0
APPID
  5
1BFF
330
9
100
AcDbSymbolTableRecord
100
AcDbRegAppTableRecord
  2
AcDbDynamicBlockGUID
 70
     0
  0
APPID
  5
1C00
330
9
100
AcDbSymbolTableRecord
100
AcDbRegAppTableRecord
  2
AcDbBlockRepETag
 70
     0
  0
APPID
  5
1C01
330
9
100
AcDbSymbolTableRecord
100
AcDbRegAppTableRecord
  2
ACAUTHENVIRON
 70
     0
  0
APPID
  5
1C02
330
9
100
AcDbSymbolTableRecord
100
AcDbRegAppTableRecord
  2
AcDbDynamicBlockTrueName
 70
     0
  0
APPID
  5
4E1E
330
9
100
AcDbSymbolTableRecord
100
AcDbRegAppTableRecord
  2
AcDbAttr
 70
     0
  0
APPID
  5
4E1F
330
9
100
AcDbSymbolTableRecord
100
AcDbRegAppTableRecord
  2
AcDbBlockRepBTag
 70
     0
  0
APPID
  5
4E37
330
9
100
AcDbSymbolTableRecord
100
AcDbRegAppTableRecord
  2
AcadStringInfo
 70
     0
  0
APPID
  5
52C1
330
9
100
AcDbSymbolTableRecord
100
AcDbRegAppTableRecord
  2
ACAD_NAV_VCDISPLAY
 70
     0
  0
APPID
  5
546A
330
9
100
AcDbSymbolTableRecord
100
AcDbRegAppTableRecord
  2
ACAD_DSTYLE_DIMANGULAR_EXT
 70
     0
  0
APPID
  5
546B
330
9
100
AcDbSymbolTableRecord
100
AcDbRegAppTableRecord
  2
ACAD_DSTYLE_DIMFLIPARROW_W
 70
     0
  0
APPID
  5
546C
330
9
100
AcDbSymbolTableRecord
100
AcDbRegAppTableRecord
  2
ACAD_DSTYLE_DIMJOGGED_JOGA
 70
     0
  0
APPID
  5
546D
330
9
100
AcDbSymbolTableRecord
100
AcDbRegAppTableRecord
  2
ACAD_DSTYLE_DIMINSPECT
 70
     0
  0
APPID
  5
546E
330
9
100
AcDbSymbolTableRecord
100
AcDbRegAppTableRecord
  2
GENIUS_GENOREF_13
 70
     0
  0
APPID
  5
546F
330
9
100
AcDbSymbolTableRecord
100
AcDbRegAppTableRecord
  2
ACADANNOMONITORALERTICONDI
 70
     0
  0
ENDTAB
  0
TABLE
  2
DIMSTYLE
  5
A
330
0
100
AcDbSymbolTable
 70
     7
100
AcDbDimStyleTable
 71
     0
  0
DIMSTYLE
105
25
330
A
100
AcDbSymbolTableRecord
100
AcDbDimStyleTableRecord
  2
Standard
 70
     0
340
11
  0
DIMSTYLE
105
60
330
A
100
AcDbSymbolTableRecord
100
AcDbDimStyleTableRecord
  2
副本 (3) ISO-25 4
 70
     0
 41
14.0
 42
0.0
 43
10.0
 44
6.0
 73
     0
 74
     0
 77
     1
 78
     8
140
20.0
141
7.5
143
0.03937007874016
147
1.5
171
     3
172
     1
271
     1
272
     1
274
     3
283
     0
284
     8
340
11
  0
DIMSTYLE
105
119
330
A
100
AcDbSymbolTableRecord
100
AcDbDimStyleTableRecord
  2
副本 ISO-25
 70
     0
 41
12.0
 42
0.0
 43
10.0
 44
5.0
 73
     0
 74
     0
 77
     1
 78
     8
140
18.0
141
1.5
143
0.03937007874016
147
1.5
171
     3
172
     1
271
     1
272
     1
274
     3
278
    44
283
     0
284
     8
340
11
  0
DIMSTYLE
105
359
330
A
100
AcDbSymbolTableRecord
100
AcDbDimStyleTableRecord
  2
ISO-25
 70
     0
 41
17.0
 42
3.0
 43
3.75
 44
1.25
 73
     0
 77
     1
 78
     8
140
19.0
141
80.0
143
0.03937007874016
147
7.0
170
     1
171
     3
172
     1
271
     2
272
     2
273
     7
274
     3
283
     0
284
     8
340
11
  0
DIMSTYLE
105
4EC
102
{ACAD_REACTORS
330
5545
330
5546
330
5547
330
5548
330
5549
330
554A
330
554B
330
554C
102
}
330
A
100
AcDbSymbolTableRecord
100
AcDbDimStyleTableRecord
  2
英寸
 70
     0
 41
12.0
 42
0.0
 43
10.0
 44
3.75
 73
     0
 74
     0
 77
     1
 78
     8
140
16.0
141
7.5
143
0.03937007874016
147
2.0
170
     1
171
     3
172
     1
179
     1
271
     1
272
     1
273
     7
274
     3
283
     0
284
     8
340
11
  0
DIMSTYLE
105
472D
330
A
100
AcDbSymbolTableRecord
100
AcDbDimStyleTableRecord
  2
LXF
 70
     0
 41
18.0
 42
0.0
 43
10.0
 44
2.5
 73
     0
 74
     0
 77
     1
 78
     8
140
20.0
141
0.0
143
0.03937007874016
147
3.0
171
     3
172
     1
178
     6
179
     1
271
     1
272
     1
274
     3
283
     0
284
     8
340
11
  0
DIMSTYLE
105
4E38
330
A
100
AcDbSymbolTableRecord
100
AcDbDimStyleTableRecord
  2
R
 70
     0
 41
13.0
 42
0.0
 43
10.0
 44
5.0
 77
     1
 78
     8
140
18.0
141
5.0
143
0.03937007874016
147
3.0
171
     3
172
     1
176
   256
178
   256
271
     0
272
     0
274
     3
278
    44
283
     0
284
     8
340
11
371
    -1
  0
ENDTAB
  0
TABLE
  2
BLOCK_RECORD
  5
1
330
0
100
AcDbSymbolTable
 70
    60
  0
BLOCK_RECORD
  5
1F
330
1
100
AcDbSymbolTableRecord
100
AcDbBlockTableRecord
  2
*Model_Space
340
22
  0
BLOCK_RECORD
  5
1B
330
1
100
AcDbSymbolTableRecord
100
AcDbBlockTableRecord
  2
*Paper_Space
340
1E
  0
BLOCK_RECORD
  5
23
330
1
100
AcDbSymbolTableRecord
100
AcDbBlockTableRecord
  2
*Paper_Space0
340
24
  0
BLOCK_RECORD
  5
3D11
330
1
100
AcDbSymbolTableRecord
100
AcDbBlockTableRecord
  2
*D1
340
0
  0
BLOCK_RECORD
  5
3D1F
330
1
100
AcDbSymbolTableRecord
100
AcDbBlockTableRecord
  2
*D2
340
0
  0
BLOCK_RECORD
  5
3D5F
330
1
100
AcDbSymbolTableRecord
100
AcDbBlockTableRecord
  2
*D3
340
0
  0
BLOCK_RECORD
  5
3D6B
330
1
100
AcDbSymbolTableRecord
100
AcDbBlockTableRecord
  2
*D4
340
0
  0
BLOCK_RECORD
  5
3D77
330
1
100
AcDbSymbolTableRecord
100
AcDbBlockTableRecord
  2
*D5
340
0
  0
BLOCK_RECORD
  5
3D83
330
1
100
AcDbSymbolTableRecord
100
AcDbBlockTableRecord
  2
*D6
340
0
  0
BLOCK_RECORD
  5
3D8F
330
1
100
AcDbSymbolTableRecord
100
AcDbBlockTableRecord
  2
*D7
340
0
  0
BLOCK_RECORD
  5
3D9B
330
1
100
AcDbSymbolTableRecord
100
AcDbBlockTableRecord
  2
*D8
340
0
  0
BLOCK_RECORD
  5
465B
330
1
100
AcDbSymbolTableRecord
100
AcDbBlockTableRecord
  2
*D9
340
0
  0
BLOCK_RECORD
  5
466A
330
1
100
AcDbSymbolTableRecord
100
AcDbBlockTableRecord
  2
*D10
340
0
  0
BLOCK_RECORD
  5
4679
330
1
100
AcDbSymbolTableRecord
100
AcDbBlockTableRecord
  2
*D11
340
0
  0
BLOCK_RECORD
  5
4686
330
1
100
AcDbSymbolTableRecord
100
AcDbBlockTableRecord
  2
*D12
340
0
  0
BLOCK_RECORD
  5
4693
330
1
100
AcDbSymbolTableRecord
100
AcDbBlockTableRecord
  2
*D13
340
0
  0
BLOCK_RECORD
  5
46A0
330
1
100
AcDbSymbolTableRecord
100
AcDbBlockTableRecord
  2
*D14
340
0
  0
BLOCK_RECORD
  5
46AD
330
1
100
AcDbSymbolTableRecord
100
AcDbBlockTableRecord
  2
*D15
340
0
  0
BLOCK_RECORD
  5
46BA
330
1
100
AcDbSymbolTableRecord
100
AcDbBlockTableRecord
  2
*D16
340
0
  0
BLOCK_RECORD
  5
477A
330
1
100
AcDbSymbolTableRecord
100
AcDbBlockTableRecord
  2
*D17
340
0
  0
BLOCK_RECORD
  5
4788
330
1
100
AcDbSymbolTableRecord
100
AcDbBlockTableRecord
  2
*D18
340
0
  0
BLOCK_RECORD
  5
47CE
330
1
100
AcDbSymbolTableRecord
100
AcDbBlockTableRecord
  2
*D19
340
0
  0
BLOCK_RECORD
  5
47E8
330
1
100
AcDbSymbolTableRecord
100
AcDbBlockTableRecord
  2
*D20
340
0
  0
BLOCK_RECORD
  5
4999
330
1
100
AcDbSymbolTableRecord
100
AcDbBlockTableRecord
  2
WMF0
340
0
  0
BLOCK_RECORD
  5
4A47
330
1
100
AcDbSymbolTableRecord
100
AcDbBlockTableRecord
  2
AN-3205 drawing
340
0
  0
BLOCK_RECORD
  5
4B97
330
1
100
AcDbSymbolTableRecord
100
AcDbBlockTableRecord
  2
*D23
340
0
  0
BLOCK_RECORD
  5
4BA6
330
1
100
AcDbSymbolTableRecord
100
AcDbBlockTableRecord
  2
*D24
340
0
  0
BLOCK_RECORD
  5
4BB5
330
1
100
AcDbSymbolTableRecord
100
AcDbBlockTableRecord
  2
*D25
340
0
  0
BLOCK_RECORD
  5
4BC4
330
1
100
AcDbSymbolTableRecord
100
AcDbBlockTableRecord
  2
*D26
340
0
  0
BLOCK_RECORD
  5
4BD3
330
1
100
AcDbSymbolTableRecord
100
AcDbBlockTableRecord
  2
*D27
340
0
  0
BLOCK_RECORD
  5
4BE2
330
1
100
AcDbSymbolTableRecord
100
AcDbBlockTableRecord
  2
*D28
340
0
  0
BLOCK_RECORD
  5
4C6B
330
1
100
AcDbSymbolTableRecord
100
AcDbBlockTableRecord
  2
*D29
340
0
  0
BLOCK_RECORD
  5
4C7B
330
1
100
AcDbSymbolTableRecord
100
AcDbBlockTableRecord
  2
*D30
340
0
  0
BLOCK_RECORD
  5
4D59
330
1
100
AcDbSymbolTableRecord
100
AcDbBlockTableRecord
  2
*D31
340
0
  0
BLOCK_RECORD
  5
4D66
330
1
100
AcDbSymbolTableRecord
100
AcDbBlockTableRecord
  2
*D32
340
0
  0
BLOCK_RECORD
  5
4D73
330
1
100
AcDbSymbolTableRecord
100
AcDbBlockTableRecord
  2
*D33
340
0
  0
BLOCK_RECORD
  5
4D80
330
1
100
AcDbSymbolTableRecord
100
AcDbBlockTableRecord
  2
*D34
340
0
  0
BLOCK_RECORD
  5
4D8D
330
1
100
AcDbSymbolTableRecord
100
AcDbBlockTableRecord
  2
*D35
340
0
  0
BLOCK_RECORD
  5
4D9A
330
1
100
AcDbSymbolTableRecord
100
AcDbBlockTableRecord
  2
*D36
340
0
  0
BLOCK_RECORD
  5
50E9
330
1
100
AcDbSymbolTableRecord
100
AcDbBlockTableRecord
  2
*D37
340
0
  0
BLOCK_RECORD
  5
50F9
330
1
100
AcDbSymbolTableRecord
100
AcDbBlockTableRecord
  2
*D38
340
0
  0
BLOCK_RECORD
  5
5299
330
1
100
AcDbSymbolTableRecord
100
AcDbBlockTableRecord
  2
*D39
340
0
  0
BLOCK_RECORD
  5
52B1
330
1
100
AcDbSymbolTableRecord
100
AcDbBlockTableRecord
  2
*D40
340
0
  0
BLOCK_RECORD
  5
52BD
330
1
100
AcDbSymbolTableRecord
100
AcDbBlockTableRecord
  2
*D41
340
0
  0
BLOCK_RECORD
  5
5386
330
1
100
AcDbSymbolTableRecord
100
AcDbBlockTableRecord
  2
*D42
340
0
  0
BLOCK_RECORD
  5
5397
330
1
100
AcDbSymbolTableRecord
100
AcDbBlockTableRecord
  2
*D43
340
0
  0
BLOCK_RECORD
  5
53A6
330
1
100
AcDbSymbolTableRecord
100
AcDbBlockTableRecord
  2
*D44
340
0
  0
BLOCK_RECORD
  5
544C
330
1
100
AcDbSymbolTableRecord
100
AcDbBlockTableRecord
  2
*D46
340
0
  0
BLOCK_RECORD
  5
5459
330
1
100
AcDbSymbolTableRecord
100
AcDbBlockTableRecord
  2
*D47
340
0
  0
BLOCK_RECORD
  5
5466
330
1
100
AcDbSymbolTableRecord
100
AcDbBlockTableRecord
  2
*D48
340
0
  0
BLOCK_RECORD
  5
5551
330
1
100
AcDbSymbolTableRecord
100
AcDbBlockTableRecord
  2
*D49
340
0
  0
BLOCK_RECORD
  5
555F
330
1
100
AcDbSymbolTableRecord
100
AcDbBlockTableRecord
  2
*D50
340
0
  0
BLOCK_RECORD
  5
556D
330
1
100
AcDbSymbolTableRecord
100
AcDbBlockTableRecord
  2
*D51
340
0
  0
BLOCK_RECORD
  5
5579
330
1
100
AcDbSymbolTableRecord
100
AcDbBlockTableRecord
  2
*D52
340
0
  0
BLOCK_RECORD
  5
5585
330
1
100
AcDbSymbolTableRecord
100
AcDbBlockTableRecord
  2
*D53
340
0
  0
BLOCK_RECORD
  5
5591
330
1
100
AcDbSymbolTableRecord
100
AcDbBlockTableRecord
  2
*D54
340
0
  0
BLOCK_RECORD
  5
559D
330
1
100
AcDbSymbolTableRecord
100
AcDbBlockTableRecord
  2
*D55
340
0
  0
BLOCK_RECORD
  5
55A9
330
1
100
AcDbSymbolTableRecord
100
AcDbBlockTableRecord
  2
*D56
340
0
  0
ENDTAB
  0
ENDSEC
  0
SECTION
  2
BLOCKS
  0
BLOCK
  5
20
330
1F
100
AcDbEntity
  8
0
100
AcDbBlockBegin
  2
*Model_Space
 70
     0
 10
0.0
 20
0.0
 30
0.0
  3
*Model_Space
  1

  0
ENDBLK
  5
21
330
1F
100
AcDbEntity
  8
0
100
AcDbBlockEnd
  0
BLOCK
  5
1C
330
1B
100
AcDbEntity
 67
     1
  8
0
100
AcDbBlockBegin
  2
*Paper_Space
 70
     0
 10
0.0
 20
0.0
 30
0.0
  3
*Paper_Space
  1

  0
ENDBLK
  5
1D
330
1B
100
AcDbEntity
 67
     1
  8
0
100
AcDbBlockEnd
  0
BLOCK
  5
39
330
23
100
AcDbEntity
 67
     1
  8
0
100
AcDbBlockBegin
  2
*Paper_Space0
 70
     0
 10
0.0
 20
0.0
 30
0.0
  3
*Paper_Space0
  1

  0
ENDBLK
  5
3A
330
23
100
AcDbEntity
 67
     1
  8
0
100
AcDbBlockEnd
  0
BLOCK
  5
3D1D
330
3D11
100
AcDbEntity
  8
0
100
AcDbBlockBegin
  2
*D1
 70
     1
 10
0.0
 20
0.0
 30
0.0
  3
*D1
  1

  0
LINE
  5
406D
330
3D11
100
AcDbEntity
  8
标注
 62
     0
370
    -2
100
AcDbLine
 10
926.3787068779965
 20
469.3613800361247
 30
0.0
 11
926.3787068779965
 21
429.4839531803229
 31
0.0
  0
LINE
  5
406E
330
3D11
100
AcDbEntity
  8
标注
 62
     0
370
    -2
100
AcDbLine
 10
932.7287068779988
 20
469.3613800361174
 30
0.0
 11
932.7287068779988
 21
429.4839531803229
 31
0.0
  0
LINE
  5
406F
330
3D11
100
AcDbEntity
  8
标注
 62
     0
370
    -2
100
AcDbLine
 10
940.7287068779988
 20
433.2339531803229
 30
0.0
 11
948.7287068779988
 21
433.2339531803229
 31
0.0
  0
LINE
  5
4070
330
3D11
100
AcDbEntity
  8
标注
 62
     0
370
    -2
100
AcDbLine
 10
918.3787068779965
 20
433.2339531803229
 30
0.0
 11
811.1372334809979
 21
433.2339531803229
 31
0.0
  0
LINE
  5
4071
330
3D11
100
AcDbEntity
  8
标注
 62
     0
370
    -2
100
AcDbLine
 10
932.7287068779988
 20
433.2339531803229
 30
0.0
 11
926.3787068779965
 21
433.2339531803229
 31
0.0
  0
SOLID
  5
4072
330
3D11
100
AcDbEntity
  8
标注
 62
     0
100
AcDbTrace
 10
940.7287068779988
 20
434.5672865136562
 30
0.0
 11
940.7287068779988
 21
431.9006198469896
 31
0.0
 12
932.7287068779988
 22
433.2339531803229
 32
0.0
 13
932.7287068779988
 23
433.2339531803229
 33
0.0
  0
SOLID
  5
4073
330
3D11
100
AcDbEntity
  8
标注
 62
     0
100
AcDbTrace
 10
918.3787068779965
 20
434.5672865136562
 30
0.0
 11
918.3787068779965
 21
431.9006198469896
 31
0.0
 12
926.3787068779965
 22
433.2339531803229
 32
0.0
 13
926.3787068779965
 23
433.2339531803229
 33
0.0
  0
MTEXT
  5
4074
330
3D11
100
AcDbEntity
  8
标注
 62
     0
100
AcDbMText
 10
852.3787068779965
 20
445.5913883781401
 30
0.0
 40
16.0
 41
0.0
 71
     5
 72
     1
  1
{\fArial|b0|i0|c0|p34;6.4 [1/4]}
 73
     1
 44
1.0
1001
ACAD
1000
MTEXTBEGIN
1070
    73
1070
     1
1070
    44
1040
1.0
1070
    74
1070
     0
1000
MTEXTEND
  0
POINT
  5
4075
330
3D11
100
AcDbEntity
  8
Defpoints
 62
     0
100
AcDbPoint
 10
926.3787068779965
 20
469.3613800361247
 30
0.0
  0
POINT
  5
4076
330
3D11
100
AcDbEntity
  8
Defpoints
 62
     0
100
AcDbPoint
 10
932.7287068779988
 20
469.3613800361174
 30
0.0
  0
POINT
  5
4077
330
3D11
100
AcDbEntity
  8
Defpoints
 62
     0
100
AcDbPoint
 10
932.7287068779988
 20
433.2339531803229
 30
0.0
  0
ENDBLK
  5
3D1E
330
3D11
100
AcDbEntity
  8
0
100
AcDbBlockEnd
  0
BLOCK
  5
3D2B
330
3D1F
100
AcDbEntity
  8
0
100
AcDbBlockBegin
  2
*D2
 70
     1
 10
0.0
 20
0.0
 30
0.0
  3
*D2
  1

  0
LINE
  5
4078
330
3D1F
100
AcDbEntity
  8
标注
 62
     0
370
    -2
100
AcDbLine
 10
932.7287068779988
 20
469.3613800361174
 30
0.0
 11
932.7287068779988
 21
393.0846035499392
 31
0.0
  0
LINE
  5
4079
330
3D1F
100
AcDbEntity
  8
标注
 62
     0
370
    -2
100
AcDbLine
 10
939.078706878001
 20
469.3613800361247
 30
0.0
 11
939.078706878001
 21
393.0846035499392
 31
0.0
  0
LINE
  5
407A
330
3D1F
100
AcDbEntity
  8
标注
 62
     0
370
    -2
100
AcDbLine
 10
947.078706878001
 20
396.8346035499392
 30
0.0
 11
955.0787068780008
 21
396.8346035499392
 31
0.0
  0
LINE
  5
407B
330
3D1F
100
AcDbEntity
  8
标注
 62
     0
370
    -2
100
AcDbLine
 10
924.7287068779987
 20
396.8346035499392
 30
0.0
 11
817.4872334810002
 21
396.8346035499392
 31
0.0
  0
LINE
  5
407C
330
3D1F
100
AcDbEntity
  8
标注
 62
     0
370
    -2
100
AcDbLine
 10
939.078706878001
 20
396.8346035499392
 30
0.0
 11
932.7287068779988
 21
396.8346035499392
 31
0.0
  0
SOLID
  5
407D
330
3D1F
100
AcDbEntity
  8
标注
 62
     0
100
AcDbTrace
 10
947.078706878001
 20
398.1679368832725
 30
0.0
 11
947.078706878001
 21
395.5012702166058
 31
0.0
 12
939.078706878001
 22
396.8346035499392
 32
0.0
 13
939.078706878001
 23
396.8346035499392
 33
0.0
  0
SOLID
  5
407E
330
3D1F
100
AcDbEntity
  8
标注
 62
     0
100
AcDbTrace
 10
924.7287068779987
 20
398.1679368832725
 30
0.0
 11
924.7287068779987
 21
395.5012702166058
 31
0.0
 12
932.7287068779988
 22
396.8346035499392
 32
0.0
 13
932.7287068779988
 23
396.8346035499392
 33
0.0
  0
MTEXT
  5
407F
330
3D1F
100
AcDbEntity
  8
标注
 62
     0
100
AcDbMText
 10
858.7287068779987
 20
409.1920387477563
 30
0.0
 40
16.0
 41
0.0
 71
     5
 72
     1
  1
{\fArial|b0|i0|c0|p34;6.4 [1/4]}
 73
     1
 44
1.0
1001
ACAD
1000
MTEXTBEGIN
1070
    73
1070
     1
1070
    44
1040
1.0
1070
    74
1070
     0
1000
MTEXTEND
  0
POINT
  5
4080
330
3D1F
100
AcDbEntity
  8
Defpoints
 62
     0
100
AcDbPoint
 10
932.7287068779988
 20
469.3613800361174
 30
0.0
  0
POINT
  5
4081
330
3D1F
100
AcDbEntity
  8
Defpoints
 62
     0
100
AcDbPoint
 10
939.078706878001
 20
469.3613800361247
 30
0.0
  0
POINT
  5
4082
330
3D1F
100
AcDbEntity
  8
Defpoints
 62
     0
100
AcDbPoint
 10
939.078706878001
 20
396.8346035499392
 30
0.0
  0
ENDBLK
  5
3D2C
330
3D1F
100
AcDbEntity
  8
0
100
AcDbBlockEnd
  0
BLOCK
  5
3D69
330
3D5F
100
AcDbEntity
  8
0
100
AcDbBlockBegin
  2
*D3
 70
     1
 10
0.0
 20
0.0
 30
0.0
  3
*D3
  1

  0
LINE
  5
4083
330
3D5F
100
AcDbEntity
  8
标注
 62
     0
370
    -2
100
AcDbLine
 10
932.7287068779988
 20
664.5
 30
0.0
 11
932.7287068779988
 21
741.9725673309667
 31
0.0
  0
LINE
  5
4084
330
3D5F
100
AcDbEntity
  8
标注
 62
     0
370
    -2
100
AcDbLine
 10
398.7287068779961
 20
673.5
 30
0.0
 11
398.7287068779961
 21
741.9725673309667
 31
0.0
  0
LINE
  5
4085
330
3D5F
100
AcDbEntity
  8
标注
 62
     0
370
    -2
100
AcDbLine
 10
924.7287068779987
 20
738.2225673309667
 30
0.0
 11
406.728706877996
 21
738.2225673309667
 31
0.0
  0
SOLID
  5
4086
330
3D5F
100
AcDbEntity
  8
标注
 62
     0
100
AcDbTrace
 10
924.7287068779987
 20
739.5559006643001
 30
0.0
 11
924.7287068779987
 21
736.8892339976333
 31
0.0
 12
932.7287068779988
 22
738.2225673309667
 32
0.0
 13
932.7287068779988
 23
738.2225673309667
 33
0.0
  0
SOLID
  5
4087
330
3D5F
100
AcDbEntity
  8
标注
 62
     0
100
AcDbTrace
 10
406.728706877996
 20
739.5559006643001
 30
0.0
 11
406.728706877996
 21
736.8892339976333
 31
0.0
 12
398.7287068779961
 22
738.2225673309667
 32
0.0
 13
398.7287068779961
 23
738.2225673309667
 33
0.0
  0
MTEXT
  5
4088
330
3D5F
100
AcDbEntity
  8
标注
 62
     0
100
AcDbMText
 10
665.9951944000786
 20
750.4763190362873
 30
0.0
 40
16.0
 41
0.0
 71
     5
 72
     1
  1
{\fArial|b0|i0|c0|p34;534 [21]}
 73
     1
 44
1.0
1001
ACAD
1000
MTEXTBEGIN
1070
    73
1070
     1
1070
    44
1040
1.0
1070
    74
1070
     0
1000
MTEXTEND
  0
POINT
  5
4089
330
3D5F
100
AcDbEntity
  8
Defpoints
 62
     0
100
AcDbPoint
 10
932.7287068779988
 20
664.5
 30
0.0
  0
POINT
  5
408A
330
3D5F
100
AcDbEntity
  8
Defpoints
 62
     0
100
AcDbPoint
 10
398.7287068779961
 20
673.5
 30
0.0
  0
POINT
  5
408B
330
3D5F
100
AcDbEntity
  8
Defpoints
 62
     0
100
AcDbPoint
 10
398.7287068779961
 20
738.2225673309667
 30
0.0
  0
ENDBLK
  5
3D6A
330
3D5F
100
AcDbEntity
  8
0
100
AcDbBlockEnd
  0
BLOCK
  5
3D75
330
3D6B
100
AcDbEntity
  8
0
100
AcDbBlockBegin
  2
*D4
 70
     1
 10
0.0
 20
0.0
 30
0.0
  3
*D4
  1

  0
LINE
  5
408C
330
3D6B
100
AcDbEntity
  8
标注
 62
     0
370
    -2
100
AcDbLine
 10
378.5
 20
669.3613800362948
 30
0.0
 11
312.2500000000001
 21
669.3613800362948
 31
0.0
  0
LINE
  5
408D
330
3D6B
100
AcDbEntity
  8
标注
 62
     0
370
    -2
100
AcDbLine
 10
383.5
 20
269.3613800362946
 30
0.0
 11
312.25
 21
269.3613800362946
 31
0.0
  0
LINE
  5
408E
330
3D6B
100
AcDbEntity
  8
标注
 62
     0
370
    -2
100
AcDbLine
 10
316.0000000000001
 20
661.3613800362948
 30
0.0
 11
316.0
 21
277.3613800362946
 31
0.0
  0
SOLID
  5
408F
330
3D6B
100
AcDbEntity
  8
标注
 62
     0
100
AcDbTrace
 10
314.6666666666668
 20
661.3613800362948
 30
0.0
 11
317.3333333333334
 21
661.3613800362948
 31
0.0
 12
316.0000000000001
 22
669.3613800362948
 32
0.0
 13
316.0000000000001
 23
669.3613800362948
 33
0.0
  0
SOLID
  5
4090
330
3D6B
100
AcDbEntity
  8
标注
 62
     0
100
AcDbTrace
 10
314.6666666666667
 20
277.3613800362946
 30
0.0
 11
317.3333333333333
 21
277.3613800362946
 31
0.0
 12
316.0
 22
269.3613800362946
 32
0.0
 13
316.0
 23
269.3613800362946
 33
0.0
  0
MTEXT
  5
4091
330
3D6B
100
AcDbEntity
  8
标注
 62
     0
100
AcDbMText
 10
303.6425648021828
 20
497.3500000000008
 30
0.0
 40
16.0
 41
0.0
 71
     5
 72
     1
  1
{\fArial|b0|i0|c0|p34;400 [15 3/4]}
 11
0.0000000000000001
 21
1.0
 31
0.0
 73
     1
 44
1.0
1001
ACAD
1000
MTEXTBEGIN
1070
    73
1070
     1
1070
    44
1040
1.0
1070
    74
1070
     0
1000
MTEXTEND
  0
POINT
  5
4092
330
3D6B
100
AcDbEntity
  8
Defpoints
 62
     0
100
AcDbPoint
 10
378.5
 20
669.3613800362948
 30
0.0
  0
POINT
  5
4093
330
3D6B
100
AcDbEntity
  8
Defpoints
 62
     0
100
AcDbPoint
 10
383.5
 20
269.3613800362946
 30
0.0
  0
POINT
  5
4094
330
3D6B
100
AcDbEntity
  8
Defpoints
 62
     0
100
AcDbPoint
 10
316.0
 20
269.3613800362946
 30
0.0
  0
ENDBLK
  5
3D76
330
3D6B
100
AcDbEntity
  8
0
100
AcDbBlockEnd
  0
BLOCK
  5
3D81
330
3D77
100
AcDbEntity
  8
0
100
AcDbBlockBegin
  2
*D5
 70
     1
 10
0.0
 20
0.0
 30
0.0
  3
*D5
  1

  0
LINE
  5
4095
330
3D77
100
AcDbEntity
  8
标注
 62
     0
370
    -2
100
AcDbLine
 10
939.078706878001
 20
665.5
 30
0.0
 11
939.078706878001
 21
775.4725673309667
 31
0.0
  0
LINE
  5
4096
330
3D77
100
AcDbEntity
  8
标注
 62
     0
370
    -2
100
AcDbLine
 10
392.3787068779984
 20
673.5
 30
0.0
 11
392.3787068779984
 21
775.4725673309667
 31
0.0
  0
LINE
  5
4097
330
3D77
100
AcDbEntity
  8
标注
 62
     0
370
    -2
100
AcDbLine
 10
931.078706878001
 20
771.7225673309667
 30
0.0
 11
400.3787068779984
 21
771.7225673309667
 31
0.0
  0
SOLID
  5
4098
330
3D77
100
AcDbEntity
  8
标注
 62
     0
100
AcDbTrace
 10
931.078706878001
 20
773.0559006643001
 30
0.0
 11
931.078706878001
 21
770.3892339976333
 31
0.0
 12
939.078706878001
 22
771.7225673309667
 32
0.0
 13
939.078706878001
 23
771.7225673309667
 33
0.0
  0
SOLID
  5
4099
330
3D77
100
AcDbEntity
  8
标注
 62
     0
100
AcDbTrace
 10
400.3787068779984
 20
773.0559006643001
 30
0.0
 11
400.3787068779984
 21
770.3892339976333
 31
0.0
 12
392.3787068779984
 22
771.7225673309667
 32
0.0
 13
392.3787068779984
 23
771.7225673309667
 33
0.0
  0
MTEXT
  5
409A
330
3D77
100
AcDbEntity
  8
标注
 62
     0
100
AcDbMText
 10
665.9953762927434
 20
784.0800025287839
 30
0.0
 40
16.0
 41
0.0
 71
     5
 72
     1
  1
{\fArial|b0|i0|c0|p34;546.7 [21 1/2]}
 73
     1
 44
1.0
1001
ACAD
1000
MTEXTBEGIN
1070
    73
1070
     1
1070
    44
1040
1.0
1070
    74
1070
     0
1000
MTEXTEND
  0
POINT
  5
409B
330
3D77
100
AcDbEntity
  8
Defpoints
 62
     0
100
AcDbPoint
 10
939.078706878001
 20
665.5
 30
0.0
  0
POINT
  5
409C
330
3D77
100
AcDbEntity
  8
Defpoints
 62
     0
100
AcDbPoint
 10
392.3787068779984
 20
673.5
 30
0.0
  0
POINT
  5
409D
330
3D77
100
AcDbEntity
  8
Defpoints
 62
     0
100
AcDbPoint
 10
392.3787068779984
 20
771.7225673309667
 30
0.0
  0
ENDBLK
  5
3D82
330
3D77
100
AcDbEntity
  8
0
100
AcDbBlockEnd
  0
BLOCK
  5
3D8D
330
3D83
100
AcDbEntity
  8
0
100
AcDbBlockBegin
  2
*D6
 70
     1
 10
0.0
 20
0.0
 30
0.0
  3
*D6
  1

  0
LINE
  5
409E
330
3D83
100
AcDbEntity
  8
标注
 62
     0
370
    -2
100
AcDbLine
 10
379.5
 20
675.7113800362961
 30
0.0
 11
281.2500000000001
 21
675.7113800362961
 31
0.0
  0
LINE
  5
409F
330
3D83
100
AcDbEntity
  8
标注
 62
     0
370
    -2
100
AcDbLine
 10
385.0
 20
263.0113800362942
 30
0.0
 11
281.25
 21
263.0113800362943
 31
0.0
  0
LINE
  5
40A0
330
3D83
100
AcDbEntity
  8
标注
 62
     0
370
    -2
100
AcDbLine
 10
285.0000000000001
 20
667.7113800362961
 30
0.0
 11
285.0
 21
271.0113800362943
 31
0.0
  0
SOLID
  5
40A1
330
3D83
100
AcDbEntity
  8
标注
 62
     0
100
AcDbTrace
 10
283.6666666666668
 20
667.7113800362961
 30
0.0
 11
286.3333333333334
 21
667.7113800362961
 31
0.0
 12
285.0000000000001
 22
675.7113800362961
 32
0.0
 13
285.0000000000001
 23
675.7113800362961
 33
0.0
  0
SOLID
  5
40A2
330
3D83
100
AcDbEntity
  8
标注
 62
     0
100
AcDbTrace
 10
283.6666666666667
 20
271.0113800362943
 30
0.0
 11
286.3333333333333
 21
271.0113800362943
 31
0.0
 12
285.0
 22
263.0113800362943
 32
0.0
 13
285.0
 23
263.0113800362943
 33
0.0
  0
MTEXT
  5
40A3
330
3D83
100
AcDbEntity
  8
标注
 62
     0
100
AcDbMText
 10
272.6425648021828
 20
497.350000000002
 30
0.0
 40
16.0
 41
0.0
 71
     5
 72
     1
  1
{\fArial|b0|i0|c0|p34;412.7 [16 1/4]}
 11
0.0000000000000001
 21
1.0
 31
0.0
 73
     1
 44
1.0
1001
ACAD
1000
MTEXTBEGIN
1070
    73
1070
     1
1070
    44
1040
1.0
1070
    74
1070
     0
1000
MTEXTEND
  0
POINT
  5
40A4
330
3D83
100
AcDbEntity
  8
Defpoints
 62
     0
100
AcDbPoint
 10
379.5
 20
675.7113800362961
 30
0.0
  0
POINT
  5
40A5
330
3D83
100
AcDbEntity
  8
Defpoints
 62
     0
100
AcDbPoint
 10
385.0
 20
263.0113800362942
 30
0.0
  0
POINT
  5
40A6
330
3D83
100
AcDbEntity
  8
Defpoints
 62
     0
100
AcDbPoint
 10
285.0
 20
263.0113800362943
 30
0.0
  0
ENDBLK
  5
3D8E
330
3D83
100
AcDbEntity
  8
0
100
AcDbBlockEnd
  0
BLOCK
  5
3D99
330
3D8F
100
AcDbEntity
  8
0
100
AcDbBlockBegin
  2
*D7
 70
     1
 10
0.0
 20
0.0
 30
0.0
  3
*D7
  1

  0
LINE
  5
40A7
330
3D8F
100
AcDbEntity
  8
标注
 62
     0
370
    -2
100
AcDbLine
 10
926.3787068779965
 20
663.0
 30
0.0
 11
926.3787068779965
 21
710.9725673309667
 31
0.0
  0
LINE
  5
40A8
330
3D8F
100
AcDbEntity
  8
标注
 62
     0
370
    -2
100
AcDbLine
 10
405.0787068779991
 20
673.0
 30
0.0
 11
405.0787068779991
 21
710.9725673309667
 31
0.0
  0
LINE
  5
40A9
330
3D8F
100
AcDbEntity
  8
标注
 62
     0
370
    -2
100
AcDbLine
 10
918.3787068779965
 20
707.2225673309667
 30
0.0
 11
413.0787068779991
 21
707.2225673309667
 31
0.0
  0
SOLID
  5
40AA
330
3D8F
100
AcDbEntity
  8
标注
 62
     0
100
AcDbTrace
 10
918.3787068779965
 20
708.5559006643001
 30
0.0
 11
918.3787068779965
 21
705.8892339976333
 31
0.0
 12
926.3787068779965
 22
707.2225673309667
 32
0.0
 13
926.3787068779965
 23
707.2225673309667
 33
0.0
  0
SOLID
  5
40AB
330
3D8F
100
AcDbEntity
  8
标注
 62
     0
100
AcDbTrace
 10
413.0787068779991
 20
708.5559006643001
 30
0.0
 11
413.0787068779991
 21
705.8892339976333
 31
0.0
 12
405.0787068779991
 22
707.2225673309667
 32
0.0
 13
405.0787068779991
 23
707.2225673309667
 33
0.0
  0
MTEXT
  5
40AC
330
3D8F
100
AcDbEntity
  8
标注
 62
     0
100
AcDbMText
 10
665.9950124435436
 20
719.5800025287838
 30
0.0
 40
16.0
 41
0.0
 71
     5
 72
     1
  1
{\fArial|b0|i0|c0|p34;521.3 [20 1/2]}
 73
     1
 44
1.0
1001
ACAD
1000
MTEXTBEGIN
1070
    73
1070
     1
1070
    44
1040
1.0
1070
    74
1070
     0
1000
MTEXTEND
  0
POINT
  5
40AD
330
3D8F
100
AcDbEntity
  8
Defpoints
 62
     0
100
AcDbPoint
 10
926.3787068779965
 20
663.0
 30
0.0
  0
POINT
  5
40AE
330
3D8F
100
AcDbEntity
  8
Defpoints
 62
     0
100
AcDbPoint
 10
405.0787068779991
 20
673.0
 30
0.0
  0
POINT
  5
40AF
330
3D8F
100
AcDbEntity
  8
Defpoints
 62
     0
100
AcDbPoint
 10
405.0787068779991
 20
707.2225673309667
 30
0.0
  0
ENDBLK
  5
3D9A
330
3D8F
100
AcDbEntity
  8
0
100
AcDbBlockEnd
  0
BLOCK
  5
3DA5
330
3D9B
100
AcDbEntity
  8
0
100
AcDbBlockBegin
  2
*D8
 70
     1
 10
0.0
 20
0.0
 30
0.0
  3
*D8
  1

  0
LINE
  5
40B0
330
3D9B
100
AcDbEntity
  8
标注
 62
     0
370
    -2
100
AcDbLine
 10
379.0
 20
663.0113800362941
 30
0.0
 11
340.2500000000001
 21
663.0113800362941
 31
0.0
  0
LINE
  5
40B1
330
3D9B
100
AcDbEntity
  8
标注
 62
     0
370
    -2
100
AcDbLine
 10
383.5
 20
275.711380036295
 30
0.0
 11
340.25
 21
275.711380036295
 31
0.0
  0
LINE
  5
40B2
330
3D9B
100
AcDbEntity
  8
标注
 62
     0
370
    -2
100
AcDbLine
 10
344.0000000000001
 20
655.0113800362942
 30
0.0
 11
344.0
 21
283.7113800362949
 31
0.0
  0
SOLID
  5
40B3
330
3D9B
100
AcDbEntity
  8
标注
 62
     0
100
AcDbTrace
 10
342.6666666666668
 20
655.0113800362942
 30
0.0
 11
345.3333333333334
 21
655.0113800362942
 31
0.0
 12
344.0000000000001
 22
663.0113800362941
 32
0.0
 13
344.0000000000001
 23
663.0113800362941
 33
0.0
  0
SOLID
  5
40B4
330
3D9B
100
AcDbEntity
  8
标注
 62
     0
100
AcDbTrace
 10
342.6666666666667
 20
283.7113800362949
 30
0.0
 11
345.3333333333333
 21
283.7113800362949
 31
0.0
 12
344.0
 22
275.711380036295
 32
0.0
 13
344.0
 23
275.711380036295
 33
0.0
  0
MTEXT
  5
40B5
330
3D9B
100
AcDbEntity
  8
标注
 62
     0
100
AcDbMText
 10
331.6425648021828
 20
497.5300000000003
 30
0.0
 40
16.0
 41
0.0
 71
     5
 72
     1
  1
{\fArial|b0|i0|c0|p34;387.3 [15 1/4]}
 11
0.0000000000000001
 21
1.0
 31
0.0
 73
     1
 44
1.0
1001
ACAD
1000
MTEXTBEGIN
1070
    73
1070
     1
1070
    44
1040
1.0
1070
    74
1070
     0
1000
MTEXTEND
  0
POINT
  5
40B6
330
3D9B
100
AcDbEntity
  8
Defpoints
 62
     0
100
AcDbPoint
 10
379.0
 20
663.0113800362941
 30
0.0
  0
POINT
  5
40B7
330
3D9B
100
AcDbEntity
  8
Defpoints
 62
     0
100
AcDbPoint
 10
383.5
 20
275.711380036295
 30
0.0
  0
POINT
  5
40B8
330
3D9B
100
AcDbEntity
  8
Defpoints
 62
     0
100
AcDbPoint
 10
344.0
 20
275.711380036295
 30
0.0
  0
ENDBLK
  5
3DA6
330
3D9B
100
AcDbEntity
  8
0
100
AcDbBlockEnd
  0
BLOCK
  5
465C
330
465B
100
AcDbEntity
  8
0
100
AcDbBlockBegin
  2
*D9
 70
     1
 10
0.0
 20
0.0
 30
0.0
  3
*D9
  1

  0
LINE
  5
465D
330
465B
100
AcDbEntity
  8
标注
 62
     0
370
    -2
100
AcDbLine
 10
2365.878706877996
 20
473.8613800361247
 30
0.0
 11
2365.878706877996
 21
433.9839531803229
 31
0.0
  0
LINE
  5
465E
330
465B
100
AcDbEntity
  8
标注
 62
     0
370
    -2
100
AcDbLine
 10
2372.228706877999
 20
473.8613800361174
 30
0.0
 11
2372.228706877999
 21
433.9839531803229
 31
0.0
  0
LINE
  5
465F
330
465B
100
AcDbEntity
  8
标注
 62
     0
370
    -2
100
AcDbLine
 10
2380.228706877999
 20
437.7339531803229
 30
0.0
 11
2388.228706877999
 21
437.7339531803229
 31
0.0
  0
LINE
  5
4660
330
465B
100
AcDbEntity
  8
标注
 62
     0
370
    -2
100
AcDbLine
 10
2357.878706877997
 20
437.7339531803229
 30
0.0
 11
2250.637233480998
 21
437.7339531803229
 31
0.0
  0
LINE
  5
4661
330
465B
100
AcDbEntity
  8
标注
 62
     0
370
    -2
100
AcDbLine
 10
2372.228706877999
 20
437.7339531803229
 30
0.0
 11
2365.878706877996
 21
437.7339531803229
 31
0.0
  0
SOLID
  5
4662
330
465B
100
AcDbEntity
  8
标注
 62
     0
100
AcDbTrace
 10
2380.228706877999
 20
439.0672865136562
 30
0.0
 11
2380.228706877999
 21
436.4006198469896
 31
0.0
 12
2372.228706877999
 22
437.7339531803229
 32
0.0
 13
2372.228706877999
 23
437.7339531803229
 33
0.0
  0
SOLID
  5
4663
330
465B
100
AcDbEntity
  8
标注
 62
     0
100
AcDbTrace
 10
2357.878706877997
 20
439.0672865136562
 30
0.0
 11
2357.878706877997
 21
436.4006198469896
 31
0.0
 12
2365.878706877996
 22
437.7339531803229
 32
0.0
 13
2365.878706877996
 23
437.7339531803229
 33
0.0
  0
MTEXT
  5
4664
330
465B
100
AcDbEntity
  8
标注
 62
     0
100
AcDbMText
 10
2291.878706877997
 20
450.0913883781401
 30
0.0
 40
16.0
 41
0.0
 71
     5
 72
     1
  1
{\fArial|b0|i0|c0|p34;6.4 [1/4]}
 73
     1
 44
1.0
1001
ACAD
1000
MTEXTBEGIN
1070
    73
1070
     1
1070
    44
1040
1.0
1070
    74
1070
     0
1000
MTEXTEND
  0
POINT
  5
4665
330
465B
100
AcDbEntity
  8
Defpoints
 62
     0
100
AcDbPoint
 10
2365.878706877996
 20
473.8613800361247
 30
0.0
  0
POINT
  5
4666
330
465B
100
AcDbEntity
  8
Defpoints
 62
     0
100
AcDbPoint
 10
2372.228706877999
 20
473.8613800361174
 30
0.0
  0
POINT
  5
4667
330
465B
100
AcDbEntity
  8
Defpoints
 62
     0
100
AcDbPoint
 10
2372.228706877999
 20
437.7339531803229
 30
0.0
  0
ENDBLK
  5
4668
330
465B
100
AcDbEntity
  8
0
100
AcDbBlockEnd
  0
BLOCK
  5
466B
330
466A
100
AcDbEntity
  8
0
100
AcDbBlockBegin
  2
*D10
 70
     1
 10
0.0
 20
0.0
 30
0.0
  3
*D10
  1

  0
LINE
  5
466C
330
466A
100
AcDbEntity
  8
标注
 62
     0
370
    -2
100
AcDbLine
 10
2372.228706877999
 20
473.8613800361174
 30
0.0
 11
2372.228706877999
 21
397.5846035499392
 31
0.0
  0
LINE
  5
466D
330
466A
100
AcDbEntity
  8
标注
 62
     0
370
    -2
100
AcDbLine
 10
2378.578706878001
 20
473.8613800361247
 30
0.0
 11
2378.578706878001
 21
397.5846035499392
 31
0.0
  0
LINE
  5
466E
330
466A
100
AcDbEntity
  8
标注
 62
     0
370
    -2
100
AcDbLine
 10
2386.578706878001
 20
401.3346035499392
 30
0.0
 11
2394.578706878001
 21
401.3346035499392
 31
0.0
  0
LINE
  5
466F
330
466A
100
AcDbEntity
  8
标注
 62
     0
370
    -2
100
AcDbLine
 10
2364.228706877999
 20
401.3346035499392
 30
0.0
 11
2256.987233481
 21
401.3346035499392
 31
0.0
  0
LINE
  5
4670
330
466A
100
AcDbEntity
  8
标注
 62
     0
370
    -2
100
AcDbLine
 10
2378.578706878001
 20
401.3346035499392
 30
0.0
 11
2372.228706877999
 21
401.3346035499392
 31
0.0
  0
SOLID
  5
4671
330
466A
100
AcDbEntity
  8
标注
 62
     0
100
AcDbTrace
 10
2386.578706878001
 20
402.6679368832724
 30
0.0
 11
2386.578706878001
 21
400.0012702166058
 31
0.0
 12
2378.578706878001
 22
401.3346035499392
 32
0.0
 13
2378.578706878001
 23
401.3346035499392
 33
0.0
  0
SOLID
  5
4672
330
466A
100
AcDbEntity
  8
标注
 62
     0
100
AcDbTrace
 10
2364.228706877999
 20
402.6679368832724
 30
0.0
 11
2364.228706877999
 21
400.0012702166058
 31
0.0
 12
2372.228706877999
 22
401.3346035499392
 32
0.0
 13
2372.228706877999
 23
401.3346035499392
 33
0.0
  0
MTEXT
  5
4673
330
466A
100
AcDbEntity
  8
标注
 62
     0
100
AcDbMText
 10
2298.228706877999
 20
413.6920387477563
 30
0.0
 40
16.0
 41
0.0
 71
     5
 72
     1
  1
{\fArial|b0|i0|c0|p34;6.4 [1/4]}
 73
     1
 44
1.0
1001
ACAD
1000
MTEXTBEGIN
1070
    73
1070
     1
1070
    44
1040
1.0
1070
    74
1070
     0
1000
MTEXTEND
  0
POINT
  5
4674
330
466A
100
AcDbEntity
  8
Defpoints
 62
     0
100
AcDbPoint
 10
2372.228706877999
 20
473.8613800361174
 30
0.0
  0
POINT
  5
4675
330
466A
100
AcDbEntity
  8
Defpoints
 62
     0
100
AcDbPoint
 10
2378.578706878001
 20
473.8613800361247
 30
0.0
  0
POINT
  5
4676
330
466A
100
AcDbEntity
  8
Defpoints
 62
     0
100
AcDbPoint
 10
2378.578706878001
 20
401.3346035499392
 30
0.0
  0
ENDBLK
  5
4677
330
466A
100
AcDbEntity
  8
0
100
AcDbBlockEnd
  0
BLOCK
  5
467A
330
4679
100
AcDbEntity
  8
0
100
AcDbBlockBegin
  2
*D11
 70
     1
 10
0.0
 20
0.0
 30
0.0
  3
*D11
  1

  0
LINE
  5
467B
330
4679
100
AcDbEntity
  8
标注
 62
     0
370
    -2
100
AcDbLine
 10
2372.228706877999
 20
669.0
 30
0.0
 11
2372.228706877999
 21
746.4725673309667
 31
0.0
  0
LINE
  5
467C
330
4679
100
AcDbEntity
  8
标注
 62
     0
370
    -2
100
AcDbLine
 10
1838.228706877996
 20
678.0
 30
0.0
 11
1838.228706877996
 21
746.4725673309667
 31
0.0
  0
LINE
  5
467D
330
4679
100
AcDbEntity
  8
标注
 62
     0
370
    -2
100
AcDbLine
 10
2364.228706877999
 20
742.7225673309667
 30
0.0
 11
1846.228706877996
 21
742.7225673309667
 31
0.0
  0
SOLID
  5
467E
330
4679
100
AcDbEntity
  8
标注
 62
     0
100
AcDbTrace
 10
2364.228706877999
 20
744.0559006643001
 30
0.0
 11
2364.228706877999
 21
741.3892339976333
 31
0.0
 12
2372.228706877999
 22
742.7225673309667
 32
0.0
 13
2372.228706877999
 23
742.7225673309667
 33
0.0
  0
SOLID
  5
467F
330
4679
100
AcDbEntity
  8
标注
 62
     0
100
AcDbTrace
 10
1846.228706877996
 20
744.0559006643001
 30
0.0
 11
1846.228706877996
 21
741.3892339976333
 31
0.0
 12
1838.228706877996
 22
742.7225673309667
 32
0.0
 13
1838.228706877996
 23
742.7225673309667
 33
0.0
  0
MTEXT
  5
4680
330
4679
100
AcDbEntity
  8
标注
 62
     0
100
AcDbMText
 10
2105.495194400079
 20
754.9763190362873
 30
0.0
 40
16.0
 41
0.0
 71
     5
 72
     1
  1
{\fArial|b0|i0|c0|p34;534 [21]}
 73
     1
 44
1.0
1001
ACAD
1000
MTEXTBEGIN
1070
    73
1070
     1
1070
    44
1040
1.0
1070
    74
1070
     0
1000
MTEXTEND
  0
POINT
  5
4681
330
4679
100
AcDbEntity
  8
Defpoints
 62
     0
100
AcDbPoint
 10
2372.228706877999
 20
669.0
 30
0.0
  0
POINT
  5
4682
330
4679
100
AcDbEntity
  8
Defpoints
 62
     0
100
AcDbPoint
 10
1838.228706877996
 20
678.0
 30
0.0
  0
POINT
  5
4683
330
4679
100
AcDbEntity
  8
Defpoints
 62
     0
100
AcDbPoint
 10
1838.228706877996
 20
742.7225673309667
 30
0.0
  0
ENDBLK
  5
4684
330
4679
100
AcDbEntity
  8
0
100
AcDbBlockEnd
  0
BLOCK
  5
4687
330
4686
100
AcDbEntity
  8
0
100
AcDbBlockBegin
  2
*D12
 70
     1
 10
0.0
 20
0.0
 30
0.0
  3
*D12
  1

  0
LINE
  5
4688
330
4686
100
AcDbEntity
  8
标注
 62
     0
370
    -2
100
AcDbLine
 10
1818.0
 20
673.8613800362948
 30
0.0
 11
1751.75
 21
673.8613800362948
 31
0.0
  0
LINE
  5
4689
330
4686
100
AcDbEntity
  8
标注
 62
     0
370
    -2
100
AcDbLine
 10
1823.0
 20
273.8613800362946
 30
0.0
 11
1751.75
 21
273.8613800362946
 31
0.0
  0
LINE
  5
468A
330
4686
100
AcDbEntity
  8
标注
 62
     0
370
    -2
100
AcDbLine
 10
1755.5
 20
665.8613800362948
 30
0.0
 11
1755.5
 21
281.8613800362946
 31
0.0
  0
SOLID
  5
468B
330
4686
100
AcDbEntity
  8
标注
 62
     0
100
AcDbTrace
 10
1754.166666666667
 20
665.8613800362948
 30
0.0
 11
1756.833333333333
 21
665.8613800362948
 31
0.0
 12
1755.5
 22
673.8613800362948
 32
0.0
 13
1755.5
 23
673.8613800362948
 33
0.0
  0
SOLID
  5
468C
330
4686
100
AcDbEntity
  8
标注
 62
     0
100
AcDbTrace
 10
1754.166666666667
 20
281.8613800362946
 30
0.0
 11
1756.833333333333
 21
281.8613800362946
 31
0.0
 12
1755.5
 22
273.8613800362946
 32
0.0
 13
1755.5
 23
273.8613800362946
 33
0.0
  0
MTEXT
  5
468D
330
4686
100
AcDbEntity
  8
标注
 62
     0
100
AcDbMText
 10
1743.142564802183
 20
501.8500000000008
 30
0.0
 40
16.0
 41
0.0
 71
     5
 72
     1
  1
{\fArial|b0|i0|c0|p34;400 [15 3/4]}
 11
0.0000000000000001
 21
1.0
 31
0.0
 73
     1
 44
1.0
1001
ACAD
1000
MTEXTBEGIN
1070
    73
1070
     1
1070
    44
1040
1.0
1070
    74
1070
     0
1000
MTEXTEND
  0
POINT
  5
468E
330
4686
100
AcDbEntity
  8
Defpoints
 62
     0
100
AcDbPoint
 10
1818.0
 20
673.8613800362948
 30
0.0
  0
POINT
  5
468F
330
4686
100
AcDbEntity
  8
Defpoints
 62
     0
100
AcDbPoint
 10
1823.0
 20
273.8613800362946
 30
0.0
  0
POINT
  5
4690
330
4686
100
AcDbEntity
  8
Defpoints
 62
     0
100
AcDbPoint
 10
1755.5
 20
273.8613800362946
 30
0.0
  0
ENDBLK
  5
4691
330
4686
100
AcDbEntity
  8
0
100
AcDbBlockEnd
  0
BLOCK
  5
4694
330
4693
100
AcDbEntity
  8
0
100
AcDbBlockBegin
  2
*D13
 70
     1
 10
0.0
 20
0.0
 30
0.0
  3
*D13
  1

  0
LINE
  5
4695
330
4693
100
AcDbEntity
  8
标注
 62
     0
370
    -2
100
AcDbLine
 10
2378.578706878001
 20
670.0
 30
0.0
 11
2378.578706878001
 21
779.9725673309667
 31
0.0
  0
LINE
  5
4696
330
4693
100
AcDbEntity
  8
标注
 62
     0
370
    -2
100
AcDbLine
 10
1831.878706877998
 20
678.0
 30
0.0
 11
1831.878706877998
 21
779.9725673309667
 31
0.0
  0
LINE
  5
4697
330
4693
100
AcDbEntity
  8
标注
 62
     0
370
    -2
100
AcDbLine
 10
2370.578706878001
 20
776.2225673309667
 30
0.0
 11
1839.878706877998
 21
776.2225673309667
 31
0.0
  0
SOLID
  5
4698
330
4693
100
AcDbEntity
  8
标注
 62
     0
100
AcDbTrace
 10
2370.578706878001
 20
777.5559006643001
 30
0.0
 11
2370.578706878001
 21
774.8892339976333
 31
0.0
 12
2378.578706878001
 22
776.2225673309667
 32
0.0
 13
2378.578706878001
 23
776.2225673309667
 33
0.0
  0
SOLID
  5
4699
330
4693
100
AcDbEntity
  8
标注
 62
     0
100
AcDbTrace
 10
1839.878706877998
 20
777.5559006643001
 30
0.0
 11
1839.878706877998
 21
774.8892339976333
 31
0.0
 12
1831.878706877998
 22
776.2225673309667
 32
0.0
 13
1831.878706877998
 23
776.2225673309667
 33
0.0
  0
MTEXT
  5
469A
330
4693
100
AcDbEntity
  8
标注
 62
     0
100
AcDbMText
 10
2105.495376292743
 20
788.5800025287839
 30
0.0
 40
16.0
 41
0.0
 71
     5
 72
     1
  1
{\fArial|b0|i0|c0|p34;546.7 [21 1/2]}
 73
     1
 44
1.0
1001
ACAD
1000
MTEXTBEGIN
1070
    73
1070
     1
1070
    44
1040
1.0
1070
    74
1070
     0
1000
MTEXTEND
  0
POINT
  5
469B
330
4693
100
AcDbEntity
  8
Defpoints
 62
     0
100
AcDbPoint
 10
2378.578706878001
 20
670.0
 30
0.0
  0
POINT
  5
469C
330
4693
100
AcDbEntity
  8
Defpoints
 62
     0
100
AcDbPoint
 10
1831.878706877998
 20
678.0
 30
0.0
  0
POINT
  5
469D
330
4693
100
AcDbEntity
  8
Defpoints
 62
     0
100
AcDbPoint
 10
1831.878706877998
 20
776.2225673309667
 30
0.0
  0
ENDBLK
  5
469E
330
4693
100
AcDbEntity
  8
0
100
AcDbBlockEnd
  0
BLOCK
  5
46A1
330
46A0
100
AcDbEntity
  8
0
100
AcDbBlockBegin
  2
*D14
 70
     1
 10
0.0
 20
0.0
 30
0.0
  3
*D14
  1

  0
LINE
  5
46A2
330
46A0
100
AcDbEntity
  8
标注
 62
     0
370
    -2
100
AcDbLine
 10
1819.0
 20
680.2113800362961
 30
0.0
 11
1720.75
 21
680.2113800362961
 31
0.0
  0
LINE
  5
46A3
330
46A0
100
AcDbEntity
  8
标注
 62
     0
370
    -2
100
AcDbLine
 10
1824.5
 20
267.5113800362942
 30
0.0
 11
1720.75
 21
267.5113800362943
 31
0.0
  0
LINE
  5
46A4
330
46A0
100
AcDbEntity
  8
标注
 62
     0
370
    -2
100
AcDbLine
 10
1724.5
 20
672.2113800362961
 30
0.0
 11
1724.5
 21
275.5113800362943
 31
0.0
  0
SOLID
  5
46A5
330
46A0
100
AcDbEntity
  8
标注
 62
     0
100
AcDbTrace
 10
1723.166666666667
 20
672.2113800362961
 30
0.0
 11
1725.833333333333
 21
672.2113800362961
 31
0.0
 12
1724.5
 22
680.2113800362961
 32
0.0
 13
1724.5
 23
680.2113800362961
 33
0.0
  0
SOLID
  5
46A6
330
46A0
100
AcDbEntity
  8
标注
 62
     0
100
AcDbTrace
 10
1723.166666666667
 20
275.5113800362943
 30
0.0
 11
1725.833333333333
 21
275.5113800362943
 31
0.0
 12
1724.5
 22
267.5113800362943
 32
0.0
 13
1724.5
 23
267.5113800362943
 33
0.0
  0
MTEXT
  5
46A7
330
46A0
100
AcDbEntity
  8
标注
 62
     0
100
AcDbMText
 10
1712.142564802183
 20
501.8500000000019
 30
0.0
 40
16.0
 41
0.0
 71
     5
 72
     1
  1
{\fArial|b0|i0|c0|p34;412.7 [16 1/4]}
 11
0.0000000000000001
 21
1.0
 31
0.0
 73
     1
 44
1.0
1001
ACAD
1000
MTEXTBEGIN
1070
    73
1070
     1
1070
    44
1040
1.0
1070
    74
1070
     0
1000
MTEXTEND
  0
POINT
  5
46A8
330
46A0
100
AcDbEntity
  8
Defpoints
 62
     0
100
AcDbPoint
 10
1819.0
 20
680.2113800362961
 30
0.0
  0
POINT
  5
46A9
330
46A0
100
AcDbEntity
  8
Defpoints
 62
     0
100
AcDbPoint
 10
1824.5
 20
267.5113800362942
 30
0.0
  0
POINT
  5
46AA
330
46A0
100
AcDbEntity
  8
Defpoints
 62
     0
100
AcDbPoint
 10
1724.5
 20
267.5113800362943
 30
0.0
  0
ENDBLK
  5
46AB
330
46A0
100
AcDbEntity
  8
0
100
AcDbBlockEnd
  0
BLOCK
  5
46AE
330
46AD
100
AcDbEntity
  8
0
100
AcDbBlockBegin
  2
*D15
 70
     1
 10
0.0
 20
0.0
 30
0.0
  3
*D15
  1

  0
LINE
  5
46AF
330
46AD
100
AcDbEntity
  8
标注
 62
     0
370
    -2
100
AcDbLine
 10
2365.878706877996
 20
667.4999999999999
 30
0.0
 11
2365.878706877996
 21
715.4725673309667
 31
0.0
  0
LINE
  5
46B0
330
46AD
100
AcDbEntity
  8
标注
 62
     0
370
    -2
100
AcDbLine
 10
1844.578706877999
 20
677.5
 30
0.0
 11
1844.578706877999
 21
715.4725673309667
 31
0.0
  0
LINE
  5
46B1
330
46AD
100
AcDbEntity
  8
标注
 62
     0
370
    -2
100
AcDbLine
 10
2357.878706877997
 20
711.7225673309667
 30
0.0
 11
1852.578706877999
 21
711.7225673309667
 31
0.0
  0
SOLID
  5
46B2
330
46AD
100
AcDbEntity
  8
标注
 62
     0
100
AcDbTrace
 10
2357.878706877997
 20
713.0559006643001
 30
0.0
 11
2357.878706877997
 21
710.3892339976333
 31
0.0
 12
2365.878706877996
 22
711.7225673309667
 32
0.0
 13
2365.878706877996
 23
711.7225673309667
 33
0.0
  0
SOLID
  5
46B3
330
46AD
100
AcDbEntity
  8
标注
 62
     0
100
AcDbTrace
 10
1852.578706877999
 20
713.0559006643001
 30
0.0
 11
1852.578706877999
 21
710.3892339976333
 31
0.0
 12
1844.578706877999
 22
711.7225673309667
 32
0.0
 13
1844.578706877999
 23
711.7225673309667
 33
0.0
  0
MTEXT
  5
46B4
330
46AD
100
AcDbEntity
  8
标注
 62
     0
100
AcDbMText
 10
2105.495012443544
 20
724.0800025287839
 30
0.0
 40
16.0
 41
0.0
 71
     5
 72
     1
  1
{\fArial|b0|i0|c0|p34;521.3 [20 1/2]}
 73
     1
 44
1.0
1001
ACAD
1000
MTEXTBEGIN
1070
    73
1070
     1
1070
    44
1040
1.0
1070
    74
1070
     0
1000
MTEXTEND
  0
POINT
  5
46B5
330
46AD
100
AcDbEntity
  8
Defpoints
 62
     0
100
AcDbPoint
 10
2365.878706877996
 20
667.4999999999999
 30
0.0
  0
POINT
  5
46B6
330
46AD
100
AcDbEntity
  8
Defpoints
 62
     0
100
AcDbPoint
 10
1844.578706877999
 20
677.5
 30
0.0
  0
POINT
  5
46B7
330
46AD
100
AcDbEntity
  8
Defpoints
 62
     0
100
AcDbPoint
 10
1844.578706877999
 20
711.7225673309667
 30
0.0
  0
ENDBLK
  5
46B8
330
46AD
100
AcDbEntity
  8
0
100
AcDbBlockEnd
  0
BLOCK
  5
46BB
330
46BA
100
AcDbEntity
  8
0
100
AcDbBlockBegin
  2
*D16
 70
     1
 10
0.0
 20
0.0
 30
0.0
  3
*D16
  1

  0
LINE
  5
46BC
330
46BA
100
AcDbEntity
  8
标注
 62
     0
370
    -2
100
AcDbLine
 10
1818.5
 20
667.5113800362942
 30
0.0
 11
1779.75
 21
667.5113800362942
 31
0.0
  0
LINE
  5
46BD
330
46BA
100
AcDbEntity
  8
标注
 62
     0
370
    -2
100
AcDbLine
 10
1823.0
 20
280.2113800362949
 30
0.0
 11
1779.75
 21
280.211380036295
 31
0.0
  0
LINE
  5
46BE
330
46BA
100
AcDbEntity
  8
标注
 62
     0
370
    -2
100
AcDbLine
 10
1783.5
 20
659.5113800362942
 30
0.0
 11
1783.5
 21
288.2113800362949
 31
0.0
  0
SOLID
  5
46BF
330
46BA
100
AcDbEntity
  8
标注
 62
     0
100
AcDbTrace
 10
1782.166666666667
 20
659.5113800362942
 30
0.0
 11
1784.833333333333
 21
659.5113800362942
 31
0.0
 12
1783.5
 22
667.5113800362942
 32
0.0
 13
1783.5
 23
667.5113800362942
 33
0.0
  0
SOLID
  5
46C0
330
46BA
100
AcDbEntity
  8
标注
 62
     0
100
AcDbTrace
 10
1782.166666666667
 20
288.2113800362949
 30
0.0
 11
1784.833333333333
 21
288.2113800362949
 31
0.0
 12
1783.5
 22
280.2113800362949
 32
0.0
 13
1783.5
 23
280.2113800362949
 33
0.0
  0
MTEXT
  5
46C1
330
46BA
100
AcDbEntity
  8
标注
 62
     0
100
AcDbMText
 10
1771.142564802183
 20
502.0300000000003
 30
0.0
 40
16.0
 41
0.0
 71
     5
 72
     1
  1
{\fArial|b0|i0|c0|p34;387.3 [15 1/4]}
 11
0.0000000000000001
 21
1.0
 31
0.0
 73
     1
 44
1.0
1001
ACAD
1000
MTEXTBEGIN
1070
    73
1070
     1
1070
    44
1040
1.0
1070
    74
1070
     0
1000
MTEXTEND
  0
POINT
  5
46C2
330
46BA
100
AcDbEntity
  8
Defpoints
 62
     0
100
AcDbPoint
 10
1818.5
 20
667.5113800362942
 30
0.0
  0
POINT
  5
46C3
330
46BA
100
AcDbEntity
  8
Defpoints
 62
     0
100
AcDbPoint
 10
1823.0
 20
280.2113800362949
 30
0.0
  0
POINT
  5
46C4
330
46BA
100
AcDbEntity
  8
Defpoints
 62
     0
100
AcDbPoint
 10
1783.5
 20
280.2113800362949
 30
0.0
  0
ENDBLK
  5
46C5
330
46BA
100
AcDbEntity
  8
0
100
AcDbBlockEnd
  0
BLOCK
  5
477B
330
477A
100
AcDbEntity
  8
0
100
AcDbBlockBegin
  2
*D17
 70
     1
 10
0.0
 20
0.0
 30
0.0
  3
*D17
  1

  0
POINT
  5
4771
330
477A
100
AcDbEntity
  8
Defpoints
  6
ByBlock
100
AcDbPoint
 10
2258.612981579669
 20
347.5444532617855
 30
0.0
  0
POINT
  5
4772
330
477A
100
AcDbEntity
  8
Defpoints
  6
ByBlock
100
AcDbPoint
 10
2114.337037772661
 20
347.5444532617855
 30
0.0
  0
LINE
  5
4773
330
477A
100
AcDbEntity
  8
标注
  6
ByBlock
 62
     0
370
    -2
100
AcDbLine
 10
2258.612981579669
 20
347.5444532617855
 30
0.0
 11
2258.612981579669
 21
360.5235497532122
 31
0.0
  0
LINE
  5
4774
330
477A
100
AcDbEntity
  8
标注
  6
ByBlock
 62
     0
370
    -2
100
AcDbLine
 10
2114.337037772661
 20
347.5444532617855
 30
0.0
 11
2114.337037772661
 21
360.5235497532122
 31
0.0
  0
LINE
  5
4775
330
477A
100
AcDbEntity
  8
标注
  6
ByBlock
 62
     0
370
    -2
100
AcDbLine
 10
2250.612981579669
 20
358.0235497532122
 30
0.0
 11
2122.337037772661
 21
358.0235497532122
 31
0.0
  0
SOLID
  5
4776
330
477A
100
AcDbEntity
  8
标注
  6
ByBlock
 62
     0
100
AcDbTrace
 10
2258.612981579669
 20
358.0235497532122
 30
0.0
 11
2250.612981579669
 21
359.3568830865458
 31
0.0
 12
2250.612981579669
 22
356.6902164198786
 32
0.0
 13
2250.612981579669
 23
356.6902164198786
 33
0.0
  0
SOLID
  5
4777
330
477A
100
AcDbEntity
  8
标注
  6
ByBlock
 62
     0
100
AcDbTrace
 10
2114.337037772661
 20
358.0235497532122
 30
0.0
 11
2122.337037772661
 21
359.3568830865458
 31
0.0
 12
2122.337037772661
 22
356.6902164198786
 32
0.0
 13
2122.337037772661
 23
356.6902164198786
 33
0.0
  0
MTEXT
  5
4778
330
477A
100
AcDbEntity
  8
标注
  6
ByBlock
 62
     6
100
AcDbMText
 10
2186.475009676165
 20
367.0235497532122
 30
0.0
 40
12.0
 41
0.0
 71
     5
 72
     1
  1
\A0;144.3
 73
     1
 44
1.0
1001
ACAD
1000
MTEXTBEGIN
1070
    73
1070
     1
1070
    44
1040
1.0
1070
    74
1070
     0
1000
MTEXTEND
  0
ENDBLK
  5
477C
330
477A
100
AcDbEntity
  8
0
100
AcDbBlockEnd
  0
BLOCK
  5
4789
330
4788
100
AcDbEntity
  8
0
100
AcDbBlockBegin
  2
*D18
 70
     1
 10
0.0
 20
0.0
 30
0.0
  3
*D18
  1

  0
POINT
  5
477F
330
4788
100
AcDbEntity
  8
Defpoints
  6
ByBlock
100
AcDbPoint
 10
2114.337037772661
 20
347.5444532617855
 30
0.0
  0
POINT
  5
4780
330
4788
100
AcDbEntity
  8
Defpoints
  6
ByBlock
100
AcDbPoint
 10
2114.337037772661
 20
307.5133438532122
 30
0.0
  0
LINE
  5
4781
330
4788
100
AcDbEntity
  8
标注
  6
ByBlock
 62
     0
370
    -2
100
AcDbLine
 10
2114.337037772661
 20
347.5444532617855
 30
0.0
 11
2098.337183041664
 21
347.5444532617855
 31
0.0
  0
LINE
  5
4782
330
4788
100
AcDbEntity
  8
标注
  6
ByBlock
 62
     0
370
    -2
100
AcDbLine
 10
2114.337037772661
 20
307.5133438532122
 30
0.0
 11
2098.337183041664
 21
307.5133438532122
 31
0.0
  0
LINE
  5
4783
330
4788
100
AcDbEntity
  8
标注
  6
ByBlock
 62
     0
370
    -2
100
AcDbLine
 10
2100.837183041663
 20
339.5444532617855
 30
0.0
 11
2100.837183041663
 21
315.5133438532122
 31
0.0
  0
SOLID
  5
4784
330
4788
100
AcDbEntity
  8
标注
  6
ByBlock
 62
     0
100
AcDbTrace
 10
2100.837183041663
 20
347.5444532617855
 30
0.0
 11
2099.50384970833
 21
339.5444532617855
 31
0.0
 12
2102.170516374997
 22
339.5444532617855
 32
0.0
 13
2102.170516374997
 23
339.5444532617855
 33
0.0
  0
SOLID
  5
4785
330
4788
100
AcDbEntity
  8
标注
  6
ByBlock
 62
     0
100
AcDbTrace
 10
2100.837183041663
 20
307.5133438532122
 30
0.0
 11
2099.50384970833
 21
315.5133438532122
 31
0.0
 12
2102.170516374997
 22
315.5133438532122
 32
0.0
 13
2102.170516374997
 23
315.5133438532122
 33
0.0
  0
MTEXT
  5
4786
330
4788
100
AcDbEntity
  8
标注
  6
ByBlock
 62
     6
100
AcDbMText
 10
2091.837183041663
 20
327.5288985574988
 30
0.0
 40
12.0
 41
0.0
 71
     5
 72
     1
  1
\A0;40
 11
0.0
 21
1.0
 31
0.0
 73
     1
 44
1.0
1001
ACAD
1000
MTEXTBEGIN
1070
    73
1070
     1
1070
    44
1040
1.0
1070
    74
1070
     0
1000
MTEXTEND
  0
ENDBLK
  5
478A
330
4788
100
AcDbEntity
  8
0
100
AcDbBlockEnd
  0
BLOCK
  5
47CF
330
47CE
100
AcDbEntity
  8
0
100
AcDbBlockBegin
  2
*D19
 70
     1
 10
0.0
 20
0.0
 30
0.0
  3
*D19
  1

  0
POINT
  5
47C5
330
47CE
100
AcDbEntity
  8
Defpoints
  6
ByBlock
100
AcDbPoint
 10
2114.337037772661
 20
307.5133438532122
 30
0.0
  0
POINT
  5
47C6
330
47CE
100
AcDbEntity
  8
Defpoints
  6
ByBlock
100
AcDbPoint
 10
2105.228714087648
 20
267.5113800362942
 30
0.0
  0
LINE
  5
47C7
330
47CE
100
AcDbEntity
  8
标注
  6
ByBlock
 62
     0
370
    -2
100
AcDbLine
 10
2114.337037772661
 20
307.5133438532122
 30
0.0
 11
2098.337183041664
 21
307.5133438532122
 31
0.0
  0
LINE
  5
47C8
330
47CE
100
AcDbEntity
  8
标注
  6
ByBlock
 62
     0
370
    -2
100
AcDbLine
 10
2105.228714087648
 20
267.5113800362942
 30
0.0
 11
2098.337183041664
 21
267.5113800362942
 31
0.0
  0
LINE
  5
47C9
330
47CE
100
AcDbEntity
  8
标注
  6
ByBlock
 62
     0
370
    -2
100
AcDbLine
 10
2100.837183041663
 20
299.5133438532122
 30
0.0
 11
2100.837183041663
 21
275.5113800362942
 31
0.0
  0
SOLID
  5
47CA
330
47CE
100
AcDbEntity
  8
标注
  6
ByBlock
 62
     0
100
AcDbTrace
 10
2100.837183041663
 20
307.5133438532122
 30
0.0
 11
2099.50384970833
 21
299.5133438532122
 31
0.0
 12
2102.170516374997
 22
299.5133438532122
 32
0.0
 13
2102.170516374997
 23
299.5133438532122
 33
0.0
  0
SOLID
  5
47CB
330
47CE
100
AcDbEntity
  8
标注
  6
ByBlock
 62
     0
100
AcDbTrace
 10
2100.837183041663
 20
267.5113800362942
 30
0.0
 11
2099.50384970833
 21
275.5113800362942
 31
0.0
 12
2102.170516374997
 22
275.5113800362942
 32
0.0
 13
2102.170516374997
 23
275.5113800362942
 33
0.0
  0
MTEXT
  5
47CC
330
47CE
100
AcDbEntity
  8
标注
  6
ByBlock
 62
     6
100
AcDbMText
 10
2091.837183041663
 20
287.5123619447533
 30
0.0
 40
12.0
 41
0.0
 71
     5
 72
     1
  1
\A0;40
 11
0.0000000000000001
 21
1.0
 31
0.0
 73
     1
 44
1.0
1001
ACAD
1000
MTEXTBEGIN
1070
    73
1070
     1
1070
    44
1040
1.0
1070
    74
1070
     0
1000
MTEXTEND
  0
ENDBLK
  5
47D0
330
47CE
100
AcDbEntity
  8
0
100
AcDbBlockEnd
  0
BLOCK
  5
47E9
330
47E8
100
AcDbEntity
  8
0
100
AcDbBlockBegin
  2
*D20
 70
     1
 10
0.0
 20
0.0
 30
0.0
  3
*D20
  1

  0
POINT
  5
47DF
330
47E8
100
AcDbEntity
  8
Defpoints
  6
ByBlock
100
AcDbPoint
 10
2378.578706878001
 20
473.8613800361246
 30
0.0
  0
POINT
  5
47E0
330
47E8
100
AcDbEntity
  8
Defpoints
  6
ByBlock
100
AcDbPoint
 10
2258.612981579669
 20
347.5444532617855
 30
0.0
  0
LINE
  5
47E1
330
47E8
100
AcDbEntity
  8
标注
  6
ByBlock
 62
     0
370
    -2
100
AcDbLine
 10
2378.578706878001
 20
473.8613800361246
 30
0.0
 11
2378.578706878001
 21
355.5235497532122
 31
0.0
  0
LINE
  5
47E2
330
47E8
100
AcDbEntity
  8
标注
  6
ByBlock
 62
     0
370
    -2
100
AcDbLine
 10
2258.612981579669
 20
347.5444532617855
 30
0.0
 11
2258.612981579669
 21
360.5235497532122
 31
0.0
  0
LINE
  5
47E3
330
47E8
100
AcDbEntity
  8
标注
  6
ByBlock
 62
     0
370
    -2
100
AcDbLine
 10
2370.578706878001
 20
358.0235497532122
 30
0.0
 11
2266.612981579669
 21
358.0235497532122
 31
0.0
  0
SOLID
  5
47E4
330
47E8
100
AcDbEntity
  8
标注
  6
ByBlock
 62
     0
100
AcDbTrace
 10
2378.578706878001
 20
358.0235497532122
 30
0.0
 11
2370.578706878001
 21
359.3568830865458
 31
0.0
 12
2370.578706878001
 22
356.6902164198786
 32
0.0
 13
2370.578706878001
 23
356.6902164198786
 33
0.0
  0
SOLID
  5
47E5
330
47E8
100
AcDbEntity
  8
标注
  6
ByBlock
 62
     0
100
AcDbTrace
 10
2258.612981579669
 20
358.0235497532122
 30
0.0
 11
2266.612981579669
 21
359.3568830865458
 31
0.0
 12
2266.612981579669
 22
356.6902164198786
 32
0.0
 13
2266.612981579669
 23
356.6902164198786
 33
0.0
  0
MTEXT
  5
47E6
330
47E8
100
AcDbEntity
  8
标注
  6
ByBlock
 62
     6
100
AcDbMText
 10
2318.595844228835
 20
367.0235497532122
 30
0.0
 40
12.0
 41
0.0
 71
     5
 72
     1
  1
\A0;120
 73
     1
 44
1.0
1001
ACAD
1000
MTEXTBEGIN
1070
    73
1070
     1
1070
    44
1040
1.0
1070
    74
1070
     0
1000
MTEXTEND
  0
ENDBLK
  5
47EA
330
47E8
100
AcDbEntity
  8
0
100
AcDbBlockEnd
  0
BLOCK
  5
499A
330
4999
100
AcDbEntity
  8
0
100
AcDbBlockBegin
  2
WMF0
 70
     0
 10
0.0
 20
0.0
 30
0.0
  3
WMF0
  1

  0
LWPOLYLINE
  5
498B
330
4999
100
AcDbEntity
  8
0
 62
     7
370
     0
100
AcDbPolyline
 90
       75
 70
     1
 43
0.0
 10
443.938630618862
 20
2020.315222057084
 10
453.9792458509528
 20
2020.315222057084
 10
459.7167402692901
 20
2005.97148601124
 10
459.7167402692901
 20
2005.97148601124
 10
486.9698387563933
 20
1944.293421014112
 10
503.4651352091136
 20
1907.716894097211
 10
509.9198164297432
 20
1894.807531655951
 10
513.5057504412039
 20
1886.918476830737
 10
513.5057504412039
 20
1886.918476830737
 10
515.6573108480805
 20
1884.766916423861
 10
517.8088712549572
 20
1883.332542819276
 10
519.9604316618338
 20
1881.898169214692
 10
522.8291788710023
 20
1881.898169214692
 10
522.8291788710023
 20
1881.898169214692
 10
524.980739277879
 20
1881.1809824124
 10
527.1322996847556
 20
1881.1809824124
 10
527.8494864870475
 20
1880.463795610108
 10
527.8494864870475
 20
1879.029422005523
 10
527.8494864870475
 20
1876.160674796355
 10
527.8494864870475
 20
1876.160674796355
 10
527.8494864870475
 20
1874.72630119177
 10
527.1322996847556
 20
1874.009114389478
 10
524.980739277879
 20
1873.291927587186
 10
468.3229818967965
 20
1873.291927587186
 10
468.3229818967965
 20
1873.291927587186
 10
467.6057950945041
 20
1874.009114389478
 10
466.1714214899197
 20
1876.160674796355
 10
466.8886082922121
 20
1879.746608807815
 10
466.8886082922121
 20
1879.746608807815
 10
467.6057950945041
 20
1881.1809824124
 10
468.3229818967965
 20
1881.898169214692
 10
474.777663117426
 20
1881.898169214692
 10
474.777663117426
 20
1881.898169214692
 10
479.0807839311792
 20
1881.898169214692
 10
482.6667179426401
 20
1883.332542819276
 10
484.8182783495166
 20
1885.484103226153
 10
485.5354651518085
 20
1889.070037237614
 10
485.5354651518085
 20
1889.070037237614
 10
484.8182783495166
 20
1892.655971249075
 10
482.6667179426401
 20
1898.393465667412
 10
474.0604763151337
 20
1919.909069736178
 10
410.9480377134216
 20
1919.909069736178
 10
400.9074224813311
 20
1894.807531655951
 10
400.9074224813311
 20
1894.807531655951
 10
400.1902356790387
 20
1891.938784446782
 10
399.4730488767467
 20
1889.070037237614
 10
399.4730488767467
 20
1889.070037237614
 10
400.1902356790387
 20
1886.201290028445
 10
402.3417960859155
 20
1883.332542819276
 10
405.2105432950843
 20
1881.898169214692
 10
409.513664108837
 20
1881.898169214692
 10
415.2511585271748
 20
1881.898169214692
 10
415.2511585271748
 20
1881.898169214692
 10
416.6855321317592
 20
1881.1809824124
 10
417.402718934051
 20
1879.029422005523
 10
417.402718934051
 20
1875.443487994061
 10
417.402718934051
 20
1875.443487994061
 10
416.6855321317592
 20
1874.009114389478
 10
415.968345329467
 20
1873.291927587186
 10
368.6340163781828
 20
1873.291927587186
 10
368.6340163781828
 20
1873.291927587186
 10
367.1996427735985
 20
1874.009114389478
 10
366.4824559713063
 20
1876.160674796355
 10
366.4824559713063
 20
1879.746608807815
 10
366.4824559713063
 20
1879.746608807815
 10
367.1996427735985
 20
1881.1809824124
 10
368.6340163781828
 20
1881.898169214692
 10
368.6340163781828
 20
1881.898169214692
 10
373.6543239942282
 20
1881.898169214692
 10
375.8058844011046
 20
1882.615356016984
 10
377.9574448079813
 20
1884.049729621569
 10
380.1090052148578
 20
1886.201290028445
 10
382.2605656217344
 20
1889.787224039906
 10
388.715246842364
 20
1901.262212876581
 10
443.938630618862
 20
2020.315222057084
  0
LWPOLYLINE
  5
498C
330
4999
100
AcDbEntity
  8
0
 62
     7
370
     0
100
AcDbPolyline
 90
        4
 70
     1
 43
0.0
 10
443.22144381657
 20
1993.062123569981
 10
414.5339717248825
 20
1928.515311363684
 10
470.474542303673
 20
1928.515311363684
 10
443.22144381657
 20
1993.062123569981
  0
LWPOLYLINE
  5
498D
330
4999
100
AcDbEntity
  8
0
 62
     7
370
     0
100
AcDbPolyline
 90
      104
 70
     1
 43
0.0
 10
703.5602530486328
 20
2011.708980429578
 10
703.5602530486328
 20
2011.708980429578
 10
702.8430662463407
 20
2010.274606824993
 10
702.1258794440488
 20
2010.274606824993
 10
697.8227586302955
 20
2009.557420022701
 10
697.8227586302955
 20
2009.557420022701
 10
692.8024510142502
 20
2009.557420022701
 10
688.499330200497
 20
2009.557420022701
 10
685.6305829913281
 20
2008.123046418117
 10
683.4790225844519
 20
2006.688672813532
 10
682.7618357821595
 20
2003.819925604364
 10
682.0446489798674
 20
1999.51680479061
 10
682.0446489798674
 20
1985.173068744767
 10
682.0446489798674
 20
1874.009114389478
 10
682.0446489798674
 20
1874.009114389478
 10
681.327462177575
 20
1872.574740784894
 10
679.8930885729909
 20
1871.857553982601
 10
671.2868469454847
 20
1871.857553982601
 10
655.5087372950564
 20
1894.090344853659
 10
592.3962986933442
 20
1975.849640314968
 10
592.3962986933442
 20
1975.849640314968
 10
583.7900570658381
 20
1986.607442349351
 10
575.1838154383317
 20
1995.213683976857
 10
575.1838154383317
 20
1912.020014910964
 10
575.1838154383317
 20
1912.020014910964
 10
575.9010022406243
 20
1894.807531655951
 10
576.6181890429162
 20
1889.787224039906
 10
578.0525626475007
 20
1885.484103226153
 10
580.204123054377
 20
1883.332542819276
 10
583.0728702635457
 20
1881.898169214692
 10
587.375991077299
 20
1881.1809824124
 10
593.1134854956366
 20
1881.1809824124
 10
593.1134854956366
 20
1881.1809824124
 10
598.1337931116819
 20
1881.1809824124
 10
598.850979913974
 20
1880.463795610108
 10
598.850979913974
 20
1879.029422005523
 10
598.850979913974
 20
1874.72630119177
 10
598.850979913974
 20
1874.72630119177
 10
598.850979913974
 20
1874.009114389478
 10
597.4166063093897
 20
1873.291927587186
 10
542.9104093351837
 20
1873.291927587186
 10
542.9104093351837
 20
1873.291927587186
 10
541.4760357305993
 20
1873.291927587186
 10
541.4760357305993
 20
1874.009114389478
 10
540.7588489283069
 20
1875.443487994061
 10
540.7588489283069
 20
1875.443487994061
 10
540.7588489283069
 20
1879.029422005523
 10
541.4760357305993
 20
1880.463795610108
 10
542.1932225328913
 20
1881.1809824124
 10
544.344782939768
 20
1881.1809824124
 10
544.344782939768
 20
1881.1809824124
 10
550.0822773581054
 20
1881.1809824124
 10
554.3853981718585
 20
1881.898169214692
 10
557.9713321833194
 20
1882.615356016984
 10
560.1228925901961
 20
1884.049729621569
 10
562.2744529970724
 20
1886.918476830737
 10
562.9916397993647
 20
1890.504410842198
 10
563.708826601657
 20
1895.524718458243
 10
563.708826601657
 20
1901.979399678873
 10
563.708826601657
 20
1985.173068744767
 10
563.708826601657
 20
1985.173068744767
 10
563.708826601657
 20
1998.799617988318
 10
562.9916397993647
 20
2003.102738802072
 10
561.5572661947805
 20
2005.97148601124
 10
559.4057057879039
 20
2008.123046418117
 10
556.5369585787351
 20
2008.840233220409
 10
552.2338377649821
 20
2009.557420022701
 10
546.4963433466444
 20
2009.557420022701
 10
546.4963433466444
 20
2009.557420022701
 10
542.1932225328913
 20
2010.274606824993
 10
541.4760357305993
 20
2010.991793627285
 10
540.7588489283069
 20
2011.708980429578
 10
540.7588489283069
 20
2011.708980429578
 10
541.4760357305993
 20
2016.729288045623
 10
541.4760357305993
 20
2017.446474847915
 10
542.1932225328913
 20
2017.446474847915
 10
587.375991077299
 20
2017.446474847915
 10
587.375991077299
 20
2017.446474847915
 10
600.2853535185582
 20
1999.51680479061
 10
651.9228032835957
 20
1932.101245375145
 10
651.9228032835957
 20
1932.101245375145
 10
669.8524733409002
 20
1909.868454504087
 10
669.8524733409002
 20
1985.173068744767
 10
669.8524733409002
 20
1985.173068744767
 10
669.8524733409002
 20
1999.51680479061
 10
668.4180997363157
 20
2003.819925604364
 10
666.9837261317316
 20
2006.688672813532
 10
664.8321657248549
 20
2008.123046418117
 10
661.2462317133941
 20
2009.557420022701
 10
656.943110899641
 20
2009.557420022701
 10
651.2056164813035
 20
2009.557420022701
 10
651.2056164813035
 20
2009.557420022701
 10
646.185308865258
 20
2010.274606824993
 10
645.468122062966
 20
2010.991793627285
 10
645.468122062966
 20
2011.708980429578
 10
645.468122062966
 20
2016.01210124333
 10
645.468122062966
 20
2016.01210124333
 10
646.185308865258
 20
2017.446474847915
 10
648.3368692721348
 20
2017.446474847915
 10
701.4086926417563
 20
2017.446474847915
 10
701.4086926417563
 20
2017.446474847915
 10
702.8430662463407
 20
2016.729288045623
 10
703.5602530486328
 20
2016.01210124333
 10
703.5602530486328
 20
2011.708980429578
  0
LWPOLYLINE
  5
498E
330
4999
100
AcDbEntity
  8
0
 62
     7
370
     0
100
AcDbPolyline
 90
      122
 70
     1
 43
0.0
 10
831.2195038566416
 20
1971.546519501215
 10
831.2195038566416
 20
1971.546519501215
 10
829.7851302520575
 20
1972.263706303508
 10
829.0679434497651
 20
1972.980893105799
 10
828.350756647473
 20
1976.566827117261
 10
828.350756647473
 20
1976.566827117261
 10
826.9163830428889
 20
1983.738695140182
 10
824.04763583372
 20
1990.910563163104
 10
820.461701822259
 20
1996.648057581441
 10
815.4413942062134
 20
2001.668365197487
 10
809.7038997878765
 20
2005.97148601124
 10
803.9664053695387
 20
2009.557420022701
 10
797.5117241489091
 20
2010.991793627285
 10
790.3398561259872
 20
2011.708980429578
 10
790.3398561259872
 20
2011.708980429578
 10
785.319548509942
 20
2011.708980429578
 10
780.2992408938968
 20
2010.991793627285
 10
775.9961200801434
 20
2009.557420022701
 10
770.9758124640982
 20
2007.405859615825
 10
766.6726916503453
 20
2005.254299208948
 10
763.0867576388842
 20
2001.668365197487
 10
759.5008236274233
 20
1998.799617988318
 10
755.9148896159626
 20
1994.496497174565
 10
753.0461424067937
 20
1990.193376360812
 10
750.1773951976248
 20
1985.173068744767
 10
748.0258347907485
 20
1980.152761128722
 10
745.8742743838719
 20
1975.132453512676
 10
744.4399007792875
 20
1969.394959094339
 10
743.7227139769952
 20
1962.940277873709
 10
743.005527174703
 20
1956.485596653079
 10
742.2883403724107
 20
1950.030915432449
 10
742.2883403724107
 20
1950.030915432449
 10
743.005527174703
 20
1942.859047409528
 10
743.7227139769952
 20
1936.404366188898
 10
744.4399007792875
 20
1929.949684968268
 10
746.5914611861641
 20
1924.212190549931
 10
748.7430215930403
 20
1917.757509329301
 10
750.8945819999171
 20
1912.737201713255
 10
753.7633292090859
 20
1907.716894097211
 10
756.6320764182546
 20
1902.696586481164
 10
760.2180104297156
 20
1899.110652469704
 10
763.8039444411766
 20
1894.807531655951
 10
768.1070652549292
 20
1891.938784446782
 10
772.4101860686827
 20
1889.070037237614
 10
777.4304936847279
 20
1886.918476830737
 10
781.7336144984807
 20
1885.484103226153
 10
787.4711089168187
 20
1884.049729621569
 10
792.4914165328639
 20
1884.049729621569
 10
792.4914165328639
 20
1884.049729621569
 10
797.5117241489091
 20
1884.049729621569
 10
802.5320317649542
 20
1885.484103226153
 10
806.8351525787074
 20
1886.918476830737
 10
811.8554601947527
 20
1888.352850435322
 10
816.1585810085059
 20
1890.504410842198
 10
820.461701822259
 20
1893.373158051367
 10
824.04763583372
 20
1896.959092062828
 10
827.6335698451806
 20
1900.545026074289
 10
827.6335698451806
 20
1900.545026074289
 10
829.7851302520575
 20
1903.413773283457
 10
831.2195038566416
 20
1904.13096008575
 10
831.936690658934
 20
1903.413773283457
 10
836.2398114726872
 20
1900.545026074289
 10
836.2398114726872
 20
1900.545026074289
 10
836.9569982749792
 20
1900.545026074289
 10
836.9569982749792
 20
1899.110652469704
 10
836.9569982749792
 20
1899.110652469704
 10
836.2398114726872
 20
1896.959092062828
 10
834.0882510658106
 20
1893.373158051367
 10
829.7851302520575
 20
1888.352850435322
 10
824.7648226360123
 20
1883.332542819276
 10
816.8757678107981
 20
1879.029422005523
 10
812.572646997045
 20
1876.877861598647
 10
808.269526183292
 20
1874.72630119177
 10
802.5320317649542
 20
1872.574740784894
 10
796.7945373466168
 20
1871.857553982601
 10
790.3398561259872
 20
1871.140367180309
 10
783.8851749053576
 20
1870.423180378017
 10
783.8851749053576
 20
1870.423180378017
 10
776.7133068824358
 20
1871.140367180309
 10
770.2586256618062
 20
1871.857553982601
 10
763.8039444411766
 20
1873.291927587186
 10
757.3492632205467
 20
1876.160674796355
 10
751.6117688022093
 20
1879.029422005523
 10
746.5914611861641
 20
1882.615356016984
 10
741.5711535701185
 20
1886.201290028445
 10
736.5508459540732
 20
1891.221597644491
 10
732.2477251403204
 20
1896.241905260536
 10
728.6617911288592
 20
1901.262212876581
 10
725.7930439196907
 20
1907.716894097211
 10
722.924296710522
 20
1914.17157531784
 10
720.7727363036451
 20
1920.62625653847
 10
719.3383626990611
 20
1927.798124561392
 10
718.6211758967687
 20
1935.687179386606
 10
717.9039890944767
 20
1942.859047409528
 10
717.9039890944767
 20
1942.859047409528
 10
718.6211758967687
 20
1951.465289037034
 10
720.0555495013531
 20
1960.07153066454
 10
721.4899231059376
 20
1967.960585489754
 10
723.6414835128141
 20
1975.132453512676
 10
727.2274175242751
 20
1981.587134733306
 10
730.8133515357359
 20
1988.041815953935
 10
735.1164723494887
 20
1994.496497174565
 10
740.1367799655344
 20
1999.51680479061
 10
745.8742743838719
 20
2004.537112406656
 10
751.6117688022093
 20
2008.840233220409
 10
758.066450022839
 20
2012.42616723187
 10
765.2383180457608
 20
2015.294914441039
 10
773.1273728709749
 20
2017.446474847915
 10
781.0164276961886
 20
2019.598035254792
 10
789.622669323695
 20
2020.315222057084
 10
798.2289109512013
 20
2021.032408859376
 10
798.2289109512013
 20
2021.032408859376
 10
807.5523393809998
 20
2020.315222057084
 10
816.1585810085059
 20
2018.8808484525
 10
825.4820094383044
 20
2016.729288045623
 10
835.5226246703947
 20
2013.143354034162
 10
836.9569982749792
 20
1980.869947931014
 10
836.9569982749792
 20
1980.869947931014
 10
836.9569982749792
 20
1972.980893105799
 10
836.2398114726872
 20
1972.263706303508
 10
835.5226246703947
 20
1971.546519501215
 10
831.2195038566416
 20
1971.546519501215
  0
LWPOLYLINE
  5
498F
330
4999
100
AcDbEntity
  8
0
 62
     7
370
     0
100
AcDbPolyline
 90
       70
 70
     1
 43
0.0
 10
998.3240287907207
 20
1946.444981420989
 10
998.3240287907207
 20
1946.444981420989
 10
997.6068419884287
 20
1938.555926595775
 10
996.8896551861362
 20
1930.66687177056
 10
994.7380947792597
 20
1922.777816945347
 10
992.5865343723835
 20
1916.323135724717
 10
989.7177871632147
 20
1909.151267701795
 10
986.1318531517538
 20
1902.696586481164
 10
981.8287323380003
 20
1896.959092062828
 10
977.5256115242475
 20
1891.938784446782
 10
972.5053039082022
 20
1886.918476830737
 10
966.7678094898647
 20
1882.615356016984
 10
961.0303150715273
 20
1879.029422005523
 10
954.5756338508978
 20
1876.160674796355
 10
947.4037658279755
 20
1874.009114389478
 10
940.2318978050541
 20
1871.857553982601
 10
933.060029782132
 20
1871.140367180309
 10
925.170974956918
 20
1870.423180378017
 10
925.170974956918
 20
1870.423180378017
 10
917.2819201317039
 20
1871.140367180309
 10
910.8272389110743
 20
1871.857553982601
 10
903.6553708881523
 20
1873.291927587186
 10
897.2006896675226
 20
1876.160674796355
 10
891.4631952491854
 20
1879.029422005523
 10
885.7257008308479
 20
1881.898169214692
 10
879.98820641251
 20
1886.201290028445
 10
875.6850855987572
 20
1890.504410842198
 10
871.3819647850042
 20
1895.524718458243
 10
867.0788439712511
 20
1901.262212876581
 10
864.2100967620821
 20
1906.999707294918
 10
861.3413495529135
 20
1913.454388515548
 10
859.1897891460366
 20
1919.909069736178
 10
857.7554155414526
 20
1927.0809377591
 10
856.3210419368683
 20
1934.969992584314
 10
856.3210419368683
 20
1942.141860607236
 10
856.3210419368683
 20
1942.141860607236
 10
856.3210419368683
 20
1950.748102234742
 10
857.7554155414526
 20
1958.637157059956
 10
859.1897891460366
 20
1966.52621188517
 10
861.3413495529135
 20
1973.698079908092
 10
864.2100967620821
 20
1980.869947931014
 10
867.7960307735432
 20
1987.324629151643
 10
872.0991515872963
 20
1993.062123569981
 10
877.1194592033417
 20
1998.799617988318
 10
882.1397668193869
 20
2003.819925604364
 10
887.8772612377243
 20
2008.123046418117
 10
893.6147556560619
 20
2011.708980429578
 10
900.0694368766916
 20
2014.577727638746
 10
907.2413048996134
 20
2017.446474847915
 10
914.4131729225353
 20
2018.8808484525
 10
922.302227747749
 20
2020.315222057084
 10
930.1912825729631
 20
2020.315222057084
 10
930.1912825729631
 20
2020.315222057084
 10
937.3631505958853
 20
2020.315222057084
 10
944.535018618807
 20
2018.8808484525
 10
951.7068866417288
 20
2017.446474847915
 10
958.1615678623585
 20
2015.294914441039
 10
963.8990622806959
 20
2012.42616723187
 10
969.6365566990337
 20
2008.840233220409
 10
974.6568643150787
 20
2004.537112406656
 10
979.6771719311239
 20
2000.233991592903
 10
983.980292744877
 20
1995.213683976857
 10
987.5662267563381
 20
1989.476189558519
 10
990.4349739655067
 20
1983.738695140182
 10
993.3037211746755
 20
1976.566827117261
 10
995.4552815815517
 20
1970.112145896631
 10
996.8896551861362
 20
1962.223091071417
 10
997.6068419884287
 20
1954.334036246203
 10
998.3240287907207
 20
1946.444981420989
 10
998.3240287907207
 20
1946.444981420989
  0
LWPOLYLINE
  5
4990
330
4999
100
AcDbEntity
  8
0
 62
     7
370
     0
100
AcDbPolyline
 90
       68
 70
     1
 43
0.0
 10
881.4225800170945
 20
1945.727794618697
 10
881.4225800170945
 20
1945.727794618697
 10
881.4225800170945
 20
1938.555926595775
 10
882.1397668193869
 20
1931.384058572852
 10
883.5741404239714
 20
1924.929377352223
 10
885.0085140285557
 20
1918.474696131594
 10
886.44288763314
 20
1912.737201713255
 10
888.5944480400167
 20
1906.999707294918
 10
891.4631952491854
 20
1901.979399678873
 10
894.331942458354
 20
1896.959092062828
 10
897.2006896675226
 20
1893.373158051367
 10
900.7866236789835
 20
1889.787224039906
 10
905.0897444927368
 20
1886.201290028445
 10
908.6756785041977
 20
1883.332542819276
 10
912.9787993179505
 20
1881.898169214692
 10
917.999106933996
 20
1879.746608807815
 10
922.302227747749
 20
1879.029422005523
 10
927.3225353637942
 20
1879.029422005523
 10
927.3225353637942
 20
1879.029422005523
 10
932.3428429798395
 20
1879.029422005523
 10
937.3631505958853
 20
1879.746608807815
 10
941.6662714096382
 20
1881.1809824124
 10
945.9693922233913
 20
1883.332542819276
 10
950.2725130371443
 20
1886.201290028445
 10
953.8584470486052
 20
1889.070037237614
 10
957.4443810600664
 20
1892.655971249075
 10
960.3131282692347
 20
1896.959092062828
 10
963.1818754784037
 20
1901.262212876581
 10
966.0506226875723
 20
1906.282520492626
 10
968.202183094449
 20
1912.020014910964
 10
969.6365566990337
 20
1917.757509329301
 10
971.0709303036175
 20
1924.212190549931
 10
971.7881171059101
 20
1930.66687177056
 10
972.5053039082022
 20
1945.010607816404
 10
972.5053039082022
 20
1945.010607816404
 10
971.7881171059101
 20
1959.354343862248
 10
971.0709303036175
 20
1965.809025082878
 10
969.6365566990337
 20
1972.263706303508
 10
967.4849962921566
 20
1978.001200721845
 10
966.0506226875723
 20
1983.738695140182
 10
963.1818754784037
 20
1988.759002756227
 10
960.3131282692347
 20
1993.779310372273
 10
957.4443810600664
 20
1998.082431186026
 10
953.8584470486052
 20
2001.668365197487
 10
950.2725130371443
 20
2004.537112406656
 10
946.6865790256836
 20
2007.405859615825
 10
942.3834582119303
 20
2009.557420022701
 10
938.0803373981771
 20
2010.991793627285
 10
933.060029782132
 20
2012.42616723187
 10
928.0397221660866
 20
2012.42616723187
 10
928.0397221660866
 20
2012.42616723187
 10
923.0194145500414
 20
2012.42616723187
 10
917.999106933996
 20
2010.991793627285
 10
912.9787993179505
 20
2009.557420022701
 10
908.6756785041977
 20
2008.123046418117
 10
904.3725576904446
 20
2005.254299208948
 10
900.7866236789835
 20
2002.385551999779
 10
897.2006896675226
 20
1998.799617988318
 10
894.331942458354
 20
1994.496497174565
 10
891.4631952491854
 20
1990.193376360812
 10
888.5944480400167
 20
1985.173068744767
 10
886.44288763314
 20
1979.435574326429
 10
885.0085140285557
 20
1973.698079908092
 10
883.5741404239714
 20
1967.243398687462
 10
882.1397668193869
 20
1960.07153066454
 10
881.4225800170945
 20
1952.899662641618
 10
881.4225800170945
 20
1945.727794618697
 10
881.4225800170945
 20
1945.727794618697
  0
LWPOLYLINE
  5
4991
330
4999
100
AcDbEntity
  8
0
 62
     7
370
     0
100
AcDbPolyline
 90
      104
 70
     1
 43
0.0
 10
1176.903542561475
 20
2011.708980429578
 10
1176.903542561475
 20
2011.708980429578
 10
1176.186355759182
 20
2010.274606824993
 10
1175.46916895689
 20
2010.274606824993
 10
1171.166048143137
 20
2009.557420022701
 10
1171.166048143137
 20
2009.557420022701
 10
1166.145740527092
 20
2009.557420022701
 10
1161.842619713339
 20
2009.557420022701
 10
1158.97387250417
 20
2008.123046418117
 10
1156.822312097293
 20
2006.688672813532
 10
1156.105125295001
 20
2003.819925604364
 10
1155.387938492709
 20
1999.51680479061
 10
1155.387938492709
 20
1985.173068744767
 10
1155.387938492709
 20
1874.009114389478
 10
1155.387938492709
 20
1874.009114389478
 10
1154.670751690417
 20
1872.574740784894
 10
1153.236378085833
 20
1871.857553982601
 10
1144.630136458326
 20
1871.857553982601
 10
1128.852026807898
 20
1894.090344853659
 10
1065.739588206186
 20
1975.849640314968
 10
1065.739588206186
 20
1975.849640314968
 10
1057.13334657868
 20
1986.607442349351
 10
1048.527104951173
 20
1995.213683976857
 10
1048.527104951173
 20
1912.020014910964
 10
1048.527104951173
 20
1912.020014910964
 10
1049.244291753466
 20
1894.807531655951
 10
1049.961478555758
 20
1889.787224039906
 10
1051.395852160342
 20
1885.484103226153
 10
1053.547412567219
 20
1883.332542819276
 10
1056.416159776388
 20
1881.898169214692
 10
1060.719280590141
 20
1881.1809824124
 10
1066.456775008478
 20
1881.1809824124
 10
1066.456775008478
 20
1881.1809824124
 10
1071.477082624523
 20
1881.1809824124
 10
1072.194269426816
 20
1880.463795610108
 10
1072.194269426816
 20
1879.029422005523
 10
1072.194269426816
 20
1874.72630119177
 10
1072.194269426816
 20
1874.72630119177
 10
1072.194269426816
 20
1874.009114389478
 10
1070.759895822231
 20
1873.291927587186
 10
1016.253698848025
 20
1873.291927587186
 10
1016.253698848025
 20
1873.291927587186
 10
1015.536512045733
 20
1873.291927587186
 10
1014.819325243441
 20
1874.009114389478
 10
1014.102138441149
 20
1875.443487994061
 10
1014.102138441149
 20
1875.443487994061
 10
1014.102138441149
 20
1879.029422005523
 10
1014.819325243441
 20
1880.463795610108
 10
1015.536512045733
 20
1881.1809824124
 10
1017.68807245261
 20
1881.1809824124
 10
1017.68807245261
 20
1881.1809824124
 10
1023.425566870947
 20
1881.1809824124
 10
1027.7286876847
 20
1881.898169214692
 10
1031.314621696161
 20
1882.615356016984
 10
1033.466182103038
 20
1884.049729621569
 10
1035.617742509914
 20
1886.918476830737
 10
1036.334929312206
 20
1890.504410842198
 10
1037.052116114499
 20
1895.524718458243
 10
1037.052116114499
 20
1901.979399678873
 10
1037.052116114499
 20
1985.173068744767
 10
1037.052116114499
 20
1985.173068744767
 10
1037.052116114499
 20
1998.799617988318
 10
1036.334929312206
 20
2003.102738802072
 10
1034.900555707622
 20
2005.97148601124
 10
1032.748995300746
 20
2008.123046418117
 10
1029.880248091577
 20
2008.840233220409
 10
1025.577127277824
 20
2009.557420022701
 10
1019.839632859486
 20
2009.557420022701
 10
1019.839632859486
 20
2009.557420022701
 10
1015.536512045733
 20
2010.274606824993
 10
1014.819325243441
 20
2010.991793627285
 10
1014.102138441149
 20
2011.708980429578
 10
1014.102138441149
 20
2011.708980429578
 10
1014.819325243441
 20
2016.729288045623
 10
1014.819325243441
 20
2017.446474847915
 10
1015.536512045733
 20
2017.446474847915
 10
1060.719280590141
 20
2017.446474847915
 10
1060.719280590141
 20
2017.446474847915
 10
1073.6286430314
 20
1999.51680479061
 10
1125.266092796437
 20
1932.101245375145
 10
1125.266092796437
 20
1932.101245375145
 10
1143.195762853742
 20
1909.868454504087
 10
1143.195762853742
 20
1985.173068744767
 10
1143.195762853742
 20
1985.173068744767
 10
1143.195762853742
 20
1999.51680479061
 10
1141.761389249158
 20
2003.819925604364
 10
1140.327015644573
 20
2006.688672813532
 10
1138.175455237697
 20
2008.123046418117
 10
1134.589521226236
 20
2009.557420022701
 10
1130.286400412483
 20
2009.557420022701
 10
1124.548905994145
 20
2009.557420022701
 10
1124.548905994145
 20
2009.557420022701
 10
1119.5285983781
 20
2010.274606824993
 10
1118.811411575808
 20
2010.991793627285
 10
1118.811411575808
 20
2011.708980429578
 10
1118.811411575808
 20
2016.01210124333
 10
1118.811411575808
 20
2016.01210124333
 10
1119.5285983781
 20
2017.446474847915
 10
1121.680158784976
 20
2017.446474847915
 10
1174.751982154598
 20
2017.446474847915
 10
1174.751982154598
 20
2017.446474847915
 10
1176.186355759182
 20
2016.729288045623
 10
1176.903542561475
 20
2016.01210124333
 10
1176.903542561475
 20
2011.708980429578
  0
LWPOLYLINE
  5
4992
330
4999
100
AcDbEntity
  8
0
 62
     7
370
     0
100
AcDbPolyline
 90
       75
 70
     1
 43
0.0
 10
1255.794090813615
 20
2020.315222057084
 10
1265.117519243413
 20
2020.315222057084
 10
1271.572200464043
 20
2005.97148601124
 10
1271.572200464043
 20
2005.97148601124
 10
1298.825298951146
 20
1944.293421014112
 10
1315.320595403866
 20
1907.716894097211
 10
1321.775276624496
 20
1894.807531655951
 10
1325.361210635957
 20
1886.918476830737
 10
1325.361210635957
 20
1886.918476830737
 10
1327.512771042833
 20
1884.766916423861
 10
1329.66433144971
 20
1883.332542819276
 10
1331.815891856586
 20
1881.898169214692
 10
1333.967452263463
 20
1881.898169214692
 10
1333.967452263463
 20
1881.898169214692
 10
1336.836199472632
 20
1881.1809824124
 10
1338.987759879508
 20
1881.1809824124
 10
1339.7049466818
 20
1880.463795610108
 10
1339.7049466818
 20
1879.029422005523
 10
1339.7049466818
 20
1876.160674796355
 10
1339.7049466818
 20
1876.160674796355
 10
1339.7049466818
 20
1874.72630119177
 10
1338.987759879508
 20
1874.009114389478
 10
1336.836199472632
 20
1873.291927587186
 10
1280.178442091549
 20
1873.291927587186
 10
1280.178442091549
 20
1873.291927587186
 10
1278.744068486965
 20
1874.009114389478
 10
1278.026881684673
 20
1876.160674796355
 10
1278.744068486965
 20
1879.746608807815
 10
1278.744068486965
 20
1879.746608807815
 10
1278.744068486965
 20
1881.1809824124
 10
1280.178442091549
 20
1881.898169214692
 10
1285.915936509887
 20
1881.898169214692
 10
1285.915936509887
 20
1881.898169214692
 10
1290.936244125932
 20
1881.898169214692
 10
1294.522178137393
 20
1883.332542819276
 10
1295.956551741977
 20
1885.484103226153
 10
1296.673738544269
 20
1889.070037237614
 10
1296.673738544269
 20
1889.070037237614
 10
1296.673738544269
 20
1892.655971249075
 10
1294.522178137393
 20
1898.393465667412
 10
1285.915936509887
 20
1919.909069736178
 10
1222.803497908174
 20
1919.909069736178
 10
1212.762882676084
 20
1894.807531655951
 10
1212.762882676084
 20
1894.807531655951
 10
1212.045695873792
 20
1891.938784446782
 10
1211.328509071499
 20
1889.070037237614
 10
1211.328509071499
 20
1889.070037237614
 10
1212.045695873792
 20
1886.201290028445
 10
1214.197256280668
 20
1883.332542819276
 10
1217.066003489837
 20
1881.898169214692
 10
1221.36912430359
 20
1881.898169214692
 10
1227.106618721928
 20
1881.898169214692
 10
1227.106618721928
 20
1881.898169214692
 10
1228.540992326512
 20
1881.1809824124
 10
1229.258179128804
 20
1879.029422005523
 10
1229.258179128804
 20
1875.443487994061
 10
1229.258179128804
 20
1875.443487994061
 10
1228.540992326512
 20
1874.009114389478
 10
1227.82380552422
 20
1873.291927587186
 10
1179.772289770643
 20
1873.291927587186
 10
1179.772289770643
 20
1873.291927587186
 10
1179.055102968351
 20
1874.009114389478
 10
1178.337916166059
 20
1876.160674796355
 10
1178.337916166059
 20
1879.746608807815
 10
1178.337916166059
 20
1879.746608807815
 10
1179.055102968351
 20
1881.1809824124
 10
1180.489476572935
 20
1881.898169214692
 10
1180.489476572935
 20
1881.898169214692
 10
1185.509784188981
 20
1881.898169214692
 10
1187.661344595857
 20
1882.615356016984
 10
1189.812905002734
 20
1884.049729621569
 10
1191.96446540961
 20
1886.201290028445
 10
1194.116025816487
 20
1889.787224039906
 10
1200.570707037116
 20
1901.262212876581
 10
1255.794090813615
 20
2020.315222057084
  0
LWPOLYLINE
  5
4993
330
4999
100
AcDbEntity
  8
0
 62
     7
370
     0
100
AcDbPolyline
 90
        4
 70
     1
 43
0.0
 10
1255.076904011323
 20
1993.062123569981
 10
1226.389431919636
 20
1928.515311363684
 10
1282.330002498426
 20
1928.515311363684
 10
1255.076904011323
 20
1993.062123569981
  0
LWPOLYLINE
  5
4994
330
4999
100
AcDbEntity
  8
0
 62
     7
370
     0
100
AcDbPolyline
 90
       46
 70
     1
 43
2.868747209168737
 10
908.6756785041977
 20
1802.29043416026
 10
908.6756785041977
 20
1802.29043416026
 10
908.6756785041977
 20
1802.29043416026
 10
908.6756785041977
 20
1802.29043416026
 10
900.7866236789835
 20
1802.29043416026
 10
892.1803820514774
 20
1803.007620962552
 10
882.8569536216789
 20
1805.159181369428
 10
872.8163383895886
 20
1807.310741776305
 10
849.8663607162384
 20
1814.482609799227
 10
824.7648226360123
 20
1823.806038229025
 10
798.2289109512013
 20
1834.563840263408
 10
769.5414388595137
 20
1846.756015902375
 10
709.2977474669702
 20
1873.291927587186
 10
709.2977474669702
 20
1873.291927587186
 10
650.4884296790112
 20
1899.827839271997
 10
622.518144389616
 20
1911.302828108672
 10
595.2650459025131
 20
1922.060630143054
 10
570.1635078222866
 20
1931.384058572852
 10
547.9307169512289
 20
1938.555926595775
 10
537.8901017191384
 20
1940.707487002651
 10
528.5666732893401
 20
1942.859047409528
 10
519.9604316618338
 20
1944.293421014112
 10
512.0713768366197
 20
1944.293421014112
 10
512.0713768366197
 20
1946.444981420989
 10
512.0713768366197
 20
1946.444981420989
 10
519.9604316618338
 20
1946.444981420989
 10
528.5666732893401
 20
1945.010607816404
 10
537.8901017191384
 20
1942.859047409528
 10
547.9307169512289
 20
1940.707487002651
 10
570.8806946245788
 20
1933.535618979729
 10
595.9822327048052
 20
1924.212190549931
 10
623.2353311919084
 20
1913.454388515548
 10
651.2056164813035
 20
1901.262212876581
 10
710.7321210715547
 20
1875.443487994061
 10
710.7321210715547
 20
1875.443487994061
 10
770.2586256618062
 20
1848.907576309252
 10
798.9460977534935
 20
1836.715400670284
 10
825.4820094383044
 20
1825.957598635902
 10
850.5835475185309
 20
1816.634170206103
 10
872.8163383895886
 20
1809.462302183181
 10
882.8569536216789
 20
1807.310741776305
 10
892.1803820514774
 20
1805.87636817172
 10
900.7866236789835
 20
1804.441994567136
 10
907.9584917019056
 20
1804.441994567136
 10
908.6756785041977
 20
1804.441994567136
 10
908.6756785041977
 20
1802.29043416026
  0
LWPOLYLINE
  5
4995
330
4999
100
AcDbEntity
  8
0
 62
     7
370
     0
100
AcDbPolyline
 90
      134
 70
     1
 43
2.868747209168737
 10
953.8584470486052
 20
1830.260719449655
 10
953.8584470486052
 20
1830.260719449655
 10
953.8584470486052
 20
1830.260719449655
 10
945.9693922233913
 20
1831.695093054239
 10
938.0803373981771
 20
1833.129466658824
 10
938.0803373981771
 20
1833.129466658824
 10
930.9084693752556
 20
1835.2810270657
 10
923.7366013523336
 20
1837.432587472576
 10
923.7366013523336
 20
1837.432587472576
 10
915.1303597248274
 20
1841.73570828633
 10
906.5241180973213
 20
1846.038829100083
 10
898.6350632721071
 20
1851.77632351842
 10
890.7460084468931
 20
1857.513817936758
 10
883.5741404239714
 20
1863.968499157387
 10
877.1194592033417
 20
1871.140367180309
 10
870.664777982712
 20
1879.029422005523
 10
865.6444703666666
 20
1887.635663633029
 10
865.6444703666666
 20
1887.635663633029
 10
865.6444703666666
 20
1887.635663633029
 10
865.6444703666666
 20
1887.635663633029
 10
865.6444703666666
 20
1887.635663633029
 10
859.1897891460366
 20
1899.827839271997
 10
854.886668332284
 20
1912.020014910964
 10
854.886668332284
 20
1912.020014910964
 10
852.0179211231152
 20
1924.212190549931
 10
849.8663607162384
 20
1936.404366188898
 10
849.8663607162384
 20
1936.404366188898
 10
849.8663607162384
 20
1945.010607816404
 10
849.8663607162384
 20
1952.899662641618
 10
850.5835475185309
 20
1960.788717466832
 10
852.0179211231152
 20
1968.677772292046
 10
854.1694815299917
 20
1976.566827117261
 10
856.3210419368683
 20
1984.455881942475
 10
859.1897891460366
 20
1991.627749965396
 10
862.775723157498
 20
1998.799617988318
 10
866.3616571689589
 20
2005.97148601124
 10
870.664777982712
 20
2013.143354034162
 10
875.6850855987572
 20
2019.598035254792
 10
881.4225800170945
 20
2025.335529673129
 10
887.1600744354322
 20
2031.790210893759
 10
893.6147556560619
 20
2036.810518509804
 10
900.0694368766916
 20
2041.830826125849
 10
907.2413048996134
 20
2046.851133741895
 10
907.2413048996134
 20
2046.851133741895
 10
907.2413048996134
 20
2046.851133741895
 10
907.2413048996134
 20
2046.851133741895
 10
907.2413048996134
 20
2046.851133741895
 10
917.999106933996
 20
2051.87144135794
 10
928.756908968379
 20
2056.174562171694
 10
928.756908968379
 20
2056.174562171694
 10
939.5147110027616
 20
2059.043309380862
 10
950.2725130371443
 20
2061.194869787739
 10
950.2725130371443
 20
2061.194869787739
 10
957.4443810600664
 20
2061.91205659003
 10
964.616249082988
 20
2062.629243392323
 10
971.7881171059101
 20
2061.91205659003
 10
978.9599851288318
 20
2061.91205659003
 10
985.4146663494615
 20
2060.477682985446
 10
992.5865343723835
 20
2059.043309380862
 10
999.7584023953052
 20
2057.608935776277
 10
1006.213083615935
 20
2055.457375369401
 10
1012.667764836564
 20
2052.588628160232
 10
1019.122446057194
 20
2049.002694148772
 10
1025.577127277824
 20
2046.133946939603
 10
1031.314621696161
 20
2041.830826125849
 10
1037.769302916791
 20
2037.527705312097
 10
1042.789610532836
 20
2033.224584498343
 10
1048.527104951173
 20
2028.204276882298
 10
1053.547412567219
 20
2022.46678246396
 10
1052.113038962634
 20
2021.032408859376
 10
1052.113038962634
 20
2021.032408859376
 10
1047.092731346589
 20
2026.769903277713
 10
1041.355236928252
 20
2031.790210893759
 10
1036.334929312206
 20
2036.093331707512
 10
1030.597434893869
 20
2040.396452521265
 10
1024.142753673239
 20
2043.982386532726
 10
1018.405259254902
 20
2047.568320544187
 10
1011.950578034272
 20
2050.437067753356
 10
1005.495896813642
 20
2053.305814962524
 10
991.8693475700912
 20
2056.891748973985
 10
978.2427983265396
 20
2059.043309380862
 10
964.616249082988
 20
2059.760496183154
 10
950.9896998394363
 20
2059.043309380862
 10
950.9896998394363
 20
2059.043309380862
 10
940.2318978050541
 20
2056.891748973985
 10
929.4740957706713
 20
2054.023001764816
 10
929.4740957706713
 20
2054.023001764816
 10
918.7162937362883
 20
2049.719880951063
 10
908.6756785041977
 20
2044.699573335018
 10
908.6756785041977
 20
2044.699573335018
 10
908.6756785041977
 20
2044.699573335018
 10
908.6756785041977
 20
2044.699573335018
 10
908.6756785041977
 20
2044.699573335018
 10
901.5038104812758
 20
2040.396452521265
 10
895.0491292606461
 20
2035.37614490522
 10
888.5944480400167
 20
2029.638650486882
 10
882.8569536216789
 20
2023.901156068545
 10
877.8366460056338
 20
2018.163661650207
 10
872.8163383895886
 20
2011.708980429578
 10
868.5132175758353
 20
2005.254299208948
 10
864.9272835643746
 20
1998.082431186026
 10
861.3413495529135
 20
1990.910563163104
 10
858.4726023437449
 20
1983.738695140182
 10
856.3210419368683
 20
1975.849640314968
 10
854.1694815299917
 20
1968.677772292046
 10
852.7351079254074
 20
1960.788717466832
 10
852.0179211231152
 20
1952.899662641618
 10
852.0179211231152
 20
1945.010607816404
 10
852.0179211231152
 20
1937.12155299119
 10
852.0179211231152
 20
1937.12155299119
 10
854.1694815299917
 20
1924.929377352223
 10
857.0382287391604
 20
1912.737201713255
 10
857.0382287391604
 20
1912.737201713255
 10
861.3413495529135
 20
1900.545026074289
 10
867.0788439712511
 20
1889.070037237614
 10
867.0788439712511
 20
1889.070037237614
 10
867.0788439712511
 20
1889.070037237614
 10
867.0788439712511
 20
1889.070037237614
 10
867.0788439712511
 20
1889.070037237614
 10
872.8163383895886
 20
1880.463795610108
 10
878.553832807926
 20
1872.574740784894
 10
885.0085140285557
 20
1865.402872761972
 10
892.1803820514774
 20
1858.948191541342
 10
899.3522500743994
 20
1853.210697123005
 10
907.2413048996134
 20
1848.190389506959
 10
915.8475465271195
 20
1843.170081890914
 10
924.4537881546259
 20
1839.584147879453
 10
924.4537881546259
 20
1839.584147879453
 10
931.6256561775476
 20
1837.432587472576
 10
938.7975242004696
 20
1835.2810270657
 10
938.7975242004696
 20
1835.2810270657
 10
953.8584470486052
 20
1832.412279856531
 10
953.8584470486052
 20
1832.412279856531
 10
953.8584470486052
 20
1830.260719449655
  0
LWPOLYLINE
  5
4996
330
4999
100
AcDbEntity
  8
0
 62
     7
370
     0
100
AcDbPolyline
 90
      164
 70
     1
 43
2.868747209168737
 10
973.9396775127866
 20
1833.129466658824
 10
973.9396775127866
 20
1833.129466658824
 10
966.7678094898647
 20
1837.432587472576
 10
961.0303150715273
 20
1841.73570828633
 10
961.0303150715273
 20
1841.73570828633
 10
956.727194257774
 20
1846.756015902375
 10
953.1412602463133
 20
1851.77632351842
 10
951.7068866417288
 20
1857.513817936758
 10
950.9896998394363
 20
1863.251312355094
 10
950.9896998394363
 20
1863.251312355094
 10
950.2725130371443
 20
1868.271619971141
 10
950.9896998394363
 20
1873.291927587186
 10
952.424073444021
 20
1878.312235203231
 10
953.8584470486052
 20
1882.615356016984
 10
953.8584470486052
 20
1882.615356016984
 10
956.727194257774
 20
1887.635663633029
 10
960.3131282692347
 20
1891.938784446782
 10
960.3131282692347
 20
1891.938784446782
 10
963.8990622806959
 20
1895.524718458243
 10
968.202183094449
 20
1899.110652469704
 10
972.5053039082022
 20
1901.979399678873
 10
976.0912379196632
 20
1904.13096008575
 10
980.3943587334163
 20
1905.565333690334
 10
984.6974795471693
 20
1906.999707294918
 10
989.0006003609224
 20
1907.716894097211
 10
993.3037211746755
 20
1907.716894097211
 10
993.3037211746755
 20
1907.716894097211
 10
1000.475589197597
 20
1906.999707294918
 10
1006.930270418227
 20
1904.848146888042
 10
1006.930270418227
 20
1904.848146888042
 10
1010.516204429688
 20
1903.413773283457
 10
1013.384951638856
 20
1901.262212876581
 10
1019.122446057194
 20
1896.959092062828
 10
1019.122446057194
 20
1896.959092062828
 10
1022.708380068655
 20
1894.090344853659
 10
1025.577127277824
 20
1890.504410842198
 10
1027.7286876847
 20
1886.918476830737
 10
1029.880248091577
 20
1882.615356016984
 10
1031.314621696161
 20
1878.312235203231
 10
1032.748995300746
 20
1874.009114389478
 10
1033.466182103038
 20
1869.705993575725
 10
1033.466182103038
 20
1864.685685959679
 10
1033.466182103038
 20
1864.685685959679
 10
1033.466182103038
 20
1864.685685959679
 10
1033.466182103038
 20
1864.685685959679
 10
1032.748995300746
 20
1855.362257529881
 10
1031.314621696161
 20
1846.038829100083
 10
1031.314621696161
 20
1846.038829100083
 10
1029.880248091577
 20
1841.018521484037
 10
1027.7286876847
 20
1835.998213867992
 10
1027.7286876847
 20
1835.998213867992
 10
1024.142753673239
 20
1830.260719449655
 10
1019.839632859486
 20
1824.523225031317
 10
1014.102138441149
 20
1819.502917415272
 10
1008.364644022811
 20
1815.199796601518
 10
1001.192775999889
 20
1810.896675787766
 10
992.5865343723835
 20
1808.027928578597
 10
983.263105942585
 20
1805.159181369428
 10
973.2224907104944
 20
1803.007620962552
 10
973.2224907104944
 20
1803.007620962552
 10
973.2224907104944
 20
1803.007620962552
 10
963.8990622806959
 20
1802.29043416026
 10
953.1412602463133
 20
1802.29043416026
 10
941.6662714096382
 20
1804.441994567136
 10
929.4740957706713
 20
1806.593554974013
 10
915.8475465271195
 20
1810.179488985474
 10
902.220997283568
 20
1815.199796601518
 10
887.1600744354322
 20
1820.220104217564
 10
871.3819647850042
 20
1826.674785438194
 10
838.3913718795637
 20
1841.018521484037
 10
803.9664053695387
 20
1857.513817936758
 10
768.1070652549292
 20
1875.443487994061
 10
731.5305383380282
 20
1893.373158051367
 10
731.5305383380282
 20
1893.373158051367
 10
669.8524733409002
 20
1924.212190549931
 10
639.7306276446286
 20
1938.555926595775
 10
610.325968750649
 20
1952.182475839325
 10
582.3556834612539
 20
1963.657464676001
 10
555.8197717764428
 20
1973.698079908092
 10
543.6275961374758
 20
1978.001200721845
 10
532.1526073008008
 20
1981.587134733306
 10
520.677618464126
 20
1984.455881942475
 10
509.9198164297432
 20
1986.607442349351
 10
510.6370032320354
 20
1988.041815953935
 10
510.6370032320354
 20
1988.041815953935
 10
521.394805266418
 20
1986.607442349351
 10
532.1526073008008
 20
1983.738695140182
 10
544.344782939768
 20
1980.152761128722
 10
556.5369585787351
 20
1975.849640314968
 10
583.0728702635457
 20
1965.809025082878
 10
611.0431555529412
 20
1954.334036246203
 10
640.4478144469208
 20
1940.707487002651
 10
670.5696601431925
 20
1926.363750956807
 10
732.2477251403204
 20
1895.524718458243
 10
732.2477251403204
 20
1895.524718458243
 10
804.683592171831
 20
1859.665378343634
 10
839.1085586818558
 20
1843.170081890914
 10
872.0991515872963
 20
1828.826345845071
 10
887.1600744354322
 20
1823.088851426733
 10
902.220997283568
 20
1817.351357008395
 10
916.5647333294119
 20
1812.33104939235
 10
929.4740957706713
 20
1808.745115380889
 10
941.6662714096382
 20
1806.593554974013
 10
953.1412602463133
 20
1804.441994567136
 10
963.8990622806959
 20
1804.441994567136
 10
972.5053039082022
 20
1805.159181369428
 10
972.5053039082022
 20
1805.159181369428
 10
972.5053039082022
 20
1805.159181369428
 10
982.5459191402925
 20
1807.310741776305
 10
991.8693475700912
 20
1809.462302183181
 10
999.7584023953052
 20
1813.048236194642
 10
1006.930270418227
 20
1816.634170206103
 10
1012.667764836564
 20
1820.937291019856
 10
1017.68807245261
 20
1825.957598635902
 10
1021.991193266363
 20
1831.695093054239
 10
1024.859940475531
 20
1836.715400670284
 10
1024.859940475531
 20
1836.715400670284
 10
1027.011500882408
 20
1841.73570828633
 10
1029.163061289285
 20
1846.756015902375
 10
1029.163061289285
 20
1846.756015902375
 10
1030.597434893869
 20
1855.362257529881
 10
1031.314621696161
 20
1864.685685959679
 10
1031.314621696161
 20
1864.685685959679
 10
1031.314621696161
 20
1864.685685959679
 10
1031.314621696161
 20
1864.685685959679
 10
1031.314621696161
 20
1868.988806773432
 10
1030.597434893869
 20
1873.291927587186
 10
1029.163061289285
 20
1877.595048400939
 10
1027.7286876847
 20
1881.898169214692
 10
1025.577127277824
 20
1885.484103226153
 10
1023.425566870947
 20
1889.070037237614
 10
1017.68807245261
 20
1895.524718458243
 10
1017.68807245261
 20
1895.524718458243
 10
1012.667764836564
 20
1899.827839271997
 10
1006.213083615935
 20
1902.696586481164
 10
1006.213083615935
 20
1902.696586481164
 10
999.7584023953052
 20
1904.848146888042
 10
993.3037211746755
 20
1905.565333690334
 10
993.3037211746755
 20
1905.565333690334
 10
989.0006003609224
 20
1905.565333690334
 10
985.4146663494615
 20
1904.848146888042
 10
981.111545535708
 20
1903.413773283457
 10
977.5256115242475
 20
1901.979399678873
 10
973.2224907104944
 20
1899.827839271997
 10
969.6365566990337
 20
1896.959092062828
 10
965.3334358852802
 20
1894.090344853659
 10
961.7475018738195
 20
1889.787224039906
 10
961.7475018738195
 20
1889.787224039906
 10
958.8787546646507
 20
1886.201290028445
 10
956.727194257774
 20
1881.898169214692
 10
956.727194257774
 20
1881.898169214692
 10
954.5756338508978
 20
1877.595048400939
 10
953.1412602463133
 20
1872.574740784894
 10
953.1412602463133
 20
1868.271619971141
 10
953.1412602463133
 20
1863.251312355094
 10
953.1412602463133
 20
1863.251312355094
 10
953.8584470486052
 20
1858.23100473905
 10
955.2928206531897
 20
1853.210697123005
 10
958.1615678623585
 20
1848.190389506959
 10
962.4646886761116
 20
1843.170081890914
 10
962.4646886761116
 20
1843.170081890914
 10
968.202183094449
 20
1839.584147879453
 10
974.6568643150787
 20
1835.998213867992
 10
973.9396775127866
 20
1833.129466658824
  0
LWPOLYLINE
  5
4997
330
4999
100
AcDbEntity
  8
0
 62
     7
370
     0
100
AcDbPolyline
 90
       84
 70
     1
 43
2.868747209168737
 10
808.269526183292
 20
1934.969992584314
 10
809.7038997878765
 20
1934.252805782022
 10
809.7038997878765
 20
1934.252805782022
 10
809.7038997878765
 20
1934.252805782022
 10
824.7648226360123
 20
1919.909069736178
 10
839.8257454841481
 20
1904.848146888042
 10
839.8257454841481
 20
1904.848146888042
 10
852.7351079254074
 20
1891.221597644491
 10
866.3616571689589
 20
1878.312235203231
 10
879.98820641251
 20
1866.120059564264
 10
894.331942458354
 20
1855.362257529881
 10
901.5038104812758
 20
1850.341949913836
 10
909.3928653064898
 20
1845.32164229779
 10
917.2819201317039
 20
1841.73570828633
 10
924.4537881546259
 20
1838.149774274869
 10
933.060029782132
 20
1835.2810270657
 10
940.9490846073461
 20
1833.846653461116
 10
949.555326234852
 20
1832.412279856531
 10
958.1615678623585
 20
1831.695093054239
 10
958.1615678623585
 20
1831.695093054239
 10
970.3537435013256
 20
1832.412279856531
 10
979.6771719311239
 20
1833.846653461116
 10
979.6771719311239
 20
1833.846653461116
 10
983.263105942585
 20
1834.563840263408
 10
986.1318531517538
 20
1836.715400670284
 10
992.5865343723835
 20
1840.301334681745
 10
992.5865343723835
 20
1840.301334681745
 10
995.4552815815517
 20
1843.887268693206
 10
997.6068419884287
 20
1847.473202704667
 10
998.3240287907207
 20
1851.77632351842
 10
997.6068419884287
 20
1855.362257529881
 10
997.6068419884287
 20
1855.362257529881
 10
996.8896551861362
 20
1858.23100473905
 10
995.4552815815517
 20
1860.382565145927
 10
995.4552815815517
 20
1860.382565145927
 10
993.3037211746755
 20
1861.816938750511
 10
991.8693475700912
 20
1863.251312355094
 10
991.8693475700912
 20
1863.251312355094
 10
989.7177871632147
 20
1863.251312355094
 10
987.5662267563381
 20
1863.251312355094
 10
985.4146663494615
 20
1862.534125552803
 10
983.980292744877
 20
1860.382565145927
 10
981.8287323380003
 20
1861.816938750511
 10
981.8287323380003
 20
1861.816938750511
 10
984.6974795471693
 20
1863.968499157387
 10
987.5662267563381
 20
1865.402872761972
 10
990.4349739655067
 20
1865.402872761972
 10
992.5865343723835
 20
1864.685685959679
 10
992.5865343723835
 20
1864.685685959679
 10
995.4552815815517
 20
1863.251312355094
 10
996.8896551861362
 20
1861.099751948219
 10
996.8896551861362
 20
1861.099751948219
 10
999.041215593013
 20
1858.948191541342
 10
999.7584023953052
 20
1856.079444332173
 10
999.7584023953052
 20
1856.079444332173
 10
1000.475589197597
 20
1851.77632351842
 10
999.7584023953052
 20
1847.473202704667
 10
997.6068419884287
 20
1842.452895088622
 10
994.0209079769676
 20
1838.866961077161
 10
994.0209079769676
 20
1838.866961077161
 10
987.5662267563381
 20
1834.563840263408
 10
980.3943587334163
 20
1831.695093054239
 10
980.3943587334163
 20
1831.695093054239
 10
971.0709303036175
 20
1830.260719449655
 10
958.1615678623585
 20
1829.543532647363
 10
958.1615678623585
 20
1829.543532647363
 10
948.83813943256
 20
1830.260719449655
 10
940.9490846073461
 20
1831.695093054239
 10
932.3428429798395
 20
1833.846653461116
 10
924.4537881546259
 20
1836.715400670284
 10
915.8475465271195
 20
1839.584147879453
 10
908.6756785041977
 20
1843.887268693206
 10
900.7866236789835
 20
1848.190389506959
 10
893.6147556560619
 20
1853.210697123005
 10
879.2710196102182
 20
1864.685685959679
 10
864.9272835643746
 20
1876.877861598647
 10
851.3007343208229
 20
1889.787224039906
 10
838.3913718795637
 20
1903.413773283457
 10
838.3913718795637
 20
1903.413773283457
 10
823.3304490314278
 20
1918.474696131594
 10
808.269526183292
 20
1932.818432177437
 10
808.269526183292
 20
1932.818432177437
 10
806.8351525787074
 20
1933.535618979729
 10
808.269526183292
 20
1934.969992584314
  0
ENDBLK
  5
499B
330
4999
100
AcDbEntity
  8
0
100
AcDbBlockEnd
  0
BLOCK
  5
4A48
330
4A47
100
AcDbEntity
  8
0
100
AcDbBlockBegin
  2
AN-3205 drawing
 70
     0
 10
0.0
 20
0.0
 30
0.0
  3
AN-3205 drawing
  1

  0
LWPOLYLINE
  5
499D
330
4A47
100
AcDbEntity
  8
Layer 1
 62
     7
370
    13
100
AcDbPolyline
 90
        2
 70
     0
 43
0.0
 10
140.6313815295123
 20
52.57801376723744
 10
140.6313815295123
 20
48.85283201903678
  0
LWPOLYLINE
  5
499E
330
4A47
100
AcDbEntity
  8
Layer 1
 62
     7
370
    13
100
AcDbPolyline
 90
        2
 70
     0
 43
0.0
 10
140.6313815295123
 20
54.5675564099692
 10
140.6313815295123
 20
53.59397242583762
  0
LWPOLYLINE
  5
499F
330
4A47
100
AcDbEntity
  8
Layer 1
 62
     7
370
    13
100
AcDbPolyline
 90
        2
 70
     0
 43
0.0
 10
140.6313815295123
 20
60.57890352218167
 10
140.6313815295123
 20
55.5835150685694
  0
LWPOLYLINE
  5
49A0
330
4A47
100
AcDbEntity
  8
Layer 1
 62
     7
370
    13
100
AcDbPolyline
 90
        2
 70
     0
 43
0.0
 10
140.6313815295123
 20
62.56879067446195
 10
140.6313815295123
 20
61.59486218078185
  0
LWPOLYLINE
  5
49A1
330
4A47
100
AcDbEntity
  8
Layer 1
 62
     7
370
    13
100
AcDbPolyline
 90
        2
 70
     0
 43
0.0
 10
140.6313815295123
 20
68.5801377866744
 10
140.6313815295123
 20
63.58474933306215
  0
LWPOLYLINE
  5
49A2
330
4A47
100
AcDbEntity
  8
Layer 1
 62
     7
370
    13
100
AcDbPolyline
 90
        2
 70
     0
 43
0.0
 10
140.6313815295123
 20
70.56968042940619
 10
140.6313815295123
 20
69.55372177080602
  0
LWPOLYLINE
  5
49A3
330
4A47
100
AcDbEntity
  8
Layer 1
 62
     7
370
    13
100
AcDbPolyline
 90
        2
 70
     0
 43
0.0
 10
140.6313815295123
 20
76.58102754161864
 10
140.6313815295123
 20
71.58563908800637
  0
LWPOLYLINE
  5
49A4
330
4A47
100
AcDbEntity
  8
Layer 1
 62
     7
370
    13
100
AcDbPolyline
 90
        2
 70
     0
 43
0.0
 10
140.6313815295123
 20
78.57057018435043
 10
140.6313815295123
 20
77.55461152575023
  0
LWPOLYLINE
  5
49A5
330
4A47
100
AcDbEntity
  8
Layer 1
 62
     7
370
    13
100
AcDbPolyline
 90
        2
 70
     0
 43
0.0
 10
140.6313815295123
 20
84.58191729656286
 10
140.6313815295123
 20
79.58652884295059
  0
LWPOLYLINE
  5
49A6
330
4A47
100
AcDbEntity
  8
Layer 1
 62
     7
370
    13
100
AcDbPolyline
 90
        2
 70
     0
 43
0.0
 10
140.6313815295123
 20
86.57180444884316
 10
140.6313815295123
 20
85.55550128069446
  0
LWPOLYLINE
  5
49A7
330
4A47
100
AcDbEntity
  8
Layer 1
 62
     7
370
    13
100
AcDbPolyline
 90
        2
 70
     0
 43
0.0
 10
140.6313815295123
 20
92.54077688658702
 10
140.6313815295123
 20
87.54538843297476
  0
LWPOLYLINE
  5
49A8
330
4A47
100
AcDbEntity
  8
Layer 1
 62
     7
370
    13
100
AcDbPolyline
 90
        2
 70
     0
 43
0.0
 10
140.6313815295123
 20
94.57269420378741
 10
140.6313815295123
 20
93.55673554518721
  0
LWPOLYLINE
  5
49A9
330
4A47
100
AcDbEntity
  8
Layer 1
 62
     7
370
    13
100
AcDbPolyline
 90
        2
 70
     0
 43
0.0
 10
140.6313815295123
 20
100.5416666415312
 10
140.6313815295123
 20
95.54627818791898
  0
LWPOLYLINE
  5
49AA
330
4A47
100
AcDbEntity
  8
Layer 1
 62
     7
370
    13
100
AcDbPolyline
 90
        2
 70
     0
 43
0.0
 10
140.6313815295123
 20
102.531209284263
 10
140.6313815295123
 20
101.5576253001314
  0
LWPOLYLINE
  5
49AB
330
4A47
100
AcDbEntity
  8
Layer 1
 62
     7
370
    13
100
AcDbPolyline
 90
        2
 70
     0
 43
0.0
 10
140.6313815295123
 20
108.5427286512497
 10
140.6313815295123
 20
103.5471679428632
  0
LWPOLYLINE
  5
49AC
330
4A47
100
AcDbEntity
  8
Layer 1
 62
     7
370
    13
100
AcDbPolyline
 90
        2
 70
     0
 43
0.0
 10
140.6313815295123
 20
110.5322712939815
 10
140.6313815295123
 20
109.5586873098499
  0
LWPOLYLINE
  5
49AD
330
4A47
100
AcDbEntity
  8
Layer 1
 62
     7
370
    13
100
AcDbPolyline
 90
        2
 70
     0
 43
0.0
 10
140.6313815295123
 20
116.5436184061939
 10
140.6313815295123
 20
111.5484022073559
  0
LWPOLYLINE
  5
49AE
330
4A47
100
AcDbEntity
  8
Layer 1
 62
     7
370
    13
100
AcDbPolyline
 90
        2
 70
     0
 43
0.0
 10
140.6313815295123
 20
118.5333333037
 10
140.6313815295123
 20
117.5597493195684
  0
LWPOLYLINE
  5
49AF
330
4A47
100
AcDbEntity
  8
Layer 1
 62
     7
370
    13
100
AcDbPolyline
 90
        2
 70
     0
 43
0.0
 10
140.6313815295123
 20
123.2746459652751
 10
140.6313815295123
 20
119.5492919623002
  0
LWPOLYLINE
  5
49B0
330
4A47
100
AcDbEntity
  8
Layer 1
 62
     7
370
    13
100
AcDbPolyline
 90
        2
 70
     0
 43
0.0
 10
182.0757079622936
 20
86.06365286476881
 10
188.3833332862375
 20
86.06365286476881
  0
LWPOLYLINE
  5
49B1
330
4A47
100
AcDbEntity
  8
Layer 1
 62
     7
370
    13
100
AcDbPolyline
 90
        2
 70
     0
 43
0.0
 10
180.0861653195618
 20
86.06365286476881
 10
181.102123978162
 20
86.06365286476881
  0
LWPOLYLINE
  5
49B2
330
4A47
100
AcDbEntity
  8
Layer 1
 62
     7
370
    13
100
AcDbPolyline
 90
        2
 70
     0
 43
0.0
 10
174.0748182073493
 20
86.06365286476881
 10
179.069862151413
 20
86.06365286476881
  0
LWPOLYLINE
  5
49B3
330
4A47
100
AcDbEntity
  8
Layer 1
 62
     7
370
    13
100
AcDbPolyline
 90
        2
 70
     0
 43
0.0
 10
172.084931055069
 20
86.06365286476881
 10
173.1008897136692
 20
86.06365286476881
  0
LWPOLYLINE
  5
49B4
330
4A47
100
AcDbEntity
  8
Layer 1
 62
     7
370
    13
100
AcDbPolyline
 90
        2
 70
     0
 43
0.0
 10
166.1159586173252
 20
86.06365286476881
 10
171.1113470709374
 20
86.06365286476881
  0
LWPOLYLINE
  5
49B5
330
4A47
100
AcDbEntity
  8
Layer 1
 62
     7
370
    13
100
AcDbPolyline
 90
        2
 70
     0
 43
0.0
 10
164.0840413001248
 20
86.06365286476881
 10
165.099999958725
 20
86.06365286476881
  0
LWPOLYLINE
  5
49B6
330
4A47
100
AcDbEntity
  8
Layer 1
 62
     7
370
    13
100
AcDbPolyline
 90
        2
 70
     0
 43
0.0
 10
158.1150688623809
 20
86.06365286476881
 10
163.1104573159932
 20
86.06365286476881
  0
LWPOLYLINE
  5
49B7
330
4A47
100
AcDbEntity
  8
Layer 1
 62
     7
370
    13
100
AcDbPolyline
 90
        2
 70
     0
 43
0.0
 10
156.1251817101006
 20
86.06365286476881
 10
157.0991102037807
 20
86.06365286476881
  0
LWPOLYLINE
  5
49B8
330
4A47
100
AcDbEntity
  8
Layer 1
 62
     7
370
    13
100
AcDbPolyline
 90
        2
 70
     0
 43
0.0
 10
150.1138345978882
 20
86.06365286476881
 10
155.1092230515005
 20
86.06365286476881
  0
LWPOLYLINE
  5
49B9
330
4A47
100
AcDbEntity
  8
Layer 1
 62
     7
370
    13
100
AcDbPolyline
 90
        2
 70
     0
 43
0.0
 10
148.1242919551564
 20
86.06365286476881
 10
149.097875939288
 20
86.06365286476881
  0
LWPOLYLINE
  5
49BA
330
4A47
100
AcDbEntity
  8
Layer 1
 62
     7
370
    13
100
AcDbPolyline
 90
        2
 70
     0
 43
0.0
 10
142.112944842944
 20
86.06365286476881
 10
147.1083332965562
 20
86.06365286476881
  0
LWPOLYLINE
  5
49BB
330
4A47
100
AcDbEntity
  8
Layer 1
 62
     7
370
    13
100
AcDbPolyline
 90
        2
 70
     0
 43
0.0
 10
140.1234022002122
 20
86.06365286476881
 10
141.0969861843438
 20
86.06365286476881
  0
LWPOLYLINE
  5
49BC
330
4A47
100
AcDbEntity
  8
Layer 1
 62
     7
370
    13
100
AcDbPolyline
 90
        2
 70
     0
 43
0.0
 10
134.1120550879997
 20
86.06365286476881
 10
139.1072712868377
 20
86.06365286476881
  0
LWPOLYLINE
  5
49BD
330
4A47
100
AcDbEntity
  8
Layer 1
 62
     7
370
    13
100
AcDbPolyline
 90
        2
 70
     0
 43
0.0
 10
132.1223401904937
 20
86.06365286476881
 10
133.1382988490939
 20
86.06365286476881
  0
LWPOLYLINE
  5
49BE
330
4A47
100
AcDbEntity
  8
Layer 1
 62
     7
370
    13
100
AcDbPolyline
 90
        2
 70
     0
 43
0.0
 10
126.1109930782813
 20
86.06365286476881
 10
131.1063815318935
 20
86.06365286476881
  0
LWPOLYLINE
  5
49BF
330
4A47
100
AcDbEntity
  8
Layer 1
 62
     7
370
    13
100
AcDbPolyline
 90
        2
 70
     0
 43
0.0
 10
124.1212781807752
 20
86.06365286476881
 10
125.1374090941496
 20
86.06365286476881
  0
LWPOLYLINE
  5
49C0
330
4A47
100
AcDbEntity
  8
Layer 1
 62
     7
370
    13
100
AcDbPolyline
 90
        2
 70
     0
 43
0.0
 10
118.1523057430313
 20
86.06365286476881
 10
123.1476941966436
 20
86.06365286476881
  0
LWPOLYLINE
  5
49C1
330
4A47
100
AcDbEntity
  8
Layer 1
 62
     7
370
    13
100
AcDbPolyline
 90
        2
 70
     0
 43
0.0
 10
116.120388425831
 20
86.06365286476881
 10
117.1363470844312
 20
86.06365286476881
  0
LWPOLYLINE
  5
49C2
330
4A47
100
AcDbEntity
  8
Layer 1
 62
     7
370
    13
100
AcDbPolyline
 90
        2
 70
     0
 43
0.0
 10
110.1514159880871
 20
86.06365286476881
 10
115.1466321869251
 20
86.06365286476881
  0
LWPOLYLINE
  5
49C3
330
4A47
100
AcDbEntity
  8
Layer 1
 62
     7
370
    13
100
AcDbPolyline
 90
        2
 70
     0
 43
0.0
 10
108.1617010905811
 20
86.06365286476881
 10
109.1352850747127
 20
86.06365286476881
  0
LWPOLYLINE
  5
49C4
330
4A47
100
AcDbEntity
  8
Layer 1
 62
     7
370
    13
100
AcDbPolyline
 90
        2
 70
     0
 43
0.0
 10
102.1503539783686
 20
86.06365286476881
 10
107.1457424319809
 20
86.06365286476881
  0
LWPOLYLINE
  5
49C5
330
4A47
100
AcDbEntity
  8
Layer 1
 62
     7
370
    13
100
AcDbPolyline
 90
        2
 70
     0
 43
0.0
 10
100.1606390808626
 20
86.06365286476881
 10
101.1343953197685
 20
86.06365286476881
  0
LWPOLYLINE
  5
49C6
330
4A47
100
AcDbEntity
  8
Layer 1
 62
     7
370
    13
100
AcDbPolyline
 90
        2
 70
     0
 43
0.0
 10
92.83705509831852
 20
86.06365286476881
 10
99.14468042226246
 20
86.06365286476881
  0
LWPOLYLINE
  5
49C7
330
4A47
100
AcDbEntity
  8
Layer 1
 62
     7
370
    30
100
AcDbPolyline
 90
       65
 70
     0
 43
0.0
 10
94.5303195293188
 20
70.35815156661185
 10
94.65727129795029
 20
68.15673555153721
 10
95.0382988586189
 20
65.99769421093113
 10
95.67340221132472
 20
63.92340221926221
 10
96.52003442682485
 20
61.89148490206186
 10
97.5783677598936
 20
59.94397242425011
 10
98.84840221053096
 20
58.16595864431267
 10
100.2875908494941
 20
56.55744356224952
 10
101.9386528608
 20
55.07570799404359
 10
103.7166666407375
 20
53.80550128863196
 10
105.6216321893064
 20
52.70513779064316
 10
107.6113470868124
 20
51.85833332036875
 10
109.7280137529499
 20
51.22340222243721
 10
111.887055093556
 20
50.79999998729999
 10
114.0459241793878
 20
50.67287596389427
 10
140.6313815295123
 20
50.41897242663136
 10
167.1742919503939
 20
50.67287596389427
 10
169.3757079654686
 20
50.79999998729999
 10
171.5347493060746
 20
51.22340222243721
 10
173.6090412977435
 20
51.85833332036875
 10
175.6409586149439
 20
52.70513779064316
 10
177.5460964182871
 20
53.80550128863196
 10
179.3241101982244
 20
55.07570799404359
 10
180.9326252802877
 20
56.55744356224952
 10
182.4143608484936
 20
58.16595864431267
 10
183.6842230443567
 20
59.94397242425011
 10
184.7425563774254
 20
61.89148490206186
 10
185.5893608476998
 20
63.92340221926221
 10
186.1819172711628
 20
65.99769421093113
 10
186.5629448318315
 20
68.15673555153721
 10
186.7324435297058
 20
70.35815156661185
 10
186.8168483690944
 20
86.06365286476881
 10
186.7324435297058
 20
101.7694986724743
 10
186.5629448318315
 20
103.9705701780004
 10
186.1819172711628
 20
106.1296115186065
 10
185.5893608476998
 20
108.2040757650497
 10
184.7425563774254
 20
110.23599308225
 10
183.6842230443567
 20
112.1409586308189
 10
182.4143608484936
 20
113.9613470852249
 10
180.9326252802877
 20
115.5700344220623
 10
179.3241101982244
 20
117.051597735494
 10
177.5460964182871
 20
118.3216321861314
 10
175.6409586149439
 20
119.4223401936687
 10
173.6090412977435
 20
120.2689724091688
 10
171.5347493060746
 20
120.9040757618746
 10
169.3757079654686
 20
121.284931067769
 10
167.1742919503939
 20
121.4542575108691
 10
140.6313815295123
 20
121.7083333029062
 10
114.0459241793878
 20
121.4542575108691
 10
111.887055093556
 20
121.284931067769
 10
109.7280137529499
 20
120.9040757618746
 10
107.6113470868124
 20
120.2689724091688
 10
105.6216321893064
 20
119.4223401936687
 10
103.7166666407375
 20
118.3216321861314
 10
101.9386528608
 20
117.051597735494
 10
100.2875908494941
 20
115.5700344220623
 10
98.84840221053096
 20
113.9613470852249
 10
97.5783677598936
 20
112.1409586308189
 10
96.52003442682485
 20
110.23599308225
 10
95.67340221132472
 20
108.2040757650497
 10
95.0382988586189
 20
106.1296115186065
 10
94.65727129795029
 20
103.9705701780004
 10
94.5303195293188
 20
101.7694986724743
 10
94.44574243515594
 20
86.06365286476881
 10
94.5303195293188
 20
70.35815156661185
  0
LWPOLYLINE
  5
49C8
330
4A47
100
AcDbEntity
  8
Layer 1
 62
     7
370
    30
100
AcDbPolyline
 90
       57
 70
     0
 43
0.0
 10
98.67907576743093
 20
70.4001817315319
 10
98.84840221053096
 20
68.36826441433155
 10
99.22925751642535
 20
66.42109644606835
 10
99.90673554359972
 20
64.47358396825659
 10
100.7957424335684
 20
62.69557018831917
 10
101.9386528608
 20
61.00230575731885
 10
103.251061985906
 20
59.47819551464434
 10
104.7749999738062
 20
58.12358396984411
 10
106.4260619851122
 20
57.02287596230679
 10
108.246278184744
 20
56.09166665264375
 10
110.1514159880871
 20
55.41436088024362
 10
112.1409586308189
 20
54.99095864510643
 10
114.1306735283249
 20
54.82180445678064
 10
140.6313815295123
 20
54.6099310844378
 10
167.0895426014568
 20
54.82180445678064
 10
169.1218044282057
 20
54.99095864510643
 10
171.0689723964688
 20
55.41436088024362
 10
172.974110199812
 20
56.09166665264375
 10
174.794498654218
 20
57.02287596230679
 10
176.4877630852183
 20
58.12358396984411
 10
177.9694986534243
 20
59.47819551464434
 10
179.3241101982244
 20
61.00230575731885
 10
180.4248182057618
 20
62.69557018831917
 10
181.3136528409563
 20
64.47358396825659
 10
181.9909586133564
 20
66.42109644606835
 10
182.4143608484936
 20
68.36826441433155
 10
182.5414848718994
 20
70.4001817315319
 10
182.625889711288
 20
86.06365286476881
 10
182.5414848718994
 20
101.7271239980057
 10
182.4143608484936
 20
103.7590413152061
 10
181.9909586133564
 20
105.7063815382435
 10
181.3136528409563
 20
107.653721761281
 10
180.4248182057618
 20
109.4317355412184
 10
179.3241101982244
 20
111.1249999722187
 10
177.9694986534243
 20
112.648937960119
 10
176.4877630852183
 20
114.0037217596935
 10
174.794498654218
 20
115.1042575124566
 10
172.974110199812
 20
116.0356390768938
 10
171.0689723964688
 20
116.712944849294
 10
169.1218044282057
 20
117.1363470844312
 10
167.0895426014568
 20
117.3056735275312
 10
140.6313815295123
 20
117.5173746450998
 10
114.1306735283249
 20
117.3056735275312
 10
112.1409586308189
 20
117.1363470844312
 10
110.1514159880871
 20
116.712944849294
 10
108.246278184744
 20
116.0356390768938
 10
106.4260619851122
 20
115.1042575124566
 10
104.7749999738062
 20
114.0037217596935
 10
103.251061985906
 20
112.648937960119
 10
101.9386528608
 20
111.1249999722187
 10
100.7957424335684
 20
109.4317355412184
 10
99.90673554359972
 20
107.653721761281
 10
99.22925751642535
 20
105.7063815382435
 10
98.84840221053096
 20
103.7590413152061
 10
98.67907576743093
 20
101.7271239980057
 10
98.59432641849378
 20
86.06365286476881
 10
98.67907576743093
 20
70.4001817315319
  0
LWPOLYLINE
  5
49C9
330
4A47
100
AcDbEntity
  8
Layer 1
 62
     7
370
    13
100
AcDbPolyline
 90
        2
 70
     0
 43
0.0
 10
179.7895425982818
 20
126.7037217565185
 10
101.4306735314999
 20
126.7037217565185
  0
LWPOLYLINE
  5
49CA
330
4A47
100
AcDbEntity
  8
Layer 1
 62
     7
370
    13
100
AcDbPolyline
 90
        2
 70
     0
 43
0.0
 10
98.59432641849378
 20
86.06365286476881
 10
98.59432641849378
 20
127.1269517368814
  0
LWPOLYLINE
  5
49CB
330
4A47
100
AcDbEntity
  8
Layer 1
 62
     7
370
    13
100
AcDbPolyline
 90
        2
 70
     0
 43
0.0
 10
182.625889711288
 20
86.06365286476881
 10
182.625889711288
 20
127.1269517368814
  0
LWPOLYLINE
  5
49CC
330
4A47
100
AcDbEntity
  8
Layer 1
 62
     7
370
     0
100
AcDbPolyline
 90
        4
 70
     0
 43
0.0
 10
179.7895425982818
 20
127.2117010858186
 10
179.7895425982818
 20
126.2379448469127
 10
182.625889711288
 20
126.7037217565185
 10
179.7895425982818
 20
127.2117010858186
  0
HATCH
  5
49CD
330
4A47
100
AcDbEntity
  8
Layer 1
 62
     7
100
AcDbHatch
 10
0.0
 20
0.0
 30
0.0
210
0.0
220
0.0
230
1.0
  2
SOLID
 70
     1
 71
     0
 91
        1
 92
        1
 93
        3
 72
     1
 10
179.7895425982818
 20
127.2117010858186
 11
179.7895425982818
 21
126.2379448469127
 72
     1
 10
179.7895425982818
 20
126.2379448469127
 11
182.625889711288
 21
126.7037217565185
 72
     1
 10
182.625889711288
 20
126.7037217565185
 11
179.7895425982818
 21
127.2117010858186
 97
        0
 75
     0
 76
     1
 98
        0
  0
LWPOLYLINE
  5
49CE
330
4A47
100
AcDbEntity
  8
Layer 1
 62
     7
370
     0
100
AcDbPolyline
 90
        4
 70
     0
 43
0.0
 10
101.4306735314999
 20
127.2117010858186
 10
101.4306735314999
 20
126.2379448469127
 10
98.59432641849378
 20
126.7037217565185
 10
101.4306735314999
 20
127.2117010858186
  0
HATCH
  5
49CF
330
4A47
100
AcDbEntity
  8
Layer 1
 62
     7
100
AcDbHatch
 10
0.0
 20
0.0
 30
0.0
210
0.0
220
0.0
230
1.0
  2
SOLID
 70
     1
 71
     0
 91
        1
 92
        1
 93
        3
 72
     1
 10
101.4306735314999
 20
127.2117010858186
 11
101.4306735314999
 21
126.2379448469127
 72
     1
 10
101.4306735314999
 20
126.2379448469127
 11
98.59432641849378
 21
126.7037217565185
 72
     1
 10
98.59432641849378
 20
126.7037217565185
 11
101.4306735314999
 21
127.2117010858186
 97
        0
 75
     0
 76
     1
 98
        0
  0
LWPOLYLINE
  5
49D0
330
4A47
100
AcDbEntity
  8
Layer 1
 62
     7
370
    13
100
AcDbPolyline
 90
        2
 70
     0
 43
0.0
 10
183.9805012560882
 20
132.8420206373624
 10
97.28191729338789
 20
132.8420206373624
  0
LWPOLYLINE
  5
49D1
330
4A47
100
AcDbEntity
  8
Layer 1
 62
     7
370
    13
100
AcDbPolyline
 90
        2
 70
     0
 43
0.0
 10
94.44574243515594
 20
86.06365286476881
 10
94.44574243515594
 20
133.223048198031
  0
LWPOLYLINE
  5
49D2
330
4A47
100
AcDbEntity
  8
Layer 1
 62
     7
370
    13
100
AcDbPolyline
 90
        2
 70
     0
 43
0.0
 10
186.8168483690944
 20
86.06365286476881
 10
186.8168483690944
 20
133.223048198031
  0
LWPOLYLINE
  5
49D3
330
4A47
100
AcDbEntity
  8
Layer 1
 62
     7
370
    13
100
AcDbPolyline
 90
        4
 70
     0
 43
0.0
 10
144.2719861835501
 20
127.2117010858186
 10
144.2719861835501
 20
130.3443264105563
 10
142.7056735211811
 20
128.2276597444188
 10
144.8223401873187
 20
128.2276597444188
  0
LWPOLYLINE
  5
49D4
330
4A47
100
AcDbEntity
  8
Layer 1
 62
     7
370
    13
100
AcDbPolyline
 90
        6
 70
     0
 43
0.0
 10
141.1393608588124
 20
128.7780137481874
 10
141.6473401881125
 20
128.2276597444188
 10
141.6473401881125
 20
127.7196804151187
 10
141.1393608588124
 20
127.2117010858186
 10
140.0810275257436
 20
127.2117010858186
 10
139.5730481964435
 20
127.7196804151187
  0
LWPOLYLINE
  5
49D5
330
4A47
100
AcDbEntity
  8
Layer 1
 62
     7
370
    13
100
AcDbPolyline
 90
        7
 70
     0
 43
0.0
 10
139.5730481964435
 20
129.7939724067876
 10
140.0810275257436
 20
130.3443264105563
 10
141.1393608588124
 20
130.3443264105563
 10
141.6473401881125
 20
129.7939724067876
 10
141.6473401881125
 20
129.2859930774875
 10
141.1393608588124
 20
128.7780137481874
 10
140.6313815295123
 20
128.7780137481874
  0
LWPOLYLINE
  5
49D6
330
4A47
100
AcDbEntity
  8
Layer 1
 62
     7
370
    13
100
AcDbPolyline
 90
        9
 70
     0
 43
0.0
 10
136.4402506169316
 20
127.7196804151187
 10
136.9484022010059
 20
127.2117010858186
 10
138.0067355340747
 20
127.2117010858186
 10
138.5147148633748
 20
127.7196804151187
 10
138.5147148633748
 20
128.7780137481874
 10
138.0067355340747
 20
129.2859930774875
 10
136.4402506169316
 20
129.2859930774875
 10
136.4402506169316
 20
130.3443264105563
 10
138.5147148633748
 20
130.3443264105563
  0
LWPOLYLINE
  5
49D7
330
4A47
100
AcDbEntity
  8
Layer 1
 62
     7
370
     0
100
AcDbPolyline
 90
        4
 70
     0
 43
0.0
 10
183.9805012560882
 20
133.3076252921939
 10
183.9805012560882
 20
132.3340413080623
 10
186.8168483690944
 20
132.8420206373624
 10
183.9805012560882
 20
133.3076252921939
  0
HATCH
  5
49D8
330
4A47
100
AcDbEntity
  8
Layer 1
 62
     7
100
AcDbHatch
 10
0.0
 20
0.0
 30
0.0
210
0.0
220
0.0
230
1.0
  2
SOLID
 70
     1
 71
     0
 91
        1
 92
        1
 93
        3
 72
     1
 10
183.9805012560882
 20
133.3076252921939
 11
183.9805012560882
 21
132.3340413080623
 72
     1
 10
183.9805012560882
 20
132.3340413080623
 11
186.8168483690944
 21
132.8420206373624
 72
     1
 10
186.8168483690944
 20
132.8420206373624
 11
183.9805012560882
 21
133.3076252921939
 97
        0
 75
     0
 76
     1
 98
        0
  0
LWPOLYLINE
  5
49D9
330
4A47
100
AcDbEntity
  8
Layer 1
 62
     7
370
     0
100
AcDbPolyline
 90
        4
 70
     0
 43
0.0
 10
97.28191729338789
 20
133.3076252921939
 10
97.28191729338789
 20
132.3340413080623
 10
94.44574243515594
 20
132.8420206373624
 10
97.28191729338789
 20
133.3076252921939
  0
HATCH
  5
49DA
330
4A47
100
AcDbEntity
  8
Layer 1
 62
     7
100
AcDbHatch
 10
0.0
 20
0.0
 30
0.0
210
0.0
220
0.0
230
1.0
  2
SOLID
 70
     1
 71
     0
 91
        1
 92
        1
 93
        3
 72
     1
 10
97.28191729338789
 20
133.3076252921939
 11
97.28191729338789
 21
132.3340413080623
 72
     1
 10
97.28191729338789
 20
132.3340413080623
 11
94.44574243515594
 21
132.8420206373624
 72
     1
 10
94.44574243515594
 20
132.8420206373624
 11
97.28191729338789
 21
133.3076252921939
 97
        0
 75
     0
 76
     1
 98
        0
  0
LWPOLYLINE
  5
49DB
330
4A47
100
AcDbEntity
  8
Layer 1
 62
     7
370
    13
100
AcDbPolyline
 90
        2
 70
     0
 43
0.0
 10
89.32340221291218
 20
114.7234022065622
 10
89.32340221291218
 20
57.40390352297541
  0
LWPOLYLINE
  5
49DC
330
4A47
100
AcDbEntity
  8
Layer 1
 62
     7
370
    13
100
AcDbPolyline
 90
        2
 70
     0
 43
0.0
 10
140.6313815295123
 20
54.6099310844378
 10
88.89999997777502
 20
54.6099310844378
  0
LWPOLYLINE
  5
49DD
330
4A47
100
AcDbEntity
  8
Layer 1
 62
     7
370
    13
100
AcDbPolyline
 90
        2
 70
     0
 43
0.0
 10
140.6313815295123
 20
117.5173746450998
 10
88.89999997777502
 20
117.5173746450998
  0
LWPOLYLINE
  5
49DE
330
4A47
100
AcDbEntity
  8
Layer 1
 62
     7
370
    13
100
AcDbPolyline
 90
        3
 70
     0
 43
0.0
 10
142.7056735211811
 20
136.4402506169316
 10
144.8223401873187
 20
136.4402506169316
 10
143.2560275249499
 20
133.3076252921939
  0
LWPOLYLINE
  5
49DF
330
4A47
100
AcDbEntity
  8
Layer 1
 62
     7
370
    13
100
AcDbPolyline
 90
        4
 70
     0
 43
0.0
 10
140.0810275257436
 20
134.8739379545627
 10
139.5730481964435
 20
134.323583950794
 10
139.5730481964435
 20
133.815604621494
 10
140.0810275257436
 20
133.3076252921939
  0
LWPOLYLINE
  5
49E0
330
4A47
100
AcDbEntity
  8
Layer 1
 62
     7
370
    13
100
AcDbPolyline
 90
       13
 70
     0
 43
0.0
 10
140.0810275257436
 20
133.3076252921939
 10
141.1393608588124
 20
133.3076252921939
 10
141.6473401881125
 20
133.815604621494
 10
141.6473401881125
 20
134.323583950794
 10
141.1393608588124
 20
134.8739379545627
 10
140.0810275257436
 20
134.8739379545627
 10
139.5730481964435
 20
135.3819172838628
 10
139.5730481964435
 20
135.9322712876315
 10
140.0810275257436
 20
136.4402506169316
 10
141.1393608588124
 20
136.4402506169316
 10
141.6473401881125
 20
135.9322712876315
 10
141.6473401881125
 20
135.3819172838628
 10
141.1393608588124
 20
134.8739379545627
  0
LWPOLYLINE
  5
49E1
330
4A47
100
AcDbEntity
  8
Layer 1
 62
     7
370
    13
100
AcDbPolyline
 90
        9
 70
     0
 43
0.0
 10
136.4402506169316
 20
133.815604621494
 10
136.9484022010059
 20
133.3076252921939
 10
138.0067355340747
 20
133.3076252921939
 10
138.5147148633748
 20
133.815604621494
 10
138.5147148633748
 20
134.8739379545627
 10
138.0067355340747
 20
135.3819172838628
 10
136.4402506169316
 20
135.3819172838628
 10
136.4402506169316
 20
136.4402506169316
 10
138.5147148633748
 20
136.4402506169316
  0
LWPOLYLINE
  5
49E2
330
4A47
100
AcDbEntity
  8
Layer 1
 62
     7
370
     0
100
AcDbPolyline
 90
        4
 70
     0
 43
0.0
 10
88.85762530330643
 20
114.7234022065622
 10
89.78900686774371
 20
114.7234022065622
 10
89.32340221291218
 20
117.5173746450998
 10
88.85762530330643
 20
114.7234022065622
  0
HATCH
  5
49E3
330
4A47
100
AcDbEntity
  8
Layer 1
 62
     7
100
AcDbHatch
 10
0.0
 20
0.0
 30
0.0
210
0.0
220
0.0
230
1.0
  2
SOLID
 70
     1
 71
     0
 91
        1
 92
        1
 93
        3
 72
     1
 10
88.85762530330643
 20
114.7234022065622
 11
89.78900686774371
 21
114.7234022065622
 72
     1
 10
89.78900686774371
 20
114.7234022065622
 11
89.32340221291218
 21
117.5173746450998
 72
     1
 10
89.32340221291218
 20
117.5173746450998
 11
88.85762530330643
 21
114.7234022065622
 97
        0
 75
     0
 76
     1
 98
        0
  0
LWPOLYLINE
  5
49E4
330
4A47
100
AcDbEntity
  8
Layer 1
 62
     7
370
     0
100
AcDbPolyline
 90
        4
 70
     0
 43
0.0
 10
88.85762530330643
 20
57.40390352297541
 10
89.78900686774371
 20
57.40390352297541
 10
89.32340221291218
 20
54.6099310844378
 10
88.85762530330643
 20
57.40390352297541
  0
HATCH
  5
49E5
330
4A47
100
AcDbEntity
  8
Layer 1
 62
     7
100
AcDbHatch
 10
0.0
 20
0.0
 30
0.0
210
0.0
220
0.0
230
1.0
  2
SOLID
 70
     1
 71
     0
 91
        1
 92
        1
 93
        3
 72
     1
 10
88.85762530330643
 20
57.40390352297541
 11
89.78900686774371
 21
57.40390352297541
 72
     1
 10
89.78900686774371
 20
57.40390352297541
 11
89.32340221291218
 21
54.6099310844378
 72
     1
 10
89.32340221291218
 20
54.6099310844378
 11
88.85762530330643
 21
57.40390352297541
 97
        0
 75
     0
 76
     1
 98
        0
  0
LWPOLYLINE
  5
49E6
330
4A47
100
AcDbEntity
  8
Layer 1
 62
     7
370
    13
100
AcDbPolyline
 90
        2
 70
     0
 43
0.0
 10
82.97340221449969
 20
118.8719861899
 10
82.97340221449969
 20
53.25531953963757
  0
LWPOLYLINE
  5
49E7
330
4A47
100
AcDbEntity
  8
Layer 1
 62
     7
370
    13
100
AcDbPolyline
 90
        2
 70
     0
 43
0.0
 10
140.6313815295123
 20
50.41897242663136
 10
82.5499999793625
 20
50.41897242663136
  0
LWPOLYLINE
  5
49E8
330
4A47
100
AcDbEntity
  8
Layer 1
 62
     7
370
    13
100
AcDbPolyline
 90
        2
 70
     0
 43
0.0
 10
140.6313815295123
 20
121.7083333029062
 10
82.5499999793625
 20
121.7083333029062
  0
LWPOLYLINE
  5
49E9
330
4A47
100
AcDbEntity
  8
Layer 1
 62
     7
370
    13
100
AcDbPolyline
 90
        9
 70
     0
 43
0.0
 10
88.85762530330643
 20
88.68847111498066
 10
88.85762530330643
 20
89.19627818950649
 10
88.30727129953777
 20
89.74680444804944
 10
86.23297930786884
 20
89.74680444804944
 10
85.68262530410018
 20
89.19627818950649
 10
85.68262530410018
 20
88.68847111498066
 10
86.23297930786884
 20
88.18031953090631
 10
88.30727129953777
 20
88.18031953090631
 10
88.85762530330643
 20
88.68847111498066
  0
LWPOLYLINE
  5
49EA
330
4A47
100
AcDbEntity
  8
Layer 1
 62
     7
370
    13
100
AcDbPolyline
 90
        9
 70
     0
 43
0.0
 10
88.85762530330643
 20
86.06365286476881
 10
88.85762530330643
 20
86.57180444884316
 10
88.30727129953777
 20
87.12198619783753
 10
86.23297930786884
 20
87.12198619783753
 10
85.68262530410018
 20
86.57180444884316
 10
85.68262530410018
 20
86.06365286476881
 10
86.23297930786884
 20
85.55550128069446
 10
88.30727129953777
 20
85.55550128069446
 10
88.85762530330643
 20
86.06365286476881
  0
LWPOLYLINE
  5
49EB
330
4A47
100
AcDbEntity
  8
Layer 1
 62
     7
370
    13
100
AcDbPolyline
 90
        4
 70
     0
 43
0.0
 10
88.85762530330643
 20
83.94698619863133
 10
85.68262530410018
 20
83.94698619863133
 10
87.79929197023767
 20
82.38050128148818
 10
87.79929197023767
 20
84.4971679476257
  0
LWPOLYLINE
  5
49EC
330
4A47
100
AcDbEntity
  8
Layer 1
 62
     7
370
     0
100
AcDbPolyline
 90
        4
 70
     0
 43
0.0
 10
82.46525063042536
 20
118.8719861899
 10
83.43900686933123
 20
118.8719861899
 10
82.97340221449969
 20
121.7083333029062
 10
82.46525063042536
 20
118.8719861899
  0
HATCH
  5
49ED
330
4A47
100
AcDbEntity
  8
Layer 1
 62
     7
100
AcDbHatch
 10
0.0
 20
0.0
 30
0.0
210
0.0
220
0.0
230
1.0
  2
SOLID
 70
     1
 71
     0
 91
        1
 92
        1
 93
        3
 72
     1
 10
82.46525063042536
 20
118.8719861899
 11
83.43900686933123
 21
118.8719861899
 72
     1
 10
83.43900686933123
 20
118.8719861899
 11
82.97340221449969
 21
121.7083333029062
 72
     1
 10
82.97340221449969
 20
121.7083333029062
 11
82.46525063042536
 21
118.8719861899
 97
        0
 75
     0
 76
     1
 98
        0
  0
LWPOLYLINE
  5
49EE
330
4A47
100
AcDbEntity
  8
Layer 1
 62
     7
370
     0
100
AcDbPolyline
 90
        4
 70
     0
 43
0.0
 10
82.46525063042536
 20
53.25531953963757
 10
83.43900686933123
 20
53.25531953963757
 10
82.97340221449969
 20
50.41897242663136
 10
82.46525063042536
 20
53.25531953963757
  0
HATCH
  5
49EF
330
4A47
100
AcDbEntity
  8
Layer 1
 62
     7
100
AcDbHatch
 10
0.0
 20
0.0
 30
0.0
210
0.0
220
0.0
230
1.0
  2
SOLID
 70
     1
 71
     0
 91
        1
 92
        1
 93
        3
 72
     1
 10
82.46525063042536
 20
53.25531953963757
 11
83.43900686933123
 21
53.25531953963757
 72
     1
 10
83.43900686933123
 20
53.25531953963757
 11
82.97340221449969
 21
50.41897242663136
 72
     1
 10
82.97340221449969
 20
50.41897242663136
 11
82.46525063042536
 21
53.25531953963757
 97
        0
 75
     0
 76
     1
 98
        0
  0
LWPOLYLINE
  5
49F0
330
4A47
100
AcDbEntity
  8
Layer 1
 62
     7
370
    13
100
AcDbPolyline
 90
        2
 70
     0
 43
0.0
 10
166.8356390641939
 20
101.5576253001314
 10
181.3984021898934
 20
107.4420206437124
  0
LWPOLYLINE
  5
49F1
330
4A47
100
AcDbEntity
  8
Layer 1
 62
     7
370
    13
100
AcDbPolyline
 90
        9
 70
     0
 43
0.0
 10
205.0203884036061
 20
111.9292575132503
 10
205.4861653132118
 20
111.9292575132503
 10
205.951597713269
 20
112.3950344228561
 10
205.951597713269
 20
114.299999971425
 10
205.4861653132118
 20
114.7656046262565
 10
205.0203884036061
 20
114.7656046262565
 10
204.5546114940003
 20
114.299999971425
 10
204.5546114940003
 20
112.3950344228561
 10
205.0203884036061
 20
111.9292575132503
  0
LWPOLYLINE
  5
49F2
330
4A47
100
AcDbEntity
  8
Layer 1
 62
     7
370
    13
100
AcDbPolyline
 90
        9
 70
     0
 43
0.0
 10
202.6498182002056
 20
111.9292575132503
 10
203.1152506002629
 20
111.9292575132503
 10
203.5810275098687
 20
112.3950344228561
 10
203.5810275098687
 20
114.299999971425
 10
203.1152506002629
 20
114.7656046262565
 10
202.6498182002056
 20
114.7656046262565
 10
202.1840412905998
 20
114.299999971425
 10
202.1840412905998
 20
112.3950344228561
 10
202.6498182002056
 20
111.9292575132503
  0
LWPOLYLINE
  5
49F3
330
4A47
100
AcDbEntity
  8
Layer 1
 62
     7
370
    13
100
AcDbPolyline
 90
        3
 70
     0
 43
0.0
 10
200.787055071331
 20
111.9292575132503
 10
200.787055071331
 20
114.7656046262565
 10
200.2789034872567
 20
114.299999971425
  0
LWPOLYLINE
  5
49F4
330
4A47
100
AcDbEntity
  8
Layer 1
 62
     7
370
    13
100
AcDbPolyline
 90
        2
 70
     0
 43
0.0
 10
200.2789034872567
 20
111.9292575132503
 10
201.2528319809368
 20
111.9292575132503
  0
LWPOLYLINE
  5
49F5
330
4A47
100
AcDbEntity
  8
Layer 1
 62
     7
370
    13
100
AcDbPolyline
 90
        2
 70
     0
 43
0.0
 10
197.9507079583248
 20
113.3264159872934
 10
199.3476941775936
 20
111.9292575132503
  0
LWPOLYLINE
  5
49F6
330
4A47
100
AcDbEntity
  8
Layer 1
 62
     7
370
    13
100
AcDbPolyline
 90
        7
 70
     0
 43
0.0
 10
197.4425563742505
 20
111.9292575132503
 10
197.4425563742505
 20
114.7656046262565
 10
198.8819172679878
 20
114.7656046262565
 10
199.3476941775936
 20
114.299999971425
 10
199.3476941775936
 20
113.7920206421249
 10
198.8819172679878
 20
113.3264159872934
 10
197.4425563742505
 20
113.3264159872934
  0
LWPOLYLINE
  5
49F7
330
4A47
100
AcDbEntity
  8
Layer 1
 62
     7
370
    13
100
AcDbPolyline
 90
        2
 70
     0
 43
0.0
 10
194.6485839357128
 20
113.3264159872934
 10
196.5113470645874
 20
113.3264159872934
  0
LWPOLYLINE
  5
49F8
330
4A47
100
AcDbEntity
  8
Layer 1
 62
     7
370
    13
100
AcDbPolyline
 90
        4
 70
     0
 43
0.0
 10
193.2092230419755
 20
111.9292575132503
 10
193.2092230419755
 20
114.7656046262565
 10
191.8122368227066
 20
112.8606390776876
 10
193.6749999515813
 20
112.8606390776876
  0
LWPOLYLINE
  5
49F9
330
4A47
100
AcDbEntity
  8
Layer 1
 62
     7
370
    13
100
AcDbPolyline
 90
        3
 70
     0
 43
0.0
 10
205.951597713269
 20
111.4636528584188
 10
191.3468044226494
 20
111.4636528584188
 10
183.3031954836881
 20
108.2040757650497
  0
LWPOLYLINE
  5
49FA
330
4A47
100
AcDbEntity
  8
Layer 1
 62
     7
370
    13
100
AcDbPolyline
 90
        6
 70
     0
 43
0.0
 10
80.89893796805652
 20
89.74680444804944
 10
81.44929197182518
 20
90.25461152257523
 10
81.95727130112528
 20
90.25461152257523
 10
82.46525063042536
 20
89.74680444804944
 10
82.46525063042536
 20
88.68847111498066
 10
81.95727130112528
 20
88.18031953090631
  0
LWPOLYLINE
  5
49FB
330
4A47
100
AcDbEntity
  8
Layer 1
 62
     7
370
    13
100
AcDbPolyline
 90
        7
 70
     0
 43
0.0
 10
79.84060463498777
 20
88.18031953090631
 10
79.33262530568768
 20
88.68847111498066
 10
79.33262530568768
 20
89.74680444804944
 10
79.84060463498777
 20
90.25461152257523
 10
80.39095863875642
 20
90.25461152257523
 10
80.89893796805652
 20
89.74680444804944
 10
80.89893796805652
 20
89.19627818950649
  0
LWPOLYLINE
  5
49FC
330
4A47
100
AcDbEntity
  8
Layer 1
 62
     7
370
    13
100
AcDbPolyline
 90
        9
 70
     0
 43
0.0
 10
81.95727130112528
 20
85.00531953170005
 10
82.46525063042536
 20
85.55550128069446
 10
82.46525063042536
 20
86.57180444884316
 10
81.95727130112528
 20
87.12198619783753
 10
80.89893796805652
 20
87.12198619783753
 10
80.39095863875642
 20
86.57180444884316
 10
80.39095863875642
 20
85.00531953170005
 10
79.33262530568768
 20
85.00531953170005
 10
79.33262530568768
 20
87.12198619783753
  0
LWPOLYLINE
  5
49FD
330
4A47
100
AcDbEntity
  8
Layer 1
 62
     7
370
    13
100
AcDbPolyline
 90
        4
 70
     0
 43
0.0
 10
82.46525063042536
 20
83.43883461455694
 10
79.33262530568768
 20
83.43883461455694
 10
81.44929197182518
 20
81.87269420696237
 10
81.44929197182518
 20
83.94698619863133
  0
LWPOLYLINE
  5
49FE
330
4A47
100
AcDbEntity
  8
Layer 1
 62
     7
370
     0
100
AcDbPolyline
 90
        4
 70
     0
 43
0.0
 10
183.1764159698309
 20
108.5427286512497
 10
183.4303195070938
 20
107.9076252985439
 10
181.3984021898934
 20
107.4420206437124
 10
183.1764159698309
 20
108.5427286512497
  0
HATCH
  5
49FF
330
4A47
100
AcDbEntity
  8
Layer 1
 62
     7
100
AcDbHatch
 10
0.0
 20
0.0
 30
0.0
210
0.0
220
0.0
230
1.0
  2
SOLID
 70
     1
 71
     0
 91
        1
 92
        1
 93
        3
 72
     1
 10
183.1764159698309
 20
108.5427286512497
 11
183.4303195070938
 21
107.9076252985439
 72
     1
 10
183.4303195070938
 20
107.9076252985439
 11
181.3984021898934
 21
107.4420206437124
 72
     1
 10
181.3984021898934
 20
107.4420206437124
 11
183.1764159698309
 21
108.5427286512497
 97
        0
 75
     0
 76
     1
 98
        0
  0
LWPOLYLINE
  5
4A00
330
4A47
100
AcDbEntity
  8
Layer 1
 62
     7
370
    13
100
AcDbPolyline
 90
        2
 70
     0
 43
0.0
 10
166.8356390641939
 20
101.5576253001314
 10
183.853721742231
 20
111.8446804190874
  0
LWPOLYLINE
  5
4A01
330
4A47
100
AcDbEntity
  8
Layer 1
 62
     7
370
    13
100
AcDbPolyline
 90
        9
 70
     0
 43
0.0
 10
208.8726941752124
 20
117.4749999706312
 10
209.3384710848182
 20
117.0093953157997
 10
210.2696803944812
 20
117.0093953157997
 10
210.735457304087
 20
117.4749999706312
 10
210.735457304087
 20
118.4485839547628
 10
210.2696803944812
 20
118.9143608643686
 10
208.8726941752124
 20
118.9143608643686
 10
208.8726941752124
 20
119.8457424288059
 10
210.735457304087
 20
119.8457424288059
  0
LWPOLYLINE
  5
4A02
330
4A47
100
AcDbEntity
  8
Layer 1
 62
     7
370
    13
100
AcDbPolyline
 90
        3
 70
     0
 43
0.0
 10
207.433333281475
 20
116.5436184061939
 10
207.8991101910808
 20
117.0093953157997
 10
207.8991101910808
 20
117.4749999706312
  0
LWPOLYLINE
  5
4A03
330
4A47
100
AcDbEntity
  8
Layer 1
 62
     7
370
    13
100
AcDbPolyline
 90
       10
 70
     0
 43
0.0
 10
204.5969861684688
 20
118.4485839547628
 10
206.0363470622062
 20
118.4485839547628
 10
206.502123971812
 20
117.9406046254627
 10
206.502123971812
 20
117.4749999706312
 10
206.0363470622062
 20
117.0093953157997
 10
205.1051377525431
 20
117.0093953157997
 10
204.5969861684688
 20
117.4749999706312
 10
204.5969861684688
 20
118.9143608643686
 10
205.5705701526004
 20
119.8457424288059
 10
206.0363470622062
 20
119.8457424288059
  0
LWPOLYLINE
  5
4A04
330
4A47
100
AcDbEntity
  8
Layer 1
 62
     7
370
    13
100
AcDbPolyline
 90
       10
 70
     0
 43
0.0
 10
201.8030137299312
 20
119.3799655192001
 10
202.268790639537
 20
119.8457424288059
 10
203.1999999492
 20
119.8457424288059
 10
203.6657768588058
 20
119.3799655192001
 10
203.6657768588058
 20
118.9143608643686
 10
203.1999999492
 20
118.4485839547628
 10
202.268790639537
 20
118.4485839547628
 10
201.8030137299312
 20
117.9406046254627
 10
201.8030137299312
 20
117.0093953157997
 10
203.6657768588058
 20
117.0093953157997
  0
LWPOLYLINE
  5
4A05
330
4A47
100
AcDbEntity
  8
Layer 1
 62
     7
370
    13
100
AcDbPolyline
 90
        3
 70
     0
 43
0.0
 10
200.3636528361938
 20
117.0093953157997
 10
200.3636528361938
 20
119.8457424288059
 10
199.897875926588
 20
119.3799655192001
  0
LWPOLYLINE
  5
4A06
330
4A47
100
AcDbEntity
  8
Layer 1
 62
     7
370
    13
100
AcDbPolyline
 90
        2
 70
     0
 43
0.0
 10
199.897875926588
 20
117.0093953157997
 10
200.8294297457996
 20
117.0093953157997
  0
LWPOLYLINE
  5
4A07
330
4A47
100
AcDbEntity
  8
Layer 1
 62
     7
370
    13
100
AcDbPolyline
 90
        2
 70
     0
 43
0.0
 10
197.5273057231876
 20
118.4485839547628
 10
198.966666616925
 20
117.0093953157997
  0
LWPOLYLINE
  5
4A08
330
4A47
100
AcDbEntity
  8
Layer 1
 62
     7
370
    13
100
AcDbPolyline
 90
        7
 70
     0
 43
0.0
 10
197.0615288135818
 20
117.0093953157997
 10
197.0615288135818
 20
119.8457424288059
 10
198.4585150328507
 20
119.8457424288059
 10
198.966666616925
 20
119.3799655192001
 10
198.966666616925
 20
118.9143608643686
 10
198.4585150328507
 20
118.4485839547628
 10
197.0615288135818
 20
118.4485839547628
  0
LWPOLYLINE
  5
4A09
330
4A47
100
AcDbEntity
  8
Layer 1
 62
     7
370
    13
100
AcDbPolyline
 90
        2
 70
     0
 43
0.0
 10
194.2251817005756
 20
118.4485839547628
 10
196.1303195039188
 20
118.4485839547628
  0
LWPOLYLINE
  5
4A0A
330
4A47
100
AcDbEntity
  8
Layer 1
 62
     7
370
    13
100
AcDbPolyline
 90
        4
 70
     0
 43
0.0
 10
192.8281954813068
 20
117.0093953157997
 10
192.8281954813068
 20
119.8457424288059
 10
191.3888345875695
 20
117.9406046254627
 10
193.2939723909126
 20
117.9406046254627
  0
LWPOLYLINE
  5
4A0B
330
4A47
100
AcDbEntity
  8
Layer 1
 62
     7
370
    13
100
AcDbPolyline
 90
        3
 70
     0
 43
0.0
 10
210.735457304087
 20
116.0780137513624
 10
190.9234021875121
 20
116.0780137513624
 10
185.6317355221684
 20
112.8606390776876
  0
LWPOLYLINE
  5
4A0C
330
4A47
100
AcDbEntity
  8
Layer 1
 62
     7
370
     0
100
AcDbPolyline
 90
        4
 70
     0
 43
0.0
 10
185.4622368242941
 20
113.1569172894191
 10
185.8008897104942
 20
112.6067355404247
 10
183.853721742231
 20
111.8446804190874
 10
185.4622368242941
 20
113.1569172894191
  0
HATCH
  5
4A0D
330
4A47
100
AcDbEntity
  8
Layer 1
 62
     7
100
AcDbHatch
 10
0.0
 20
0.0
 30
0.0
210
0.0
220
0.0
230
1.0
  2
SOLID
 70
     1
 71
     0
 91
        1
 92
        1
 93
        3
 72
     1
 10
185.4622368242941
 20
113.1569172894191
 11
185.8008897104942
 21
112.6067355404247
 72
     1
 10
185.8008897104942
 20
112.6067355404247
 11
183.853721742231
 21
111.8446804190874
 72
     1
 10
183.853721742231
 20
111.8446804190874
 11
185.4622368242941
 21
113.1569172894191
 97
        0
 75
     0
 76
     1
 98
        0
  0
LWPOLYLINE
  5
4A0E
330
4A47
100
AcDbEntity
  8
Layer 1
 62
     7
370
    30
100
AcDbPolyline
 90
        3
 70
     0
 43
0.0
 10
183.7265977188253
 20
183.4726941815624
 10
186.8168483690944
 20
183.4726941815624
 10
186.8168483690944
 20
183.684395299131
  0
LWPOLYLINE
  5
4A0F
330
4A47
100
AcDbEntity
  8
Layer 1
 62
     7
370
    30
100
AcDbPolyline
 90
        2
 70
     0
 43
0.0
 10
94.44574243515594
 20
183.684395299131
 10
186.8168483690944
 20
183.684395299131
  0
LWPOLYLINE
  5
4A10
330
4A47
100
AcDbEntity
  8
Layer 1
 62
     7
370
    30
100
AcDbPolyline
 90
        2
 70
     0
 43
0.0
 10
140.6313815295123
 20
147.0235839476191
 10
149.6060275233624
 20
147.0235839476191
  0
LWPOLYLINE
  5
4A11
330
4A47
100
AcDbEntity
  8
Layer 1
 62
     7
370
    30
100
AcDbPolyline
 90
        2
 70
     0
 43
0.0
 10
140.6313815295123
 20
146.346278175219
 10
147.8280137434249
 20
146.346278175219
  0
LWPOLYLINE
  5
4A12
330
4A47
100
AcDbEntity
  8
Layer 1
 62
     7
370
    30
100
AcDbPolyline
 90
        2
 70
     0
 43
0.0
 10
140.6313815295123
 20
146.5579792927876
 10
147.7856390689564
 20
146.5579792927876
  0
LWPOLYLINE
  5
4A13
330
4A47
100
AcDbEntity
  8
Layer 1
 62
     7
370
    30
100
AcDbPolyline
 90
        2
 70
     0
 43
0.0
 10
140.6313815295123
 20
147.6586873003249
 10
150.0718044329682
 20
147.6586873003249
  0
LWPOLYLINE
  5
4A14
330
4A47
100
AcDbEntity
  8
Layer 1
 62
     7
370
    13
100
AcDbPolyline
 90
        2
 70
     0
 43
0.0
 10
140.6313815295123
 20
178.9007079630873
 10
140.6313815295123
 20
185.2507079614998
  0
LWPOLYLINE
  5
4A15
330
4A47
100
AcDbEntity
  8
Layer 1
 62
     7
370
    13
100
AcDbPolyline
 90
        2
 70
     0
 43
0.0
 10
140.6313815295123
 20
176.9109930655813
 10
140.6313815295123
 20
177.9269517241814
  0
LWPOLYLINE
  5
4A16
330
4A47
100
AcDbEntity
  8
Layer 1
 62
     7
370
    13
100
AcDbPolyline
 90
        2
 70
     0
 43
0.0
 10
140.6313815295123
 20
170.8996459533688
 10
140.6313815295123
 20
175.8950344069811
  0
LWPOLYLINE
  5
4A17
330
4A47
100
AcDbEntity
  8
Layer 1
 62
     7
370
    13
100
AcDbPolyline
 90
        2
 70
     0
 43
0.0
 10
140.6313815295123
 20
168.9099310558628
 10
140.6313815295123
 20
169.9260619692372
  0
LWPOLYLINE
  5
4A18
330
4A47
100
AcDbEntity
  8
Layer 1
 62
     7
370
    13
100
AcDbPolyline
 90
        2
 70
     0
 43
0.0
 10
140.6313815295123
 20
162.9409586181189
 10
140.6313815295123
 20
167.9363470717311
  0
LWPOLYLINE
  5
4A19
330
4A47
100
AcDbEntity
  8
Layer 1
 62
     7
370
    13
100
AcDbPolyline
 90
        2
 70
     0
 43
0.0
 10
140.6313815295123
 20
160.9090413009186
 10
140.6313815295123
 20
161.9249999595187
  0
LWPOLYLINE
  5
4A1A
330
4A47
100
AcDbEntity
  8
Layer 1
 62
     7
370
    13
100
AcDbPolyline
 90
        2
 70
     0
 43
0.0
 10
140.6313815295123
 20
154.9400688631747
 10
140.6313815295123
 20
159.9352850620127
  0
LWPOLYLINE
  5
4A1B
330
4A47
100
AcDbEntity
  8
Layer 1
 62
     7
370
    13
100
AcDbPolyline
 90
        2
 70
     0
 43
0.0
 10
140.6313815295123
 20
152.9503539656687
 10
140.6313815295123
 20
153.9239379498001
  0
LWPOLYLINE
  5
4A1C
330
4A47
100
AcDbEntity
  8
Layer 1
 62
     7
370
    13
100
AcDbPolyline
 90
        2
 70
     0
 43
0.0
 10
140.6313815295123
 20
145.584395308656
 10
140.6313815295123
 20
151.9343953070685
  0
LWPOLYLINE
  5
4A1D
330
4A47
100
AcDbEntity
  8
Layer 1
 62
     7
370
    30
100
AcDbPolyline
 90
        2
 70
     0
 43
0.0
 10
131.0640068574249
 20
147.4469861827563
 10
108.9659586316127
 20
148.4207424216621
  0
LWPOLYLINE
  5
4A1E
330
4A47
100
AcDbEntity
  8
Layer 1
 62
     7
370
    30
100
AcDbPolyline
 90
        2
 70
     0
 43
0.0
 10
131.1909586260564
 20
147.6586873003249
 10
109.0083333060812
 20
148.6322712844565
  0
LWPOLYLINE
  5
4A1F
330
4A47
100
AcDbEntity
  8
Layer 1
 62
     7
370
    30
100
AcDbPolyline
 90
        2
 70
     0
 43
0.0
 10
131.5296115122565
 20
146.8542575045191
 10
133.4347493155996
 20
146.346278175219
  0
LWPOLYLINE
  5
4A20
330
4A47
100
AcDbEntity
  8
Layer 1
 62
     7
370
    30
100
AcDbPolyline
 90
        2
 70
     0
 43
0.0
 10
131.6567355356622
 20
147.0235839476191
 10
133.4347493155996
 20
146.5579792927876
  0
LWPOLYLINE
  5
4A21
330
4A47
100
AcDbEntity
  8
Layer 1
 62
     7
370
    30
100
AcDbPolyline
 90
        2
 70
     0
 43
0.0
 10
131.0640068574249
 20
147.4469861827563
 10
131.5296115122565
 20
146.8542575045191
  0
LWPOLYLINE
  5
4A22
330
4A47
100
AcDbEntity
  8
Layer 1
 62
     7
370
    30
100
AcDbPolyline
 90
        2
 70
     0
 43
0.0
 10
131.1909586260564
 20
147.6586873003249
 10
131.6567355356622
 20
147.0235839476191
  0
LWPOLYLINE
  5
4A23
330
4A47
100
AcDbEntity
  8
Layer 1
 62
     7
370
    30
100
AcDbPolyline
 90
       10
 70
     0
 43
0.0
 10
99.779611520194
 20
157.5223401841437
 10
99.99131263776259
 20
155.9984021962434
 10
100.4569172925941
 20
154.4742919535689
 10
101.1765977394628
 20
153.0773057343001
 10
102.0656046294315
 20
151.7650688639684
 10
103.2086873114374
 20
150.6643608564311
 10
104.4787217620747
 20
149.7753539664624
 10
105.9180826558121
 20
149.0556735195936
 10
107.3996459692438
 20
148.6322712844565
 10
108.9659586316127
 20
148.4207424216621
  0
LWPOLYLINE
  5
4A24
330
4A47
100
AcDbEntity
  8
Layer 1
 62
     7
370
    30
100
AcDbPolyline
 90
       10
 70
     0
 43
0.0
 10
99.99131263776259
 20
157.5647148586123
 10
100.1606390808626
 20
155.9984021962434
 10
100.6264159904684
 20
154.5590413025061
 10
101.3037217628685
 20
153.1620550832372
 10
102.2349310725315
 20
151.8920206325999
 10
103.3356390800688
 20
150.8336872995311
 10
104.5632988562376
 20
149.9446804095624
 10
105.9602850755064
 20
149.2673746371623
 10
107.4420206437124
 20
148.8015977275565
 10
109.0083333060812
 20
148.6322712844565
  0
LWPOLYLINE
  5
4A25
330
4A47
100
AcDbEntity
  8
Layer 1
 62
     7
370
    30
100
AcDbPolyline
 90
        2
 70
     0
 43
0.0
 10
140.6313815295123
 20
147.0235839476191
 10
131.6567355356622
 20
147.0235839476191
  0
LWPOLYLINE
  5
4A26
330
4A47
100
AcDbEntity
  8
Layer 1
 62
     7
370
    30
100
AcDbPolyline
 90
        2
 70
     0
 43
0.0
 10
140.6313815295123
 20
146.346278175219
 10
133.4347493155996
 20
146.346278175219
  0
LWPOLYLINE
  5
4A27
330
4A47
100
AcDbEntity
  8
Layer 1
 62
     7
370
    30
100
AcDbPolyline
 90
        2
 70
     0
 43
0.0
 10
140.6313815295123
 20
146.5579792927876
 10
133.4347493155996
 20
146.5579792927876
  0
LWPOLYLINE
  5
4A28
330
4A47
100
AcDbEntity
  8
Layer 1
 62
     7
370
    30
100
AcDbPolyline
 90
        2
 70
     0
 43
0.0
 10
140.6313815295123
 20
147.6586873003249
 10
131.1909586260564
 20
147.6586873003249
  0
LWPOLYLINE
  5
4A29
330
4A47
100
AcDbEntity
  8
Layer 1
 62
     7
370
    30
100
AcDbPolyline
 90
        2
 70
     0
 43
0.0
 10
150.1562092723568
 20
147.4469861827563
 10
172.2544297529433
 20
148.4207424216621
  0
LWPOLYLINE
  5
4A2A
330
4A47
100
AcDbEntity
  8
Layer 1
 62
     7
370
    30
100
AcDbPolyline
 90
        2
 70
     0
 43
0.0
 10
150.0718044329682
 20
147.6586873003249
 10
172.2544297529433
 20
148.6322712844565
  0
LWPOLYLINE
  5
4A2B
330
4A47
100
AcDbEntity
  8
Layer 1
 62
     7
370
    30
100
AcDbPolyline
 90
        2
 70
     0
 43
0.0
 10
149.6907768722995
 20
146.8542575045191
 10
147.8280137434249
 20
146.346278175219
  0
LWPOLYLINE
  5
4A2C
330
4A47
100
AcDbEntity
  8
Layer 1
 62
     7
370
    30
100
AcDbPolyline
 90
        2
 70
     0
 43
0.0
 10
149.6060275233624
 20
147.0235839476191
 10
147.7856390689564
 20
146.5579792927876
  0
LWPOLYLINE
  5
4A2D
330
4A47
100
AcDbEntity
  8
Layer 1
 62
     7
370
    30
100
AcDbPolyline
 90
        2
 70
     0
 43
0.0
 10
150.1562092723568
 20
147.4469861827563
 10
149.6907768722995
 20
146.8542575045191
  0
LWPOLYLINE
  5
4A2E
330
4A47
100
AcDbEntity
  8
Layer 1
 62
     7
370
    30
100
AcDbPolyline
 90
        2
 70
     0
 43
0.0
 10
150.0718044329682
 20
147.6586873003249
 10
149.6060275233624
 20
147.0235839476191
  0
LWPOLYLINE
  5
4A2F
330
4A47
100
AcDbEntity
  8
Layer 1
 62
     7
370
    30
100
AcDbPolyline
 90
       37
 70
     0
 43
0.0
 10
147.7856390689564
 20
86.06365286476881
 10
147.6586873003249
 20
87.29148489571185
 10
147.3624090885934
 20
88.51897241710636
 10
146.8120550848247
 20
89.66205509911226
 10
146.0923746379561
 20
90.67801375771244
 10
145.2457424224559
 20
91.56684839290692
 10
144.1874090893872
 20
92.28652883977558
 10
143.0867010818498
 20
92.79468042384994
 10
141.859041305681
 20
93.13333331004999
 10
140.6313815295123
 20
93.21808265898715
 10
139.3613470788749
 20
93.13333331004999
 10
138.1760619771747
 20
92.79468042384994
 10
137.0329792951688
 20
92.28652883977558
 10
136.0170206365687
 20
91.56684839290692
 10
135.1280137465999
 20
90.67801375771244
 10
134.4083332997312
 20
89.66205509911226
 10
133.9003539704311
 20
88.51897241710636
 10
133.5617010842311
 20
87.29148489571185
 10
133.4347493155996
 20
86.06365286476881
 10
133.5617010842311
 20
84.8361653433743
 10
133.9003539704311
 20
83.60833331243126
 10
134.4083332997312
 20
82.46525063042536
 10
135.1280137465999
 20
81.44929197182518
 10
136.0170206365687
 20
80.56045733663072
 10
137.0329792951688
 20
79.84077688976203
 10
138.1760619771747
 20
79.33262530568768
 10
139.3613470788749
 20
78.99397241948761
 10
140.6313815295123
 20
78.90922307055048
 10
141.859041305681
 20
78.99397241948761
 10
143.0867010818498
 20
79.33262530568768
 10
144.1874090893872
 20
79.84077688976203
 10
145.2457424224559
 20
80.56045733663072
 10
146.0923746379561
 20
81.44929197182518
 10
146.8120550848247
 20
82.46525063042536
 10
147.3624090885934
 20
83.60833331243126
 10
147.6586873003249
 20
84.8361653433743
 10
147.7856390689564
 20
86.06365286476881
  0
LWPOLYLINE
  5
4A30
330
4A47
100
AcDbEntity
  8
Layer 1
 62
     7
370
    30
100
AcDbPolyline
 90
       41
 70
     0
 43
0.0
 10
149.6060275233624
 20
86.06365286476881
 10
149.4789034999566
 20
87.46063908403762
 10
149.1402506137566
 20
88.81525062883786
 10
148.5900688647622
 20
90.12783200871806
 10
147.8703884178935
 20
91.35531953011257
 10
146.9390068534562
 20
92.4136528631813
 10
145.8806735203875
 20
93.30283200792429
 10
144.6953884186872
 20
94.06454261971303
 10
143.3829792935813
 20
94.57269420378741
 10
142.0283677487811
 20
94.91134708998743
 10
140.6313815295123
 20
95.03847111339316
 10
139.2343953102435
 20
94.91134708998743
 10
137.8374090909747
 20
94.57269420378741
 10
136.5249999658687
 20
94.06454261971303
 10
135.3397148641685
 20
93.30283200792429
 10
134.2813815310998
 20
92.4136528631813
 10
133.3499999666625
 20
91.35531953011257
 10
132.6303195197938
 20
90.12783200871806
 10
132.079965516025
 20
88.81525062883786
 10
131.7413126298251
 20
87.46063908403762
 10
131.6567355356622
 20
86.06365286476881
 10
131.7413126298251
 20
84.6666666455
 10
132.079965516025
 20
83.2696804262312
 10
132.6303195197938
 20
81.99981823036811
 10
133.3499999666625
 20
80.77198619942505
 10
134.2813815310998
 20
79.71365286635631
 10
135.3397148641685
 20
78.82481823116186
 10
136.5249999658687
 20
78.06276310982458
 10
137.8374090909747
 20
77.51223685128167
 10
139.2343953102435
 20
77.2159586395502
 10
140.6313815295123
 20
77.08883461614447
 10
142.0283677487811
 20
77.2159586395502
 10
143.3829792935813
 20
77.51223685128167
 10
144.6953884186872
 20
78.06276310982458
 10
145.8806735203875
 20
78.82481823116186
 10
146.9390068534562
 20
79.71365286635631
 10
147.8703884178935
 20
80.77198619942505
 10
148.5900688647622
 20
81.99981823036811
 10
149.1402506137566
 20
83.2696804262312
 10
149.4789034999566
 20
84.6666666455
 10
149.6060275233624
 20
86.06365286476881
  0
LWPOLYLINE
  5
4A31
330
4A47
100
AcDbEntity
  8
Layer 1
 62
     7
370
    30
100
AcDbPolyline
 90
       41
 70
     0
 43
0.0
 10
150.0718044329682
 20
86.06365286476881
 10
149.9446804095624
 20
87.54538843297476
 10
149.6060275233624
 20
88.98474932671215
 10
149.0134710998994
 20
90.33936087151236
 10
148.2514159785621
 20
91.60922306737548
 10
147.2776597396563
 20
92.75230574938136
 10
146.1769517321189
 20
93.6835150590444
 10
144.9069172814816
 20
94.48794485485024
 10
143.5523057366814
 20
95.03847111339316
 10
142.112944842944
 20
95.37712399959323
 10
140.6313815295123
 20
95.50390351345042
 10
139.1496459613063
 20
95.37712399959323
 10
137.7102850675689
 20
95.03847111339316
 10
136.3132988483001
 20
94.48794485485024
 10
135.0856390721314
 20
93.6835150590444
 10
133.9427286448997
 20
92.75230574938136
 10
132.9689724059939
 20
91.60922306737548
 10
132.2069172846566
 20
90.33936087151236
 10
131.6567355356622
 20
88.98474932671215
 10
131.2757079749935
 20
87.54538843297476
 10
131.1909586260564
 20
86.06365286476881
 10
131.2757079749935
 20
84.58191729656286
 10
131.6567355356622
 20
83.14255640282549
 10
132.2069172846566
 20
81.78794485802525
 10
132.9689724059939
 20
80.51808266216214
 10
133.9427286448997
 20
79.37499998015623
 10
135.0856390721314
 20
78.44379067049323
 10
136.3132988483001
 20
77.63936087468739
 10
137.7102850675689
 20
77.08883461614447
 10
139.1496459613063
 20
76.75018172994441
 10
140.6313815295123
 20
76.62340221608721
 10
142.112944842944
 20
76.75018172994441
 10
143.5523057366814
 20
77.08883461614447
 10
144.9069172814816
 20
77.63936087468739
 10
146.1769517321189
 20
78.44379067049323
 10
147.2776597396563
 20
79.37499998015623
 10
148.2514159785621
 20
80.51808266216214
 10
149.0134710998994
 20
81.78794485802525
 10
149.6060275233624
 20
83.14255640282549
 10
149.9446804095624
 20
84.58191729656286
 10
150.0718044329682
 20
86.06365286476881
  0
LWPOLYLINE
  5
4A32
330
4A47
100
AcDbEntity
  8
Layer 1
 62
     7
370
    30
100
AcDbPolyline
 90
        2
 70
     0
 43
0.0
 10
98.46737464986231
 20
182.5836872915935
 10
99.779611520194
 20
157.5223401841437
  0
LWPOLYLINE
  5
4A33
330
4A47
100
AcDbEntity
  8
Layer 1
 62
     7
370
    30
100
AcDbPolyline
 90
        2
 70
     0
 43
0.0
 10
98.59432641849378
 20
183.684395299131
 10
99.99131263776259
 20
157.5647148586123
  0
LWPOLYLINE
  5
4A34
330
4A47
100
AcDbEntity
  8
Layer 1
 62
     7
370
    30
100
AcDbPolyline
 90
        2
 70
     0
 43
0.0
 10
94.44574243515594
 20
183.4726941815624
 10
94.44574243515594
 20
183.684395299131
  0
LWPOLYLINE
  5
4A35
330
4A47
100
AcDbEntity
  8
Layer 1
 62
     7
370
    30
100
AcDbPolyline
 90
        4
 70
     0
 43
0.0
 10
98.63670109296236
 20
182.6260619660622
 10
98.46737464986231
 20
183.1340412953623
 10
98.0863470891937
 20
183.5572712757253
 10
97.53599308542504
 20
183.684395299131
  0
LWPOLYLINE
  5
4A36
330
4A47
100
AcDbEntity
  8
Layer 1
 62
     7
370
    30
100
AcDbPolyline
 90
        4
 70
     0
 43
0.0
 10
98.46737464986231
 20
182.5836872915935
 10
98.34025062645658
 20
183.0492919464252
 10
98.00159774025654
 20
183.3879448326252
 10
97.53599308542504
 20
183.4726941815624
  0
LWPOLYLINE
  5
4A37
330
4A47
100
AcDbEntity
  8
Layer 1
 62
     7
370
    30
100
AcDbPolyline
 90
        2
 70
     0
 43
0.0
 10
97.53599308542504
 20
183.4726941815624
 10
94.44574243515594
 20
183.4726941815624
  0
LWPOLYLINE
  5
4A38
330
4A47
100
AcDbEntity
  8
Layer 1
 62
     7
370
    30
100
AcDbPolyline
 90
        4
 70
     0
 43
0.0
 10
183.7265977188253
 20
183.684395299131
 10
183.1764159698309
 20
183.5572712757253
 10
182.7530137346936
 20
183.1340412953623
 10
182.5835150368194
 20
182.6260619660622
  0
LWPOLYLINE
  5
4A39
330
4A47
100
AcDbEntity
  8
Layer 1
 62
     7
370
    30
100
AcDbPolyline
 90
       14
 70
     0
 43
0.0
 10
172.2544297529433
 20
148.4207424216621
 10
173.8205701605379
 20
148.6322712844565
 10
175.3446804032124
 20
149.0556735195936
 10
176.7416666224812
 20
149.7753539664624
 10
178.0539034928129
 20
150.6643608564311
 10
179.1546115003502
 20
151.7650688639684
 10
180.0861653195618
 20
153.0773057343001
 10
180.7634710919619
 20
154.4742919535689
 10
181.2289034920192
 20
155.9984021962434
 10
181.440776864362
 20
157.5223401841437
 10
182.7530137346936
 20
182.5836872915935
 10
182.9221679230194
 20
183.0492919464252
 10
183.261165318768
 20
183.3879448326252
 10
183.7265977188253
 20
183.4726941815624
  0
LWPOLYLINE
  5
4A3A
330
4A47
100
AcDbEntity
  8
Layer 1
 62
     7
370
    30
100
AcDbPolyline
 90
       11
 70
     0
 43
0.0
 10
182.625889711288
 20
183.684395299131
 10
181.2712781664877
 20
157.5647148586123
 10
181.0597493036934
 20
155.9984021962434
 10
180.5939723940876
 20
154.5590413025061
 10
179.9166666216875
 20
153.1620550832372
 10
179.027831986493
 20
151.8920206325999
 10
177.9271239789556
 20
150.8336872995311
 10
176.6569172735441
 20
149.9446804095624
 10
175.2599310542753
 20
149.2673746371623
 10
173.7781954860693
 20
148.8015977275565
 10
172.2544297529433
 20
148.6322712844565
  0
LWPOLYLINE
  5
4A3B
330
4A47
100
AcDbEntity
  8
Layer 1
 62
     7
370
    13
100
AcDbPolyline
 90
        2
 70
     0
 43
0.0
 10
88.26506887984344
 20
180.8480481861248
 10
88.26506887984344
 20
150.4950344133311
  0
LWPOLYLINE
  5
4A3C
330
4A47
100
AcDbEntity
  8
Layer 1
 62
     7
370
    13
100
AcDbPolyline
 90
        2
 70
     0
 43
0.0
 10
131.1909586260564
 20
147.6586873003249
 10
87.84166664470625
 20
147.6586873003249
  0
LWPOLYLINE
  5
4A3D
330
4A47
100
AcDbEntity
  8
Layer 1
 62
     7
370
    13
100
AcDbPolyline
 90
        2
 70
     0
 43
0.0
 10
94.44574243515594
 20
183.684395299131
 10
87.84166664470625
 20
183.684395299131
  0
LWPOLYLINE
  5
4A3E
330
4A47
100
AcDbEntity
  8
Layer 1
 62
     7
370
     0
100
AcDbPolyline
 90
        4
 70
     0
 43
0.0
 10
88.26506887984344
 20
183.684395299131
 10
87.79929197023767
 20
180.8480481861248
 10
88.73067353467495
 20
180.8480481861248
 10
88.26506887984344
 20
183.684395299131
  0
HATCH
  5
4A3F
330
4A47
100
AcDbEntity
  8
Layer 1
 62
     7
100
AcDbHatch
 10
0.0
 20
0.0
 30
0.0
210
0.0
220
0.0
230
1.0
  2
SOLID
 70
     1
 71
     0
 91
        1
 92
        1
 93
        3
 72
     1
 10
88.26506887984344
 20
183.684395299131
 11
87.79929197023767
 21
180.8480481861248
 72
     1
 10
87.79929197023767
 20
180.8480481861248
 11
88.73067353467495
 21
180.8480481861248
 72
     1
 10
88.73067353467495
 20
180.8480481861248
 11
88.26506887984344
 21
183.684395299131
 97
        0
 75
     0
 76
     1
 98
        0
  0
LWPOLYLINE
  5
4A40
330
4A47
100
AcDbEntity
  8
Layer 1
 62
     7
370
     0
100
AcDbPolyline
 90
        4
 70
     0
 43
0.0
 10
88.26506887984344
 20
147.6586873003249
 10
87.79929197023767
 20
150.4950344133311
 10
88.73067353467495
 20
150.4950344133311
 10
88.26506887984344
 20
147.6586873003249
  0
HATCH
  5
4A41
330
4A47
100
AcDbEntity
  8
Layer 1
 62
     7
100
AcDbHatch
 10
0.0
 20
0.0
 30
0.0
210
0.0
220
0.0
230
1.0
  2
SOLID
 70
     1
 71
     0
 91
        1
 92
        1
 93
        3
 72
     1
 10
88.26506887984344
 20
147.6586873003249
 11
87.79929197023767
 21
150.4950344133311
 72
     1
 10
87.79929197023767
 20
150.4950344133311
 11
88.73067353467495
 21
150.4950344133311
 72
     1
 10
88.73067353467495
 20
150.4950344133311
 11
88.26506887984344
 21
147.6586873003249
 97
        0
 75
     0
 76
     1
 98
        0
  0
LWPOLYLINE
  5
4A42
330
4A47
100
AcDbEntity
  8
Layer 1
 62
     7
370
    13
100
AcDbPolyline
 90
        2
 70
     0
 43
0.0
 10
98.42499997539377
 20
183.4726941815624
 10
98.42499997539377
 20
181.9909586133564
  0
LWPOLYLINE
  5
4A43
330
4A47
100
AcDbEntity
  8
Layer 1
 62
     7
370
    13
100
AcDbPolyline
 90
       10
 70
     0
 43
0.0
 10
87.79929197023767
 20
168.2749999579312
 10
87.79929197023767
 20
168.8253539616999
 10
86.74095863716894
 20
169.8413126203001
 10
85.17464597480008
 20
169.8413126203001
 10
84.62429197103141
 20
169.333333291
 10
84.62429197103141
 20
168.2749999579312
 10
85.17464597480008
 20
167.7670206286312
 10
85.68262530410018
 20
167.7670206286312
 10
86.19060463340025
 20
168.2749999579312
 10
86.19060463340025
 20
169.8413126203001
  0
LWPOLYLINE
  5
4A44
330
4A47
100
AcDbEntity
  8
Layer 1
 62
     7
370
    13
100
AcDbPolyline
 90
       10
 70
     0
 43
0.0
 10
85.17464597480008
 20
164.5920206294249
 10
84.62429197103141
 20
165.1423746331936
 10
84.62429197103141
 20
166.2007079662623
 10
85.17464597480008
 20
166.7086872955624
 10
85.68262530410018
 20
166.7086872955624
 10
86.19060463340025
 20
166.2007079662623
 10
86.19060463340025
 20
165.1423746331936
 10
86.74095863716894
 20
164.5920206294249
 10
87.79929197023767
 20
164.5920206294249
 10
87.79929197023767
 20
166.7086872955624
  0
LWPOLYLINE
  5
4A45
330
4A47
100
AcDbEntity
  8
Layer 1
 62
     7
370
    13
100
AcDbPolyline
 90
       10
 70
     0
 43
0.0
 10
85.17464597480008
 20
161.4593953046872
 10
84.62429197103141
 20
162.0097493084559
 10
84.62429197103141
 20
163.0257079670561
 10
85.17464597480008
 20
163.5760619708246
 10
85.68262530410018
 20
163.5760619708246
 10
86.19060463340025
 20
163.0257079670561
 10
86.19060463340025
 20
162.0097493084559
 10
86.74095863716894
 20
161.4593953046872
 10
87.79929197023767
 20
161.4593953046872
 10
87.79929197023767
 20
163.5760619708246
  0
ENDBLK
  5
4A49
330
4A47
100
AcDbEntity
  8
0
100
AcDbBlockEnd
  0
BLOCK
  5
4B98
330
4B97
100
AcDbEntity
  8
0
100
AcDbBlockBegin
  2
*D23
 70
     1
 10
0.0
 20
0.0
 30
0.0
  3
*D23
  1

  0
LINE
  5
4B8D
330
4B97
100
AcDbEntity
  8
标注
 62
     0
370
    -2
100
AcDbLine
 10
980.3699287091706
 20
-234.5172260923249
 30
0.0
 11
980.3699287091706
 21
-157.044658761358
 31
0.0
  0
LINE
  5
4B8E
330
4B97
100
AcDbEntity
  8
标注
 62
     0
370
    -2
100
AcDbLine
 10
446.369928709168
 20
-225.5172260923249
 30
0.0
 11
446.369928709168
 21
-157.044658761358
 31
0.0
  0
LINE
  5
4B8F
330
4B97
100
AcDbEntity
  8
标注
 62
     0
370
    -2
100
AcDbLine
 10
972.3699287091706
 20
-160.794658761358
 30
0.0
 11
454.369928709168
 21
-160.794658761358
 31
0.0
  0
SOLID
  5
4B90
330
4B97
100
AcDbEntity
  8
标注
 62
     0
100
AcDbTrace
 10
972.3699287091706
 20
-159.4613254280248
 30
0.0
 11
972.3699287091706
 21
-162.1279920946916
 31
0.0
 12
980.3699287091706
 22
-160.794658761358
 32
0.0
 13
980.3699287091706
 23
-160.794658761358
 33
0.0
  0
SOLID
  5
4B91
330
4B97
100
AcDbEntity
  8
标注
 62
     0
100
AcDbTrace
 10
454.369928709168
 20
-159.4613254280248
 30
0.0
 11
454.369928709168
 21
-162.1279920946916
 31
0.0
 12
446.369928709168
 22
-160.794658761358
 32
0.0
 13
446.369928709168
 23
-160.794658761358
 33
0.0
  0
MTEXT
  5
4B92
330
4B97
100
AcDbEntity
  8
标注
 62
     0
100
AcDbMText
 10
713.6364162312506
 20
-148.5409070560376
 30
0.0
 40
16.0
 41
0.0
 71
     5
 72
     1
  1
{\fArial|b0|i0|c0|p34;534 [21]}
 73
     1
 44
1.0
1001
ACAD
1000
MTEXTBEGIN
1070
    73
1070
     1
1070
    44
1040
1.0
1070
    74
1070
     0
1000
MTEXTEND
  0
POINT
  5
4B93
330
4B97
100
AcDbEntity
  8
Defpoints
 62
     0
100
AcDbPoint
 10
980.3699287091706
 20
-234.5172260923249
 30
0.0
  0
POINT
  5
4B94
330
4B97
100
AcDbEntity
  8
Defpoints
 62
     0
100
AcDbPoint
 10
446.369928709168
 20
-225.5172260923249
 30
0.0
  0
POINT
  5
4B95
330
4B97
100
AcDbEntity
  8
Defpoints
 62
     0
100
AcDbPoint
 10
446.369928709168
 20
-160.794658761358
 30
0.0
  0
ENDBLK
  5
4B99
330
4B97
100
AcDbEntity
  8
0
100
AcDbBlockEnd
  0
BLOCK
  5
4BA7
330
4BA6
100
AcDbEntity
  8
0
100
AcDbBlockBegin
  2
*D24
 70
     1
 10
0.0
 20
0.0
 30
0.0
  3
*D24
  1

  0
LINE
  5
4B9C
330
4BA6
100
AcDbEntity
  8
标注
 62
     0
370
    -2
100
AcDbLine
 10
426.141221831172
 20
-229.6558460560301
 30
0.0
 11
359.8912218311723
 21
-229.6558460560301
 31
0.0
  0
LINE
  5
4B9D
330
4BA6
100
AcDbEntity
  8
标注
 62
     0
370
    -2
100
AcDbLine
 10
431.141221831172
 20
-629.6558460560301
 30
0.0
 11
359.8912218311721
 21
-629.6558460560301
 31
0.0
  0
LINE
  5
4B9E
330
4BA6
100
AcDbEntity
  8
标注
 62
     0
370
    -2
100
AcDbLine
 10
363.6412218311723
 20
-237.6558460560301
 30
0.0
 11
363.6412218311721
 21
-621.6558460560301
 31
0.0
  0
SOLID
  5
4B9F
330
4BA6
100
AcDbEntity
  8
标注
 62
     0
100
AcDbTrace
 10
362.3078884978389
 20
-237.6558460560301
 30
0.0
 11
364.9745551645056
 21
-237.6558460560301
 31
0.0
 12
363.6412218311723
 22
-229.6558460560301
 32
0.0
 13
363.6412218311723
 23
-229.6558460560301
 33
0.0
  0
SOLID
  5
4BA0
330
4BA6
100
AcDbEntity
  8
标注
 62
     0
100
AcDbTrace
 10
362.3078884978388
 20
-621.6558460560301
 30
0.0
 11
364.9745551645053
 21
-621.6558460560301
 31
0.0
 12
363.6412218311721
 22
-629.6558460560301
 32
0.0
 13
363.6412218311721
 23
-629.6558460560301
 33
0.0
  0
MTEXT
  5
4BA1
330
4BA6
100
AcDbEntity
  8
标注
 62
     0
100
AcDbMText
 10
351.283786633355
 20
-401.667226092324
 30
0.0
 40
16.0
 41
0.0
 71
     5
 72
     1
  1
{\fArial|b0|i0|c0|p34;400 [15 3/4]}
 11
0.0
 21
1.0
 31
0.0
 73
     1
 44
1.0
1001
ACAD
1000
MTEXTBEGIN
1070
    73
1070
     1
1070
    44
1040
1.0
1070
    74
1070
     0
1000
MTEXTEND
  0
POINT
  5
4BA2
330
4BA6
100
AcDbEntity
  8
Defpoints
 62
     0
100
AcDbPoint
 10
426.141221831172
 20
-229.6558460560301
 30
0.0
  0
POINT
  5
4BA3
330
4BA6
100
AcDbEntity
  8
Defpoints
 62
     0
100
AcDbPoint
 10
431.141221831172
 20
-629.6558460560301
 30
0.0
  0
POINT
  5
4BA4
330
4BA6
100
AcDbEntity
  8
Defpoints
 62
     0
100
AcDbPoint
 10
363.6412218311721
 20
-629.6558460560301
 30
0.0
  0
ENDBLK
  5
4BA8
330
4BA6
100
AcDbEntity
  8
0
100
AcDbBlockEnd
  0
BLOCK
  5
4BB6
330
4BB5
100
AcDbEntity
  8
0
100
AcDbBlockBegin
  2
*D25
 70
     1
 10
0.0
 20
0.0
 30
0.0
  3
*D25
  1

  0
LINE
  5
4BAB
330
4BB5
100
AcDbEntity
  8
标注
 62
     0
370
    -2
100
AcDbLine
 10
986.7199287091727
 20
-233.5172260923249
 30
0.0
 11
986.7199287091727
 21
-123.544658761358
 31
0.0
  0
LINE
  5
4BAC
330
4BB5
100
AcDbEntity
  8
标注
 62
     0
370
    -2
100
AcDbLine
 10
440.0199287091703
 20
-225.5172260923249
 30
0.0
 11
440.0199287091703
 21
-123.544658761358
 31
0.0
  0
LINE
  5
4BAD
330
4BB5
100
AcDbEntity
  8
标注
 62
     0
370
    -2
100
AcDbLine
 10
978.7199287091727
 20
-127.294658761358
 30
0.0
 11
448.0199287091704
 21
-127.294658761358
 31
0.0
  0
SOLID
  5
4BAE
330
4BB5
100
AcDbEntity
  8
标注
 62
     0
100
AcDbTrace
 10
978.7199287091727
 20
-125.9613254280248
 30
0.0
 11
978.7199287091727
 21
-128.6279920946916
 31
0.0
 12
986.7199287091727
 22
-127.294658761358
 32
0.0
 13
986.7199287091727
 23
-127.294658761358
 33
0.0
  0
SOLID
  5
4BAF
330
4BB5
100
AcDbEntity
  8
标注
 62
     0
100
AcDbTrace
 10
448.0199287091704
 20
-125.9613254280248
 30
0.0
 11
448.0199287091704
 21
-128.6279920946916
 31
0.0
 12
440.0199287091703
 22
-127.294658761358
 32
0.0
 13
440.0199287091703
 23
-127.294658761358
 33
0.0
  0
MTEXT
  5
4BB0
330
4BB5
100
AcDbEntity
  8
标注
 62
     0
100
AcDbMText
 10
713.6365981239155
 20
-114.937223563541
 30
0.0
 40
16.0
 41
0.0
 71
     5
 72
     1
  1
{\fArial|b0|i0|c0|p34;546.7 [21 1/2]}
 73
     1
 44
1.0
1001
ACAD
1000
MTEXTBEGIN
1070
    73
1070
     1
1070
    44
1040
1.0
1070
    74
1070
     0
1000
MTEXTEND
  0
POINT
  5
4BB1
330
4BB5
100
AcDbEntity
  8
Defpoints
 62
     0
100
AcDbPoint
 10
986.7199287091727
 20
-233.5172260923249
 30
0.0
  0
POINT
  5
4BB2
330
4BB5
100
AcDbEntity
  8
Defpoints
 62
     0
100
AcDbPoint
 10
440.0199287091703
 20
-225.5172260923249
 30
0.0
  0
POINT
  5
4BB3
330
4BB5
100
AcDbEntity
  8
Defpoints
 62
     0
100
AcDbPoint
 10
440.0199287091703
 20
-127.294658761358
 30
0.0
  0
ENDBLK
  5
4BB7
330
4BB5
100
AcDbEntity
  8
0
100
AcDbBlockEnd
  0
BLOCK
  5
4BC5
330
4BC4
100
AcDbEntity
  8
0
100
AcDbBlockBegin
  2
*D26
 70
     1
 10
0.0
 20
0.0
 30
0.0
  3
*D26
  1

  0
LINE
  5
4BBA
330
4BC4
100
AcDbEntity
  8
标注
 62
     0
370
    -2
100
AcDbLine
 10
427.141221831172
 20
-223.3058460560288
 30
0.0
 11
328.8912218311722
 21
-223.3058460560288
 31
0.0
  0
LINE
  5
4BBB
330
4BC4
100
AcDbEntity
  8
标注
 62
     0
370
    -2
100
AcDbLine
 10
432.6412218311718
 20
-636.0058460560305
 30
0.0
 11
328.891221831172
 21
-636.0058460560305
 31
0.0
  0
LINE
  5
4BBC
330
4BC4
100
AcDbEntity
  8
标注
 62
     0
370
    -2
100
AcDbLine
 10
332.6412218311722
 20
-231.3058460560288
 30
0.0
 11
332.6412218311721
 21
-628.0058460560305
 31
0.0
  0
SOLID
  5
4BBD
330
4BC4
100
AcDbEntity
  8
标注
 62
     0
100
AcDbTrace
 10
331.3078884978389
 20
-231.3058460560288
 30
0.0
 11
333.9745551645056
 21
-231.3058460560288
 31
0.0
 12
332.6412218311722
 22
-223.3058460560288
 32
0.0
 13
332.6412218311722
 23
-223.3058460560288
 33
0.0
  0
SOLID
  5
4BBE
330
4BC4
100
AcDbEntity
  8
标注
 62
     0
100
AcDbTrace
 10
331.3078884978388
 20
-628.0058460560305
 30
0.0
 11
333.9745551645054
 21
-628.0058460560305
 31
0.0
 12
332.6412218311721
 22
-636.0058460560305
 32
0.0
 13
332.6412218311721
 23
-636.0058460560305
 33
0.0
  0
MTEXT
  5
4BBF
330
4BC4
100
AcDbEntity
  8
标注
 62
     0
100
AcDbMText
 10
320.2837866333549
 20
-401.6672260923229
 30
0.0
 40
16.0
 41
0.0
 71
     5
 72
     1
  1
{\fArial|b0|i0|c0|p34;412.7 [16 1/4]}
 11
0.0
 21
1.0
 31
0.0
 73
     1
 44
1.0
1001
ACAD
1000
MTEXTBEGIN
1070
    73
1070
     1
1070
    44
1040
1.0
1070
    74
1070
     0
1000
MTEXTEND
  0
POINT
  5
4BC0
330
4BC4
100
AcDbEntity
  8
Defpoints
 62
     0
100
AcDbPoint
 10
427.141221831172
 20
-223.3058460560288
 30
0.0
  0
POINT
  5
4BC1
330
4BC4
100
AcDbEntity
  8
Defpoints
 62
     0
100
AcDbPoint
 10
432.6412218311718
 20
-636.0058460560305
 30
0.0
  0
POINT
  5
4BC2
330
4BC4
100
AcDbEntity
  8
Defpoints
 62
     0
100
AcDbPoint
 10
332.6412218311721
 20
-636.0058460560305
 30
0.0
  0
ENDBLK
  5
4BC6
330
4BC4
100
AcDbEntity
  8
0
100
AcDbBlockEnd
  0
BLOCK
  5
4BD4
330
4BD3
100
AcDbEntity
  8
0
100
AcDbBlockBegin
  2
*D27
 70
     1
 10
0.0
 20
0.0
 30
0.0
  3
*D27
  1

  0
LINE
  5
4BC9
330
4BD3
100
AcDbEntity
  8
标注
 62
     0
370
    -2
100
AcDbLine
 10
974.0199287091686
 20
-236.0172260923251
 30
0.0
 11
974.0199287091686
 21
-188.044658761358
 31
0.0
  0
LINE
  5
4BCA
330
4BD3
100
AcDbEntity
  8
标注
 62
     0
370
    -2
100
AcDbLine
 10
452.7199287091711
 20
-226.0172260923249
 30
0.0
 11
452.7199287091711
 21
-188.044658761358
 31
0.0
  0
LINE
  5
4BCB
330
4BD3
100
AcDbEntity
  8
标注
 62
     0
370
    -2
100
AcDbLine
 10
966.0199287091689
 20
-191.794658761358
 30
0.0
 11
460.7199287091711
 21
-191.794658761358
 31
0.0
  0
SOLID
  5
4BCC
330
4BD3
100
AcDbEntity
  8
标注
 62
     0
100
AcDbTrace
 10
966.0199287091689
 20
-190.4613254280248
 30
0.0
 11
966.0199287091689
 21
-193.1279920946916
 31
0.0
 12
974.0199287091686
 22
-191.794658761358
 32
0.0
 13
974.0199287091686
 23
-191.794658761358
 33
0.0
  0
SOLID
  5
4BCD
330
4BD3
100
AcDbEntity
  8
标注
 62
     0
100
AcDbTrace
 10
460.7199287091711
 20
-190.4613254280248
 30
0.0
 11
460.7199287091711
 21
-193.1279920946916
 31
0.0
 12
452.7199287091711
 22
-191.794658761358
 32
0.0
 13
452.7199287091711
 23
-191.794658761358
 33
0.0
  0
MTEXT
  5
4BCE
330
4BD3
100
AcDbEntity
  8
标注
 62
     0
100
AcDbMText
 10
713.6362342747157
 20
-179.437223563541
 30
0.0
 40
16.0
 41
0.0
 71
     5
 72
     1
  1
{\fArial|b0|i0|c0|p34;521.3 [20 1/2]}
 73
     1
 44
1.0
1001
ACAD
1000
MTEXTBEGIN
1070
    73
1070
     1
1070
    44
1040
1.0
1070
    74
1070
     0
1000
MTEXTEND
  0
POINT
  5
4BCF
330
4BD3
100
AcDbEntity
  8
Defpoints
 62
     0
100
AcDbPoint
 10
974.0199287091686
 20
-236.0172260923251
 30
0.0
  0
POINT
  5
4BD0
330
4BD3
100
AcDbEntity
  8
Defpoints
 62
     0
100
AcDbPoint
 10
452.7199287091711
 20
-226.0172260923249
 30
0.0
  0
POINT
  5
4BD1
330
4BD3
100
AcDbEntity
  8
Defpoints
 62
     0
100
AcDbPoint
 10
452.7199287091711
 20
-191.794658761358
 30
0.0
  0
ENDBLK
  5
4BD5
330
4BD3
100
AcDbEntity
  8
0
100
AcDbBlockEnd
  0
BLOCK
  5
4BE3
330
4BE2
100
AcDbEntity
  8
0
100
AcDbBlockBegin
  2
*D28
 70
     1
 10
0.0
 20
0.0
 30
0.0
  3
*D28
  1

  0
LINE
  5
4BD8
330
4BE2
100
AcDbEntity
  8
标注
 62
     0
370
    -2
100
AcDbLine
 10
426.641221831172
 20
-236.0058460560307
 30
0.0
 11
387.8912218311723
 21
-236.0058460560307
 31
0.0
  0
LINE
  5
4BD9
330
4BE2
100
AcDbEntity
  8
标注
 62
     0
370
    -2
100
AcDbLine
 10
431.141221831172
 20
-623.3058460560299
 30
0.0
 11
387.8912218311721
 21
-623.3058460560298
 31
0.0
  0
LINE
  5
4BDA
330
4BE2
100
AcDbEntity
  8
标注
 62
     0
370
    -2
100
AcDbLine
 10
391.6412218311723
 20
-244.0058460560307
 30
0.0
 11
391.641221831172
 21
-615.3058460560299
 31
0.0
  0
SOLID
  5
4BDB
330
4BE2
100
AcDbEntity
  8
标注
 62
     0
100
AcDbTrace
 10
390.3078884978389
 20
-244.0058460560307
 30
0.0
 11
392.9745551645055
 21
-244.0058460560307
 31
0.0
 12
391.6412218311723
 22
-236.0058460560307
 32
0.0
 13
391.6412218311723
 23
-236.0058460560307
 33
0.0
  0
SOLID
  5
4BDC
330
4BE2
100
AcDbEntity
  8
标注
 62
     0
100
AcDbTrace
 10
390.3078884978389
 20
-615.3058460560299
 30
0.0
 11
392.9745551645055
 21
-615.3058460560299
 31
0.0
 12
391.641221831172
 22
-623.3058460560299
 32
0.0
 13
391.641221831172
 23
-623.3058460560299
 33
0.0
  0
MTEXT
  5
4BDD
330
4BE2
100
AcDbEntity
  8
标注
 62
     0
100
AcDbMText
 10
379.2837866333549
 20
-401.4872260923245
 30
0.0
 40
16.0
 41
0.0
 71
     5
 72
     1
  1
{\fArial|b0|i0|c0|p34;387.3 [15 1/4]}
 11
0.0
 21
1.0
 31
0.0
 73
     1
 44
1.0
1001
ACAD
1000
MTEXTBEGIN
1070
    73
1070
     1
1070
    44
1040
1.0
1070
    74
1070
     0
1000
MTEXTEND
  0
POINT
  5
4BDE
330
4BE2
100
AcDbEntity
  8
Defpoints
 62
     0
100
AcDbPoint
 10
426.641221831172
 20
-236.0058460560307
 30
0.0
  0
POINT
  5
4BDF
330
4BE2
100
AcDbEntity
  8
Defpoints
 62
     0
100
AcDbPoint
 10
431.141221831172
 20
-623.3058460560299
 30
0.0
  0
POINT
  5
4BE0
330
4BE2
100
AcDbEntity
  8
Defpoints
 62
     0
100
AcDbPoint
 10
391.641221831172
 20
-623.3058460560299
 30
0.0
  0
ENDBLK
  5
4BE4
330
4BE2
100
AcDbEntity
  8
0
100
AcDbBlockEnd
  0
BLOCK
  5
4C6C
330
4C6B
100
AcDbEntity
  8
0
100
AcDbBlockBegin
  2
*D29
 70
     1
 10
0.0
 20
0.0
 30
0.0
  3
*D29
  1

  0
POINT
  5
4C5F
330
4C6B
100
AcDbEntity
  8
Defpoints
  6
ByBlock
100
AcDbPoint
 10
980.3699287091706
 20
-429.6558460562075
 30
0.0
  0
POINT
  5
4C60
330
4C6B
100
AcDbEntity
  8
Defpoints
  6
ByBlock
100
AcDbPoint
 10
986.7199287091727
 20
-429.6558460562001
 30
0.0
  0
LINE
  5
4C61
330
4C6B
100
AcDbEntity
  8
标注
  6
ByBlock
 62
     0
370
    -2
100
AcDbLine
 10
980.3699287091706
 20
-429.6558460562075
 30
0.0
 11
980.3699287091706
 21
-511.2499999999999
 31
0.0
  0
LINE
  5
4C62
330
4C6B
100
AcDbEntity
  8
标注
  6
ByBlock
 62
     0
370
    -2
100
AcDbLine
 10
986.7199287091727
 20
-429.6558460562001
 30
0.0
 11
986.7199287091727
 21
-511.2499999999999
 31
0.0
  0
LINE
  5
4C63
330
4C6B
100
AcDbEntity
  8
标注
  6
ByBlock
 62
     0
370
    -2
100
AcDbLine
 10
972.3699287091706
 20
-507.5
 30
0.0
 11
964.3699287091706
 21
-507.5
 31
0.0
  0
LINE
  5
4C64
330
4C6B
100
AcDbEntity
  8
标注
  6
ByBlock
 62
     0
370
    -2
100
AcDbLine
 10
1081.661664392906
 20
-507.5
 30
0.0
 11
994.7199287091727
 21
-507.5
 31
0.0
  0
SOLID
  5
4C65
330
4C6B
100
AcDbEntity
  8
标注
  6
ByBlock
 62
     0
100
AcDbTrace
 10
980.3699287091706
 20
-507.5
 30
0.0
 11
972.3699287091706
 21
-508.8333333333336
 31
0.0
 12
972.3699287091706
 22
-506.1666666666663
 32
0.0
 13
972.3699287091706
 23
-506.1666666666663
 33
0.0
  0
SOLID
  5
4C66
330
4C6B
100
AcDbEntity
  8
标注
  6
ByBlock
 62
     0
100
AcDbTrace
 10
986.7199287091727
 20
-507.5
 30
0.0
 11
994.7199287091727
 21
-508.8333333333336
 31
0.0
 12
994.7199287091727
 22
-506.1666666666663
 32
0.0
 13
994.7199287091727
 23
-506.1666666666663
 33
0.0
  0
LINE
  5
4C67
330
4C6B
100
AcDbEntity
  8
标注
  6
ByBlock
 62
     0
370
    -2
100
AcDbLine
 10
980.3699287091706
 20
-507.5
 30
0.0
 11
986.7199287091727
 21
-507.5
 31
0.0
  0
LINE
  5
4C68
330
4C6B
100
AcDbEntity
  8
标注
  6
ByBlock
 62
     0
370
    -2
100
AcDbLine
 10
980.3699287091706
 20
-429.6558460562075
 30
0.0
 11
980.3699287091706
 21
-429.6558460562075
 31
0.0
  0
MTEXT
  5
4C69
330
4C6B
100
AcDbEntity
  8
标注
  6
ByBlock
 62
     0
100
AcDbMText
 10
1040.0
 20
-495.006139154161
 30
0.0
 40
16.0
 41
0.0
 71
     5
 72
     1
  1
\A0;{\fArial|b0|i0|c0|p34;6.4 [1/4]}
 73
     1
 44
1.0
1001
ACAD
1000
MTEXTBEGIN
1070
    73
1070
     1
1070
    44
1040
1.0
1070
    74
1070
     0
1000
MTEXTEND
  0
ENDBLK
  5
4C6D
330
4C6B
100
AcDbEntity
  8
0
100
AcDbBlockEnd
  0
BLOCK
  5
4C7C
330
4C7B
100
AcDbEntity
  8
0
100
AcDbBlockBegin
  2
*D30
 70
     1
 10
0.0
 20
0.0
 30
0.0
  3
*D30
  1

  0
POINT
  5
4C6F
330
4C7B
100
AcDbEntity
  8
Defpoints
  6
ByBlock
100
AcDbPoint
 10
974.0199287091686
 20
-429.6558460562001
 30
0.0
  0
POINT
  5
4C70
330
4C7B
100
AcDbEntity
  8
Defpoints
  6
ByBlock
100
AcDbPoint
 10
980.3699287091706
 20
-429.6558460562075
 30
0.0
  0
LINE
  5
4C71
330
4C7B
100
AcDbEntity
  8
标注
  6
ByBlock
 62
     0
370
    -2
100
AcDbLine
 10
974.0199287091686
 20
-429.6558460562001
 30
0.0
 11
974.0199287091686
 21
-470.2499999999999
 31
0.0
  0
LINE
  5
4C72
330
4C7B
100
AcDbEntity
  8
标注
  6
ByBlock
 62
     0
370
    -2
100
AcDbLine
 10
980.3699287091706
 20
-429.6558460562075
 30
0.0
 11
980.3699287091706
 21
-470.2499999999999
 31
0.0
  0
LINE
  5
4C73
330
4C7B
100
AcDbEntity
  8
标注
  6
ByBlock
 62
     0
370
    -2
100
AcDbLine
 10
966.0199287091685
 20
-466.5
 30
0.0
 11
958.0199287091685
 21
-466.5
 31
0.0
  0
LINE
  5
4C74
330
4C7B
100
AcDbEntity
  8
标注
  6
ByBlock
 62
     0
370
    -2
100
AcDbLine
 10
1082.661664392905
 20
-466.5
 30
0.0
 11
988.3699287091706
 21
-466.5
 31
0.0
  0
SOLID
  5
4C75
330
4C7B
100
AcDbEntity
  8
标注
  6
ByBlock
 62
     0
100
AcDbTrace
 10
974.0199287091686
 20
-466.5
 30
0.0
 11
966.0199287091685
 21
-467.8333333333336
 31
0.0
 12
966.0199287091685
 22
-465.1666666666663
 32
0.0
 13
966.0199287091685
 23
-465.1666666666663
 33
0.0
  0
SOLID
  5
4C76
330
4C7B
100
AcDbEntity
  8
标注
  6
ByBlock
 62
     0
100
AcDbTrace
 10
980.3699287091706
 20
-466.5
 30
0.0
 11
988.3699287091706
 21
-467.8333333333336
 31
0.0
 12
988.3699287091706
 22
-465.1666666666663
 32
0.0
 13
988.3699287091706
 23
-465.1666666666663
 33
0.0
  0
LINE
  5
4C77
330
4C7B
100
AcDbEntity
  8
标注
  6
ByBlock
 62
     0
370
    -2
100
AcDbLine
 10
974.0199287091686
 20
-466.5
 30
0.0
 11
980.3699287091706
 21
-466.5
 31
0.0
  0
LINE
  5
4C78
330
4C7B
100
AcDbEntity
  8
标注
  6
ByBlock
 62
     0
370
    -2
100
AcDbLine
 10
974.0199287091686
 20
-429.6558460562001
 30
0.0
 11
974.0199287091686
 21
-429.6558460562001
 31
0.0
  0
MTEXT
  5
4C79
330
4C7B
100
AcDbEntity
  8
标注
  6
ByBlock
 62
     0
100
AcDbMText
 10
1041.0
 20
-454.0061391541609
 30
0.0
 40
16.0
 41
0.0
 71
     5
 72
     1
  1
\A0;{\fArial|b0|i0|c0|p34;6.4 [1/4]}
 73
     1
 44
1.0
1001
ACAD
1000
MTEXTBEGIN
1070
    73
1070
     1
1070
    44
1040
1.0
1070
    74
1070
     0
1000
MTEXTEND
  0
ENDBLK
  5
4C7D
330
4C7B
100
AcDbEntity
  8
0
100
AcDbBlockEnd
  0
BLOCK
  5
4D5A
330
4D59
100
AcDbEntity
  8
0
100
AcDbBlockBegin
  2
*D31
 70
     1
 10
0.0
 20
0.0
 30
0.0
  3
*D31
  1

  0
LINE
  5
4D5B
330
4D59
100
AcDbEntity
  8
标注
 62
     0
370
    -2
100
AcDbLine
 10
980.3699287091706
 20
-1121.517226092325
 30
0.0
 11
980.3699287091706
 21
-1044.044658761358
 31
0.0
  0
LINE
  5
4D5C
330
4D59
100
AcDbEntity
  8
标注
 62
     0
370
    -2
100
AcDbLine
 10
446.369928709168
 20
-1112.517226092325
 30
0.0
 11
446.369928709168
 21
-1044.044658761358
 31
0.0
  0
LINE
  5
4D5D
330
4D59
100
AcDbEntity
  8
标注
 62
     0
370
    -2
100
AcDbLine
 10
972.3699287091706
 20
-1047.794658761358
 30
0.0
 11
454.369928709168
 21
-1047.794658761358
 31
0.0
  0
SOLID
  5
4D5E
330
4D59
100
AcDbEntity
  8
标注
 62
     0
100
AcDbTrace
 10
972.3699287091706
 20
-1046.461325428025
 30
0.0
 11
972.3699287091706
 21
-1049.127992094692
 31
0.0
 12
980.3699287091706
 22
-1047.794658761358
 32
0.0
 13
980.3699287091706
 23
-1047.794658761358
 33
0.0
  0
SOLID
  5
4D5F
330
4D59
100
AcDbEntity
  8
标注
 62
     0
100
AcDbTrace
 10
454.369928709168
 20
-1046.461325428025
 30
0.0
 11
454.369928709168
 21
-1049.127992094692
 31
0.0
 12
446.369928709168
 22
-1047.794658761358
 32
0.0
 13
446.369928709168
 23
-1047.794658761358
 33
0.0
  0
MTEXT
  5
4D60
330
4D59
100
AcDbEntity
  8
标注
 62
     0
100
AcDbMText
 10
713.6364162312506
 20
-1035.540907056037
 30
0.0
 40
16.0
 41
0.0
 71
     5
 72
     1
  1
{\fArial|b0|i0|c0|p34;534 [21]}
 73
     1
 44
1.0
1001
ACAD
1000
MTEXTBEGIN
1070
    73
1070
     1
1070
    44
1040
1.0
1070
    74
1070
     0
1000
MTEXTEND
  0
POINT
  5
4D61
330
4D59
100
AcDbEntity
  8
Defpoints
 62
     0
100
AcDbPoint
 10
980.3699287091706
 20
-1121.517226092325
 30
0.0
  0
POINT
  5
4D62
330
4D59
100
AcDbEntity
  8
Defpoints
 62
     0
100
AcDbPoint
 10
446.369928709168
 20
-1112.517226092325
 30
0.0
  0
POINT
  5
4D63
330
4D59
100
AcDbEntity
  8
Defpoints
 62
     0
100
AcDbPoint
 10
446.369928709168
 20
-1047.794658761358
 30
0.0
  0
ENDBLK
  5
4D64
330
4D59
100
AcDbEntity
  8
0
100
AcDbBlockEnd
  0
BLOCK
  5
4D67
330
4D66
100
AcDbEntity
  8
0
100
AcDbBlockBegin
  2
*D32
 70
     1
 10
0.0
 20
0.0
 30
0.0
  3
*D32
  1

  0
LINE
  5
4D68
330
4D66
100
AcDbEntity
  8
标注
 62
     0
370
    -2
100
AcDbLine
 10
426.141221831172
 20
-1116.65584605603
 30
0.0
 11
359.8912218311723
 21
-1116.65584605603
 31
0.0
  0
LINE
  5
4D69
330
4D66
100
AcDbEntity
  8
标注
 62
     0
370
    -2
100
AcDbLine
 10
431.141221831172
 20
-1516.65584605603
 30
0.0
 11
359.8912218311721
 21
-1516.65584605603
 31
0.0
  0
LINE
  5
4D6A
330
4D66
100
AcDbEntity
  8
标注
 62
     0
370
    -2
100
AcDbLine
 10
363.6412218311723
 20
-1124.65584605603
 30
0.0
 11
363.6412218311721
 21
-1508.65584605603
 31
0.0
  0
SOLID
  5
4D6B
330
4D66
100
AcDbEntity
  8
标注
 62
     0
100
AcDbTrace
 10
362.3078884978389
 20
-1124.65584605603
 30
0.0
 11
364.9745551645056
 21
-1124.65584605603
 31
0.0
 12
363.6412218311723
 22
-1116.65584605603
 32
0.0
 13
363.6412218311723
 23
-1116.65584605603
 33
0.0
  0
SOLID
  5
4D6C
330
4D66
100
AcDbEntity
  8
标注
 62
     0
100
AcDbTrace
 10
362.3078884978388
 20
-1508.65584605603
 30
0.0
 11
364.9745551645053
 21
-1508.65584605603
 31
0.0
 12
363.6412218311721
 22
-1516.65584605603
 32
0.0
 13
363.6412218311721
 23
-1516.65584605603
 33
0.0
  0
MTEXT
  5
4D6D
330
4D66
100
AcDbEntity
  8
标注
 62
     0
100
AcDbMText
 10
351.283786633355
 20
-1288.667226092324
 30
0.0
 40
16.0
 41
0.0
 71
     5
 72
     1
  1
{\fArial|b0|i0|c0|p34;400 [15 3/4]}
 11
0.0
 21
1.0
 31
0.0
 73
     1
 44
1.0
1001
ACAD
1000
MTEXTBEGIN
1070
    73
1070
     1
1070
    44
1040
1.0
1070
    74
1070
     0
1000
MTEXTEND
  0
POINT
  5
4D6E
330
4D66
100
AcDbEntity
  8
Defpoints
 62
     0
100
AcDbPoint
 10
426.141221831172
 20
-1116.65584605603
 30
0.0
  0
POINT
  5
4D6F
330
4D66
100
AcDbEntity
  8
Defpoints
 62
     0
100
AcDbPoint
 10
431.141221831172
 20
-1516.65584605603
 30
0.0
  0
POINT
  5
4D70
330
4D66
100
AcDbEntity
  8
Defpoints
 62
     0
100
AcDbPoint
 10
363.6412218311721
 20
-1516.65584605603
 30
0.0
  0
ENDBLK
  5
4D71
330
4D66
100
AcDbEntity
  8
0
100
AcDbBlockEnd
  0
BLOCK
  5
4D74
330
4D73
100
AcDbEntity
  8
0
100
AcDbBlockBegin
  2
*D33
 70
     1
 10
0.0
 20
0.0
 30
0.0
  3
*D33
  1

  0
LINE
  5
4D75
330
4D73
100
AcDbEntity
  8
标注
 62
     0
370
    -2
100
AcDbLine
 10
986.7199287091727
 20
-1120.517226092325
 30
0.0
 11
986.7199287091727
 21
-1010.544658761358
 31
0.0
  0
LINE
  5
4D76
330
4D73
100
AcDbEntity
  8
标注
 62
     0
370
    -2
100
AcDbLine
 10
440.0199287091703
 20
-1112.517226092325
 30
0.0
 11
440.0199287091703
 21
-1010.544658761358
 31
0.0
  0
LINE
  5
4D77
330
4D73
100
AcDbEntity
  8
标注
 62
     0
370
    -2
100
AcDbLine
 10
978.7199287091727
 20
-1014.294658761358
 30
0.0
 11
448.0199287091704
 21
-1014.294658761358
 31
0.0
  0
SOLID
  5
4D78
330
4D73
100
AcDbEntity
  8
标注
 62
     0
100
AcDbTrace
 10
978.7199287091727
 20
-1012.961325428024
 30
0.0
 11
978.7199287091727
 21
-1015.627992094692
 31
0.0
 12
986.7199287091727
 22
-1014.294658761358
 32
0.0
 13
986.7199287091727
 23
-1014.294658761358
 33
0.0
  0
SOLID
  5
4D79
330
4D73
100
AcDbEntity
  8
标注
 62
     0
100
AcDbTrace
 10
448.0199287091704
 20
-1012.961325428024
 30
0.0
 11
448.0199287091704
 21
-1015.627992094692
 31
0.0
 12
440.0199287091703
 22
-1014.294658761358
 32
0.0
 13
440.0199287091703
 23
-1014.294658761358
 33
0.0
  0
MTEXT
  5
4D7A
330
4D73
100
AcDbEntity
  8
标注
 62
     0
100
AcDbMText
 10
713.6365981239155
 20
-1001.937223563541
 30
0.0
 40
16.0
 41
0.0
 71
     5
 72
     1
  1
{\fArial|b0|i0|c0|p34;546.7 [21 1/2]}
 73
     1
 44
1.0
1001
ACAD
1000
MTEXTBEGIN
1070
    73
1070
     1
1070
    44
1040
1.0
1070
    74
1070
     0
1000
MTEXTEND
  0
POINT
  5
4D7B
330
4D73
100
AcDbEntity
  8
Defpoints
 62
     0
100
AcDbPoint
 10
986.7199287091727
 20
-1120.517226092325
 30
0.0
  0
POINT
  5
4D7C
330
4D73
100
AcDbEntity
  8
Defpoints
 62
     0
100
AcDbPoint
 10
440.0199287091703
 20
-1112.517226092325
 30
0.0
  0
POINT
  5
4D7D
330
4D73
100
AcDbEntity
  8
Defpoints
 62
     0
100
AcDbPoint
 10
440.0199287091703
 20
-1014.294658761358
 30
0.0
  0
ENDBLK
  5
4D7E
330
4D73
100
AcDbEntity
  8
0
100
AcDbBlockEnd
  0
BLOCK
  5
4D81
330
4D80
100
AcDbEntity
  8
0
100
AcDbBlockBegin
  2
*D34
 70
     1
 10
0.0
 20
0.0
 30
0.0
  3
*D34
  1

  0
LINE
  5
4D82
330
4D80
100
AcDbEntity
  8
标注
 62
     0
370
    -2
100
AcDbLine
 10
427.141221831172
 20
-1110.305846056029
 30
0.0
 11
328.8912218311722
 21
-1110.305846056029
 31
0.0
  0
LINE
  5
4D83
330
4D80
100
AcDbEntity
  8
标注
 62
     0
370
    -2
100
AcDbLine
 10
432.6412218311718
 20
-1523.00584605603
 30
0.0
 11
328.891221831172
 21
-1523.00584605603
 31
0.0
  0
LINE
  5
4D84
330
4D80
100
AcDbEntity
  8
标注
 62
     0
370
    -2
100
AcDbLine
 10
332.6412218311722
 20
-1118.305846056029
 30
0.0
 11
332.6412218311721
 21
-1515.00584605603
 31
0.0
  0
SOLID
  5
4D85
330
4D80
100
AcDbEntity
  8
标注
 62
     0
100
AcDbTrace
 10
331.3078884978389
 20
-1118.305846056029
 30
0.0
 11
333.9745551645056
 21
-1118.305846056029
 31
0.0
 12
332.6412218311722
 22
-1110.305846056029
 32
0.0
 13
332.6412218311722
 23
-1110.305846056029
 33
0.0
  0
SOLID
  5
4D86
330
4D80
100
AcDbEntity
  8
标注
 62
     0
100
AcDbTrace
 10
331.3078884978388
 20
-1515.00584605603
 30
0.0
 11
333.9745551645054
 21
-1515.00584605603
 31
0.0
 12
332.6412218311721
 22
-1523.00584605603
 32
0.0
 13
332.6412218311721
 23
-1523.00584605603
 33
0.0
  0
MTEXT
  5
4D87
330
4D80
100
AcDbEntity
  8
标注
 62
     0
100
AcDbMText
 10
320.2837866333549
 20
-1288.667226092323
 30
0.0
 40
16.0
 41
0.0
 71
     5
 72
     1
  1
{\fArial|b0|i0|c0|p34;412.7 [16 1/4]}
 11
0.0
 21
1.0
 31
0.0
 73
     1
 44
1.0
1001
ACAD
1000
MTEXTBEGIN
1070
    73
1070
     1
1070
    44
1040
1.0
1070
    74
1070
     0
1000
MTEXTEND
  0
POINT
  5
4D88
330
4D80
100
AcDbEntity
  8
Defpoints
 62
     0
100
AcDbPoint
 10
427.141221831172
 20
-1110.305846056029
 30
0.0
  0
POINT
  5
4D89
330
4D80
100
AcDbEntity
  8
Defpoints
 62
     0
100
AcDbPoint
 10
432.6412218311718
 20
-1523.00584605603
 30
0.0
  0
POINT
  5
4D8A
330
4D80
100
AcDbEntity
  8
Defpoints
 62
     0
100
AcDbPoint
 10
332.6412218311721
 20
-1523.00584605603
 30
0.0
  0
ENDBLK
  5
4D8B
330
4D80
100
AcDbEntity
  8
0
100
AcDbBlockEnd
  0
BLOCK
  5
4D8E
330
4D8D
100
AcDbEntity
  8
0
100
AcDbBlockBegin
  2
*D35
 70
     1
 10
0.0
 20
0.0
 30
0.0
  3
*D35
  1

  0
LINE
  5
4D8F
330
4D8D
100
AcDbEntity
  8
标注
 62
     0
370
    -2
100
AcDbLine
 10
974.0199287091686
 20
-1123.017226092325
 30
0.0
 11
974.0199287091686
 21
-1075.044658761358
 31
0.0
  0
LINE
  5
4D90
330
4D8D
100
AcDbEntity
  8
标注
 62
     0
370
    -2
100
AcDbLine
 10
452.7199287091711
 20
-1113.017226092325
 30
0.0
 11
452.7199287091711
 21
-1075.044658761358
 31
0.0
  0
LINE
  5
4D91
330
4D8D
100
AcDbEntity
  8
标注
 62
     0
370
    -2
100
AcDbLine
 10
966.0199287091689
 20
-1078.794658761358
 30
0.0
 11
460.7199287091711
 21
-1078.794658761358
 31
0.0
  0
SOLID
  5
4D92
330
4D8D
100
AcDbEntity
  8
标注
 62
     0
100
AcDbTrace
 10
966.0199287091689
 20
-1077.461325428025
 30
0.0
 11
966.0199287091689
 21
-1080.127992094692
 31
0.0
 12
974.0199287091686
 22
-1078.794658761358
 32
0.0
 13
974.0199287091686
 23
-1078.794658761358
 33
0.0
  0
SOLID
  5
4D93
330
4D8D
100
AcDbEntity
  8
标注
 62
     0
100
AcDbTrace
 10
460.7199287091711
 20
-1077.461325428025
 30
0.0
 11
460.7199287091711
 21
-1080.127992094692
 31
0.0
 12
452.7199287091711
 22
-1078.794658761358
 32
0.0
 13
452.7199287091711
 23
-1078.794658761358
 33
0.0
  0
MTEXT
  5
4D94
330
4D8D
100
AcDbEntity
  8
标注
 62
     0
100
AcDbMText
 10
713.6362342747157
 20
-1066.437223563541
 30
0.0
 40
16.0
 41
0.0
 71
     5
 72
     1
  1
{\fArial|b0|i0|c0|p34;521.3 [20 1/2]}
 73
     1
 44
1.0
1001
ACAD
1000
MTEXTBEGIN
1070
    73
1070
     1
1070
    44
1040
1.0
1070
    74
1070
     0
1000
MTEXTEND
  0
POINT
  5
4D95
330
4D8D
100
AcDbEntity
  8
Defpoints
 62
     0
100
AcDbPoint
 10
974.0199287091686
 20
-1123.017226092325
 30
0.0
  0
POINT
  5
4D96
330
4D8D
100
AcDbEntity
  8
Defpoints
 62
     0
100
AcDbPoint
 10
452.7199287091711
 20
-1113.017226092325
 30
0.0
  0
POINT
  5
4D97
330
4D8D
100
AcDbEntity
  8
Defpoints
 62
     0
100
AcDbPoint
 10
452.7199287091711
 20
-1078.794658761358
 30
0.0
  0
ENDBLK
  5
4D98
330
4D8D
100
AcDbEntity
  8
0
100
AcDbBlockEnd
  0
BLOCK
  5
4D9B
330
4D9A
100
AcDbEntity
  8
0
100
AcDbBlockBegin
  2
*D36
 70
     1
 10
0.0
 20
0.0
 30
0.0
  3
*D36
  1

  0
LINE
  5
4D9C
330
4D9A
100
AcDbEntity
  8
标注
 62
     0
370
    -2
100
AcDbLine
 10
426.641221831172
 20
-1123.005846056031
 30
0.0
 11
387.8912218311723
 21
-1123.005846056031
 31
0.0
  0
LINE
  5
4D9D
330
4D9A
100
AcDbEntity
  8
标注
 62
     0
370
    -2
100
AcDbLine
 10
431.141221831172
 20
-1510.30584605603
 30
0.0
 11
387.8912218311721
 21
-1510.30584605603
 31
0.0
  0
LINE
  5
4D9E
330
4D9A
100
AcDbEntity
  8
标注
 62
     0
370
    -2
100
AcDbLine
 10
391.6412218311723
 20
-1131.005846056031
 30
0.0
 11
391.641221831172
 21
-1502.30584605603
 31
0.0
  0
SOLID
  5
4D9F
330
4D9A
100
AcDbEntity
  8
标注
 62
     0
100
AcDbTrace
 10
390.3078884978389
 20
-1131.005846056031
 30
0.0
 11
392.9745551645055
 21
-1131.005846056031
 31
0.0
 12
391.6412218311723
 22
-1123.005846056031
 32
0.0
 13
391.6412218311723
 23
-1123.005846056031
 33
0.0
  0
SOLID
  5
4DA0
330
4D9A
100
AcDbEntity
  8
标注
 62
     0
100
AcDbTrace
 10
390.3078884978389
 20
-1502.30584605603
 30
0.0
 11
392.9745551645055
 21
-1502.30584605603
 31
0.0
 12
391.641221831172
 22
-1510.30584605603
 32
0.0
 13
391.641221831172
 23
-1510.30584605603
 33
0.0
  0
MTEXT
  5
4DA1
330
4D9A
100
AcDbEntity
  8
标注
 62
     0
100
AcDbMText
 10
379.2837866333549
 20
-1288.487226092324
 30
0.0
 40
16.0
 41
0.0
 71
     5
 72
     1
  1
{\fArial|b0|i0|c0|p34;387.3 [15 1/4]}
 11
0.0
 21
1.0
 31
0.0
 73
     1
 44
1.0
1001
ACAD
1000
MTEXTBEGIN
1070
    73
1070
     1
1070
    44
1040
1.0
1070
    74
1070
     0
1000
MTEXTEND
  0
POINT
  5
4DA2
330
4D9A
100
AcDbEntity
  8
Defpoints
 62
     0
100
AcDbPoint
 10
426.641221831172
 20
-1123.005846056031
 30
0.0
  0
POINT
  5
4DA3
330
4D9A
100
AcDbEntity
  8
Defpoints
 62
     0
100
AcDbPoint
 10
431.141221831172
 20
-1510.30584605603
 30
0.0
  0
POINT
  5
4DA4
330
4D9A
100
AcDbEntity
  8
Defpoints
 62
     0
100
AcDbPoint
 10
391.641221831172
 20
-1510.30584605603
 30
0.0
  0
ENDBLK
  5
4DA5
330
4D9A
100
AcDbEntity
  8
0
100
AcDbBlockEnd
  0
BLOCK
  5
50EA
330
50E9
100
AcDbEntity
  8
0
100
AcDbBlockBegin
  2
*D37
 70
     1
 10
0.0
 20
0.0
 30
0.0
  3
*D37
  1

  0
POINT
  5
50DD
330
50E9
100
AcDbEntity
  8
Defpoints
  6
ByBlock
100
AcDbPoint
 10
980.3699287091731
 20
-1316.655846056033
 30
0.0
  0
POINT
  5
50DE
330
50E9
100
AcDbEntity
  8
Defpoints
  6
ByBlock
100
AcDbPoint
 10
986.7199287091734
 20
-1316.655846056197
 30
0.0
  0
LINE
  5
50DF
330
50E9
100
AcDbEntity
  8
标注
  6
ByBlock
 62
     0
370
    -2
100
AcDbLine
 10
980.3699287091731
 20
-1316.655846056033
 30
0.0
 11
980.3699287091731
 21
-1355.25
 31
0.0
  0
LINE
  5
50E0
330
50E9
100
AcDbEntity
  8
标注
  6
ByBlock
 62
     0
370
    -2
100
AcDbLine
 10
986.7199287091734
 20
-1316.655846056197
 30
0.0
 11
986.7199287091734
 21
-1355.25
 31
0.0
  0
LINE
  5
50E1
330
50E9
100
AcDbEntity
  8
标注
  6
ByBlock
 62
     0
370
    -2
100
AcDbLine
 10
972.3699287091731
 20
-1351.5
 30
0.0
 11
964.3699287091731
 21
-1351.5
 31
0.0
  0
LINE
  5
50E2
330
50E9
100
AcDbEntity
  8
标注
  6
ByBlock
 62
     0
370
    -2
100
AcDbLine
 10
1110.0
 20
-1351.5
 30
0.0
 11
994.7199287091734
 21
-1351.5
 31
0.0
  0
SOLID
  5
50E3
330
50E9
100
AcDbEntity
  8
标注
  6
ByBlock
 62
     0
100
AcDbTrace
 10
980.3699287091731
 20
-1351.5
 30
0.0
 11
972.3699287091731
 21
-1352.833333333333
 31
0.0
 12
972.3699287091731
 22
-1350.166666666666
 32
0.0
 13
972.3699287091731
 23
-1350.166666666666
 33
0.0
  0
SOLID
  5
50E4
330
50E9
100
AcDbEntity
  8
标注
  6
ByBlock
 62
     0
100
AcDbTrace
 10
986.7199287091734
 20
-1351.5
 30
0.0
 11
994.7199287091734
 21
-1352.833333333333
 31
0.0
 12
994.7199287091734
 22
-1350.166666666666
 32
0.0
 13
994.7199287091734
 23
-1350.166666666666
 33
0.0
  0
LINE
  5
50E5
330
50E9
100
AcDbEntity
  8
标注
  6
ByBlock
 62
     0
370
    -2
100
AcDbLine
 10
980.3699287091731
 20
-1351.5
 30
0.0
 11
986.7199287091734
 21
-1351.5
 31
0.0
  0
LINE
  5
50E6
330
50E9
100
AcDbEntity
  8
标注
  6
ByBlock
 62
     0
370
    -2
100
AcDbLine
 10
980.3699287091731
 20
-1316.655846056033
 30
0.0
 11
980.3699287091731
 21
-1316.655846056033
 31
0.0
  0
MTEXT
  5
50E7
330
50E9
100
AcDbEntity
  8
标注
  6
ByBlock
 62
     0
100
AcDbMText
 10
1052.0
 20
-1341.5
 30
0.0
 40
16.0
 41
0.0
 71
     5
 72
     1
  1
\A0;6.4 [1/4]
 73
     1
 44
1.0
1001
ACAD
1000
MTEXTBEGIN
1070
    73
1070
     1
1070
    44
1040
1.0
1070
    74
1070
     0
1000
MTEXTEND
  0
ENDBLK
  5
50EB
330
50E9
100
AcDbEntity
  8
0
100
AcDbBlockEnd
  0
BLOCK
  5
50FA
330
50F9
100
AcDbEntity
  8
0
100
AcDbBlockBegin
  2
*D38
 70
     1
 10
0.0
 20
0.0
 30
0.0
  3
*D38
  1

  0
POINT
  5
50ED
330
50F9
100
AcDbEntity
  8
Defpoints
  6
ByBlock
100
AcDbPoint
 10
980.3699287091731
 20
-1316.718346056032
 30
0.0
  0
POINT
  5
50EE
330
50F9
100
AcDbEntity
  8
Defpoints
  6
ByBlock
100
AcDbPoint
 10
974.0199287091726
 20
-1316.65584605602
 30
0.0
  0
LINE
  5
50EF
330
50F9
100
AcDbEntity
  8
标注
  6
ByBlock
 62
     0
370
    -2
100
AcDbLine
 10
980.3699287091731
 20
-1316.718346056032
 30
0.0
 11
980.3699287091731
 21
-1329.25
 31
0.0
  0
LINE
  5
50F0
330
50F9
100
AcDbEntity
  8
标注
  6
ByBlock
 62
     0
370
    -2
100
AcDbLine
 10
974.0199287091726
 20
-1316.65584605602
 30
0.0
 11
974.0199287091726
 21
-1329.25
 31
0.0
  0
LINE
  5
50F1
330
50F9
100
AcDbEntity
  8
标注
  6
ByBlock
 62
     0
370
    -2
100
AcDbLine
 10
966.0199287091726
 20
-1325.5
 30
0.0
 11
958.0199287091728
 21
-1325.5
 31
0.0
  0
LINE
  5
50F2
330
50F9
100
AcDbEntity
  8
标注
  6
ByBlock
 62
     0
370
    -2
100
AcDbLine
 10
1107.5
 20
-1325.5
 30
0.0
 11
988.3699287091731
 21
-1325.5
 31
0.0
  0
SOLID
  5
50F3
330
50F9
100
AcDbEntity
  8
标注
  6
ByBlock
 62
     0
100
AcDbTrace
 10
980.3699287091731
 20
-1325.5
 30
0.0
 11
988.3699287091731
 21
-1324.166666666666
 31
0.0
 12
988.3699287091731
 22
-1326.833333333334
 32
0.0
 13
988.3699287091731
 23
-1326.833333333334
 33
0.0
  0
SOLID
  5
50F4
330
50F9
100
AcDbEntity
  8
标注
  6
ByBlock
 62
     0
100
AcDbTrace
 10
974.0199287091726
 20
-1325.5
 30
0.0
 11
966.0199287091726
 21
-1324.166666666666
 31
0.0
 12
966.0199287091726
 22
-1326.833333333334
 32
0.0
 13
966.0199287091726
 23
-1326.833333333334
 33
0.0
  0
LINE
  5
50F5
330
50F9
100
AcDbEntity
  8
标注
  6
ByBlock
 62
     0
370
    -2
100
AcDbLine
 10
980.3699287091731
 20
-1325.5
 30
0.0
 11
974.0199287091726
 21
-1325.5
 31
0.0
  0
LINE
  5
50F6
330
50F9
100
AcDbEntity
  8
标注
  6
ByBlock
 62
     0
370
    -2
100
AcDbLine
 10
980.3699287091731
 20
-1316.718346056032
 30
0.0
 11
980.3699287091731
 21
-1316.718346056032
 31
0.0
  0
MTEXT
  5
50F7
330
50F9
100
AcDbEntity
  8
标注
  6
ByBlock
 62
     0
100
AcDbMText
 10
1049.5
 20
-1315.5
 30
0.0
 40
16.0
 41
0.0
 71
     5
 72
     1
  1
\A0;6.4 [1/4]
 73
     1
 44
1.0
1001
ACAD
1000
MTEXTBEGIN
1070
    73
1070
     1
1070
    44
1040
1.0
1070
    74
1070
     0
1000
MTEXTEND
  0
ENDBLK
  5
50FB
330
50F9
100
AcDbEntity
  8
0
100
AcDbBlockEnd
  0
BLOCK
  5
529A
330
5299
100
AcDbEntity
  8
0
100
AcDbBlockBegin
  2
*D39
 70
     1
 10
0.0
 20
0.0
 30
0.0
  3
*D39
  1

  0
LINE
  5
5291
330
5299
100
AcDbEntity
  8
标注
  6
ByBlock
 62
     0
370
    -2
100
AcDbLine
 10
925.1844181660974
 20
622.7929797453935
 30
0.0
 11
956.0
 21
641.0
 31
0.0
  0
LINE
  5
5292
330
5299
100
AcDbEntity
  8
标注
  6
ByBlock
 62
     0
370
    -2
100
AcDbLine
 10
956.0
 20
641.0
 30
0.0
 11
1173.333333333333
 21
641.0
 31
0.0
  0
LINE
  5
5293
330
5299
100
AcDbEntity
  8
标注
  6
ByBlock
 62
     0
370
    -2
100
AcDbLine
 10
918.2967918388525
 20
618.7235075958089
 30
0.0
 11
832.2014627482911
 21
567.8551057260023
 31
0.0
  0
SOLID
  5
5294
330
5299
100
AcDbEntity
  8
标注
  6
ByBlock
 62
     0
100
AcDbTrace
 10
918.2967918388525
 20
618.7235075958089
 30
0.0
 11
925.8626635243617
 21
621.6450420241857
 31
0.0
 12
924.5061728078333
 22
623.9409174666011
 32
0.0
 13
924.5061728078333
 23
623.9409174666011
 33
0.0
  0
MTEXT
  5
5295
330
5299
100
AcDbEntity
  8
标注
  6
ByBlock
 62
     0
100
AcDbMText
 10
1064.666666666667
 20
651.0
 30
0.0
 40
16.0
 41
0.0
 71
     5
 72
     1
  1
\A0;4-R100 [R3 7/8]
 73
     1
 44
1.0
1001
ACAD
1000
MTEXTBEGIN
1070
    73
1070
     1
1070
    44
1040
1.0
1070
    74
1070
     0
1000
MTEXTEND
  0
POINT
  5
5296
330
5299
100
AcDbEntity
  8
Defpoints
  6
ByBlock
100
AcDbPoint
 10
832.2014627482911
 20
567.8551057260023
 30
0.0
  0
POINT
  5
5297
330
5299
100
AcDbEntity
  8
Defpoints
  6
ByBlock
100
AcDbPoint
 10
918.2967918388525
 20
618.7235075958089
 30
0.0
  0
ENDBLK
  5
529B
330
5299
100
AcDbEntity
  8
0
100
AcDbBlockEnd
  0
BLOCK
  5
52B2
330
52B1
100
AcDbEntity
  8
0
100
AcDbBlockBegin
  2
*D40
 70
     1
 10
0.0
 20
0.0
 30
0.0
  3
*D40
  1

  0
LINE
  5
52A9
330
52B1
100
AcDbEntity
  8
标注
  6
ByBlock
 62
     0
370
    -2
100
AcDbLine
 10
927.5753141000569
 20
603.0197325309544
 30
0.0
 11
955.9999999999998
 21
613.4999999999999
 31
0.0
  0
LINE
  5
52AA
330
52B1
100
AcDbEntity
  8
标注
  6
ByBlock
 62
     0
370
    -2
100
AcDbLine
 10
955.9999999999998
 20
613.4999999999999
 30
0.0
 11
1189.333333333333
 21
613.4999999999999
 31
0.0
  0
LINE
  5
52AB
330
52B1
100
AcDbEntity
  8
标注
  6
ByBlock
 62
     0
370
    -2
100
AcDbLine
 10
920.0692559513692
 20
600.2522262403532
 30
0.0
 11
832.2014627482881
 21
567.8551057260007
 31
0.0
  0
SOLID
  5
52AC
330
52B1
100
AcDbEntity
  8
标注
  6
ByBlock
 62
     0
100
AcDbTrace
 10
920.0692559513692
 20
600.2522262403532
 30
0.0
 11
928.0365651484906
 21
601.7687228395062
 31
0.0
 12
927.1140630516233
 22
604.2707422224027
 32
0.0
 13
927.1140630516233
 23
604.2707422224027
 33
0.0
  0
MTEXT
  5
52AD
330
52B1
100
AcDbEntity
  8
标注
  6
ByBlock
 62
     0
100
AcDbMText
 10
1072.666666666666
 20
623.5
 30
0.0
 40
16.0
 41
0.0
 71
     5
 72
     1
  1
\A0;4-R93.7 [R3 5/8]
 73
     1
 44
1.0
1001
ACAD
1000
MTEXTBEGIN
1070
    73
1070
     1
1070
    44
1040
1.0
1070
    74
1070
     0
1000
MTEXTEND
  0
POINT
  5
52AE
330
52B1
100
AcDbEntity
  8
Defpoints
  6
ByBlock
100
AcDbPoint
 10
832.2014627482881
 20
567.8551057260007
 30
0.0
  0
POINT
  5
52AF
330
52B1
100
AcDbEntity
  8
Defpoints
  6
ByBlock
100
AcDbPoint
 10
920.0692559513692
 20
600.2522262403532
 30
0.0
  0
ENDBLK
  5
52B3
330
52B1
100
AcDbEntity
  8
0
100
AcDbBlockEnd
  0
BLOCK
  5
52BE
330
52BD
100
AcDbEntity
  8
0
100
AcDbBlockBegin
  2
*D41
 70
     1
 10
0.0
 20
0.0
 30
0.0
  3
*D41
  1

  0
LINE
  5
52B5
330
52BD
100
AcDbEntity
  8
标注
  6
ByBlock
 62
     0
370
    -2
100
AcDbLine
 10
919.4647915372408
 20
641.7539145707451
 30
0.0
 11
954.0
 21
671.0
 31
0.0
  0
LINE
  5
52B6
330
52BD
100
AcDbEntity
  8
标注
  6
ByBlock
 62
     0
370
    -2
100
AcDbLine
 10
954.0
 20
671.0
 30
0.0
 11
1190.0
 21
671.0
 31
0.0
  0
LINE
  5
52B7
330
52BD
100
AcDbEntity
  8
标注
  6
ByBlock
 62
     0
370
    -2
100
AcDbLine
 10
913.3597925839255
 20
636.5839060813884
 30
0.0
 11
832.2014627482904
 21
567.8551057260023
 31
0.0
  0
SOLID
  5
52B8
330
52BD
100
AcDbEntity
  8
标注
  6
ByBlock
 62
     0
100
AcDbTrace
 10
913.3597925839255
 20
636.5839060813884
 30
0.0
 11
920.3264596188004
 21
640.7364147451923
 31
0.0
 12
918.6031234556811
 22
642.7714143962979
 32
0.0
 13
918.6031234556811
 23
642.7714143962979
 33
0.0
  0
MTEXT
  5
52B9
330
52BD
100
AcDbEntity
  8
标注
  6
ByBlock
 62
     0
100
AcDbMText
 10
1072.0
 20
681.0
 30
0.0
 40
16.0
 41
0.0
 71
     5
 72
     1
  1
\A0;4-R106.4 [R4 1/8]
 73
     1
 44
1.0
1001
ACAD
1000
MTEXTBEGIN
1070
    73
1070
     1
1070
    44
1040
1.0
1070
    74
1070
     0
1000
MTEXTEND
  0
POINT
  5
52BA
330
52BD
100
AcDbEntity
  8
Defpoints
  6
ByBlock
100
AcDbPoint
 10
832.2014627482904
 20
567.8551057260023
 30
0.0
  0
POINT
  5
52BB
330
52BD
100
AcDbEntity
  8
Defpoints
  6
ByBlock
100
AcDbPoint
 10
913.3597925839255
 20
636.5839060813884
 30
0.0
  0
ENDBLK
  5
52BF
330
52BD
100
AcDbEntity
  8
0
100
AcDbBlockEnd
  0
BLOCK
  5
5387
330
5386
100
AcDbEntity
  8
0
100
AcDbBlockBegin
  2
*D42
 70
     1
 10
0.0
 20
0.0
 30
0.0
  3
*D42
  1

  0
LINE
  5
537A
330
5386
100
AcDbEntity
  8
标注
 62
     0
370
    -2
100
AcDbLine
 10
1086.752038210648
 20
-2470.375767095553
 30
0.0
 11
1086.752038210648
 21
-2437.2977860658
 31
0.0
  0
LINE
  5
537B
330
5386
100
AcDbEntity
  8
标注
 62
     0
370
    -2
100
AcDbLine
 10
1111.752038210648
 20
-2467.375767095553
 30
0.0
 11
1111.752038210648
 21
-2437.2977860658
 31
0.0
  0
LINE
  5
537C
330
5386
100
AcDbEntity
  8
标注
 62
     0
370
    -2
100
AcDbLine
 10
1072.752038210649
 20
-2443.297786065799
 30
0.0
 11
1058.752038210649
 21
-2443.297786065799
 31
0.0
  0
LINE
  5
537D
330
5386
100
AcDbEntity
  8
标注
 62
     0
370
    -2
100
AcDbLine
 10
1125.752038210648
 20
-2443.297786065799
 30
0.0
 11
1193.918704877316
 21
-2443.297786065799
 31
0.0
  0
LINE
  5
537E
330
5386
100
AcDbEntity
  8
标注
 62
     0
370
    -2
100
AcDbLine
 10
1086.752038210648
 20
-2443.297786065799
 30
0.0
 11
1111.752038210648
 21
-2443.297786065799
 31
0.0
  0
SOLID
  5
537F
330
5386
100
AcDbEntity
  8
标注
 62
     0
100
AcDbTrace
 10
1072.752038210649
 20
-2440.964452732464
 30
0.0
 11
1072.752038210649
 21
-2445.631119399135
 31
0.0
 12
1086.752038210648
 22
-2443.297786065799
 32
0.0
 13
1086.752038210648
 23
-2443.297786065799
 33
0.0
  0
SOLID
  5
5380
330
5386
100
AcDbEntity
  8
标注
 62
     0
100
AcDbTrace
 10
1125.752038210648
 20
-2440.964452732464
 30
0.0
 11
1125.752038210648
 21
-2445.631119399135
 31
0.0
 12
1111.752038210648
 22
-2443.297786065799
 32
0.0
 13
1111.752038210648
 23
-2443.297786065799
 33
0.0
  0
MTEXT
  5
5381
330
5386
100
AcDbEntity
  8
标注
 62
     0
100
AcDbMText
 10
1175.752038210652
 20
-2431.797786065799
 30
0.0
 40
20.0
 41
0.0
 71
     5
 72
     1
  1
25
 73
     1
 44
1.0
1001
ACAD
1000
MTEXTBEGIN
1070
    73
1070
     1
1070
    44
1040
1.0
1070
    74
1070
     0
1000
MTEXTEND
  0
POINT
  5
5382
330
5386
100
AcDbEntity
  8
Defpoints
 62
     0
100
AcDbPoint
 10
1086.752038210648
 20
-2470.375767095553
 30
0.0
  0
POINT
  5
5383
330
5386
100
AcDbEntity
  8
Defpoints
 62
     0
100
AcDbPoint
 10
1111.752038210648
 20
-2467.375767095553
 30
0.0
  0
POINT
  5
5384
330
5386
100
AcDbEntity
  8
Defpoints
 62
     0
100
AcDbPoint
 10
1111.752038210648
 20
-2443.297786065799
 30
0.0
  0
ENDBLK
  5
5388
330
5386
100
AcDbEntity
  8
0
100
AcDbBlockEnd
  0
BLOCK
  5
5398
330
5397
100
AcDbEntity
  8
0
100
AcDbBlockBegin
  2
*D43
 70
     1
 10
0.0
 20
0.0
 30
0.0
  3
*D43
  1

  0
LINE
  5
538B
330
5397
100
AcDbEntity
  8
标注
 62
     0
370
    -2
100
AcDbLine
 10
561.7520382106485
 20
-2467.37576709556
 30
0.0
 11
561.7520382106485
 21
-2530.207733386327
 31
0.0
  0
LINE
  5
538C
330
5397
100
AcDbEntity
  8
标注
 62
     0
370
    -2
100
AcDbLine
 10
555.7520382106486
 20
-2467.37576709556
 30
0.0
 11
555.7520382106486
 21
-2530.207733386327
 31
0.0
  0
LINE
  5
538D
330
5397
100
AcDbEntity
  8
标注
 62
     0
370
    -2
100
AcDbLine
 10
575.7520382106486
 20
-2524.207733386327
 30
0.0
 11
589.7520382106486
 21
-2524.207733386327
 31
0.0
  0
LINE
  5
538E
330
5397
100
AcDbEntity
  8
标注
 62
     0
370
    -2
100
AcDbLine
 10
541.7520382106486
 20
-2524.207733386327
 30
0.0
 11
501.4187048773164
 21
-2524.207733386327
 31
0.0
  0
LINE
  5
538F
330
5397
100
AcDbEntity
  8
标注
 62
     0
370
    -2
100
AcDbLine
 10
561.7520382106485
 20
-2524.207733386327
 30
0.0
 11
555.7520382106486
 21
-2524.207733386327
 31
0.0
  0
SOLID
  5
5390
330
5397
100
AcDbEntity
  8
标注
 62
     0
100
AcDbTrace
 10
575.7520382106486
 20
-2521.874400052992
 30
0.0
 11
575.7520382106486
 21
-2526.541066719663
 31
0.0
 12
561.7520382106485
 22
-2524.207733386327
 32
0.0
 13
561.7520382106485
 23
-2524.207733386327
 33
0.0
  0
SOLID
  5
5391
330
5397
100
AcDbEntity
  8
标注
 62
     0
100
AcDbTrace
 10
541.7520382106486
 20
-2521.874400052992
 30
0.0
 11
541.7520382106486
 21
-2526.541066719663
 31
0.0
 12
555.7520382106486
 22
-2524.207733386327
 32
0.0
 13
555.7520382106486
 23
-2524.207733386327
 33
0.0
  0
MTEXT
  5
5392
330
5397
100
AcDbEntity
  8
标注
 62
     0
100
AcDbMText
 10
509.5853715439807
 20
-2512.707733386327
 30
0.0
 40
20.0
 41
0.0
 71
     5
 72
     1
  1
6
 73
     1
 44
1.0
1001
ACAD
1000
MTEXTBEGIN
1070
    73
1070
     1
1070
    44
1040
1.0
1070
    74
1070
     0
1000
MTEXTEND
  0
POINT
  5
5393
330
5397
100
AcDbEntity
  8
Defpoints
 62
     0
100
AcDbPoint
 10
561.7520382106485
 20
-2467.37576709556
 30
0.0
  0
POINT
  5
5394
330
5397
100
AcDbEntity
  8
Defpoints
 62
     0
100
AcDbPoint
 10
555.7520382106486
 20
-2467.37576709556
 30
0.0
  0
POINT
  5
5395
330
5397
100
AcDbEntity
  8
Defpoints
 62
     0
100
AcDbPoint
 10
555.7520382106486
 20
-2524.207733386327
 30
0.0
  0
ENDBLK
  5
5399
330
5397
100
AcDbEntity
  8
0
100
AcDbBlockEnd
  0
BLOCK
  5
53A7
330
53A6
100
AcDbEntity
  8
0
100
AcDbBlockBegin
  2
*D44
 70
     1
 10
0.0
 20
0.0
 30
0.0
  3
*D44
  1

  0
LINE
  5
539D
330
53A6
100
AcDbEntity
  8
标注
 62
     0
370
    -2
100
AcDbLine
 10
711.2034555221144
 20
-2385.756213700377
 30
0.0
 11
819.6029481588812
 21
-2457.952219424609
 31
0.0
  0
LINE
  5
539E
330
53A6
100
AcDbEntity
  8
标注
 62
     0
370
    -2
100
AcDbLine
 10
847.9011282624233
 20
-2476.799314766541
 30
0.0
 11
859.5533200697646
 21
-2484.559883436741
 31
0.0
  0
MTEXT
  5
539F
102
{ACAD_XDICTIONARY
360
56C6
102
}
330
53A6
100
AcDbEntity
  8
标注
 62
     0
100
AcDbMText
 10
749.3443026902787
 20
-2397.341558828586
 30
0.0
 40
19.99999999999976
 41
0.0
 71
     5
 72
     1
  1
5-\U+22056
 11
0.8322994148104649
 21
-0.5543263335853327
 31
0.0
 73
     1
 44
1.0
1001
ACAD
1000
MTEXTBEGIN
1070
    73
1070
     1
1070
    44
1040
1.0
1070
    74
1070
     0
1000
MTEXTEND
  0
LINE
  5
53A0
330
53A6
100
AcDbEntity
  8
标注
 62
     0
370
    -2
100
AcDbLine
 10
836.2489364550819
 20
-2469.038746096333
 30
0.0
 11
831.2551399662224
 21
-2465.712788094818
 31
0.0
  0
SOLID
  5
53A1
330
53A6
100
AcDbEntity
  8
标注
 62
     0
100
AcDbTrace
 10
849.1945563741246
 20
-2474.85728279865
 30
0.0
 11
846.6077001507255
 21
-2478.741346734431
 31
0.0
 12
836.2489364550819
 22
-2469.038746096333
 32
0.0
 13
836.2489364550819
 23
-2469.038746096333
 33
0.0
  0
SOLID
  5
53A2
330
53A6
100
AcDbEntity
  8
标注
 62
     0
100
AcDbTrace
 10
820.8963762705826
 20
-2456.010187456727
 30
0.0
 11
818.3095200471834
 21
-2459.8942513925
 31
0.0
 12
831.2551399662224
 22
-2465.712788094818
 32
0.0
 13
831.2551399662224
 23
-2465.712788094818
 33
0.0
  0
POINT
  5
53A3
330
53A6
100
AcDbEntity
  8
Defpoints
 62
     0
100
AcDbPoint
 10
831.2551399662224
 20
-2465.712788094818
 30
0.0
  0
POINT
  5
53A4
330
53A6
100
AcDbEntity
  8
Defpoints
 62
     0
100
AcDbPoint
 10
836.2489364550819
 20
-2469.038746096333
 30
0.0
  0
ENDBLK
  5
53A8
330
53A6
100
AcDbEntity
  8
0
100
AcDbBlockEnd
  0
BLOCK
  5
544D
330
544C
100
AcDbEntity
  8
0
100
AcDbBlockBegin
  2
*D46
 70
     1
 10
0.0
 20
0.0
 30
0.0
  3
*D46
  1

  0
LINE
  5
5444
330
544C
100
AcDbEntity
  8
标注
  6
ByBlock
 62
     0
370
    -2
100
AcDbLine
 10
1096.828026309647
 20
-2287.773276638302
 30
0.0
 11
1113.414013154823
 21
-2273.886638319152
 31
0.0
  0
LINE
  5
5445
330
544C
100
AcDbEntity
  8
标注
  6
ByBlock
 62
     0
370
    -2
100
AcDbLine
 10
1113.414013154823
 20
-2273.886638319152
 30
0.0
 11
1213.080679821489
 21
-2273.886638319152
 31
0.0
  0
LINE
  5
5446
330
544C
100
AcDbEntity
  8
标注
  6
ByBlock
 62
     0
370
    -2
100
AcDbLine
 10
1086.093640556532
 20
-2296.760654593152
 30
0.0
 11
1001.752038210637
 21
-2367.375767095531
 31
0.0
  0
SOLID
  5
5447
330
544C
100
AcDbEntity
  8
标注
  6
ByBlock
 62
     0
100
AcDbTrace
 10
1086.093640556532
 20
-2296.760654593152
 30
0.0
 11
1098.325922635456
 21
-2289.562340930489
 31
0.0
 12
1095.330129983839
 22
-2285.984212346116
 32
0.0
 13
1095.330129983839
 23
-2285.984212346116
 33
0.0
  0
MTEXT
  5
5448
330
544C
100
AcDbEntity
  8
标注
  6
ByBlock
 62
     0
100
AcDbMText
 10
1163.247346488156
 20
-2262.386638319151
 30
0.0
 40
20.0
 41
0.0
 71
     5
 72
     1
  1
\A0;4-R110
 73
     1
 44
1.0
1001
ACAD
1000
MTEXTBEGIN
1070
    73
1070
     1
1070
    44
1040
1.0
1070
    74
1070
     0
1000
MTEXTEND
  0
POINT
  5
5449
330
544C
100
AcDbEntity
  8
Defpoints
  6
ByBlock
100
AcDbPoint
 10
1001.752038210637
 20
-2367.375767095531
 30
0.0
  0
POINT
  5
544A
330
544C
100
AcDbEntity
  8
Defpoints
  6
ByBlock
100
AcDbPoint
 10
1086.093640556532
 20
-2296.760654593152
 30
0.0
  0
ENDBLK
  5
544E
330
544C
100
AcDbEntity
  8
0
100
AcDbBlockEnd
  0
BLOCK
  5
545A
330
5459
100
AcDbEntity
  8
0
100
AcDbBlockBegin
  2
*D47
 70
     1
 10
0.0
 20
0.0
 30
0.0
  3
*D47
  1

  0
POINT
  5
5450
330
5459
100
AcDbEntity
  8
Defpoints
  6
ByBlock
100
AcDbPoint
 10
665.7520382106485
 20
-2257.37576709556
 30
0.0
  0
POINT
  5
5451
330
5459
100
AcDbEntity
  8
Defpoints
  6
ByBlock
100
AcDbPoint
 10
665.7520382106485
 20
-2677.375767095568
 30
0.0
  0
LINE
  5
5452
330
5459
100
AcDbEntity
  8
标注
  6
ByBlock
 62
     0
370
    -2
100
AcDbLine
 10
665.7520382106485
 20
-2257.37576709556
 30
0.0
 11
471.0
 21
-2257.37576709556
 31
0.0
  0
LINE
  5
5453
330
5459
100
AcDbEntity
  8
标注
  6
ByBlock
 62
     0
370
    -2
100
AcDbLine
 10
665.7520382106485
 20
-2677.375767095568
 30
0.0
 11
471.0
 21
-2677.375767095568
 31
0.0
  0
LINE
  5
5454
330
5459
100
AcDbEntity
  8
标注
  6
ByBlock
 62
     0
370
    -2
100
AcDbLine
 10
477.0
 20
-2271.37576709556
 30
0.0
 11
477.0
 21
-2663.375767095568
 31
0.0
  0
SOLID
  5
5455
330
5459
100
AcDbEntity
  8
标注
  6
ByBlock
 62
     0
100
AcDbTrace
 10
477.0
 20
-2257.37576709556
 30
0.0
 11
474.6666666666661
 21
-2271.37576709556
 31
0.0
 12
479.3333333333338
 22
-2271.37576709556
 32
0.0
 13
479.3333333333338
 23
-2271.37576709556
 33
0.0
  0
SOLID
  5
5456
330
5459
100
AcDbEntity
  8
标注
  6
ByBlock
 62
     0
100
AcDbTrace
 10
477.0
 20
-2677.375767095568
 30
0.0
 11
474.6666666666661
 21
-2663.375767095568
 31
0.0
 12
479.3333333333338
 22
-2663.375767095568
 32
0.0
 13
479.3333333333338
 23
-2663.375767095568
 33
0.0
  0
MTEXT
  5
5457
330
5459
100
AcDbEntity
  8
标注
  6
ByBlock
 62
     0
100
AcDbMText
 10
465.5
 20
-2505.0
 30
0.0
 40
20.0
 41
0.0
 71
     5
 72
     1
  1
\A0;420
 11
0.0000000000000001
 21
1.0
 31
0.0
 73
     1
 44
1.0
1001
ACAD
1000
MTEXTBEGIN
1070
    73
1070
     1
1070
    44
1040
1.0
1070
    74
1070
     0
1000
MTEXTEND
  0
ENDBLK
  5
545B
330
5459
100
AcDbEntity
  8
0
100
AcDbBlockEnd
  0
BLOCK
  5
5467
330
5466
100
AcDbEntity
  8
0
100
AcDbBlockBegin
  2
*D48
 70
     1
 10
0.0
 20
0.0
 30
0.0
  3
*D48
  1

  0
POINT
  5
545D
330
5466
100
AcDbEntity
  8
Defpoints
  6
ByBlock
100
AcDbPoint
 10
555.7520382106486
 20
-2567.375767095561
 30
0.0
  0
POINT
  5
545E
330
5466
100
AcDbEntity
  8
Defpoints
  6
ByBlock
100
AcDbPoint
 10
1111.752038210652
 20
-2567.375767095561
 30
0.0
  0
LINE
  5
545F
330
5466
100
AcDbEntity
  8
标注
  6
ByBlock
 62
     0
370
    -2
100
AcDbLine
 10
555.7520382106486
 20
-2567.375767095561
 30
0.0
 11
555.7520382106486
 21
-2736.5
 31
0.0
  0
LINE
  5
5460
330
5466
100
AcDbEntity
  8
标注
  6
ByBlock
 62
     0
370
    -2
100
AcDbLine
 10
1111.752038210652
 20
-2567.375767095561
 30
0.0
 11
1111.752038210652
 21
-2736.5
 31
0.0
  0
LINE
  5
5461
330
5466
100
AcDbEntity
  8
标注
  6
ByBlock
 62
     0
370
    -2
100
AcDbLine
 10
569.7520382106485
 20
-2730.5
 30
0.0
 11
1097.752038210652
 21
-2730.5
 31
0.0
  0
SOLID
  5
5462
330
5466
100
AcDbEntity
  8
标注
  6
ByBlock
 62
     0
100
AcDbTrace
 10
555.7520382106486
 20
-2730.5
 30
0.0
 11
569.7520382106485
 21
-2732.833333333334
 31
0.0
 12
569.7520382106485
 22
-2728.166666666667
 32
0.0
 13
569.7520382106485
 23
-2728.166666666667
 33
0.0
  0
SOLID
  5
5463
330
5466
100
AcDbEntity
  8
标注
  6
ByBlock
 62
     0
100
AcDbTrace
 10
1111.752038210652
 20
-2730.5
 30
0.0
 11
1097.752038210652
 21
-2732.833333333334
 31
0.0
 12
1097.752038210652
 22
-2728.166666666667
 32
0.0
 13
1097.752038210652
 23
-2728.166666666667
 33
0.0
  0
MTEXT
  5
5464
330
5466
100
AcDbEntity
  8
标注
  6
ByBlock
 62
     0
100
AcDbMText
 10
834.0
 20
-2719.0
 30
0.0
 40
20.0
 41
0.0
 71
     5
 72
     1
  1
\A0;556
 73
     1
 44
1.0
1001
ACAD
1000
MTEXTBEGIN
1070
    73
1070
     1
1070
    44
1040
1.0
1070
    74
1070
     0
1000
MTEXTEND
  0
ENDBLK
  5
5468
330
5466
100
AcDbEntity
  8
0
100
AcDbBlockEnd
  0
BLOCK
  5
555D
330
5551
100
AcDbEntity
  8
0
100
AcDbBlockBegin
  2
*D49
 70
     1
 10
0.0
 20
0.0
 30
0.0
  3
*D49
  1

  0
LINE
  5
5634
330
5551
100
AcDbEntity
  8
标注
 62
     0
370
    -2
100
AcDbLine
 10
3782.878706877997
 20
-381.6386199638753
 30
0.0
 11
3782.878706877997
 21
-421.516046819677
 31
0.0
  0
LINE
  5
5635
330
5551
100
AcDbEntity
  8
标注
 62
     0
370
    -2
100
AcDbLine
 10
3789.228706877999
 20
-381.6386199638825
 30
0.0
 11
3789.228706877999
 21
-421.516046819677
 31
0.0
  0
LINE
  5
5636
330
5551
100
AcDbEntity
  8
标注
 62
     0
370
    -2
100
AcDbLine
 10
3797.228706877999
 20
-417.766046819677
 30
0.0
 11
3805.228706877999
 21
-417.766046819677
 31
0.0
  0
LINE
  5
5637
330
5551
100
AcDbEntity
  8
标注
 62
     0
370
    -2
100
AcDbLine
 10
3774.878706877997
 20
-417.766046819677
 30
0.0
 11
3667.637233480999
 21
-417.766046819677
 31
0.0
  0
LINE
  5
5638
330
5551
100
AcDbEntity
  8
标注
 62
     0
370
    -2
100
AcDbLine
 10
3789.228706877999
 20
-417.766046819677
 30
0.0
 11
3782.878706877997
 21
-417.766046819677
 31
0.0
  0
SOLID
  5
5639
330
5551
100
AcDbEntity
  8
标注
 62
     0
100
AcDbTrace
 10
3797.228706877999
 20
-416.4327134863437
 30
0.0
 11
3797.228706877999
 21
-419.0993801530103
 31
0.0
 12
3789.228706877999
 22
-417.766046819677
 32
0.0
 13
3789.228706877999
 23
-417.766046819677
 33
0.0
  0
SOLID
  5
563A
330
5551
100
AcDbEntity
  8
标注
 62
     0
100
AcDbTrace
 10
3774.878706877997
 20
-416.4327134863437
 30
0.0
 11
3774.878706877997
 21
-419.0993801530103
 31
0.0
 12
3782.878706877997
 22
-417.766046819677
 32
0.0
 13
3782.878706877997
 23
-417.766046819677
 33
0.0
  0
MTEXT
  5
563B
330
5551
100
AcDbEntity
  8
标注
 62
     0
100
AcDbMText
 10
3708.878706877996
 20
-405.4086116218598
 30
0.0
 40
16.0
 41
0.0
 71
     5
 72
     1
  1
{\fArial|b0|i0|c0|p34;6.4 [1/4]}
 73
     1
 44
1.0
1001
ACAD
1000
MTEXTBEGIN
1070
    73
1070
     1
1070
    44
1040
1.0
1070
    74
1070
     0
1000
MTEXTEND
  0
POINT
  5
563C
330
5551
100
AcDbEntity
  8
Defpoints
 62
     0
100
AcDbPoint
 10
3782.878706877997
 20
-381.6386199638753
 30
0.0
  0
POINT
  5
563D
330
5551
100
AcDbEntity
  8
Defpoints
 62
     0
100
AcDbPoint
 10
3789.228706877999
 20
-381.6386199638825
 30
0.0
  0
POINT
  5
563E
330
5551
100
AcDbEntity
  8
Defpoints
 62
     0
100
AcDbPoint
 10
3789.228706877999
 20
-417.766046819677
 30
0.0
  0
ENDBLK
  5
555E
330
5551
100
AcDbEntity
  8
0
100
AcDbBlockEnd
  0
BLOCK
  5
556B
330
555F
100
AcDbEntity
  8
0
100
AcDbBlockBegin
  2
*D50
 70
     1
 10
0.0
 20
0.0
 30
0.0
  3
*D50
  1

  0
LINE
  5
563F
330
555F
100
AcDbEntity
  8
标注
 62
     0
370
    -2
100
AcDbLine
 10
3789.228706877999
 20
-381.6386199638825
 30
0.0
 11
3789.228706877999
 21
-457.9153964500608
 31
0.0
  0
LINE
  5
5640
330
555F
100
AcDbEntity
  8
标注
 62
     0
370
    -2
100
AcDbLine
 10
3795.578706878001
 20
-381.6386199638753
 30
0.0
 11
3795.578706878001
 21
-457.9153964500608
 31
0.0
  0
LINE
  5
5641
330
555F
100
AcDbEntity
  8
标注
 62
     0
370
    -2
100
AcDbLine
 10
3803.578706878001
 20
-454.1653964500608
 30
0.0
 11
3811.578706878001
 21
-454.1653964500608
 31
0.0
  0
LINE
  5
5642
330
555F
100
AcDbEntity
  8
标注
 62
     0
370
    -2
100
AcDbLine
 10
3781.228706877999
 20
-454.1653964500608
 30
0.0
 11
3673.987233481
 21
-454.1653964500608
 31
0.0
  0
LINE
  5
5643
330
555F
100
AcDbEntity
  8
标注
 62
     0
370
    -2
100
AcDbLine
 10
3795.578706878001
 20
-454.1653964500608
 30
0.0
 11
3789.228706877999
 21
-454.1653964500608
 31
0.0
  0
SOLID
  5
5644
330
555F
100
AcDbEntity
  8
标注
 62
     0
100
AcDbTrace
 10
3803.578706878001
 20
-452.8320631167274
 30
0.0
 11
3803.578706878001
 21
-455.4987297833941
 31
0.0
 12
3795.578706878001
 22
-454.1653964500608
 32
0.0
 13
3795.578706878001
 23
-454.1653964500608
 33
0.0
  0
SOLID
  5
5645
330
555F
100
AcDbEntity
  8
标注
 62
     0
100
AcDbTrace
 10
3781.228706877999
 20
-452.8320631167274
 30
0.0
 11
3781.228706877999
 21
-455.4987297833941
 31
0.0
 12
3789.228706877999
 22
-454.1653964500608
 32
0.0
 13
3789.228706877999
 23
-454.1653964500608
 33
0.0
  0
MTEXT
  5
5646
330
555F
100
AcDbEntity
  8
标注
 62
     0
100
AcDbMText
 10
3715.228706877999
 20
-441.8079612522435
 30
0.0
 40
16.0
 41
0.0
 71
     5
 72
     1
  1
{\fArial|b0|i0|c0|p34;6.4 [1/4]}
 73
     1
 44
1.0
1001
ACAD
1000
MTEXTBEGIN
1070
    73
1070
     1
1070
    44
1040
1.0
1070
    74
1070
     0
1000
MTEXTEND
  0
POINT
  5
5647
330
555F
100
AcDbEntity
  8
Defpoints
 62
     0
100
AcDbPoint
 10
3789.228706877999
 20
-381.6386199638825
 30
0.0
  0
POINT
  5
5648
330
555F
100
AcDbEntity
  8
Defpoints
 62
     0
100
AcDbPoint
 10
3795.578706878001
 20
-381.6386199638753
 30
0.0
  0
POINT
  5
5649
330
555F
100
AcDbEntity
  8
Defpoints
 62
     0
100
AcDbPoint
 10
3795.578706878001
 20
-454.1653964500608
 30
0.0
  0
ENDBLK
  5
556C
330
555F
100
AcDbEntity
  8
0
100
AcDbBlockEnd
  0
BLOCK
  5
5577
330
556D
100
AcDbEntity
  8
0
100
AcDbBlockBegin
  2
*D51
 70
     1
 10
0.0
 20
0.0
 30
0.0
  3
*D51
  1

  0
LINE
  5
564A
330
556D
100
AcDbEntity
  8
标注
 62
     0
370
    -2
100
AcDbLine
 10
3789.228706877999
 20
-186.5
 30
0.0
 11
3789.228706877999
 21
-109.0274326690332
 31
0.0
  0
LINE
  5
564B
330
556D
100
AcDbEntity
  8
标注
 62
     0
370
    -2
100
AcDbLine
 10
3255.228706877996
 20
-177.5
 30
0.0
 11
3255.228706877996
 21
-109.0274326690332
 31
0.0
  0
LINE
  5
564C
330
556D
100
AcDbEntity
  8
标注
 62
     0
370
    -2
100
AcDbLine
 10
3781.228706877999
 20
-112.7774326690332
 30
0.0
 11
3263.228706877996
 21
-112.7774326690332
 31
0.0
  0
SOLID
  5
564D
330
556D
100
AcDbEntity
  8
标注
 62
     0
100
AcDbTrace
 10
3781.228706877999
 20
-111.4440993356999
 30
0.0
 11
3781.228706877999
 21
-114.1107660023666
 31
0.0
 12
3789.228706877999
 22
-112.7774326690332
 32
0.0
 13
3789.228706877999
 23
-112.7774326690332
 33
0.0
  0
SOLID
  5
564E
330
556D
100
AcDbEntity
  8
标注
 62
     0
100
AcDbTrace
 10
3263.228706877996
 20
-111.4440993356999
 30
0.0
 11
3263.228706877996
 21
-114.1107660023666
 31
0.0
 12
3255.228706877996
 22
-112.7774326690332
 32
0.0
 13
3255.228706877996
 23
-112.7774326690332
 33
0.0
  0
MTEXT
  5
564F
330
556D
100
AcDbEntity
  8
标注
 62
     0
100
AcDbMText
 10
3522.495194400079
 20
-100.5236809637126
 30
0.0
 40
16.0
 41
0.0
 71
     5
 72
     1
  1
{\fArial|b0|i0|c0|p34;534 [21]}
 73
     1
 44
1.0
1001
ACAD
1000
MTEXTBEGIN
1070
    73
1070
     1
1070
    44
1040
1.0
1070
    74
1070
     0
1000
MTEXTEND
  0
POINT
  5
5650
330
556D
100
AcDbEntity
  8
Defpoints
 62
     0
100
AcDbPoint
 10
3789.228706877999
 20
-186.5
 30
0.0
  0
POINT
  5
5651
330
556D
100
AcDbEntity
  8
Defpoints
 62
     0
100
AcDbPoint
 10
3255.228706877996
 20
-177.5
 30
0.0
  0
POINT
  5
5652
330
556D
100
AcDbEntity
  8
Defpoints
 62
     0
100
AcDbPoint
 10
3255.228706877996
 20
-112.7774326690332
 30
0.0
  0
ENDBLK
  5
5578
330
556D
100
AcDbEntity
  8
0
100
AcDbBlockEnd
  0
BLOCK
  5
5583
330
5579
100
AcDbEntity
  8
0
100
AcDbBlockBegin
  2
*D52
 70
     1
 10
0.0
 20
0.0
 30
0.0
  3
*D52
  1

  0
LINE
  5
5653
330
5579
100
AcDbEntity
  8
标注
 62
     0
370
    -2
100
AcDbLine
 10
3235.0
 20
-181.6386199637052
 30
0.0
 11
3168.75
 21
-181.6386199637052
 31
0.0
  0
LINE
  5
5654
330
5579
100
AcDbEntity
  8
标注
 62
     0
370
    -2
100
AcDbLine
 10
3240.0
 20
-581.6386199637054
 30
0.0
 11
3168.75
 21
-581.6386199637054
 31
0.0
  0
LINE
  5
5655
330
5579
100
AcDbEntity
  8
标注
 62
     0
370
    -2
100
AcDbLine
 10
3172.5
 20
-189.6386199637052
 30
0.0
 11
3172.5
 21
-573.6386199637053
 31
0.0
  0
SOLID
  5
5656
330
5579
100
AcDbEntity
  8
标注
 62
     0
100
AcDbTrace
 10
3171.166666666667
 20
-189.6386199637052
 30
0.0
 11
3173.833333333334
 21
-189.6386199637052
 31
0.0
 12
3172.5
 22
-181.6386199637052
 32
0.0
 13
3172.5
 23
-181.6386199637052
 33
0.0
  0
SOLID
  5
5657
330
5579
100
AcDbEntity
  8
标注
 62
     0
100
AcDbTrace
 10
3171.166666666667
 20
-573.6386199637053
 30
0.0
 11
3173.833333333334
 21
-573.6386199637053
 31
0.0
 12
3172.5
 22
-581.6386199637054
 32
0.0
 13
3172.5
 23
-581.6386199637054
 33
0.0
  0
MTEXT
  5
5658
330
5579
100
AcDbEntity
  8
标注
 62
     0
100
AcDbMText
 10
3160.142564802183
 20
-353.6499999999992
 30
0.0
 40
16.0
 41
0.0
 71
     5
 72
     1
  1
{\fArial|b0|i0|c0|p34;400 [15 3/4]}
 11
0.0000000000000001
 21
1.0
 31
0.0
 73
     1
 44
1.0
1001
ACAD
1000
MTEXTBEGIN
1070
    73
1070
     1
1070
    44
1040
1.0
1070
    74
1070
     0
1000
MTEXTEND
  0
POINT
  5
5659
330
5579
100
AcDbEntity
  8
Defpoints
 62
     0
100
AcDbPoint
 10
3235.0
 20
-181.6386199637052
 30
0.0
  0
POINT
  5
565A
330
5579
100
AcDbEntity
  8
Defpoints
 62
     0
100
AcDbPoint
 10
3240.0
 20
-581.6386199637054
 30
0.0
  0
POINT
  5
565B
330
5579
100
AcDbEntity
  8
Defpoints
 62
     0
100
AcDbPoint
 10
3172.5
 20
-581.6386199637054
 30
0.0
  0
ENDBLK
  5
5584
330
5579
100
AcDbEntity
  8
0
100
AcDbBlockEnd
  0
BLOCK
  5
558F
330
5585
100
AcDbEntity
  8
0
100
AcDbBlockBegin
  2
*D53
 70
     1
 10
0.0
 20
0.0
 30
0.0
  3
*D53
  1

  0
LINE
  5
565C
330
5585
100
AcDbEntity
  8
标注
 62
     0
370
    -2
100
AcDbLine
 10
3795.578706878001
 20
-185.5
 30
0.0
 11
3795.578706878001
 21
-75.52743266903326
 31
0.0
  0
LINE
  5
565D
330
5585
100
AcDbEntity
  8
标注
 62
     0
370
    -2
100
AcDbLine
 10
3248.878706877999
 20
-177.5
 30
0.0
 11
3248.878706877999
 21
-75.52743266903326
 31
0.0
  0
LINE
  5
565E
330
5585
100
AcDbEntity
  8
标注
 62
     0
370
    -2
100
AcDbLine
 10
3787.578706878001
 20
-79.27743266903326
 30
0.0
 11
3256.878706877998
 21
-79.27743266903326
 31
0.0
  0
SOLID
  5
565F
330
5585
100
AcDbEntity
  8
标注
 62
     0
100
AcDbTrace
 10
3787.578706878001
 20
-77.94409933569993
 30
0.0
 11
3787.578706878001
 21
-80.61076600236658
 31
0.0
 12
3795.578706878001
 22
-79.27743266903326
 32
0.0
 13
3795.578706878001
 23
-79.27743266903326
 33
0.0
  0
SOLID
  5
5660
330
5585
100
AcDbEntity
  8
标注
 62
     0
100
AcDbTrace
 10
3256.878706877998
 20
-77.94409933569993
 30
0.0
 11
3256.878706877998
 21
-80.61076600236658
 31
0.0
 12
3248.878706877999
 22
-79.27743266903326
 32
0.0
 13
3248.878706877999
 23
-79.27743266903326
 33
0.0
  0
MTEXT
  5
5661
330
5585
100
AcDbEntity
  8
标注
 62
     0
100
AcDbMText
 10
3522.495376292744
 20
-66.91999747121608
 30
0.0
 40
16.0
 41
0.0
 71
     5
 72
     1
  1
{\fArial|b0|i0|c0|p34;546.7 [21 1/2]}
 73
     1
 44
1.0
1001
ACAD
1000
MTEXTBEGIN
1070
    73
1070
     1
1070
    44
1040
1.0
1070
    74
1070
     0
1000
MTEXTEND
  0
POINT
  5
5662
330
5585
100
AcDbEntity
  8
Defpoints
 62
     0
100
AcDbPoint
 10
3795.578706878001
 20
-185.5
 30
0.0
  0
POINT
  5
5663
330
5585
100
AcDbEntity
  8
Defpoints
 62
     0
100
AcDbPoint
 10
3248.878706877999
 20
-177.5
 30
0.0
  0
POINT
  5
5664
330
5585
100
AcDbEntity
  8
Defpoints
 62
     0
100
AcDbPoint
 10
3248.878706877999
 20
-79.27743266903326
 30
0.0
  0
ENDBLK
  5
5590
330
5585
100
AcDbEntity
  8
0
100
AcDbBlockEnd
  0
BLOCK
  5
559B
330
5591
100
AcDbEntity
  8
0
100
AcDbBlockBegin
  2
*D54
 70
     1
 10
0.0
 20
0.0
 30
0.0
  3
*D54
  1

  0
LINE
  5
5665
330
5591
100
AcDbEntity
  8
标注
 62
     0
370
    -2
100
AcDbLine
 10
3236.0
 20
-175.2886199637039
 30
0.0
 11
3137.75
 21
-175.2886199637039
 31
0.0
  0
LINE
  5
5666
330
5591
100
AcDbEntity
  8
标注
 62
     0
370
    -2
100
AcDbLine
 10
3241.5
 20
-587.9886199637057
 30
0.0
 11
3137.75
 21
-587.9886199637057
 31
0.0
  0
LINE
  5
5667
330
5591
100
AcDbEntity
  8
标注
 62
     0
370
    -2
100
AcDbLine
 10
3141.5
 20
-183.2886199637039
 30
0.0
 11
3141.5
 21
-579.9886199637057
 31
0.0
  0
SOLID
  5
5668
330
5591
100
AcDbEntity
  8
标注
 62
     0
100
AcDbTrace
 10
3140.166666666667
 20
-183.2886199637039
 30
0.0
 11
3142.833333333334
 21
-183.2886199637039
 31
0.0
 12
3141.5
 22
-175.2886199637039
 32
0.0
 13
3141.5
 23
-175.2886199637039
 33
0.0
  0
SOLID
  5
5669
330
5591
100
AcDbEntity
  8
标注
 62
     0
100
AcDbTrace
 10
3140.166666666667
 20
-579.9886199637057
 30
0.0
 11
3142.833333333334
 21
-579.9886199637057
 31
0.0
 12
3141.5
 22
-587.9886199637057
 32
0.0
 13
3141.5
 23
-587.9886199637057
 33
0.0
  0
MTEXT
  5
566A
330
5591
100
AcDbEntity
  8
标注
 62
     0
100
AcDbMText
 10
3129.142564802183
 20
-353.6499999999981
 30
0.0
 40
16.0
 41
0.0
 71
     5
 72
     1
  1
{\fArial|b0|i0|c0|p34;412.7 [16 1/4]}
 11
0.0000000000000001
 21
1.0
 31
0.0
 73
     1
 44
1.0
1001
ACAD
1000
MTEXTBEGIN
1070
    73
1070
     1
1070
    44
1040
1.0
1070
    74
1070
     0
1000
MTEXTEND
  0
POINT
  5
566B
330
5591
100
AcDbEntity
  8
Defpoints
 62
     0
100
AcDbPoint
 10
3236.0
 20
-175.2886199637039
 30
0.0
  0
POINT
  5
566C
330
5591
100
AcDbEntity
  8
Defpoints
 62
     0
100
AcDbPoint
 10
3241.5
 20
-587.9886199637057
 30
0.0
  0
POINT
  5
566D
330
5591
100
AcDbEntity
  8
Defpoints
 62
     0
100
AcDbPoint
 10
3141.5
 20
-587.9886199637057
 30
0.0
  0
ENDBLK
  5
559C
330
5591
100
AcDbEntity
  8
0
100
AcDbBlockEnd
  0
BLOCK
  5
55A7
330
559D
100
AcDbEntity
  8
0
100
AcDbBlockBegin
  2
*D55
 70
     1
 10
0.0
 20
0.0
 30
0.0
  3
*D55
  1

  0
LINE
  5
566E
330
559D
100
AcDbEntity
  8
标注
 62
     0
370
    -2
100
AcDbLine
 10
3782.878706877997
 20
-188.0
 30
0.0
 11
3782.878706877997
 21
-140.0274326690332
 31
0.0
  0
LINE
  5
566F
330
559D
100
AcDbEntity
  8
标注
 62
     0
370
    -2
100
AcDbLine
 10
3261.578706878
 20
-178.0
 30
0.0
 11
3261.578706878
 21
-140.0274326690332
 31
0.0
  0
LINE
  5
5670
330
559D
100
AcDbEntity
  8
标注
 62
     0
370
    -2
100
AcDbLine
 10
3774.878706877997
 20
-143.7774326690332
 30
0.0
 11
3269.578706877999
 21
-143.7774326690332
 31
0.0
  0
SOLID
  5
5671
330
559D
100
AcDbEntity
  8
标注
 62
     0
100
AcDbTrace
 10
3774.878706877997
 20
-142.4440993356999
 30
0.0
 11
3774.878706877997
 21
-145.1107660023666
 31
0.0
 12
3782.878706877997
 22
-143.7774326690332
 32
0.0
 13
3782.878706877997
 23
-143.7774326690332
 33
0.0
  0
SOLID
  5
5672
330
559D
100
AcDbEntity
  8
标注
 62
     0
100
AcDbTrace
 10
3269.578706877999
 20
-142.4440993356999
 30
0.0
 11
3269.578706877999
 21
-145.1107660023666
 31
0.0
 12
3261.578706878
 22
-143.7774326690332
 32
0.0
 13
3261.578706878
 23
-143.7774326690332
 33
0.0
  0
MTEXT
  5
5673
330
559D
100
AcDbEntity
  8
标注
 62
     0
100
AcDbMText
 10
3522.495012443544
 20
-131.4199974712161
 30
0.0
 40
16.0
 41
0.0
 71
     5
 72
     1
  1
{\fArial|b0|i0|c0|p34;521.3 [20 1/2]}
 73
     1
 44
1.0
1001
ACAD
1000
MTEXTBEGIN
1070
    73
1070
     1
1070
    44
1040
1.0
1070
    74
1070
     0
1000
MTEXTEND
  0
POINT
  5
5674
330
559D
100
AcDbEntity
  8
Defpoints
 62
     0
100
AcDbPoint
 10
3782.878706877997
 20
-188.0
 30
0.0
  0
POINT
  5
5675
330
559D
100
AcDbEntity
  8
Defpoints
 62
     0
100
AcDbPoint
 10
3261.578706878
 20
-178.0
 30
0.0
  0
POINT
  5
5676
330
559D
100
AcDbEntity
  8
Defpoints
 62
     0
100
AcDbPoint
 10
3261.578706878
 20
-143.7774326690332
 30
0.0
  0
ENDBLK
  5
55A8
330
559D
100
AcDbEntity
  8
0
100
AcDbBlockEnd
  0
BLOCK
  5
55B3
330
55A9
100
AcDbEntity
  8
0
100
AcDbBlockBegin
  2
*D56
 70
     1
 10
0.0
 20
0.0
 30
0.0
  3
*D56
  1

  0
LINE
  5
5677
330
55A9
100
AcDbEntity
  8
标注
 62
     0
370
    -2
100
AcDbLine
 10
3235.5
 20
-187.9886199637058
 30
0.0
 11
3196.75
 21
-187.9886199637058
 31
0.0
  0
LINE
  5
5678
330
55A9
100
AcDbEntity
  8
标注
 62
     0
370
    -2
100
AcDbLine
 10
3240.0
 20
-575.2886199637051
 30
0.0
 11
3196.75
 21
-575.2886199637051
 31
0.0
  0
LINE
  5
5679
330
55A9
100
AcDbEntity
  8
标注
 62
     0
370
    -2
100
AcDbLine
 10
3200.5
 20
-195.9886199637058
 30
0.0
 11
3200.5
 21
-567.288619963705
 31
0.0
  0
SOLID
  5
567A
330
55A9
100
AcDbEntity
  8
标注
 62
     0
100
AcDbTrace
 10
3199.166666666667
 20
-195.9886199637058
 30
0.0
 11
3201.833333333334
 21
-195.9886199637058
 31
0.0
 12
3200.5
 22
-187.9886199637058
 32
0.0
 13
3200.5
 23
-187.9886199637058
 33
0.0
  0
SOLID
  5
567B
330
55A9
100
AcDbEntity
  8
标注
 62
     0
100
AcDbTrace
 10
3199.166666666667
 20
-567.288619963705
 30
0.0
 11
3201.833333333334
 21
-567.288619963705
 31
0.0
 12
3200.5
 22
-575.2886199637051
 32
0.0
 13
3200.5
 23
-575.2886199637051
 33
0.0
  0
MTEXT
  5
567C
330
55A9
100
AcDbEntity
  8
标注
 62
     0
100
AcDbMText
 10
3188.142564802183
 20
-353.4699999999997
 30
0.0
 40
16.0
 41
0.0
 71
     5
 72
     1
  1
{\fArial|b0|i0|c0|p34;387.3 [15 1/4]}
 11
0.0000000000000001
 21
1.0
 31
0.0
 73
     1
 44
1.0
1001
ACAD
1000
MTEXTBEGIN
1070
    73
1070
     1
1070
    44
1040
1.0
1070
    74
1070
     0
1000
MTEXTEND
  0
POINT
  5
567D
330
55A9
100
AcDbEntity
  8
Defpoints
 62
     0
100
AcDbPoint
 10
3235.5
 20
-187.9886199637058
 30
0.0
  0
POINT
  5
567E
330
55A9
100
AcDbEntity
  8
Defpoints
 62
     0
100
AcDbPoint
 10
3240.0
 20
-575.2886199637051
 30
0.0
  0
POINT
  5
567F
330
55A9
100
AcDbEntity
  8
Defpoints
 62
     0
100
AcDbPoint
 10
3200.5
 20
-575.2886199637051
 30
0.0
  0
ENDBLK
  5
55B4
330
55A9
100
AcDbEntity
  8
0
100
AcDbBlockEnd
  0
ENDSEC
  0
SECTION
  2
ENTITIES
  0
IMAGE
  5
476F
330
1F
100
AcDbEntity
  8
0
 92
      140
310
8C0000000100000084000000060000000500000031063790AC84A040FDEBA441D0317340000000000000000031063790AC84A040653239AE4FB27540000000000000000071BFB8D839A5A140653239AE4FB27540000000000000000071BFB8D839A5A140FDEBA441D0317340000000000000000031063790AC84A040FDEBA4
310
41D03173400000000000000000
100
AcDbRasterImage
 90
        0
 10
2114.337037772661
 20
307.1133438532123
 30
0.0
 11
0.0683124733936893
 21
0.0
 31
0.0
 12
0.0
 22
0.0683124733934619
 32
0.0
 13
2112.0
 23
586.0
340
4765
 70
     7
280
     0
281
    50
282
    50
283
     0
360
4764
 71
     1
 91
        2
 14
-0.5
 24
-0.5
 14
2111.5
 24
585.5
  0
LINE
  5
4C86
330
1F
100
AcDbEntity
  8
粗实线
100
AcDbLine
 10
4044.209235226461
 20
-745.700494824114
 30
0.0
 11
3584.04718821824
 21
-745.700494824114
 31
0.0
  0
LINE
  5
4C87
330
1F
100
AcDbEntity
  8
图框线
100
AcDbLine
 10
3890.821886223712
 20
-628.1035272553422
 30
0.0
 11
3890.821886223712
 21
-745.700494824114
 31
0.0
  0
LINE
  5
4C88
330
1F
100
AcDbEntity
  8
图框线
100
AcDbLine
 10
3737.434537220966
 20
-628.1035272553422
 30
0.0
 11
3737.434537220966
 21
-745.700494824114
 31
0.0
  0
LINE
  5
4C89
330
1F
100
AcDbEntity
  8
图框线
100
AcDbLine
 10
3756.607955846335
 20
-699.6842901232915
 30
0.0
 11
3756.607955846335
 21
-727.8053041071177
 31
0.0
  0
LINE
  5
4C8A
330
1F
100
AcDbEntity
  8
图框线
100
AcDbLine
 10
3775.781374471661
 20
-699.6842901232915
 30
0.0
 11
3775.781374471661
 21
-727.8053041071177
 31
0.0
  0
LINE
  5
4C8B
330
1F
100
AcDbEntity
  8
图框线
100
AcDbLine
 10
3814.128211722329
 20
-727.8053041071177
 30
0.0
 11
3814.128211722329
 21
-745.700494824114
 31
0.0
  0
LINE
  5
4C8C
330
1F
100
AcDbEntity
  8
图框线
100
AcDbLine
 10
3794.954793096991
 20
-684.3455552230061
 30
0.0
 11
3794.954793096991
 21
-727.8053041071177
 31
0.0
  0
LINE
  5
4C8D
330
1F
100
AcDbEntity
  8
图框线
100
AcDbLine
 10
3825.632262897547
 20
-684.3455552230061
 30
0.0
 11
3825.632262897547
 21
-727.8053041071177
 31
0.0
  0
LINE
  5
4C8E
330
1F
100
AcDbEntity
  8
图框线
100
AcDbLine
 10
3860.14441642316
 20
-684.3455552230061
 30
0.0
 11
3860.14441642316
 21
-727.8053041071177
 31
0.0
  0
LINE
  5
4C8F
330
1F
100
AcDbEntity
  8
粗实线
100
AcDbLine
 10
4044.209235226461
 20
-745.700494824114
 30
0.0
 11
3584.04718821824
 21
-745.700494824114
 31
0.0
  0
LINE
  5
4C90
330
1F
100
AcDbEntity
  8
粗实线
100
AcDbLine
 10
4044.209235226461
 20
-628.1035272553422
 30
0.0
 11
3584.04718821824
 21
-628.1035272553422
 31
0.0
  0
LINE
  5
4C91
330
1F
100
AcDbEntity
  8
图框线
100
AcDbLine
 10
3890.821886223712
 20
-684.3455552230061
 30
0.0
 11
3584.04718821824
 21
-684.3455552230061
 31
0.0
  0
LINE
  5
4C92
330
1F
100
AcDbEntity
  8
图框线
100
AcDbLine
 10
3737.434537220966
 20
-673.097149629476
 30
0.0
 11
3584.04718821824
 21
-673.097149629476
 31
0.0
  0
LINE
  5
4C93
330
1F
100
AcDbEntity
  8
图框线
100
AcDbLine
 10
3737.434537220966
 20
-661.848744035949
 30
0.0
 11
3584.04718821824
 21
-661.848744035949
 31
0.0
  0
LINE
  5
4C94
330
1F
100
AcDbEntity
  8
图框线
100
AcDbLine
 10
3737.434537220966
 20
-650.600338442411
 30
0.0
 11
3584.04718821824
 21
-650.600338442411
 31
0.0
  0
LINE
  5
4C95
330
1F
100
AcDbEntity
  8
图框线
100
AcDbLine
 10
3737.434537220966
 20
-639.3519328488721
 30
0.0
 11
3584.04718821824
 21
-639.3519328488721
 31
0.0
  0
LINE
  5
4C96
330
1F
100
AcDbEntity
  8
图框线
100
AcDbLine
 10
3890.821886223712
 20
-699.6842901232915
 30
0.0
 11
3584.04718821824
 21
-699.6842901232915
 31
0.0
  0
LINE
  5
4C97
330
1F
100
AcDbEntity
  8
图框线
100
AcDbLine
 10
3890.821886223712
 20
-715.0230250235684
 30
0.0
 11
3584.04718821824
 21
-715.0230250235684
 31
0.0
  0
LINE
  5
4C98
330
1F
100
AcDbEntity
  8
图框线
100
AcDbLine
 10
3737.434537220966
 20
-730.3617599238411
 30
0.0
 11
3584.04718821824
 21
-730.3617599238411
 31
0.0
  0
LINE
  5
4C99
330
1F
100
AcDbEntity
  8
图框线
100
AcDbLine
 10
3890.821886223712
 20
-699.6842901232915
 30
0.0
 11
3737.434537220966
 21
-699.6842901232915
 31
0.0
  0
LINE
  5
4C9A
330
1F
100
AcDbEntity
  8
图框线
100
AcDbLine
 10
3890.821886223712
 20
-715.0230250235684
 30
0.0
 11
3737.434537220966
 21
-715.0230250235684
 31
0.0
  0
LINE
  5
4C9B
330
1F
100
AcDbEntity
  8
图框线
100
AcDbLine
 10
3890.821886223712
 20
-727.8053041071177
 30
0.0
 11
3737.434537220966
 21
-727.8053041071177
 31
0.0
  0
LINE
  5
4C9C
330
1F
100
AcDbEntity
  8
图框线
100
AcDbLine
 10
4044.209235226461
 20
-669.0068203227411
 30
0.0
 11
3890.821886223712
 21
-669.0068203227411
 31
0.0
  0
LINE
  5
4C9D
330
1F
100
AcDbEntity
  8
图框线
100
AcDbLine
 10
4044.209235226461
 20
-707.3536575734422
 30
0.0
 11
3890.821886223712
 21
-707.3536575734422
 31
0.0
  0
LINE
  5
4C9E
330
1F
100
AcDbEntity
  8
图框线
100
AcDbLine
 10
3604.498834751925
 20
-684.3455552230267
 30
0.0
 11
3604.498834751925
 21
-628.1035272553422
 31
0.0
  0
LINE
  5
4C9F
330
1F
100
AcDbEntity
  8
图框线
100
AcDbLine
 10
3624.950481285623
 20
-684.3455552230267
 30
0.0
 11
3624.950481285623
 21
-628.1035272553422
 31
0.0
  0
LINE
  5
4CA0
330
1F
100
AcDbEntity
  8
图框线
100
AcDbLine
 10
3668.410230169751
 20
-684.3455552230061
 30
0.0
 11
3668.410230169751
 21
-628.1035272553422
 31
0.0
  0
LINE
  5
4CA1
330
1F
100
AcDbEntity
  8
图框线
100
AcDbLine
 10
3706.757067420423
 20
-684.3455552230061
 30
0.0
 11
3706.757067420423
 21
-628.1035272553422
 31
0.0
  0
LINE
  5
4CA2
330
1F
100
AcDbEntity
  8
图框线
100
AcDbLine
 10
3614.72465801878
 20
-745.700494824114
 30
0.0
 11
3614.72465801878
 21
-684.3455552230267
 31
0.0
  0
LINE
  5
4CA3
330
1F
100
AcDbEntity
  8
图框线
100
AcDbLine
 10
3660.740862719607
 20
-745.700494824114
 30
0.0
 11
3660.740862719607
 21
-684.3455552230061
 31
0.0
  0
LINE
  5
4CA4
330
1F
100
AcDbEntity
  8
图框线
100
AcDbLine
 10
3691.418332520147
 20
-745.700494824114
 30
0.0
 11
3691.418332520147
 21
-684.3455552230061
 31
0.0
  0
MTEXT
  5
4CA5
330
1F
100
AcDbEntity
  8
文字
100
AcDbMText
 10
3587.955488801944
 20
-675.5491558048504
 30
0.0
 40
5.189547643130322
 41
33.34932200067503
 71
     1
 72
     5
  1
{\fSimSun|b0|i0|c134|p2;标记}
 73
     1
 44
1.0
1001
ACAD
1000
MTEXTBEGIN
1070
    73
1070
     1
1070
    44
1040
1.0
1070
    74
1070
     0
1000
MTEXTEND
  0
MTEXT
  5
4CA6
330
1F
100
AcDbEntity
  8
文字
100
AcDbMText
 10
3607.972195237681
 20
-675.609931914254
 30
0.0
 40
5.189547643130322
 41
33.34932200067503
 71
     1
 72
     5
  1
{\fSimSun|b0|i0|c134|p2;处数}
 73
     1
 44
1.0
1001
ACAD
1000
MTEXTBEGIN
1070
    73
1070
     1
1070
    44
1040
1.0
1070
    74
1070
     0
1000
MTEXTEND
  0
MTEXT
  5
4CA7
330
1F
100
AcDbEntity
  8
文字
100
AcDbMText
 10
3632.784276642256
 20
-676.2595674316437
 30
0.0
 40
4.151638114504257
 41
70.91381866104092
 71
     1
 72
     5
  1
{\fSimSun|b0|i0|c134|p2;\C1;更改文件号}
 73
     1
 44
1.0
1001
ACAD
1000
MTEXTBEGIN
1070
    73
1070
     1
1070
    44
1040
1.0
1070
    74
1070
     0
1000
MTEXTEND
  0
MTEXT
  5
4CA8
330
1F
100
AcDbEntity
  8
文字
100
AcDbMText
 10
3679.568785884276
 20
-675.2298456863243
 30
0.0
 40
5.189547643130322
 41
33.34932200067503
 71
     1
 72
     5
  1
{\fSimSun|b0|i0|c134|p2;签名}
 73
     1
 44
1.0
1001
ACAD
1000
MTEXTBEGIN
1070
    73
1070
     1
1070
    44
1040
1.0
1070
    74
1070
     0
1000
MTEXTEND
  0
MTEXT
  5
4CA9
330
1F
100
AcDbEntity
  8
文字
100
AcDbMText
 10
3716.331517878933
 20
-675.5354099000665
 30
0.0
 40
5.189547643130322
 41
33.34932200067503
 71
     1
 72
     5
  1
{\fSimSun|b0|i0|c134|p2;日期}
 73
     1
 44
1.0
1001
ACAD
1000
MTEXTBEGIN
1070
    73
1070
     1
1070
    44
1040
1.0
1070
    74
1070
     0
1000
MTEXTEND
  0
MTEXT
  5
4CAA
330
1F
100
AcDbEntity
  8
文字
100
AcDbMText
 10
3590.678384792859
 20
-688.3412757989823
 30
0.0
 40
6.486934553912901
 41
41.68665250084379
 71
     1
 72
     5
  1
{\fSimSun|b0|i0|c134|p2;设计}
 73
     1
 44
1.0
1001
ACAD
1000
MTEXTBEGIN
1070
    73
1070
     1
1070
    44
1040
1.0
1070
    74
1070
     0
1000
MTEXTEND
  0
MTEXT
  5
4CAB
330
1F
100
AcDbEntity
  8
文字
100
AcDbMText
 10
3590.678384792859
 20
-703.7843412789542
 30
0.0
 40
6.486934553912901
 41
41.68665250084379
 71
     1
 72
     5
  1
{\fSimSun|b0|i0|c134|p2;校对}
 73
     1
 44
1.0
1001
ACAD
1000
MTEXTBEGIN
1070
    73
1070
     1
1070
    44
1040
1.0
1070
    74
1070
     0
1000
MTEXTEND
  0
MTEXT
  5
4CAC
330
1F
100
AcDbEntity
  8
文字
100
AcDbMText
 10
3590.678384792859
 20
-719.0760042611273
 30
0.0
 40
6.486934553912901
 41
41.68665250084379
 71
     1
 72
     5
  1
{\fSimSun|b0|i0|c134|p2;会签}
 73
     1
 44
1.0
1001
ACAD
1000
MTEXTBEGIN
1070
    73
1070
     1
1070
    44
1040
1.0
1070
    74
1070
     0
1000
MTEXTEND
  0
MTEXT
  5
4CAD
330
1F
100
AcDbEntity
  8
文字
100
AcDbMText
 10
3590.678384792859
 20
-734.2016669091417
 30
0.0
 40
6.486934553912901
 41
41.68665250084379
 71
     1
 72
     5
  1
{\fSimSun|b0|i0|c134|p2;工艺}
 73
     1
 44
1.0
1001
ACAD
1000
MTEXTBEGIN
1070
    73
1070
     1
1070
    44
1040
1.0
1070
    74
1070
     0
1000
MTEXTEND
  0
MTEXT
  5
4CAE
330
1F
100
AcDbEntity
  8
文字
100
AcDbMText
 10
3667.266761034271
 20
-704.6970037488168
 30
0.0
 40
6.486934553912901
 41
41.68665250084379
 71
     1
 72
     5
  1
{\fSimSun|b0|i0|c134|p2;批准}
 73
     1
 44
1.0
1001
ACAD
1000
MTEXTBEGIN
1070
    73
1070
     1
1070
    44
1040
1.0
1070
    74
1070
     0
1000
MTEXTEND
  0
MTEXT
  5
4CAF
330
1F
100
AcDbEntity
  8
文字
100
AcDbMText
 10
3668.649252216722
 20
-735.1143175285053
 30
0.0
 40
6.486934553912901
 41
41.68665250084379
 71
     1
 72
     5
  1
{\fSimSun|b0|i0|c134|p2;日期}
 73
     1
 44
1.0
1001
ACAD
1000
MTEXTBEGIN
1070
    73
1070
     1
1070
    44
1040
1.0
1070
    74
1070
     0
1000
MTEXTEND
  0
MTEXT
  5
4CB0
330
1F
100
AcDbEntity
  8
文字
100
AcDbMText
 10
3748.644631672752
 20
-688.2148898776049
 30
0.0
 40
6.486934553912901
 41
41.68665250084379
 71
     1
 72
     5
  1
{\fSimSun|b0|i0|c134|p2;图样标记}
 73
     1
 44
1.0
1001
ACAD
1000
MTEXTBEGIN
1070
    73
1070
     1
1070
    44
1040
1.0
1070
    74
1070
     0
1000
MTEXTEND
  0
MTEXT
  5
4CB1
330
1F
100
AcDbEntity
  8
文字
100
AcDbMText
 10
3758.847179869443
 20
-733.6476044882912
 30
0.0
 40
6.486934553912901
 41
41.68665250084379
 71
     1
 72
     5
  1
{\fSimSun|b0|i0|c134|p2;共  页}
 73
     1
 44
1.0
1001
ACAD
1000
MTEXTBEGIN
1070
    73
1070
     1
1070
    44
1040
1.0
1070
    74
1070
     0
1000
MTEXTEND
  0
MTEXT
  5
4CB2
330
1F
100
AcDbEntity
  8
文字
100
AcDbMText
 10
3802.908899484986
 20
-688.2731529609007
 30
0.0
 40
6.486934553912901
 41
41.68665250084379
 71
     1
 72
     5
  1
{\fSimSun|b0|i0|c134|p2;数量}
 73
     1
 44
1.0
1001
ACAD
1000
MTEXTBEGIN
1070
    73
1070
     1
1070
    44
1040
1.0
1070
    74
1070
     0
1000
MTEXTEND
  0
MTEXT
  5
4CB3
330
1F
100
AcDbEntity
  8
文字
100
AcDbMText
 10
3830.16396002933
 20
-688.6950781303021
 30
0.0
 40
6.486934553912901
 41
41.68665250084379
 71
     1
 72
     5
  1
{\fSimSun|b0|i0|c134|p2;重量}
 73
     1
 44
1.0
1001
ACAD
1000
MTEXTBEGIN
1070
    73
1070
     1
1070
    44
1040
1.0
1070
    74
1070
     0
1000
MTEXTEND
  0
MTEXT
  5
4CB4
330
1F
100
AcDbEntity
  8
文字
100
AcDbMText
 10
3867.452414089238
 20
-688.3575403648783
 30
0.0
 40
6.486934553912901
 41
41.68665250084379
 71
     1
 72
     5
  1
{\fSimSun|b0|i0|c134|p2;比例}
 73
     1
 44
1.0
1001
ACAD
1000
MTEXTBEGIN
1070
    73
1070
     1
1070
    44
1040
1.0
1070
    74
1070
     0
1000
MTEXTEND
  0
MTEXT
  5
4CB5
330
1F
100
AcDbEntity
  8
文字
100
AcDbMText
 10
3849.936798623963
 20
-689.3682233654604
 30
0.0
 40
7.539294978182758
 41
149.6964060696981
 71
     1
 72
     5
  1
{\fArial|b0|i0|c0|p34;kg}
  7
样式 8
 73
     1
 44
1.0
1001
ACAD
1000
MTEXTBEGIN
1070
    73
1070
     1
1070
    44
1040
1.0
1070
    74
1070
     0
1000
MTEXTEND
  0
MTEXT
  5
4CB6
330
1F
100
AcDbEntity
  8
文字
100
AcDbMText
 10
3836.125040753186
 20
-733.6476044882912
 30
0.0
 40
6.486934553912901
 41
41.68665250084379
 71
     1
 72
     5
  1
{\fSimSun|b0|i0|c134|p2;第  页}
 73
     1
 44
1.0
1001
ACAD
1000
MTEXTBEGIN
1070
    73
1070
     1
1070
    44
1040
1.0
1070
    74
1070
     0
1000
MTEXTEND
  0
MTEXT
  5
4CB7
330
1F
100
AcDbEntity
  8
文字
100
AcDbMText
 10
3898.315986083856
 20
-645.8851514867894
 30
0.0
 40
9.424118722728447
 41
187.1205075871227
 71
     1
 72
     5
  1
{\fSimSun|b0|i0|c134|p2;\C1;泰捷不锈钢制品（泰国）有限公司}
  7
样式 8
 73
     1
 44
1.0
1001
ACAD
1000
MTEXTBEGIN
1070
    73
1070
     1
1070
    44
1040
1.0
1070
    74
1070
     0
1000
MTEXTEND
  0
MTEXT
  5
4CB8
330
1F
100
AcDbEntity
  8
文字
100
AcDbMText
 10
3912.221643225373
 20
-679.7872196541387
 30
0.0
 40
12.27098792021933
 41
243.6464942540659
 71
     1
 72
     5
  1
{\fSimSun|b0|i0|c134|p2;\C1;开孔纸板（FD1002）}
  7
样式 8
 73
     1
 44
1.0
1001
ACAD
1000
MTEXTBEGIN
1070
    73
1070
     1
1070
    44
1040
1.0
1070
    74
1070
     0
1000
MTEXTEND
  0
LINE
  5
4CB9
330
1F
100
AcDbEntity
  8
不可见
100
AcDbLine
 10
4056.991514310023
 20
0.784603655897854
 30
0.0
 11
4056.991514310023
 21
-758.482773907675
 31
0.0
  0
LINE
  5
4CBA
330
1F
100
AcDbEntity
  8
粗实线
100
AcDbLine
 10
4044.209235226461
 20
-11.99767542764948
 30
0.0
 11
4044.209235226461
 21
-745.700494824114
 31
0.0
  0
LINE
  5
4CBB
330
1F
100
AcDbEntity
  8
不可见
100
AcDbLine
 10
4056.991514310023
 20
-758.482773907675
 30
0.0
 11
2983.280071290831
 21
-758.482773907675
 31
0.0
  0
LINE
  5
4CBC
330
1F
100
AcDbEntity
  8
粗实线
100
AcDbLine
 10
4044.209235226461
 20
-745.700494824114
 30
0.0
 11
3047.191466708629
 21
-745.700494824114
 31
0.0
  0
LINE
  5
4CBD
330
1F
100
AcDbEntity
  8
粗实线
100
AcDbLine
 10
4044.209235226461
 20
-745.700494824114
 30
0.0
 11
3047.191466708629
 21
-745.700494824114
 31
0.0
  0
MTEXT
  5
4CBE
330
1F
100
AcDbEntity
  8
文字
100
AcDbMText
 10
3779.700100503873
 20
-653.4321375315661
 30
0.0
 40
12.27098792021933
 41
243.6464942540659
 71
     1
 72
     5
  1
{\fSimSun|b0|i0|c0|p2;\C1;0.3\fSimSun|b0|i0|c134|p2;mm厚白纸板}
  7
样式 8
 73
     1
 44
1.0
1001
ACAD
1000
MTEXTBEGIN
1070
    73
1070
     1
1070
    44
1040
1.0
1070
    74
1070
     0
1000
MTEXTEND
  0
MTEXT
  5
4CBF
330
1F
100
AcDbEntity
  8
文字
100
AcDbMText
 10
3744.142835627203
 20
-634.3352588888119
 30
0.0
 40
12.27098792021933
 41
243.6464942540659
 71
     1
 72
     5
  1
{\fSimSun|b0|i0|c134|p2;材料:}
  7
样式 8
 73
     1
 44
1.0
1001
ACAD
1000
MTEXTBEGIN
1070
    73
1070
     1
1070
    44
1040
1.0
1070
    74
1070
     0
1000
MTEXTEND
  0
MTEXT
  5
4CC0
330
1F
100
AcDbEntity
  8
文字
100
AcDbMText
 10
3667.266761034271
 20
-689.3182679667494
 30
0.0
 40
6.486934553912901
 41
41.68665250084379
 71
     1
 72
     5
  1
{\fSimSun|b0|i0|c134|p2;审核}
 73
     1
 44
1.0
1001
ACAD
1000
MTEXTBEGIN
1070
    73
1070
     1
1070
    44
1040
1.0
1070
    74
1070
     0
1000
MTEXTEND
  0
LINE
  5
4CC1
330
1F
100
AcDbEntity
  8
不可见
100
AcDbLine
 10
2983.280071290831
 20
0.784603655897854
 30
0.0
 11
4056.991514310023
 21
0.784603655897854
 31
0.0
  0
LINE
  5
4CC2
330
1F
100
AcDbEntity
  8
粗实线
100
AcDbLine
 10
3047.191466708629
 20
-11.99767542766631
 30
0.0
 11
4044.209235226461
 21
-11.99767542766631
 31
0.0
  0
LINE
  5
4CC3
330
1F
100
AcDbEntity
  8
不可见
100
AcDbLine
 10
2983.280071290831
 20
-758.482773907675
 30
0.0
 11
2983.280071290831
 21
0.784603655897854
 31
0.0
  0
LINE
  5
4CC4
330
1F
100
AcDbEntity
  8
粗实线
100
AcDbLine
 10
3047.191466708629
 20
-745.700494824114
 30
0.0
 11
3047.191466708629
 21
-11.99767542766631
 31
0.0
  0
LINE
  5
4CC5
330
1F
100
AcDbEntity
  8
粗实线
100
AcDbLine
 10
3047.191466708629
 20
-38.50883677925754
 30
0.0
 11
3173.233698605981
 21
-38.50883677925754
 31
0.0
  0
LINE
  5
4CC6
330
1F
100
AcDbEntity
  8
粗实线
100
AcDbLine
 10
3173.233698605981
 20
-38.50883677925754
 30
0.0
 11
3173.233698605981
 21
-11.99767542766631
 31
0.0
  0
LINE
  5
4CC7
330
1F
100
AcDbEntity
  8
图框线
100
AcDbLine
 10
3047.191466708629
 20
-725.2488482904189
 30
0.0
 11
2983.280071290831
 21
-725.2488482904189
 31
0.0
  0
LINE
  5
4CC8
330
1F
100
AcDbEntity
  8
图框线
100
AcDbLine
 10
3047.191466708629
 20
-709.9101133901333
 30
0.0
 11
2983.280071290831
 21
-709.9101133901333
 31
0.0
  0
LINE
  5
4CC9
330
1F
100
AcDbEntity
  8
图框线
100
AcDbLine
 10
3047.191466708629
 20
-689.458466856446
 30
0.0
 11
2983.280071290831
 21
-689.458466856446
 31
0.0
  0
LINE
  5
4CCA
330
1F
100
AcDbEntity
  8
图框线
100
AcDbLine
 10
3047.191466708629
 20
-674.1197319561694
 30
0.0
 11
2983.280071290831
 21
-674.1197319561694
 31
0.0
  0
LINE
  5
4CCB
330
1F
100
AcDbEntity
  8
图框线
100
AcDbLine
 10
3047.191466708629
 20
-653.6680854224723
 30
0.0
 11
2983.280071290831
 21
-653.6680854224723
 31
0.0
  0
LINE
  5
4CCC
330
1F
100
AcDbEntity
  8
图框线
100
AcDbLine
 10
3047.191466708629
 20
-638.3293505222034
 30
0.0
 11
2983.280071290831
 21
-638.3293505222034
 31
0.0
  0
LINE
  5
4CCD
330
1F
100
AcDbEntity
  8
图框线
100
AcDbLine
 10
3047.191466708629
 20
-617.8777039884916
 30
0.0
 11
2983.280071290831
 21
-617.8777039884916
 31
0.0
  0
LINE
  5
4CCE
330
1F
100
AcDbEntity
  8
图框线
100
AcDbLine
 10
3047.191466708629
 20
-602.5389690882236
 30
0.0
 11
2983.280071290831
 21
-602.5389690882236
 31
0.0
  0
LINE
  5
4CCF
330
1F
100
AcDbEntity
  8
图框线
100
AcDbLine
 10
3047.191466708629
 20
-582.087322554511
 30
0.0
 11
2983.280071290831
 21
-582.087322554511
 31
0.0
  0
LINE
  5
4CD0
330
1F
100
AcDbEntity
  8
图框线
100
AcDbLine
 10
3047.191466708629
 20
-566.7485876542303
 30
0.0
 11
2983.280071290831
 21
-566.7485876542303
 31
0.0
  0
LINE
  5
4CD1
330
1F
100
AcDbEntity
  8
图框线
100
AcDbLine
 10
3047.191466708629
 20
-546.2969411205558
 30
0.0
 11
2983.280071290831
 21
-546.2969411205558
 31
0.0
  0
LINE
  5
4CD2
330
1F
100
AcDbEntity
  8
图框线
100
AcDbLine
 10
3047.191466708629
 20
-530.9582062202781
 30
0.0
 11
2983.280071290831
 21
-530.9582062202781
 31
0.0
  0
LINE
  5
4CD3
330
1F
100
AcDbEntity
  8
图框线
100
AcDbLine
 10
3047.191466708629
 20
-515.6194713200092
 30
0.0
 11
2983.280071290831
 21
-515.6194713200092
 31
0.0
  0
LINE
  5
4CD4
330
1F
100
AcDbEntity
  8
图框线
100
AcDbLine
 10
3047.191466708629
 20
-745.700494824114
 30
0.0
 11
2983.280071290831
 21
-745.700494824114
 31
0.0
  0
MTEXT
  5
4CD5
102
{ACAD_XDICTIONARY
360
56A0
102
}
330
1F
100
AcDbEntity
  8
文字
100
AcDbMText
 10
2990.130168035898
 20
-714.1382972808773
 30
0.0
 40
5.323819238303491
 41
135.2496274701957
 71
     1
 72
     5
  1
\U+65E5   
 73
     1
 44
1.0
1001
ACAD
1000
MTEXTBEGIN
1070
    73
1070
     1
1070
    44
1040
1.0
1070
    74
1070
     0
1000
MTEXTEND
  0
MTEXT
  5
4CD6
102
{ACAD_XDICTIONARY
360
56A2
102
}
330
1F
100
AcDbEntity
  8
文字
100
AcDbMText
 10
2990.130168035898
 20
-678.3675176312975
 30
0.0
 40
5.323819238303491
 41
135.2496274701957
 71
     1
 72
     5
  1
\U+7B7E   
 73
     1
 44
1.0
1001
ACAD
1000
MTEXTBEGIN
1070
    73
1070
     1
1070
    44
1040
1.0
1070
    74
1070
     0
1000
MTEXTEND
  0
MTEXT
  5
4CD7
102
{ACAD_XDICTIONARY
360
56A4
102
}
330
1F
100
AcDbEntity
  8
文字
100
AcDbMText
 10
2990.130168035898
 20
-641.5968143318487
 30
0.0
 40
5.323819238303491
 41
135.2496274701957
 71
     1
 72
     5
  1
\U+5E95
 73
     1
 44
1.0
1001
ACAD
1000
MTEXTBEGIN
1070
    73
1070
     1
1070
    44
1040
1.0
1070
    74
1070
     0
1000
MTEXTEND
  0
MTEXT
  5
4CD8
102
{ACAD_XDICTIONARY
360
56A6
102
}
330
1F
100
AcDbEntity
  8
文字
100
AcDbMText
 10
2990.130168035898
 20
-606.8457024002595
 30
0.0
 40
5.323819238303491
 41
135.2496274701957
 71
     1
 72
     5
  1
\U+65E7
 73
     1
 44
1.0
1001
ACAD
1000
MTEXTBEGIN
1070
    73
1070
     1
1070
    44
1040
1.0
1070
    74
1070
     0
1000
MTEXTEND
  0
MTEXT
  5
4CD9
102
{ACAD_XDICTIONARY
360
56A8
102
}
330
1F
100
AcDbEntity
  8
文字
100
AcDbMText
 10
2989.168508076886
 20
-533.4853561689546
 30
0.0
 40
5.323819238303491
 41
135.2496274701957
 71
     1
 72
     5
  1
\U+63CF   
 73
     1
 44
1.0
1001
ACAD
1000
MTEXTBEGIN
1070
    73
1070
     1
1070
    44
1040
1.0
1070
    74
1070
     0
1000
MTEXTEND
  0
MTEXT
  5
4CDA
102
{ACAD_XDICTIONARY
360
56AA
102
}
330
1F
100
AcDbEntity
  8
文字
100
AcDbMText
 10
2986.603262172997
 20
-517.8855976705177
 30
0.0
 40
5.323819238303491
 41
135.2496274701957
 71
     1
 72
     5
  1
\ftxt.shx,gbcbig.shx;\H1x;\C1;\U+501F\U+FF08\U+901A\U+FF09\U+7528\U+4EF6\U+767B\U+8BB0
 73
     1
 44
1.0
1001
ACAD
1000
MTEXTBEGIN
1070
    73
1070
     1
1070
    44
1040
1.0
1070
    74
1070
     0
1000
MTEXTEND
  0
MTEXT
  5
4CDB
102
{ACAD_XDICTIONARY
360
56AC
102
}
330
1F
100
AcDbEntity
  8
文字
100
AcDbMText
 10
3034.549444649099
 20
-533.4853561689546
 30
0.0
 40
5.323819238303491
 41
135.2496274701957
 71
     1
 72
     5
  1
\U+56FE   
 73
     1
 44
1.0
1001
ACAD
1000
MTEXTBEGIN
1070
    73
1070
     1
1070
    44
1040
1.0
1070
    74
1070
     0
1000
MTEXTEND
  0
MTEXT
  5
4CDC
102
{ACAD_XDICTIONARY
360
56AE
102
}
330
1F
100
AcDbEntity
  8
文字
100
AcDbMText
 10
2989.168508076886
 20
-569.5795437916224
 30
0.0
 40
5.323819238303491
 41
135.2496274701957
 71
     1
 72
     5
  1
\U+63CF   
 73
     1
 44
1.0
1001
ACAD
1000
MTEXTBEGIN
1070
    73
1070
     1
1070
    44
1040
1.0
1070
    74
1070
     0
1000
MTEXTEND
  0
MTEXT
  5
4CDD
102
{ACAD_XDICTIONARY
360
56B0
102
}
330
1F
100
AcDbEntity
  8
文字
100
AcDbMText
 10
3034.549444649099
 20
-569.5795437916224
 30
0.0
 40
5.323819238303491
 41
135.2496274701957
 71
     1
 72
     5
  1
\U+6821   
 73
     1
 44
1.0
1001
ACAD
1000
MTEXTBEGIN
1070
    73
1070
     1
1070
    44
1040
1.0
1070
    74
1070
     0
1000
MTEXTEND
  0
MTEXT
  5
4CDE
102
{ACAD_XDICTIONARY
360
56B2
102
}
330
1F
100
AcDbEntity
  8
文字
100
AcDbMText
 10
3000.001202662302
 20
-606.7358809317674
 30
0.0
 40
5.323819238303491
 41
135.2496274701957
 71
     1
 72
     5
  1
\U+5E95
 73
     1
 44
1.0
1001
ACAD
1000
MTEXTBEGIN
1070
    73
1070
     1
1070
    44
1040
1.0
1070
    74
1070
     0
1000
MTEXTEND
  0
MTEXT
  5
4CDF
102
{ACAD_XDICTIONARY
360
56B4
102
}
330
1F
100
AcDbEntity
  8
文字
100
AcDbMText
 10
3012.495302004976
 20
-606.8457024002595
 30
0.0
 40
5.323819238303491
 41
135.2496274701957
 71
     1
 72
     5
  1
\U+56FE
 73
     1
 44
1.0
1001
ACAD
1000
MTEXTBEGIN
1070
    73
1070
     1
1070
    44
1040
1.0
1070
    74
1070
     0
1000
MTEXTEND
  0
MTEXT
  5
4CE0
102
{ACAD_XDICTIONARY
360
56B6
102
}
330
1F
100
AcDbEntity
  8
文字
100
AcDbMText
 10
3024.12334678697
 20
-606.8457024002595
 30
0.0
 40
5.323819238303491
 41
135.2496274701957
 71
     1
 72
     5
  1
\U+603B
 73
     1
 44
1.0
1001
ACAD
1000
MTEXTBEGIN
1070
    73
1070
     1
1070
    44
1040
1.0
1070
    74
1070
     0
1000
MTEXTEND
  0
MTEXT
  5
4CE1
102
{ACAD_XDICTIONARY
360
56B8
102
}
330
1F
100
AcDbEntity
  8
文字
100
AcDbMText
 10
3035.718576015543
 20
-606.8457024002595
 30
0.0
 40
5.323819238303491
 41
135.2496274701957
 71
     1
 72
     5
  1
\U+53F7
 73
     1
 44
1.0
1001
ACAD
1000
MTEXTBEGIN
1070
    73
1070
     1
1070
    44
1040
1.0
1070
    74
1070
     0
1000
MTEXTEND
  0
MTEXT
  5
4CE2
102
{ACAD_XDICTIONARY
360
56BA
102
}
330
1F
100
AcDbEntity
  8
文字
100
AcDbMText
 10
3004.653249590407
 20
-641.5968143318487
 30
0.0
 40
5.323819238303491
 41
135.2496274701957
 71
     1
 72
     5
  1
\U+56FE
 73
     1
 44
1.0
1001
ACAD
1000
MTEXTBEGIN
1070
    73
1070
     1
1070
    44
1040
1.0
1070
    74
1070
     0
1000
MTEXTEND
  0
MTEXT
  5
4CE3
102
{ACAD_XDICTIONARY
360
56BC
102
}
330
1F
100
AcDbEntity
  8
文字
100
AcDbMText
 10
3018.921686294785
 20
-641.5968143318487
 30
0.0
 40
5.323819238303491
 41
135.2496274701957
 71
     1
 72
     5
  1
\U+603B
 73
     1
 44
1.0
1001
ACAD
1000
MTEXTBEGIN
1070
    73
1070
     1
1070
    44
1040
1.0
1070
    74
1070
     0
1000
MTEXTEND
  0
MTEXT
  5
4CE4
102
{ACAD_XDICTIONARY
360
56BE
102
}
330
1F
100
AcDbEntity
  8
文字
100
AcDbMText
 10
3034.309215046288
 20
-641.5968143318487
 30
0.0
 40
5.323819238303491
 41
135.2496274701957
 71
     1
 72
     5
  1
\U+53F7
 73
     1
 44
1.0
1001
ACAD
1000
MTEXTBEGIN
1070
    73
1070
     1
1070
    44
1040
1.0
1070
    74
1070
     0
1000
MTEXTEND
  0
MTEXT
  5
4CE5
102
{ACAD_XDICTIONARY
360
56C0
102
}
330
1F
100
AcDbEntity
  8
文字
100
AcDbMText
 10
3034.423425227096
 20
-678.3675176312975
 30
0.0
 40
5.323819238303491
 41
135.2496274701957
 71
     1
 72
     5
  1
\U+5B57  
 73
     1
 44
1.0
1001
ACAD
1000
MTEXTBEGIN
1070
    73
1070
     1
1070
    44
1040
1.0
1070
    74
1070
     0
1000
MTEXTEND
  0
MTEXT
  5
4CE6
102
{ACAD_XDICTIONARY
360
56C2
102
}
330
1F
100
AcDbEntity
  8
文字
100
AcDbMText
 10
3033.50281202449
 20
-714.1382972808773
 30
0.0
 40
5.323819238303491
 41
135.2496274701957
 71
     1
 72
     5
  1
\U+671F  
 73
     1
 44
1.0
1001
ACAD
1000
MTEXTBEGIN
1070
    73
1070
     1
1070
    44
1040
1.0
1070
    74
1070
     0
1000
MTEXTEND
  0
MTEXT
  5
4CE7
330
1F
100
AcDbEntity
  8
文字
100
AcDbMText
 10
3946.58858959924
 20
-719.9488099544566
 30
0.0
 40
15.95228429628513
 41
316.7404425302858
 71
     1
 72
     5
  1
\fNSimSun|b0|i0|c134|p49;\H1x;\C1;1b2/5
  7
样式 8
 73
     1
 44
1.0
1001
ACAD
1000
MTEXTBEGIN
1070
    73
1070
     1
1070
    44
1040
1.0
1070
    74
1070
     0
1000
MTEXTEND
  0
LINE
  5
4CE8
330
1F
100
AcDbEntity
  8
粗实线
100
AcDbLine
 10
3584.04718821824
 20
-628.1035272553422
 30
0.0
 11
3584.04718821824
 21
-745.700494824114
 31
0.0
  0
MTEXT
  5
4CE9
330
1F
100
AcDbEntity
  8
文字
100
AcDbMText
 10
3863.900100503873
 20
-600.5821375315661
 30
0.0
 40
12.27098792021933
 41
243.6464942540659
 71
     1
 72
     5
  1
{\fSimSun|b0|i0|c134|p2;\C1;注：图纸上标注尺寸不用印刷}
  7
样式 8
 73
     1
 44
1.0
1001
ACAD
1000
MTEXTBEGIN
1070
    73
1070
     1
1070
    44
1040
1.0
1070
    74
1070
     0
1000
MTEXTEND
  0
LWPOLYLINE
  5
54F3
330
1F
100
AcDbEntity
  8
虚线
 48
2.0
100
AcDbPolyline
 90
        8
 70
     1
 43
0.0
 10
3255.761681922159
 20
-481.2029296282998
 42
0.4058026227141708
 10
3353.946464530854
 20
-580.1159731065636
 42
0.0090481730924444
 10
3690.510949225143
 20
-580.1159731065636
 42
0.4058026227141769
 10
3788.695731833839
 20
-481.2029296282998
 42
0.0053530732644652
 10
3788.695731833839
 20
-282.074310299111
 42
0.4058026227141661
 10
3690.510949225143
 20
-183.1612668208472
 42
0.0090481730924445
 10
3353.946464530854
 20
-183.1612668208472
 42
0.4058026227141555
 10
3255.761681922159
 20
-282.0743102991037
 42
0.0053530732644655
  0
LWPOLYLINE
  5
54F4
330
1F
100
AcDbEntity
  8
虚线
 48
2.0
100
AcDbPolyline
 90
        8
 70
     1
 43
0.0
 10
3262.111318009091
 20
-481.1349475458955
 42
0.4058026783288433
 10
3354.061384806807
 20
-573.7670130869628
 42
0.009048172611227
 10
3690.396046833863
 20
-573.7670127632882
 42
0.405802672486775
 10
3782.346095918292
 20
-481.1349315382249
 42
0.0053530728338204
 10
3782.346095746908
 20
-282.1422923815189
 42
0.4058026573151854
 10
3690.396035706799
 20
-189.5102269627459
 42
0.009048172793052
 10
3354.061366922135
 20
-189.5102271641226
 42
0.4058026227141555
 10
3262.111318009091
 20
-282.142292381508
 42
0.0053530732644655
  0
LWPOLYLINE
  5
54F5
330
1F
100
AcDbEntity
  8
粗实线
100
AcDbPolyline
 90
        8
 70
     1
 43
0.0
 10
3249.412045835227
 20
-481.2709117107078
 42
0.4058026621918751
 10
3353.831576556517
 20
-586.4649337107548
 42
0.0090481727050615
 10
3690.625851616424
 20
-586.4649334498389
 42
0.4058026227141769
 10
3795.045367920775
 20
-481.2709117107042
 42
0.0053530732644652
 10
3795.045367920771
 20
-282.0063282167066
 42
0.4058026227141661
 10
3690.625851616424
 20
-176.8123064775718
 42
0.0090481730924445
 10
3353.831562139574
 20
-176.8123064775718
 42
0.4058026553814936
 10
3249.412045707486
 20
-282.0063401478219
 42
0.0053530729439277
  0
DIMENSION
  5
5545
330
1F
100
AcDbEntity
  8
标注
100
AcDbDimension
  2
*D49
 10
3789.228706877999
 20
-417.766046819677
 30
0.0
 11
3708.878706877996
 21
-417.766046819677
 31
0.0
 70
   160
  1
{\fArial|b0|i0|c0|p34;<>}
 71
     5
 42
6.350000000002182
  3
英寸
100
AcDbAlignedDimension
 13
3782.878706877997
 23
-381.6386199638753
 33
0.0
 14
3789.228706877999
 24
-381.6386199638825
 34
0.0
100
AcDbRotatedDimension
1001
ACAD
1000
DSTYLE
1002
{
1070
    41
1040
8.0
1002
}
  0
DIMENSION
  5
5546
330
1F
100
AcDbEntity
  8
标注
100
AcDbDimension
  2
*D50
 10
3795.578706878001
 20
-454.1653964500608
 30
0.0
 11
3715.228706877999
 21
-454.1653964500608
 31
0.0
 70
   160
  1
{\fArial|b0|i0|c0|p34;<>}
 71
     5
 42
6.350000000002182
  3
英寸
100
AcDbAlignedDimension
 13
3789.228706877999
 23
-381.6386199638825
 33
0.0
 14
3795.578706878001
 24
-381.6386199638753
 34
0.0
100
AcDbRotatedDimension
1001
ACAD
1000
DSTYLE
1002
{
1070
    41
1040
8.0
1002
}
  0
DIMENSION
  5
5547
330
1F
100
AcDbEntity
  8
标注
100
AcDbDimension
  2
*D51
 10
3255.228706877996
 20
-112.7774326690332
 30
0.0
 11
3522.495194400079
 21
-112.7774326690332
 31
0.0
 70
   160
  1
{\fArial|b0|i0|c0|p34;<>}
 71
     5
 42
534.0000000000027
  3
英寸
100
AcDbAlignedDimension
 13
3789.228706877999
 23
-186.5
 33
0.0
 14
3255.228706877996
 24
-177.5
 34
0.0
100
AcDbRotatedDimension
1001
ACAD
1000
DSTYLE
1002
{
1070
    41
1040
8.0
1002
}
  0
DIMENSION
  5
5548
330
1F
100
AcDbEntity
  8
标注
100
AcDbDimension
  2
*D52
 10
3172.5
 20
-581.6386199637054
 30
0.0
 11
3172.5
 21
-353.6499999999992
 31
0.0
 70
   160
  1
{\fArial|b0|i0|c0|p34;<>}
 71
     5
 42
400.0000000000002
  3
英寸
100
AcDbAlignedDimension
 13
3235.0
 23
-181.6386199637052
 33
0.0
 14
3240.0
 24
-581.6386199637054
 34
0.0
 50
90.0
100
AcDbRotatedDimension
1001
ACAD
1000
DSTYLE
1002
{
1070
    41
1040
8.0
1002
}
  0
DIMENSION
  5
5549
330
1F
100
AcDbEntity
  8
标注
100
AcDbDimension
  2
*D53
 10
3248.878706877999
 20
-79.27743266903326
 30
0.0
 11
3522.495376292744
 21
-79.27743266903326
 31
0.0
 70
   160
  1
{\fArial|b0|i0|c0|p34;<>}
 71
     5
 42
546.7000000000025
  3
英寸
100
AcDbAlignedDimension
 13
3795.578706878001
 23
-185.5
 33
0.0
 14
3248.878706877999
 24
-177.5
 34
0.0
100
AcDbRotatedDimension
1001
ACAD
1000
DSTYLE
1002
{
1070
    41
1040
8.0
1002
}
  0
DIMENSION
  5
554A
330
1F
100
AcDbEntity
  8
标注
100
AcDbDimension
  2
*D54
 10
3141.5
 20
-587.9886199637057
 30
0.0
 11
3141.5
 21
-353.6499999999981
 31
0.0
 70
   160
  1
{\fArial|b0|i0|c0|p34;<>}
 71
     5
 42
412.7000000000018
  3
英寸
100
AcDbAlignedDimension
 13
3236.0
 23
-175.2886199637039
 33
0.0
 14
3241.5
 24
-587.9886199637057
 34
0.0
 50
90.0
100
AcDbRotatedDimension
1001
ACAD
1000
DSTYLE
1002
{
1070
    41
1040
8.0
1002
}
  0
DIMENSION
  5
554B
330
1F
100
AcDbEntity
  8
标注
100
AcDbDimension
  2
*D55
 10
3261.578706878
 20
-143.7774326690332
 30
0.0
 11
3522.495012443544
 21
-143.7774326690332
 31
0.0
 70
   160
  1
{\fArial|b0|i0|c0|p34;<>}
 71
     5
 42
521.2999999999974
  3
英寸
100
AcDbAlignedDimension
 13
3782.878706877997
 23
-188.0
 33
0.0
 14
3261.578706878
 24
-178.0
 34
0.0
100
AcDbRotatedDimension
1001
ACAD
1000
DSTYLE
1002
{
1070
    41
1040
8.0
1002
}
  0
DIMENSION
  5
554C
330
1F
100
AcDbEntity
  8
标注
100
AcDbDimension
  2
*D56
 10
3200.5
 20
-575.2886199637051
 30
0.0
 11
3200.5
 21
-353.4699999999997
 31
0.0
 70
   160
  1
{\fArial|b0|i0|c0|p34;<>}
 71
     5
 42
387.2999999999993
  3
英寸
100
AcDbAlignedDimension
 13
3235.5
 23
-187.9886199637058
 33
0.0
 14
3240.0
 24
-575.2886199637051
 34
0.0
 50
90.0
100
AcDbRotatedDimension
1001
ACAD
1000
DSTYLE
1002
{
1070
    41
1040
8.0
1002
}
  0
ENDSEC
  0
SECTION
  2
OBJECTS
  0
DICTIONARY
  5
C
330
0
100
AcDbDictionary
281
     1
  3
ACAD_2007HEADERVARS_RT
350
5690
  3
ACAD_COLOR
350
3513
  3
ACAD_GROUP
350
D
  3
ACAD_IMAGE_DICT
350
4763
  3
ACAD_IMAGE_VARS
350
47EC
  3
ACAD_LAYOUT
350
1A
  3
ACAD_MATERIAL
350
350F
  3
ACAD_MLINESTYLE
350
17
  3
ACAD_PLOTSETTINGS
350
19
  3
ACAD_PLOTSTYLENAME
350
E
  3
ACAD_TABLESTYLE
350
E9
  3
ACAD_VISUALSTYLE
350
28
  3
AcDbVariableDictionary
350
366A
  3
DWGPROPS
350
568F
  0
DICTIONARY
  5
36E2
330
2
100
AcDbDictionary
280
     1
281
     1
  3
ACAD_LAYERSTATES
360
36E3
  0
DICTIONARY
  5
56C6
330
539F
100
AcDbDictionary
280
     1
281
     1
  3
ACAD_MTEXT_RT
360
56C7
  0
IMAGEDEF_REACTOR
  5
4764
330
476F
100
AcDbRasterImageDefReactor
 90
        2
330
476F
  0
DICTIONARY
  5
56A0
330
4CD5
100
AcDbDictionary
280
     1
281
     1
  3
ACAD_MTEXT_RT
360
56A1
  0
DICTIONARY
  5
56A2
330
4CD6
100
AcDbDictionary
280
     1
281
     1
  3
ACAD_MTEXT_RT
360
56A3
  0
DICTIONARY
  5
56A4
330
4CD7
100
AcDbDictionary
280
     1
281
     1
  3
ACAD_MTEXT_RT
360
56A5
  0
DICTIONARY
  5
56A6
330
4CD8
100
AcDbDictionary
280
     1
281
     1
  3
ACAD_MTEXT_RT
360
56A7
  0
DICTIONARY
  5
56A8
330
4CD9
100
AcDbDictionary
280
     1
281
     1
  3
ACAD_MTEXT_RT
360
56A9
  0
DICTIONARY
  5
56AA
330
4CDA
100
AcDbDictionary
280
     1
281
     1
  3
ACAD_MTEXT_RT
360
56AB
  0
DICTIONARY
  5
56AC
330
4CDB
100
AcDbDictionary
280
     1
281
     1
  3
ACAD_MTEXT_RT
360
56AD
  0
DICTIONARY
  5
56AE
330
4CDC
100
AcDbDictionary
280
     1
281
     1
  3
ACAD_MTEXT_RT
360
56AF
  0
DICTIONARY
  5
56B0
330
4CDD
100
AcDbDictionary
280
     1
281
     1
  3
ACAD_MTEXT_RT
360
56B1
  0
DICTIONARY
  5
56B2
330
4CDE
100
AcDbDictionary
280
     1
281
     1
  3
ACAD_MTEXT_RT
360
56B3
  0
DICTIONARY
  5
56B4
330
4CDF
100
AcDbDictionary
280
     1
281
     1
  3
ACAD_MTEXT_RT
360
56B5
  0
DICTIONARY
  5
56B6
330
4CE0
100
AcDbDictionary
280
     1
281
     1
  3
ACAD_MTEXT_RT
360
56B7
  0
DICTIONARY
  5
56B8
330
4CE1
100
AcDbDictionary
280
     1
281
     1
  3
ACAD_MTEXT_RT
360
56B9
  0
DICTIONARY
  5
56BA
330
4CE2
100
AcDbDictionary
280
     1
281
     1
  3
ACAD_MTEXT_RT
360
56BB
  0
DICTIONARY
  5
56BC
330
4CE3
100
AcDbDictionary
280
     1
281
     1
  3
ACAD_MTEXT_RT
360
56BD
  0
DICTIONARY
  5
56BE
330
4CE4
100
AcDbDictionary
280
     1
281
     1
  3
ACAD_MTEXT_RT
360
56BF
  0
DICTIONARY
  5
56C0
330
4CE5
100
AcDbDictionary
280
     1
281
     1
  3
ACAD_MTEXT_RT
360
56C1
  0
DICTIONARY
  5
56C2
330
4CE6
100
AcDbDictionary
280
     1
281
     1
  3
ACAD_MTEXT_RT
360
56C3
  0
DICTIONARY
  5
5690
102
{ACAD_REACTORS
330
C
102
}
330
C
100
AcDbDictionary
281
     1
  3
INTERFERECOLOR
350
5691
  0
DICTIONARY
  5
3513
102
{ACAD_REACTORS
330
C
102
}
330
C
100
AcDbDictionary
281
     1
  0
DICTIONARY
  5
D
102
{ACAD_REACTORS
330
C
102
}
330
C
100
AcDbDictionary
281
     1
  0
DICTIONARY
  5
4763
102
{ACAD_REACTORS
330
C
102
}
330
C
100
AcDbDictionary
281
     1
  3
LOGO1
350
4765
  0
ACAD_PROXY_OBJECT
  5
47EC
102
{ACAD_REACTORS
330
C
102
}
330
C
100
AcDbProxyObject
 90
      499
 91
      510
 95
    65563
 70
     0
 93
       41
310
40901405054C
 94
        0
  0
DICTIONARY
  5
1A
102
{ACAD_REACTORS
330
C
102
}
330
C
100
AcDbDictionary
281
     1
  3
Layout1
350
1E
  3
Layout2
350
24
  3
Model
350
22
  0
DICTIONARY
  5
350F
102
{ACAD_REACTORS
330
C
102
}
330
C
100
AcDbDictionary
281
     1
  3
ByBlock
350
3511
  3
ByLayer
350
3510
  3
Global
350
3512
  0
DICTIONARY
  5
17
102
{ACAD_REACTORS
330
C
102
}
330
C
100
AcDbDictionary
281
     1
  3
Standard
350
18
  0
DICTIONARY
  5
19
102
{ACAD_REACTORS
330
C
102
}
330
C
100
AcDbDictionary
281
     1
  0
ACDBDICTIONARYWDFLT
  5
E
102
{ACAD_REACTORS
330
C
102
}
330
C
100
AcDbDictionary
281
     1
  3
Normal
350
F
100
AcDbDictionaryWithDefault
340
F
  0
DICTIONARY
  5
E9
102
{ACAD_REACTORS
330
C
102
}
330
C
100
AcDbDictionary
281
     1
  3
Standard
350
3514
  0
DICTIONARY
  5
28
102
{ACAD_REACTORS
330
C
102
}
330
C
100
AcDbDictionary
281
     1
  3
2dWireframe
350
2D
  3
3D Hidden
350
2F
  3
3dWireframe
350
2E
  3
Basic
350
30
  3
Brighten
350
34
  3
ColorChange
350
38
  3
Conceptual
350
32
  3
Dim
350
33
  3
Facepattern
350
37
  3
Flat
350
29
  3
FlatWithEdges
350
2A
  3
Gouraud
350
2B
  3
GouraudWithEdges
350
2C
  3
Linepattern
350
36
  3
Realistic
350
31
  3
Thicken
350
35
  0
DICTIONARY
  5
366A
102
{ACAD_REACTORS
330
C
102
}
330
C
100
AcDbDictionary
281
     1
  3
CTABLESTYLE
350
366B
  3
DGNFRAME
350
568E
  3
DIMASSOC
350
568D
  3
HIDETEXT
350
568C
  3
INDEXCTL
350
568B
  3
SORTENTS
350
568A
  0
XRECORD
  5
568F
102
{ACAD_REACTORS
330
C
102
}
330
C
100
AcDbXrecord
280
     1
  1
DWGPROPS COOKIE
  2

  3

  4

  6

  7

  8
Administrator
  9

300
=
301
=
302
=
303
=
304
=
305
=
306
=
307
=
308
=
309
=
 40
0.0396847337962963
 41
2455841.60680022
 42
2459756.620584884
  1

 90
        0
  0
DICTIONARY
  5
36E3
102
{ACAD_REACTORS
330
36E2
102
}
330
36E2
100
AcDbDictionary
281
     1
  0
XRECORD
  5
56C7
102
{ACAD_REACTORS
330
56C6
102
}
330
56C6
100
AcDbXrecord
280
     1
 40
3025.0
  1
5-\U+22056
  0
XRECORD
  5
56A1
102
{ACAD_REACTORS
330
56A0
102
}
330
56A0
100
AcDbXrecord
280
     1
 40
2521.0
  1
日   
  0
XRECORD
  5
56A3
102
{ACAD_REACTORS
330
56A2
102
}
330
56A2
100
AcDbXrecord
280
     1
 40
2618.0
  1
签   
  0
XRECORD
  5
56A5
102
{ACAD_REACTORS
330
56A4
102
}
330
56A4
100
AcDbXrecord
280
     1
 40
1661.0
  1
底
  0
XRECORD
  5
56A7
102
{ACAD_REACTORS
330
56A6
102
}
330
56A6
100
AcDbXrecord
280
     1
 40
1671.0
  1
旧
  0
XRECORD
  5
56A9
102
{ACAD_REACTORS
330
56A8
102
}
330
56A8
100
AcDbXrecord
280
     1
 40
2618.0
  1
描   
  0
XRECORD
  5
56AB
102
{ACAD_REACTORS
330
56AA
102
}
330
56AA
100
AcDbXrecord
280
     1
 40
249260.0
  1
\ftxt.shx,gbcbig.shx;\H1x;\C1;借（通）用件登记
  0
XRECORD
  5
56AD
102
{ACAD_REACTORS
330
56AC
102
}
330
56AC
100
AcDbXrecord
280
     1
 40
2640.0
  1
图   
  0
XRECORD
  5
56AF
102
{ACAD_REACTORS
330
56AE
102
}
330
56AE
100
AcDbXrecord
280
     1
 40
2618.0
  1
描   
  0
XRECORD
  5
56B1
102
{ACAD_REACTORS
330
56B0
102
}
330
56B0
100
AcDbXrecord
280
     1
 40
2394.0
  1
校   
  0
XRECORD
  5
56B3
102
{ACAD_REACTORS
330
56B2
102
}
330
56B2
100
AcDbXrecord
280
     1
 40
1661.0
  1
底
  0
XRECORD
  5
56B5
102
{ACAD_REACTORS
330
56B4
102
}
330
56B4
100
AcDbXrecord
280
     1
 40
1776.0
  1
图
  0
XRECORD
  5
56B7
102
{ACAD_REACTORS
330
56B6
102
}
330
56B6
100
AcDbXrecord
280
     1
 40
1615.0
  1
总
  0
XRECORD
  5
56B9
102
{ACAD_REACTORS
330
56B8
102
}
330
56B8
100
AcDbXrecord
280
     1
 40
1663.0
  1
号
  0
XRECORD
  5
56BB
102
{ACAD_REACTORS
330
56BA
102
}
330
56BA
100
AcDbXrecord
280
     1
 40
1776.0
  1
图
  0
XRECORD
  5
56BD
102
{ACAD_REACTORS
330
56BC
102
}
330
56BC
100
AcDbXrecord
280
     1
 40
1615.0
  1
总
  0
XRECORD
  5
56BF
102
{ACAD_REACTORS
330
56BE
102
}
330
56BE
100
AcDbXrecord
280
     1
 40
1663.0
  1
号
  0
XRECORD
  5
56C1
102
{ACAD_REACTORS
330
56C0
102
}
330
56C0
100
AcDbXrecord
280
     1
 40
2180.0
  1
字  
  0
XRECORD
  5
56C3
102
{ACAD_REACTORS
330
56C2
102
}
330
56C2
100
AcDbXrecord
280
     1
 40
2210.0
  1
期  
  0
XRECORD
  5
5691
102
{ACAD_REACTORS
330
5690
102
}
330
5690
100
AcDbXrecord
280
     1
1004
1800000001000000000000C0000000000000000000000000
  0
IMAGEDEF
  5
4765
102
{ACAD_REACTORS
330
4763
330
4764
102
}
330
4763
100
AcDbRasterImageDef
 90
        0
  1
H:\1-E盘家中电脑\TAJE泰捷资料\3-开孔纸板\Logo1.jpg
 10
2112.0
 20
586.0
 11
0.0004734848484848
 21
0.0004734848484848
280
     1
281
     0
  0
LAYOUT
  5
1E
102
{ACAD_XDICTIONARY
360
5692
102
}
102
{ACAD_REACTORS
330
1A
102
}
330
1A
100
AcDbPlotSettings
  1

  2
none_device
  4

  6

 40
0.0
 41
0.0
 42
0.0
 43
0.0
 44
0.0
 45
0.0
 46
0.0
 47
0.0
 48
0.0
 49
0.0
140
0.0
141
0.0
142
1.0
143
1.0
 70
   688
 72
     0
 73
     0
 74
     5
  7

 75
    16
147
1.0
148
0.0
149
0.0
100
AcDbLayout
  1
Layout1
 70
     1
 71
     1
 10
0.0
 20
0.0
 11
12.0
 21
9.0
 12
0.0
 22
0.0
 32
0.0
 14
1.000000000000000E+20
 24
1.000000000000000E+20
 34
1.000000000000000E+20
 15
-1.000000000000000E+20
 25
-1.000000000000000E+20
 35
-1.000000000000000E+20
146
0.0
 13
0.0
 23
0.0
 33
0.0
 16
1.0
 26
0.0
 36
0.0
 17
0.0
 27
1.0
 37
0.0
 76
     0
330
1B
  0
LAYOUT
  5
24
102
{ACAD_XDICTIONARY
360
5696
102
}
102
{ACAD_REACTORS
330
1A
102
}
330
1A
100
AcDbPlotSettings
  1

  2
none_device
  4

  6

 40
0.0
 41
0.0
 42
0.0
 43
0.0
 44
0.0
 45
0.0
 46
0.0
 47
0.0
 48
0.0
 49
0.0
140
0.0
141
0.0
142
1.0
143
1.0
 70
   688
 72
     0
 73
     0
 74
     5
  7

 75
    16
147
1.0
148
0.0
149
0.0
100
AcDbLayout
  1
Layout2
 70
     1
 71
     2
 10
0.0
 20
0.0
 11
0.0
 21
0.0
 12
0.0
 22
0.0
 32
0.0
 14
0.0
 24
0.0
 34
0.0
 15
0.0
 25
0.0
 35
0.0
146
0.0
 13
0.0
 23
0.0
 33
0.0
 16
1.0
 26
0.0
 36
0.0
 17
0.0
 27
1.0
 37
0.0
 76
     0
330
23
  0
LAYOUT
  5
22
102
{ACAD_XDICTIONARY
360
5694
102
}
102
{ACAD_REACTORS
330
1A
102
}
330
1A
100
AcDbPlotSettings
  1

  2
pdfFactory Pro
  4
A4
  6

 40
6.349999999999999
 41
6.350000000000009
 42
6.350000000000017
 43
6.349999999999999
 44
210.0
 45
297.0
 46
0.0000000000000039
 47
2.644949494949735
 48
148.3587781688279
 49
91.51722609232487
140
1222.07022118802
141
850.7846036558978
142
1.0
143
3.848288786434732
 70
  1716
 72
     1
 73
     1
 74
     4
  7
Monochrome.ctb
 75
     0
147
0.2598557581034492
148
0.0
149
0.0
100
AcDbLayout
  1
Model
 70
     1
 71
     0
 10
0.0
 20
0.0
 11
12.0
 21
9.0
 12
0.0
 22
0.0
 32
0.0
 14
258.1869031377898
 24
-2770.5
 34
0.0
 15
9962.495173146381
 25
803.0356641931767
 35
0.0
146
0.0
 13
0.0
 23
0.0
 33
0.0
 16
1.0
 26
0.0
 36
0.0
 17
0.0
 27
1.0
 37
0.0
 76
     0
330
1F
331
27
  0
MATERIAL
  5
3511
102
{ACAD_XDICTIONARY
360
569A
102
}
102
{ACAD_REACTORS
330
350F
102
}
330
350F
100
AcDbMaterial
  1
ByBlock
  0
MATERIAL
  5
3510
102
{ACAD_XDICTIONARY
360
5698
102
}
102
{ACAD_REACTORS
330
350F
102
}
330
350F
100
AcDbMaterial
  1
ByLayer
  0
MATERIAL
  5
3512
102
{ACAD_XDICTIONARY
360
569C
102
}
102
{ACAD_REACTORS
330
350F
102
}
330
350F
100
AcDbMaterial
  1
Global
  0
MLINESTYLE
  5
18
102
{ACAD_REACTORS
330
17
102
}
330
17
100
AcDbMlineStyle
  2
STANDARD
 70
     0
  3

 62
   256
 51
90.0
 52
90.0
 71
     2
 49
0.5
 62
   256
  6
BYLAYER
 49
-0.5
 62
   256
  6
BYLAYER
  0
ACDBPLACEHOLDER
  5
F
102
{ACAD_REACTORS
330
E
102
}
330
E
  0
TABLESTYLE
  5
3514
102
{ACAD_XDICTIONARY
360
569E
102
}
102
{ACAD_REACTORS
330
E9
102
}
330
E9
100
AcDbTableStyle
  3
Standard
 70
     0
 71
     0
 40
0.06
 41
0.06
280
     0
281
     0
  7
Standard
140
0.18
170
     2
 62
     0
 63
     7
283
     0
274
    -2
284
     1
 64
     0
275
    -2
285
     1
 65
     0
276
    -2
286
     1
 66
     0
277
    -2
287
     1
 67
     0
278
    -2
288
     1
 68
     0
279
    -2
289
     1
 69
     0
  7
Standard
140
0.25
170
     5
 62
     0
 63
     7
283
     0
274
    -2
284
     1
 64
     0
275
    -2
285
     1
 65
     0
276
    -2
286
     1
 66
     0
277
    -2
287
     1
 67
     0
278
    -2
288
     1
 68
     0
279
    -2
289
     1
 69
     0
  7
Standard
140
0.18
170
     5
 62
     0
 63
     7
283
     0
274
    -2
284
     1
 64
     0
275
    -2
285
     1
 65
     0
276
    -2
286
     1
 66
     0
277
    -2
287
     1
 67
     0
278
    -2
288
     1
 68
     0
279
    -2
289
     1
 69
     0
  0
VISUALSTYLE
  5
2D
102
{ACAD_REACTORS
330
28
102
}
330
28
100
AcDbVisualStyle
  2
2dWireframe
 70
     4
 71
     0
 72
     2
 73
     0
 90
        0
 40
-0.6
 41
-30.0
 62
     5
 63
     7
 74
     1
 91
        4
 64
     7
 65
   257
 75
     1
175
     1
 42
1.0
 92
        0
 66
   257
 43
1.0
 76
     1
 77
     6
 78
     2
 67
     7
 79
     5
170
     0
171
     0
290
     0
174
     0
 93
        1
 44
0.0
173
     0
291
     0
 45
0.0
1001
ACAD
1000
AcDbSavedByObjectVersion
1070
     0
  0
VISUALSTYLE
  5
2F
102
{ACAD_REACTORS
330
28
102
}
330
28
100
AcDbVisualStyle
  2
3D Hidden
 70
     6
 71
     1
 72
     2
 73
     2
 90
        0
 40
-0.6
 41
-30.0
 62
     5
 63
     7
 74
     2
 91
        2
 64
     7
 65
   257
 75
     2
175
     1
 42
40.0
 92
        0
 66
   257
 43
1.0
 76
     1
 77
     6
 78
     2
 67
     7
 79
     3
170
     0
171
     0
290
     0
174
     0
 93
        1
 44
0.0
173
     0
291
     0
 45
0.0
1001
ACAD
1000
AcDbSavedByObjectVersion
1070
     0
  0
VISUALSTYLE
  5
2E
102
{ACAD_REACTORS
330
28
102
}
330
28
100
AcDbVisualStyle
  2
3dWireframe
 70
     5
 71
     0
 72
     2
 73
     0
 90
        0
 40
-0.6
 41
-30.0
 62
     5
 63
     7
 74
     1
 91
        4
 64
     7
 65
   257
 75
     1
175
     1
 42
1.0
 92
        0
 66
   257
 43
1.0
 76
     1
 77
     6
 78
     2
 67
     7
 79
     5
170
     0
171
     0
290
     0
174
     0
 93
        1
 44
0.0
173
     0
291
     0
 45
0.0
1001
ACAD
1000
AcDbSavedByObjectVersion
1070
     0
  0
VISUALSTYLE
  5
30
102
{ACAD_REACTORS
330
28
102
}
330
28
100
AcDbVisualStyle
  2
Basic
 70
     7
 71
     1
 72
     0
 73
     1
 90
        0
 40
-0.6
 41
-30.0
 62
     5
 63
     7
 74
     0
 91
        4
 64
     7
 65
   257
 75
     1
175
     1
 42
1.0
 92
        8
 66
     7
 43
1.0
 76
     1
 77
     6
 78
     2
 67
     7
 79
     5
170
     0
171
     0
290
     0
174
     0
 93
        1
 44
0.0
173
     0
291
     1
 45
0.0
1001
ACAD
1000
AcDbSavedByObjectVersion
1070
     0
  0
VISUALSTYLE
  5
34
102
{ACAD_REACTORS
330
28
102
}
330
28
100
AcDbVisualStyle
  2
Brighten
 70
    12
 71
     2
 72
     2
 73
     0
 90
        0
 40
-0.6
 41
-30.0
 62
     5
 63
     7
 74
     1
 91
        4
 64
     7
 65
   257
 75
     1
175
     1
 42
1.0
 92
        8
 66
     7
 43
1.0
 76
     1
 77
     6
 78
     2
 67
     7
 79
     5
170
     0
171
     0
290
     0
174
     0
 93
        1
 44
50.0
173
     0
291
     1
 45
0.0
1001
ACAD
1000
AcDbSavedByObjectVersion
1070
     0
  0
VISUALSTYLE
  5
38
102
{ACAD_REACTORS
330
28
102
}
330
28
100
AcDbVisualStyle
  2
ColorChange
 70
    16
 71
     2
 72
     2
 73
     3
 90
        0
 40
-0.6
 41
-30.0
 62
     5
 63
     8
 74
     1
 91
        4
 64
     7
 65
   257
 75
     1
175
     1
 42
1.0
 92
        8
 66
     8
 43
1.0
 76
     1
 77
     6
 78
     2
 67
     7
 79
     5
170
     0
171
     0
290
     0
174
     0
 93
        1
 44
0.0
173
     0
291
     1
 45
0.0
1001
ACAD
1000
AcDbSavedByObjectVersion
1070
     0
  0
VISUALSTYLE
  5
32
102
{ACAD_REACTORS
330
28
102
}
330
28
100
AcDbVisualStyle
  2
Conceptual
 70
     9
 71
     3
 72
     2
 73
     0
 90
        0
 40
-0.6
 41
-30.0
 62
     5
 63
     7
 74
     2
 91
        2
 64
     7
 65
   257
 75
     1
175
     1
 42
40.0
 92
        8
 66
     7
 43
1.0
 76
     1
 77
     6
 78
     2
 67
     7
 79
     3
170
     0
171
     0
290
     0
174
     0
 93
        1
 44
0.0
173
     0
291
     0
 45
0.0
1001
ACAD
1000
AcDbSavedByObjectVersion
1070
     0
  0
VISUALSTYLE
  5
33
102
{ACAD_REACTORS
330
28
102
}
330
28
100
AcDbVisualStyle
  2
Dim
 70
    11
 71
     2
 72
     2
 73
     0
 90
        0
 40
-0.6
 41
-30.0
 62
     5
 63
     7
 74
     1
 91
        4
 64
     7
 65
   257
 75
     1
175
     1
 42
1.0
 92
        8
 66
     7
 43
1.0
 76
     1
 77
     6
 78
     2
 67
     7
 79
     5
170
     0
171
     0
290
     0
174
     0
 93
        1
 44
-50.0
173
     0
291
     1
 45
0.0
1001
ACAD
1000
AcDbSavedByObjectVersion
1070
     0
  0
VISUALSTYLE
  5
37
102
{ACAD_REACTORS
330
28
102
}
330
28
100
AcDbVisualStyle
  2
Facepattern
 70
    15
 71
     2
 72
     2
 73
     0
 90
        0
 40
-0.6
 41
-30.0
 62
     5
 63
     7
 74
     1
 91
        4
 64
     7
 65
   257
 75
     1
175
     1
 42
1.0
 92
        8
 66
     7
 43
1.0
 76
     1
 77
     6
 78
     2
 67
     7
 79
     5
170
     0
171
     0
290
     0
174
     0
 93
        1
 44
0.0
173
     0
291
     1
 45
0.0
1001
ACAD
1000
AcDbSavedByObjectVersion
1070
     0
  0
VISUALSTYLE
  5
29
102
{ACAD_REACTORS
330
28
102
}
330
28
100
AcDbVisualStyle
  2
Flat
 70
     0
 71
     2
 72
     1
 73
     1
 90
        2
 40
-0.6
 41
30.0
 62
     5
 63
     7
 74
     0
 91
        4
 64
     7
 65
   257
 75
     1
175
     1
 42
1.0
 92
        8
 66
     7
 43
1.0
 76
     1
 77
     6
 78
     2
 67
     7
 79
     5
170
     0
171
     0
290
     0
174
     0
 93
       13
 44
0.0
173
     0
291
     1
 45
0.0
1001
ACAD
1000
AcDbSavedByObjectVersion
1070
     0
  0
VISUALSTYLE
  5
2A
102
{ACAD_REACTORS
330
28
102
}
330
28
100
AcDbVisualStyle
  2
FlatWithEdges
 70
     1
 71
     2
 72
     1
 73
     1
 90
        2
 40
-0.6
 41
30.0
 62
     5
 63
     7
 74
     1
 91
        4
 64
     7
 65
   257
 75
     1
175
     1
 42
1.0
 92
        0
 66
   257
 43
1.0
 76
     1
 77
     6
 78
     2
 67
     7
 79
     5
170
     0
171
     0
290
     0
174
     0
 93
       13
 44
0.0
173
     0
291
     1
 45
0.0
1001
ACAD
1000
AcDbSavedByObjectVersion
1070
     0
  0
VISUALSTYLE
  5
2B
102
{ACAD_REACTORS
330
28
102
}
330
28
100
AcDbVisualStyle
  2
Gouraud
 70
     2
 71
     2
 72
     2
 73
     1
 90
        2
 40
-0.6
 41
30.0
 62
     5
 63
     7
 74
     0
 91
        4
 64
     7
 65
   257
 75
     1
175
     1
 42
1.0
 92
        0
 66
     7
 43
1.0
 76
     1
 77
     6
 78
     2
 67
     7
 79
     5
170
     0
171
     0
290
     0
174
     0
 93
       13
 44
0.0
173
     0
291
     1
 45
0.0
1001
ACAD
1000
AcDbSavedByObjectVersion
1070
     0
  0
VISUALSTYLE
  5
2C
102
{ACAD_REACTORS
330
28
102
}
330
28
100
AcDbVisualStyle
  2
GouraudWithEdges
 70
     3
 71
     2
 72
     2
 73
     1
 90
        2
 40
-0.6
 41
30.0
 62
     5
 63
     7
 74
     1
 91
        4
 64
     7
 65
   257
 75
     1
175
     1
 42
1.0
 92
        0
 66
   257
 43
1.0
 76
     1
 77
     6
 78
     2
 67
     7
 79
     5
170
     0
171
     0
290
     0
174
     0
 93
       13
 44
0.0
173
     0
291
     1
 45
0.0
1001
ACAD
1000
AcDbSavedByObjectVersion
1070
     0
  0
VISUALSTYLE
  5
36
102
{ACAD_REACTORS
330
28
102
}
330
28
100
AcDbVisualStyle
  2
Linepattern
 70
    14
 71
     2
 72
     2
 73
     0
 90
        0
 40
-0.6
 41
-30.0
 62
     5
 63
     7
 74
     1
 91
        4
 64
     7
 65
   257
 75
     7
175
     7
 42
1.0
 92
        8
 66
     7
 43
1.0
 76
     1
 77
     6
 78
     2
 67
     7
 79
     5
170
     0
171
     0
290
     0
174
     0
 93
        1
 44
0.0
173
     0
291
     1
 45
0.0
1001
ACAD
1000
AcDbSavedByObjectVersion
1070
     0
  0
VISUALSTYLE
  5
31
102
{ACAD_REACTORS
330
28
102
}
330
28
100
AcDbVisualStyle
  2
Realistic
 70
     8
 71
     2
 72
     2
 73
     0
 90
        0
 40
-0.6
 41
-30.0
 62
     5
 63
     7
 74
     1
 91
        0
 64
     7
 65
   257
 75
     1
175
     1
 42
1.0
 92
        8
 66
     8
 43
1.0
 76
     1
 77
     6
 78
     2
 67
     7
 79
     5
170
     0
171
     0
290
     0
174
     0
 93
       13
 44
0.0
173
     0
291
     0
 45
0.0
1001
ACAD
1000
AcDbSavedByObjectVersion
1070
     0
  0
VISUALSTYLE
  5
35
102
{ACAD_REACTORS
330
28
102
}
330
28
100
AcDbVisualStyle
  2
Thicken
 70
    13
 71
     2
 72
     2
 73
     0
 90
        0
 40
-0.6
 41
-30.0
 62
     5
 63
     7
 74
     1
 91
        4
 64
     7
 65
   257
 75
     1
175
     1
 42
1.0
 92
       12
 66
     7
 43
1.0
 76
     1
 77
     6
 78
     2
 67
     7
 79
     5
170
     0
171
     0
290
     0
174
     0
 93
        1
 44
0.0
173
     0
291
     1
 45
0.0
1001
ACAD
1000
AcDbSavedByObjectVersion
1070
     0
  0
DICTIONARYVAR
  5
366B
102
{ACAD_REACTORS
330
366A
102
}
330
366A
100
DictionaryVariables
280
     0
  1
STANDARD
  0
DICTIONARYVAR
  5
568E
102
{ACAD_REACTORS
330
366A
102
}
330
366A
100
DictionaryVariables
280
     0
  1
2
  0
DICTIONARYVAR
  5
568D
102
{ACAD_REACTORS
330
366A
102
}
330
366A
100
DictionaryVariables
280
     0
  1
2
  0
DICTIONARYVAR
  5
568C
102
{ACAD_REACTORS
330
366A
102
}
330
366A
100
DictionaryVariables
280
     0
  1
1
  0
DICTIONARYVAR
  5
568B
102
{ACAD_REACTORS
330
366A
102
}
330
366A
100
DictionaryVariables
280
     0
  1
0
  0
DICTIONARYVAR
  5
568A
102
{ACAD_REACTORS
330
366A
102
}
330
366A
100
DictionaryVariables
280
     0
  1
127
  0
DICTIONARY
  5
5692
330
1E
100
AcDbDictionary
280
     1
281
     1
  3
ACAD_XREC_ROUNDTRIP
360
5693
  0
DICTIONARY
  5
5696
330
24
100
AcDbDictionary
280
     1
281
     1
  3
ACAD_XREC_ROUNDTRIP
360
5697
  0
DICTIONARY
  5
5694
330
22
100
AcDbDictionary
280
     1
281
     1
  3
ACAD_XREC_ROUNDTRIP
360
5695
  0
DICTIONARY
  5
569A
330
3511
100
AcDbDictionary
280
     1
281
     1
  3
ACAD_XREC_ROUNDTRIP
360
569B
  0
DICTIONARY
  5
5698
330
3510
100
AcDbDictionary
280
     1
281
     1
  3
ACAD_XREC_ROUNDTRIP
360
5699
  0
DICTIONARY
  5
569C
330
3512
100
AcDbDictionary
280
     1
281
     1
  3
ACAD_XREC_ROUNDTRIP
360
569D
  0
DICTIONARY
  5
569E
330
3514
100
AcDbDictionary
280
     1
281
     1
  3
ACAD_XREC_ROUNDTRIP
360
569F
  0
XRECORD
  5
5693
102
{ACAD_REACTORS
330
5692
102
}
330
5692
100
AcDbXrecord
280
     1
102
SHADEPLOT
 70
     0
102
SHADEPLOTRESLEVEL
 70
     2
102
SHADEPLOTCUSTOMDPI
 70
   300
  0
XRECORD
  5
5697
102
{ACAD_REACTORS
330
5696
102
}
330
5696
100
AcDbXrecord
280
     1
102
SHADEPLOT
 70
     0
102
SHADEPLOTRESLEVEL
 70
     2
102
SHADEPLOTCUSTOMDPI
 70
   300
  0
XRECORD
  5
5695
102
{ACAD_REACTORS
330
5694
102
}
330
5694
100
AcDbXrecord
280
     1
102
SHADEPLOT
 70
     0
102
SHADEPLOTRESLEVEL
 70
     2
102
SHADEPLOTCUSTOMDPI
 70
   300
  0
XRECORD
  5
569B
102
{ACAD_REACTORS
330
569A
102
}
330
569A
100
AcDbXrecord
280
     1
102
MATERIAL
148
0.0
149
0.0
149
0.0
 93
        0
 94
       63
282
     0
 72
     1
 77
     1
171
     1
175
     1
179
     1
273
     0
  0
XRECORD
  5
5699
102
{ACAD_REACTORS
330
5698
102
}
330
5698
100
AcDbXrecord
280
     1
102
MATERIAL
148
0.0
149
0.0
149
0.0
 93
        0
 94
       63
282
     0
 72
     1
 77
     1
171
     1
175
     1
179
     1
273
     0
  0
XRECORD
  5
569D
102
{ACAD_REACTORS
330
569C
102
}
330
569C
100
AcDbXrecord
280
     1
102
MATERIAL
148
0.0
149
0.0
149
0.0
 93
        0
 94
       63
282
     0
 72
     1
 77
     1
171
     1
175
     1
179
     1
273
     0
  0
XRECORD
  5
569F
102
{ACAD_REACTORS
330
569E
102
}
330
569E
100
AcDbXrecord
280
     1
102
ACAD_ROUNDTRIP_PRE2007_TABLESTYLE
 90
      512
 91
        0
  1

 92
      512
 93
        0
  2

 94
      512
 95
        0
  3

  0
ENDSEC
  0
EOF
