  0
SECTION
  2
HEADER
  9
$ACADVER
  1
AC1018
  9
$ACADMAINTVER
 70
     0
  9
$DWGCODEPAGE
  3
ANSI_936
  9
$INSBASE
 10
0.0
 20
0.0
 30
0.0
  9
$EXTMIN
 10
115.380427759201
 20
49.34808256086122
 30
0.0
  9
$EXTMAX
 10
158.0115956389688
 20
227.5938064183811
 30
0.0
  9
$LIMMIN
 10
0.0
 20
0.0
  9
$LIMMAX
 10
420.0
 20
297.0
  9
$ORTHOMODE
 70
     0
  9
$REGENMODE
 70
     1
  9
$FILLMODE
 70
     1
  9
$QTEXTMODE
 70
     0
  9
$MIRRTEXT
 70
     0
  9
$LTSCALE
 40
1.0
  9
$ATTMODE
 70
     1
  9
$TEXTSIZE
 40
2.5
  9
$TRACEWID
 40
1.0
  9
$TEXTSTYLE
  7
Standard
  9
$CLAYER
  8
0
  9
$CELTYPE
  6
ByLayer
  9
$CECOLOR
 62
   256
  9
$CELTSCALE
 40
1.0
  9
$DISPSILH
 70
     0
  9
$DIMSCALE
 40
1.0
  9
$DIMASZ
 40
0.65
  9
$DIMEXO
 40
0.88
  9
$DIMDLI
 40
0.015
  9
$DIMRND
 40
0.0
  9
$DIMDLE
 40
0.0
  9
$DIMEXE
 40
0.32
  9
$DIMTP
 40
0.0
  9
$DIMTM
 40
0.0
  9
$DIMTXT
 40
0.65
  9
$DIMCEN
 40
0.09
  9
$DIMTSZ
 40
0.0
  9
$DIMTOL
 70
     0
  9
$DIMLIM
 70
     0
  9
$DIMTIH
 70
     0
  9
$DIMTOH
 70
     0
  9
$DIMSE1
 70
     0
  9
$DIMSE2
 70
     0
  9
$DIMTAD
 70
     0
  9
$DIMZIN
 70
     8
  9
$DIMBLK
  1

  9
$DIMASO
 70
     1
  9
$DIMSHO
 70
     1
  9
$DIMPOST
  1
"
  9
$DIMAPOST
  1
"
  9
$DIMALT
 70
     0
  9
$DIMALTD
 70
     1
  9
$DIMALTF
 40
0.03937
  9
$DIMLFAC
 40
1.0
  9
$DIMTOFL
 70
     1
  9
$DIMTVP
 40
0.0
  9
$DIMTIX
 70
     0
  9
$DIMSOXD
 70
     0
  9
$DIMSAH
 70
     0
  9
$DIMBLK1
  1

  9
$DIMBLK2
  1

  9
$DIMSTYLE
  2
副本Standard
  9
$DIMCLRD
 70
   256
  9
$DIMCLRE
 70
   256
  9
$DIMCLRT
 70
   256
  9
$DIMTFAC
 40
1.0
  9
$DIMGAP
 40
0.2
  9
$DIMJUST
 70
     0
  9
$DIMSD1
 70
     0
  9
$DIMSD2
 70
     0
  9
$DIMTOLJ
 70
     1
  9
$DIMTZIN
 70
     0
  9
$DIMALTZ
 70
     0
  9
$DIMALTTZ
 70
     0
  9
$DIMUPT
 70
     0
  9
$DIMDEC
 70
     3
  9
$DIMTDEC
 70
     3
  9
$DIMALTU
 70
     2
  9
$DIMALTTD
 70
     1
  9
$DIMTXSTY
  7
Standard
  9
$DIMAUNIT
 70
     0
  9
$DIMADEC
 70
     1
  9
$DIMALTRND
 40
0.0
  9
$DIMAZIN
 70
     2
  9
$DIMDSEP
 70
    44
  9
$DIMATFIT
 70
     3
  9
$DIMFRAC
 70
     2
  9
$DIMLDRBLK
  1

  9
$DIMLUNIT
 70
     5
  9
$DIMLWD
 70
    -2
  9
$DIMLWE
 70
    -2
  9
$DIMTMOVE
 70
     0
  9
$LUNITS
 70
     2
  9
$LUPREC
 70
     4
  9
$SKETCHINC
 40
1.0
  9
$FILLETRAD
 40
0.0
  9
$AUNITS
 70
     0
  9
$AUPREC
 70
     0
  9
$MENU
  1
.
  9
$ELEVATION
 40
0.0
  9
$PELEVATION
 40
0.0
  9
$THICKNESS
 40
0.0
  9
$LIMCHECK
 70
     0
  9
$CHAMFERA
 40
0.0
  9
$CHAMFERB
 40
0.0
  9
$CHAMFERC
 40
0.0
  9
$CHAMFERD
 40
0.0
  9
$SKPOLY
 70
     0
  9
$TDCREATE
 40
2455855.628782743
  9
$TDUCREATE
 40
2455855.295449410
  9
$TDUPDATE
 40
2455855.700577442
  9
$TDUUPDATE
 40
2455855.367244109
  9
$TDINDWG
 40
0.0012225116
  9
$TDUSRTIMER
 40
0.0012223264
  9
$USRTIMER
 70
     1
  9
$ANGBASE
 50
0.0
  9
$ANGDIR
 70
     0
  9
$PDMODE
 70
     0
  9
$PDSIZE
 40
0.0
  9
$PLINEWID
 40
0.0
  9
$SPLFRAME
 70
     0
  9
$SPLINETYPE
 70
     6
  9
$SPLINESEGS
 70
     8
  9
$HANDSEED
  5
3FC
  9
$SURFTAB1
 70
     6
  9
$SURFTAB2
 70
     6
  9
$SURFTYPE
 70
     6
  9
$SURFU
 70
     6
  9
$SURFV
 70
     6
  9
$UCSBASE
  2

  9
$UCSNAME
  2

  9
$UCSORG
 10
0.0
 20
0.0
 30
0.0
  9
$UCSXDIR
 10
1.0
 20
0.0
 30
0.0
  9
$UCSYDIR
 10
0.0
 20
1.0
 30
0.0
  9
$UCSORTHOREF
  2

  9
$UCSORTHOVIEW
 70
     0
  9
$UCSORGTOP
 10
0.0
 20
0.0
 30
0.0
  9
$UCSORGBOTTOM
 10
0.0
 20
0.0
 30
0.0
  9
$UCSORGLEFT
 10
0.0
 20
0.0
 30
0.0
  9
$UCSORGRIGHT
 10
0.0
 20
0.0
 30
0.0
  9
$UCSORGFRONT
 10
0.0
 20
0.0
 30
0.0
  9
$UCSORGBACK
 10
0.0
 20
0.0
 30
0.0
  9
$PUCSBASE
  2

  9
$PUCSNAME
  2

  9
$PUCSORG
 10
0.0
 20
0.0
 30
0.0
  9
$PUCSXDIR
 10
1.0
 20
0.0
 30
0.0
  9
$PUCSYDIR
 10
0.0
 20
1.0
 30
0.0
  9
$PUCSORTHOREF
  2

  9
$PUCSORTHOVIEW
 70
     0
  9
$PUCSORGTOP
 10
0.0
 20
0.0
 30
0.0
  9
$PUCSORGBOTTOM
 10
0.0
 20
0.0
 30
0.0
  9
$PUCSORGLEFT
 10
0.0
 20
0.0
 30
0.0
  9
$PUCSORGRIGHT
 10
0.0
 20
0.0
 30
0.0
  9
$PUCSORGFRONT
 10
0.0
 20
0.0
 30
0.0
  9
$PUCSORGBACK
 10
0.0
 20
0.0
 30
0.0
  9
$USERI1
 70
     0
  9
$USERI2
 70
     0
  9
$USERI3
 70
     0
  9
$USERI4
 70
     0
  9
$USERI5
 70
     0
  9
$USERR1
 40
0.0
  9
$USERR2
 40
0.0
  9
$USERR3
 40
0.0
  9
$USERR4
 40
0.0
  9
$USERR5
 40
0.0
  9
$WORLDVIEW
 70
     1
  9
$SHADEDGE
 70
     3
  9
$SHADEDIF
 70
    70
  9
$TILEMODE
 70
     1
  9
$MAXACTVP
 70
    64
  9
$PINSBASE
 10
0.0
 20
0.0
 30
0.0
  9
$PLIMCHECK
 70
     0
  9
$PEXTMIN
 10
1.000000000000000E+20
 20
1.000000000000000E+20
 30
1.000000000000000E+20
  9
$PEXTMAX
 10
-1.000000000000000E+20
 20
-1.000000000000000E+20
 30
-1.000000000000000E+20
  9
$PLIMMIN
 10
0.0
 20
0.0
  9
$PLIMMAX
 10
420.0
 20
297.0
  9
$UNITMODE
 70
     0
  9
$VISRETAIN
 70
     1
  9
$PLINEGEN
 70
     0
  9
$PSLTSCALE
 70
     1
  9
$TREEDEPTH
 70
  3020
  9
$CMLSTYLE
  2
Standard
  9
$CMLJUST
 70
     0
  9
$CMLSCALE
 40
20.0
  9
$PROXYGRAPHICS
 70
     1
  9
$MEASUREMENT
 70
     1
  9
$CELWEIGHT
370
    -1
  9
$ENDCAPS
280
     0
  9
$JOINSTYLE
280
     0
  9
$LWDISPLAY
290
     0
  9
$INSUNITS
 70
     4
  9
$HYPERLINKBASE
  1

  9
$STYLESHEET
  1

  9
$XEDIT
290
     1
  9
$CEPSNTYPE
380
     0
  9
$PSTYLEMODE
290
     1
  9
$FINGERPRINTGUID
  2
{B48F46D2-D0EA-4C00-A4A8-23CB7417C210}
  9
$VERSIONGUID
  2
{FDD51BEA-88EF-4330-8CF5-FFD50CDAF434}
  9
$EXTNAMES
290
     1
  9
$PSVPSCALE
 40
0.0
  9
$OLESTARTUP
290
     0
  9
$SORTENTS
280
   127
  9
$INDEXCTL
280
     0
  9
$HIDETEXT
280
     1
  9
$XCLIPFRAME
290
     0
  9
$HALOGAP
280
     0
  9
$OBSCOLOR
 70
   257
  9
$OBSLTYPE
280
     0
  9
$INTERSECTIONDISPLAY
280
     0
  9
$INTERSECTIONCOLOR
 70
   257
  9
$DIMASSOC
280
     2
  9
$PROJECTNAME
  1

  0
ENDSEC
  0
SECTION
  2
CLASSES
  0
CLASS
  1
ACDBDICTIONARYWDFLT
  2
AcDbDictionaryWithDefault
  3
ObjectDBX Classes
 90
        0
 91
        1
280
     0
281
     0
  0
CLASS
  1
DIMASSOC
  2
AcDbDimAssoc
  3
"AcDbDimAssoc|Product Desc:     AcDim ARX App For Dimension|Company:          Autodesk, Inc.|WEB Address:      www.autodesk.com"
 90
        0
 91
       14
280
     0
281
     0
  0
ENDSEC
  0
SECTION
  2
TABLES
  0
TABLE
  2
VPORT
  5
8
330
0
100
AcDbSymbolTable
 70
     3
  0
VPORT
  5
3FB
330
8
100
AcDbSymbolTableRecord
100
AcDbViewportTableRecord
  2
*Active
 70
     0
 10
0.0
 20
0.0
 11
1.0
 21
1.0
 12
91.41364192770405
 22
146.65197749283
 13
0.0
 23
0.0
 14
10.0
 24
10.0
 15
10.0
 25
10.0
 16
0.0
 26
0.0
 36
1.0
 17
0.0
 27
0.0
 37
0.0
 40
224.5798056635135
 41
1.518855656697009
 42
50.0
 43
0.0
 44
0.0
 50
0.0
 51
0.0
 71
     0
 72
  1000
 73
     1
 74
     3
 75
     0
 76
     0
 77
     0
 78
     0
281
     0
 65
     1
110
0.0
120
0.0
130
0.0
111
1.0
121
0.0
131
0.0
112
0.0
122
1.0
132
0.0
 79
     0
146
0.0
  0
ENDTAB
  0
TABLE
  2
LTYPE
  5
5
330
0
100
AcDbSymbolTable
 70
     3
  0
LTYPE
  5
14
330
5
100
AcDbSymbolTableRecord
100
AcDbLinetypeTableRecord
  2
ByBlock
 70
     0
  3

 72
    65
 73
     0
 40
0.0
  0
LTYPE
  5
15
330
5
100
AcDbSymbolTableRecord
100
AcDbLinetypeTableRecord
  2
ByLayer
 70
     0
  3

 72
    65
 73
     0
 40
0.0
  0
LTYPE
  5
16
330
5
100
AcDbSymbolTableRecord
100
AcDbLinetypeTableRecord
  2
Continuous
 70
     0
  3
Solid line
 72
    65
 73
     0
 40
0.0
  0
LTYPE
  5
ED
330
5
100
AcDbSymbolTableRecord
100
AcDbLinetypeTableRecord
  2
CENTER2
 70
     0
  3
Center (.5x) ___ _ ___ _ ___ _ ___ _ ___ _ ___
 72
    65
 73
     4
 40
28.575
 49
19.05
 74
     0
 49
-3.174999999999998
 74
     0
 49
3.174999999999998
 74
     0
 49
-3.174999999999998
 74
     0
  0
LTYPE
  5
EE
330
5
100
AcDbSymbolTableRecord
100
AcDbLinetypeTableRecord
  2
HIDDEN2
 70
     0
  3
Hidden (.5x) _ _ _ _ _ _ _ _ _ _ _ _ _ _ _ _ _
 72
    65
 73
     2
 40
4.762499999999998
 49
3.174999999999998
 74
     0
 49
-1.587499999999999
 74
     0
  0
ENDTAB
  0
TABLE
  2
LAYER
  5
2
102
{ACAD_XDICTIONARY
360
F7
102
}
330
0
100
AcDbSymbolTable
 70
     6
  0
LAYER
  5
10
330
2
100
AcDbSymbolTableRecord
100
AcDbLayerTableRecord
  2
0
 70
     0
 62
     7
  6
Continuous
370
    -3
390
F
  0
LAYER
  5
EF
330
2
100
AcDbSymbolTableRecord
100
AcDbLayerTableRecord
  2
中心线
 70
     0
 62
     1
  6
CENTER2
370
    -3
390
F
  0
LAYER
  5
F0
330
2
100
AcDbSymbolTableRecord
100
AcDbLayerTableRecord
  2
虚线
 70
     0
 62
     4
  6
HIDDEN2
370
    -3
390
F
  0
LAYER
  5
F1
330
2
100
AcDbSymbolTableRecord
100
AcDbLayerTableRecord
  2
Defpoints
 70
     0
 62
     7
  6
Continuous
290
     0
370
    -3
390
F
  0
LAYER
  5
F2
330
2
100
AcDbSymbolTableRecord
100
AcDbLayerTableRecord
  2
标注
 70
     0
 62
    80
  6
Continuous
370
     5
390
F
1001
AcAecLayerStandard
1000

1000

  0
LAYER
  5
F3
330
2
100
AcDbSymbolTableRecord
100
AcDbLayerTableRecord
  2
截面层
 70
     0
 62
     6
  6
Continuous
370
    50
390
F
  0
ENDTAB
  0
TABLE
  2
STYLE
  5
3
330
0
100
AcDbSymbolTable
 70
     1
  0
STYLE
  5
11
330
3
100
AcDbSymbolTableRecord
100
AcDbTextStyleTableRecord
  2
Standard
 70
     0
 40
0.0
 41
1.0
 50
0.0
 71
     0
 42
2.5
  3
txt
  4

  0
ENDTAB
  0
TABLE
  2
VIEW
  5
6
330
0
100
AcDbSymbolTable
 70
     0
  0
ENDTAB
  0
TABLE
  2
UCS
  5
7
330
0
100
AcDbSymbolTable
 70
     0
  0
ENDTAB
  0
TABLE
  2
APPID
  5
9
330
0
100
AcDbSymbolTable
 70
     2
  0
APPID
  5
12
330
9
100
AcDbSymbolTableRecord
100
AcDbRegAppTableRecord
  2
ACAD
 70
     0
  0
APPID
  5
F6
330
9
100
AcDbSymbolTableRecord
100
AcDbRegAppTableRecord
  2
AcAecLayerStandard
 70
     0
  0
ENDTAB
  0
TABLE
  2
DIMSTYLE
  5
A
330
0
100
AcDbSymbolTable
 70
     3
100
AcDbDimStyleTable
 71
     1
340
F5
  0
DIMSTYLE
105
29
330
A
100
AcDbSymbolTableRecord
100
AcDbDimStyleTableRecord
  2
ISO-25
 70
     0
 41
2.5
 42
0.625
 43
3.75
 44
1.25
 73
     0
 74
     0
 77
     1
 78
     8
140
2.5
141
2.5
143
0.03937007874016
147
0.625
171
     3
172
     1
271
     2
272
     2
274
     3
283
     0
284
     8
340
11
  0
DIMSTYLE
105
F4
330
A
100
AcDbSymbolTableRecord
100
AcDbDimStyleTableRecord
  2
Standard
 70
     0
340
11
  0
DIMSTYLE
105
F5
102
{ACAD_REACTORS
330
273
330
276
330
28B
330
28E
330
28F
330
292
330
293
330
296
330
299
330
29C
330
29F
330
2A2
330
2A5
330
2A8
330
2A9
330
2AC
330
3E0
102
}
330
A
100
AcDbSymbolTableRecord
100
AcDbDimStyleTableRecord
  2
副本Standard
 70
     0
  3
"
  4
"
 41
0.65
 42
0.88
 43
0.015
 44
0.32
 73
     0
 74
     0
 78
     8
 79
     2
140
0.65
143
0.03937
147
0.2
171
     1
172
     1
176
   256
177
   256
178
   256
179
     1
271
     3
272
     3
274
     1
276
     2
277
     5
278
    44
340
11
  0
ENDTAB
  0
TABLE
  2
BLOCK_RECORD
  5
1
330
0
100
AcDbSymbolTable
 70
    34
  0
BLOCK_RECORD
  5
21
330
1
100
AcDbSymbolTableRecord
100
AcDbBlockTableRecord
  2
*Model_Space
340
24
  0
BLOCK_RECORD
  5
1D
330
1
100
AcDbSymbolTableRecord
100
AcDbBlockTableRecord
  2
*Paper_Space
340
20
  0
BLOCK_RECORD
  5
25
330
1
100
AcDbSymbolTableRecord
100
AcDbBlockTableRecord
  2
*Paper_Space0
340
28
  0
BLOCK_RECORD
  5
2D
330
1
100
AcDbSymbolTableRecord
100
AcDbBlockTableRecord
  2
*D1
340
0
  0
BLOCK_RECORD
  5
3A
330
1
100
AcDbSymbolTableRecord
100
AcDbBlockTableRecord
  2
*D2
340
0
  0
BLOCK_RECORD
  5
47
330
1
100
AcDbSymbolTableRecord
100
AcDbBlockTableRecord
  2
*D3
340
0
  0
BLOCK_RECORD
  5
54
330
1
100
AcDbSymbolTableRecord
100
AcDbBlockTableRecord
  2
*D4
340
0
  0
BLOCK_RECORD
  5
61
330
1
100
AcDbSymbolTableRecord
100
AcDbBlockTableRecord
  2
*D5
340
0
  0
BLOCK_RECORD
  5
6E
330
1
100
AcDbSymbolTableRecord
100
AcDbBlockTableRecord
  2
*D6
340
0
  0
BLOCK_RECORD
  5
7B
330
1
100
AcDbSymbolTableRecord
100
AcDbBlockTableRecord
  2
*D7
340
0
  0
BLOCK_RECORD
  5
88
330
1
100
AcDbSymbolTableRecord
100
AcDbBlockTableRecord
  2
*D8
340
0
  0
BLOCK_RECORD
  5
95
330
1
100
AcDbSymbolTableRecord
100
AcDbBlockTableRecord
  2
*D9
340
0
  0
BLOCK_RECORD
  5
9D
330
1
100
AcDbSymbolTableRecord
100
AcDbBlockTableRecord
  2
*D10
340
0
  0
BLOCK_RECORD
  5
A5
330
1
100
AcDbSymbolTableRecord
100
AcDbBlockTableRecord
  2
*D11
340
0
  0
BLOCK_RECORD
  5
B3
330
1
100
AcDbSymbolTableRecord
100
AcDbBlockTableRecord
  2
*D12
340
0
  0
BLOCK_RECORD
  5
C1
330
1
100
AcDbSymbolTableRecord
100
AcDbBlockTableRecord
  2
*D13
340
0
  0
BLOCK_RECORD
  5
CF
330
1
100
AcDbSymbolTableRecord
100
AcDbBlockTableRecord
  2
*D14
340
0
  0
BLOCK_RECORD
  5
DD
330
1
100
AcDbSymbolTableRecord
100
AcDbBlockTableRecord
  2
*D15
340
0
  0
BLOCK_RECORD
  5
E5
330
1
100
AcDbSymbolTableRecord
100
AcDbBlockTableRecord
  2
*D16
340
0
  0
BLOCK_RECORD
  5
2DC
330
1
100
AcDbSymbolTableRecord
100
AcDbBlockTableRecord
  2
*D17
340
0
  0
BLOCK_RECORD
  5
2EA
330
1
100
AcDbSymbolTableRecord
100
AcDbBlockTableRecord
  2
*D18
340
0
  0
BLOCK_RECORD
  5
2F8
330
1
100
AcDbSymbolTableRecord
100
AcDbBlockTableRecord
  2
*D19
340
0
  0
BLOCK_RECORD
  5
305
330
1
100
AcDbSymbolTableRecord
100
AcDbBlockTableRecord
  2
*D20
340
0
  0
BLOCK_RECORD
  5
30D
330
1
100
AcDbSymbolTableRecord
100
AcDbBlockTableRecord
  2
*D21
340
0
  0
BLOCK_RECORD
  5
315
330
1
100
AcDbSymbolTableRecord
100
AcDbBlockTableRecord
  2
*D22
340
0
  0
BLOCK_RECORD
  5
32E
330
1
100
AcDbSymbolTableRecord
100
AcDbBlockTableRecord
  2
*D23
340
0
  0
BLOCK_RECORD
  5
347
330
1
100
AcDbSymbolTableRecord
100
AcDbBlockTableRecord
  2
*D24
340
0
  0
BLOCK_RECORD
  5
34F
330
1
100
AcDbSymbolTableRecord
100
AcDbBlockTableRecord
  2
*D25
340
0
  0
BLOCK_RECORD
  5
357
330
1
100
AcDbSymbolTableRecord
100
AcDbBlockTableRecord
  2
*D26
340
0
  0
BLOCK_RECORD
  5
364
330
1
100
AcDbSymbolTableRecord
100
AcDbBlockTableRecord
  2
*D27
340
0
  0
BLOCK_RECORD
  5
371
330
1
100
AcDbSymbolTableRecord
100
AcDbBlockTableRecord
  2
*D28
340
0
  0
BLOCK_RECORD
  5
37E
330
1
100
AcDbSymbolTableRecord
100
AcDbBlockTableRecord
  2
*D29
340
0
  0
BLOCK_RECORD
  5
38B
330
1
100
AcDbSymbolTableRecord
100
AcDbBlockTableRecord
  2
*D30
340
0
  0
BLOCK_RECORD
  5
3A2
330
1
100
AcDbSymbolTableRecord
100
AcDbBlockTableRecord
  2
*D31
340
0
  0
BLOCK_RECORD
  5
3AF
330
1
100
AcDbSymbolTableRecord
100
AcDbBlockTableRecord
  2
*D32
340
0
  0
BLOCK_RECORD
  5
3E1
330
1
100
AcDbSymbolTableRecord
100
AcDbBlockTableRecord
  2
*D33
340
0
  0
ENDTAB
  0
ENDSEC
  0
SECTION
  2
BLOCKS
  0
BLOCK
  5
22
330
21
100
AcDbEntity
  8
0
100
AcDbBlockBegin
  2
*Model_Space
 70
     0
 10
0.0
 20
0.0
 30
0.0
  3
*Model_Space
  1

  0
ENDBLK
  5
23
330
21
100
AcDbEntity
  8
0
100
AcDbBlockEnd
  0
BLOCK
  5
1E
330
1D
100
AcDbEntity
 67
     1
  8
0
100
AcDbBlockBegin
  2
*Paper_Space
 70
     0
 10
0.0
 20
0.0
 30
0.0
  3
*Paper_Space
  1

  0
ENDBLK
  5
1F
330
1D
100
AcDbEntity
 67
     1
  8
0
100
AcDbBlockEnd
  0
BLOCK
  5
26
330
25
100
AcDbEntity
  8
0
100
AcDbBlockBegin
  2
*Paper_Space0
 70
     0
 10
0.0
 20
0.0
 30
0.0
  3
*Paper_Space0
  1

  0
ENDBLK
  5
27
330
25
100
AcDbEntity
  8
0
100
AcDbBlockEnd
  0
BLOCK
  5
2E
330
2D
100
AcDbEntity
  8
0
100
AcDbBlockBegin
  2
*D1
 70
     1
 10
0.0
 20
0.0
 30
0.0
  3
*D1
  1

  0
LINE
  5
2F
330
2D
100
AcDbEntity
  8
标注
370
    -2
100
AcDbLine
 10
407.0278305157852
 20
178.1497720044059
 30
0.0
 11
416.3048537223341
 21
178.1497720044059
 31
0.0
  0
LINE
  5
30
330
2D
100
AcDbEntity
  8
标注
370
    -2
100
AcDbLine
 10
407.0278305157852
 20
157.4096145240881
 30
0.0
 11
416.3048537223341
 21
157.4096145240881
 31
0.0
  0
LINE
  5
31
330
2D
100
AcDbEntity
  8
标注
370
    -2
100
AcDbLine
 10
415.9848537223339
 20
177.4997720044059
 30
0.0
 11
415.9848537223339
 21
169.9838599309136
 31
0.0
  0
LINE
  5
32
330
2D
100
AcDbEntity
  8
标注
370
    -2
100
AcDbLine
 10
415.9848537223339
 20
158.0596145240881
 30
0.0
 11
415.9848537223339
 21
165.5755265975803
 31
0.0
  0
SOLID
  5
33
330
2D
100
AcDbEntity
  8
标注
100
AcDbTrace
 10
415.8765203890006
 20
177.4997720044059
 30
0.0
 11
416.0931870556673
 21
177.4997720044059
 31
0.0
 12
415.9848537223339
 22
178.1497720044059
 32
0.0
 13
415.9848537223339
 23
178.1497720044059
 33
0.0
  0
SOLID
  5
34
330
2D
100
AcDbEntity
  8
标注
100
AcDbTrace
 10
415.8765203890006
 20
158.0596145240881
 30
0.0
 11
416.0931870556673
 21
158.0596145240881
 31
0.0
 12
415.9848537223339
 22
157.4096145240881
 32
0.0
 13
415.9848537223339
 23
157.4096145240881
 33
0.0
  0
MTEXT
  5
35
330
2D
100
AcDbEntity
  8
标注
100
AcDbMText
 10
415.9848537223339
 20
167.779693264247
 30
0.0
 40
0.65
 41
0.0
 71
     5
 72
     1
  1
\A1;20 3/4"
 11
0.0000000000000001
 21
1.0
 31
0.0
 73
     1
 44
1.0
  0
POINT
  5
36
330
2D
100
AcDbEntity
  8
Defpoints
 62
     0
100
AcDbPoint
 10
406.1478305157852
 20
178.1497720044059
 30
0.0
  0
POINT
  5
37
330
2D
100
AcDbEntity
  8
Defpoints
 62
     0
100
AcDbPoint
 10
406.1478305157852
 20
157.4096145240881
 30
0.0
  0
POINT
  5
38
330
2D
100
AcDbEntity
  8
Defpoints
 62
     0
100
AcDbPoint
 10
415.9848537223339
 20
157.4096145240881
 30
0.0
  0
ENDBLK
  5
39
330
2D
100
AcDbEntity
  8
0
100
AcDbBlockEnd
  0
BLOCK
  5
3B
330
3A
100
AcDbEntity
  8
0
100
AcDbBlockBegin
  2
*D2
 70
     1
 10
0.0
 20
0.0
 30
0.0
  3
*D2
  1

  0
LINE
  5
3C
330
3A
100
AcDbEntity
  8
标注
370
    -2
100
AcDbLine
 10
378.1969643740532
 20
195.1899372100287
 30
0.0
 11
376.0650622813532
 21
195.1899372100287
 31
0.0
  0
LINE
  5
3D
330
3A
100
AcDbEntity
  8
标注
370
    -2
100
AcDbLine
 10
383.7444271923532
 20
187.7214332730185
 30
0.0
 11
376.0650622813532
 21
187.7214332730185
 31
0.0
  0
LINE
  5
3E
330
3A
100
AcDbEntity
  8
标注
370
    -2
100
AcDbLine
 10
376.3850622813531
 20
194.5399372100287
 30
0.0
 11
376.3850622813531
 21
193.2806852415236
 31
0.0
  0
LINE
  5
3F
330
3A
100
AcDbEntity
  8
标注
370
    -2
100
AcDbLine
 10
376.3850622813531
 20
188.3714332730185
 30
0.0
 11
376.3850622813531
 21
189.6306852415236
 31
0.0
  0
SOLID
  5
40
330
3A
100
AcDbEntity
  8
标注
100
AcDbTrace
 10
376.2767289480198
 20
194.5399372100287
 30
0.0
 11
376.4933956146865
 21
194.5399372100287
 31
0.0
 12
376.3850622813531
 22
195.1899372100287
 32
0.0
 13
376.3850622813531
 23
195.1899372100287
 33
0.0
  0
SOLID
  5
41
330
3A
100
AcDbEntity
  8
标注
100
AcDbTrace
 10
376.2767289480198
 20
188.3714332730185
 30
0.0
 11
376.4933956146865
 21
188.3714332730185
 31
0.0
 12
376.3850622813531
 22
187.7214332730185
 32
0.0
 13
376.3850622813531
 23
187.7214332730185
 33
0.0
  0
MTEXT
  5
42
330
3A
100
AcDbEntity
  8
标注
100
AcDbMText
 10
376.3850622813531
 20
191.4556852415237
 30
0.0
 40
0.65
 41
0.0
 71
     5
 72
     1
  1
\A1;7 1/2"
 11
0.0000000000000001
 21
1.0
 31
0.0
 73
     1
 44
1.0
  0
POINT
  5
43
330
3A
100
AcDbEntity
  8
Defpoints
 62
     0
100
AcDbPoint
 10
379.0769643740532
 20
195.1899372100287
 30
0.0
  0
POINT
  5
44
330
3A
100
AcDbEntity
  8
Defpoints
 62
     0
100
AcDbPoint
 10
384.6244271923532
 20
187.7214332730185
 30
0.0
  0
POINT
  5
45
330
3A
100
AcDbEntity
  8
Defpoints
 62
     0
100
AcDbPoint
 10
376.3850622813531
 20
187.7214332730185
 30
0.0
  0
ENDBLK
  5
46
330
3A
100
AcDbEntity
  8
0
100
AcDbBlockEnd
  0
BLOCK
  5
48
330
47
100
AcDbEntity
  8
0
100
AcDbBlockBegin
  2
*D3
 70
     1
 10
0.0
 20
0.0
 30
0.0
  3
*D3
  1

  0
LINE
  5
49
330
47
100
AcDbEntity
  8
标注
370
    -2
100
AcDbLine
 10
403.090822641723
 20
177.1497720044059
 30
0.0
 11
413.8668928861417
 21
177.1497720044059
 31
0.0
  0
LINE
  5
4A
330
47
100
AcDbEntity
  8
标注
370
    -2
100
AcDbLine
 10
403.090822641696
 20
158.409614524091
 30
0.0
 11
413.8668928861417
 21
158.409614524091
 31
0.0
  0
LINE
  5
4B
330
47
100
AcDbEntity
  8
标注
370
    -2
100
AcDbLine
 10
413.5468928861416
 20
176.4997720044059
 30
0.0
 11
413.5468928861416
 21
169.9296932642484
 31
0.0
  0
LINE
  5
4C
330
47
100
AcDbEntity
  8
标注
370
    -2
100
AcDbLine
 10
413.5468928861416
 20
159.059614524091
 30
0.0
 11
413.5468928861416
 21
165.6296932642484
 31
0.0
  0
SOLID
  5
4D
330
47
100
AcDbEntity
  8
标注
100
AcDbTrace
 10
413.4385595528083
 20
176.4997720044059
 30
0.0
 11
413.655226219475
 21
176.4997720044059
 31
0.0
 12
413.5468928861416
 22
177.1497720044059
 32
0.0
 13
413.5468928861416
 23
177.1497720044059
 33
0.0
  0
SOLID
  5
4E
330
47
100
AcDbEntity
  8
标注
100
AcDbTrace
 10
413.4385595528083
 20
159.059614524091
 30
0.0
 11
413.655226219475
 21
159.059614524091
 31
0.0
 12
413.5468928861416
 22
158.409614524091
 32
0.0
 13
413.5468928861416
 23
158.409614524091
 33
0.0
  0
MTEXT
  5
4F
330
47
100
AcDbEntity
  8
标注
100
AcDbMText
 10
413.5468928861416
 20
167.7796932642485
 30
0.0
 40
0.65
 41
0.0
 71
     5
 72
     1
  1
\A1;18 3/4"
 11
0.0000000000000001
 21
1.0
 31
0.0
 73
     1
 44
1.0
  0
POINT
  5
50
330
47
100
AcDbEntity
  8
Defpoints
 62
     0
100
AcDbPoint
 10
402.210822641723
 20
177.1497720044059
 30
0.0
  0
POINT
  5
51
330
47
100
AcDbEntity
  8
Defpoints
 62
     0
100
AcDbPoint
 10
402.210822641696
 20
158.409614524091
 30
0.0
  0
POINT
  5
52
330
47
100
AcDbEntity
  8
Defpoints
 62
     0
100
AcDbPoint
 10
413.5468928861416
 20
158.409614524091
 30
0.0
  0
ENDBLK
  5
53
330
47
100
AcDbEntity
  8
0
100
AcDbBlockEnd
  0
BLOCK
  5
55
330
54
100
AcDbEntity
  8
0
100
AcDbBlockBegin
  2
*D4
 70
     1
 10
0.0
 20
0.0
 30
0.0
  3
*D4
  1

  0
LINE
  5
56
330
54
100
AcDbEntity
  8
标注
370
    -2
100
AcDbLine
 10
385.6930273661792
 20
174.9450475949686
 30
0.0
 11
376.0248467579627
 21
174.9450475949686
 31
0.0
  0
LINE
  5
57
330
54
100
AcDbEntity
  8
标注
370
    -2
100
AcDbLine
 10
385.6930273661792
 20
158.4096145241025
 30
0.0
 11
376.0248467579627
 21
158.4096145241025
 31
0.0
  0
LINE
  5
58
330
54
100
AcDbEntity
  8
标注
370
    -2
100
AcDbLine
 10
376.3448467579627
 20
174.2950475949686
 30
0.0
 11
376.3448467579627
 21
168.718997726202
 31
0.0
  0
LINE
  5
59
330
54
100
AcDbEntity
  8
标注
370
    -2
100
AcDbLine
 10
376.3448467579627
 20
159.0596145241025
 30
0.0
 11
376.3448467579627
 21
164.6356643928688
 31
0.0
  0
SOLID
  5
5A
330
54
100
AcDbEntity
  8
标注
100
AcDbTrace
 10
376.2365134246293
 20
174.2950475949686
 30
0.0
 11
376.453180091296
 21
174.2950475949686
 31
0.0
 12
376.3448467579627
 22
174.9450475949686
 32
0.0
 13
376.3448467579627
 23
174.9450475949686
 33
0.0
  0
SOLID
  5
5B
330
54
100
AcDbEntity
  8
标注
100
AcDbTrace
 10
376.2365134246293
 20
159.0596145241025
 30
0.0
 11
376.453180091296
 21
159.0596145241025
 31
0.0
 12
376.3448467579627
 22
158.4096145241025
 32
0.0
 13
376.3448467579627
 23
158.4096145241025
 33
0.0
  0
MTEXT
  5
5C
330
54
100
AcDbEntity
  8
标注
100
AcDbMText
 10
376.3448467579627
 20
166.6773310595355
 30
0.0
 40
0.65
 41
0.0
 71
     5
 72
     1
  1
\A1;16 1/2"
 11
0.0000000000000001
 21
1.0
 31
0.0
 73
     1
 44
1.0
  0
POINT
  5
5D
330
54
100
AcDbEntity
  8
Defpoints
 62
     0
100
AcDbPoint
 10
386.5730273661792
 20
174.9450475949686
 30
0.0
  0
POINT
  5
5E
330
54
100
AcDbEntity
  8
Defpoints
 62
     0
100
AcDbPoint
 10
386.5730273661792
 20
158.4096145241025
 30
0.0
  0
POINT
  5
5F
330
54
100
AcDbEntity
  8
Defpoints
 62
     0
100
AcDbPoint
 10
376.3448467579627
 20
158.4096145241025
 30
0.0
  0
ENDBLK
  5
60
330
54
100
AcDbEntity
  8
0
100
AcDbBlockEnd
  0
BLOCK
  5
62
330
61
100
AcDbEntity
  8
0
100
AcDbBlockBegin
  2
*D5
 70
     1
 10
0.0
 20
0.0
 30
0.0
  3
*D5
  1

  0
LINE
  5
63
330
61
100
AcDbEntity
  8
标注
370
    -2
100
AcDbLine
 10
382.7402714606673
 20
175.9450475949687
 30
0.0
 11
373.6836858425663
 21
175.9450475949687
 31
0.0
  0
LINE
  5
64
330
61
100
AcDbEntity
  8
标注
370
    -2
100
AcDbLine
 10
382.7402714606673
 20
157.4096145241047
 30
0.0
 11
373.6836858425663
 21
157.4096145241047
 31
0.0
  0
LINE
  5
65
330
61
100
AcDbEntity
  8
标注
370
    -2
100
AcDbLine
 10
374.0036858425663
 20
175.2950475949687
 30
0.0
 11
374.0036858425663
 21
168.7189977262033
 31
0.0
  0
LINE
  5
66
330
61
100
AcDbEntity
  8
标注
370
    -2
100
AcDbLine
 10
374.0036858425663
 20
158.0596145241047
 30
0.0
 11
374.0036858425663
 21
164.63566439287
 31
0.0
  0
SOLID
  5
67
330
61
100
AcDbEntity
  8
标注
100
AcDbTrace
 10
373.895352509233
 20
175.2950475949687
 30
0.0
 11
374.1120191758997
 21
175.2950475949687
 31
0.0
 12
374.0036858425663
 22
175.9450475949687
 32
0.0
 13
374.0036858425663
 23
175.9450475949687
 33
0.0
  0
SOLID
  5
68
330
61
100
AcDbEntity
  8
标注
100
AcDbTrace
 10
373.895352509233
 20
158.0596145241047
 30
0.0
 11
374.1120191758997
 21
158.0596145241047
 31
0.0
 12
374.0036858425663
 22
157.4096145241047
 32
0.0
 13
374.0036858425663
 23
157.4096145241047
 33
0.0
  0
MTEXT
  5
69
330
61
100
AcDbEntity
  8
标注
100
AcDbMText
 10
374.0036858425662
 20
166.6773310595367
 30
0.0
 40
0.65
 41
0.0
 71
     5
 72
     1
  1
\A1;18 1/2"
 11
0.0000000000000001
 21
1.0
 31
0.0
 73
     1
 44
1.0
  0
POINT
  5
6A
330
61
100
AcDbEntity
  8
Defpoints
 62
     0
100
AcDbPoint
 10
383.6202714606674
 20
175.9450475949687
 30
0.0
  0
POINT
  5
6B
330
61
100
AcDbEntity
  8
Defpoints
 62
     0
100
AcDbPoint
 10
383.6202714606674
 20
157.4096145241047
 30
0.0
  0
POINT
  5
6C
330
61
100
AcDbEntity
  8
Defpoints
 62
     0
100
AcDbPoint
 10
374.0036858425663
 20
157.4096145241047
 30
0.0
  0
ENDBLK
  5
6D
330
61
100
AcDbEntity
  8
0
100
AcDbBlockEnd
  0
BLOCK
  5
6F
330
6E
100
AcDbEntity
  8
0
100
AcDbBlockBegin
  2
*D6
 70
     1
 10
0.0
 20
0.0
 30
0.0
  3
*D6
  1

  0
LINE
  5
70
330
6E
100
AcDbEntity
  8
标注
370
    -2
100
AcDbLine
 10
410.0848383898012
 20
166.8996932642485
 30
0.0
 11
410.0848383898012
 21
154.7354891656021
 31
0.0
  0
LINE
  5
71
330
6E
100
AcDbEntity
  8
标注
370
    -2
100
AcDbLine
 10
394.3368068937383
 20
166.8996932642485
 30
0.0
 11
394.3368068937383
 21
154.7354891656021
 31
0.0
  0
LINE
  5
72
330
6E
100
AcDbEntity
  8
标注
370
    -2
100
AcDbLine
 10
409.4348383898013
 20
155.0554891656021
 30
0.0
 11
404.3608226417696
 21
155.0554891656021
 31
0.0
  0
LINE
  5
73
330
6E
100
AcDbEntity
  8
标注
370
    -2
100
AcDbLine
 10
394.9868068937383
 20
155.0554891656021
 30
0.0
 11
400.0608226417697
 21
155.0554891656021
 31
0.0
  0
SOLID
  5
74
330
6E
100
AcDbEntity
  8
标注
100
AcDbTrace
 10
409.4348383898013
 20
155.1638224989354
 30
0.0
 11
409.4348383898013
 21
154.9471558322688
 31
0.0
 12
410.0848383898012
 22
155.0554891656021
 32
0.0
 13
410.0848383898012
 23
155.0554891656021
 33
0.0
  0
SOLID
  5
75
330
6E
100
AcDbEntity
  8
标注
100
AcDbTrace
 10
394.9868068937383
 20
155.1638224989354
 30
0.0
 11
394.9868068937383
 21
154.9471558322688
 31
0.0
 12
394.3368068937383
 22
155.0554891656021
 32
0.0
 13
394.3368068937383
 23
155.0554891656021
 33
0.0
  0
MTEXT
  5
76
330
6E
100
AcDbEntity
  8
标注
100
AcDbMText
 10
402.2108226417698
 20
155.0554891656021
 30
0.0
 40
0.65
 41
0.0
 71
     5
 72
     1
  1
\A1;15 3/4"
 73
     1
 44
1.0
  0
POINT
  5
77
330
6E
100
AcDbEntity
  8
Defpoints
 62
     0
100
AcDbPoint
 10
410.0848383898012
 20
167.7796932642485
 30
0.0
  0
POINT
  5
78
330
6E
100
AcDbEntity
  8
Defpoints
 62
     0
100
AcDbPoint
 10
394.3368068937383
 20
167.7796932642485
 30
0.0
  0
POINT
  5
79
330
6E
100
AcDbEntity
  8
Defpoints
 62
     0
100
AcDbPoint
 10
394.3368068937383
 20
155.0554891656021
 30
0.0
  0
ENDBLK
  5
7A
330
6E
100
AcDbEntity
  8
0
100
AcDbBlockEnd
  0
BLOCK
  5
7C
330
7B
100
AcDbEntity
  8
0
100
AcDbBlockBegin
  2
*D7
 70
     1
 10
0.0
 20
0.0
 30
0.0
  3
*D7
  1

  0
LINE
  5
7D
330
7B
100
AcDbEntity
  8
标注
370
    -2
100
AcDbLine
 10
393.0690903583053
 20
165.7973310595366
 30
0.0
 11
393.0690903583053
 21
154.7314797938872
 31
0.0
  0
LINE
  5
7E
330
7B
100
AcDbEntity
  8
标注
370
    -2
100
AcDbLine
 10
380.0769643740532
 20
165.7973310595356
 30
0.0
 11
380.0769643740532
 21
154.7314797938872
 31
0.0
  0
LINE
  5
7F
330
7B
100
AcDbEntity
  8
标注
370
    -2
100
AcDbLine
 10
392.4190903583052
 20
155.0514797938872
 30
0.0
 11
387.4230273661792
 21
155.0514797938872
 31
0.0
  0
LINE
  5
80
330
7B
100
AcDbEntity
  8
标注
370
    -2
100
AcDbLine
 10
380.7269643740532
 20
155.0514797938872
 30
0.0
 11
385.7230273661792
 21
155.0514797938872
 31
0.0
  0
SOLID
  5
81
330
7B
100
AcDbEntity
  8
标注
100
AcDbTrace
 10
392.4190903583052
 20
155.1598131272205
 30
0.0
 11
392.4190903583052
 21
154.9431464605538
 31
0.0
 12
393.0690903583053
 22
155.0514797938872
 32
0.0
 13
393.0690903583053
 23
155.0514797938872
 33
0.0
  0
SOLID
  5
82
330
7B
100
AcDbEntity
  8
标注
100
AcDbTrace
 10
380.7269643740532
 20
155.1598131272205
 30
0.0
 11
380.7269643740532
 21
154.9431464605538
 31
0.0
 12
380.0769643740532
 22
155.0514797938872
 32
0.0
 13
380.0769643740532
 23
155.0514797938872
 33
0.0
  0
MTEXT
  5
83
330
7B
100
AcDbEntity
  8
标注
100
AcDbMText
 10
386.5730273661792
 20
155.0514797938872
 30
0.0
 40
0.65
 41
0.0
 71
     5
 72
     1
  1
\A1;13"
 73
     1
 44
1.0
  0
POINT
  5
84
330
7B
100
AcDbEntity
  8
Defpoints
 62
     0
100
AcDbPoint
 10
393.0690903583053
 20
166.6773310595366
 30
0.0
  0
POINT
  5
85
330
7B
100
AcDbEntity
  8
Defpoints
 62
     0
100
AcDbPoint
 10
380.0769643740532
 20
166.6773310595356
 30
0.0
  0
POINT
  5
86
330
7B
100
AcDbEntity
  8
Defpoints
 62
     0
100
AcDbPoint
 10
380.0769643740532
 20
155.0514797938872
 30
0.0
  0
ENDBLK
  5
87
330
7B
100
AcDbEntity
  8
0
100
AcDbBlockEnd
  0
BLOCK
  5
89
330
88
100
AcDbEntity
  8
0
100
AcDbBlockBegin
  2
*D8
 70
     1
 10
0.0
 20
0.0
 30
0.0
  3
*D8
  1

  0
LINE
  5
8A
330
88
100
AcDbEntity
  8
标注
370
    -2
100
AcDbLine
 10
411.084838389801
 20
161.4666223981038
 30
0.0
 11
411.084838389801
 21
152.488081526451
 31
0.0
  0
LINE
  5
8B
330
88
100
AcDbEntity
  8
标注
370
    -2
100
AcDbLine
 10
379.0769643740532
 20
161.0729216107189
 30
0.0
 11
379.0769643740532
 21
152.488081526451
 31
0.0
  0
LINE
  5
8C
330
88
100
AcDbEntity
  8
标注
370
    -2
100
AcDbLine
 10
410.4348383898011
 20
152.808081526451
 30
0.0
 11
396.0392347152604
 21
152.808081526451
 31
0.0
  0
LINE
  5
8D
330
88
100
AcDbEntity
  8
标注
370
    -2
100
AcDbLine
 10
379.7269643740532
 20
152.808081526451
 30
0.0
 11
394.1225680485938
 21
152.808081526451
 31
0.0
  0
SOLID
  5
8E
330
88
100
AcDbEntity
  8
标注
100
AcDbTrace
 10
410.4348383898011
 20
152.9164148597843
 30
0.0
 11
410.4348383898011
 21
152.6997481931176
 31
0.0
 12
411.084838389801
 22
152.808081526451
 32
0.0
 13
411.084838389801
 23
152.808081526451
 33
0.0
  0
SOLID
  5
8F
330
88
100
AcDbEntity
  8
标注
100
AcDbTrace
 10
379.7269643740532
 20
152.9164148597843
 30
0.0
 11
379.7269643740532
 21
152.6997481931176
 31
0.0
 12
379.0769643740532
 22
152.808081526451
 32
0.0
 13
379.0769643740532
 23
152.808081526451
 33
0.0
  0
MTEXT
  5
90
330
88
100
AcDbEntity
  8
标注
100
AcDbMText
 10
395.0809013819271
 20
152.808081526451
 30
0.0
 40
0.65
 41
0.0
 71
     5
 72
     1
  1
\A1;32"
 73
     1
 44
1.0
  0
POINT
  5
91
330
88
100
AcDbEntity
  8
Defpoints
 62
     0
100
AcDbPoint
 10
411.084838389801
 20
162.3466223981038
 30
0.0
  0
POINT
  5
92
330
88
100
AcDbEntity
  8
Defpoints
 62
     0
100
AcDbPoint
 10
379.0769643740532
 20
161.9529216107189
 30
0.0
  0
POINT
  5
93
330
88
100
AcDbEntity
  8
Defpoints
 62
     0
100
AcDbPoint
 10
379.0769643740532
 20
152.808081526451
 30
0.0
  0
ENDBLK
  5
94
330
88
100
AcDbEntity
  8
0
100
AcDbBlockEnd
  0
BLOCK
  5
96
330
95
100
AcDbEntity
  8
0
100
AcDbBlockBegin
  2
*D9
 70
     1
 10
0.0
 20
0.0
 30
0.0
  3
*D9
  1

  0
LINE
  5
97
330
95
100
AcDbEntity
  8
标注
370
    -2
100
AcDbLine
 10
396.4631943707655
 20
160.7984281803391
 30
0.0
 11
395.9653630588314
 21
160.380499974952
 31
0.0
  0
MTEXT
  5
98
330
95
100
AcDbEntity
  8
标注
100
AcDbMText
 10
398.1928390571003
 20
162.2504607913633
 30
0.0
 40
0.65
 41
0.0
 71
     5
 72
     1
  1
\A1;R3 7/8"
 11
0.7658943260523325
 21
0.6429664698262604
 31
0.0
 73
     1
 44
1.0
  0
SOLID
  5
99
330
95
100
AcDbEntity
  8
标注
100
AcDbTrace
 10
395.8957083579337
 20
160.4634718602743
 30
0.0
 11
396.0350177597293
 21
160.2975280896297
 31
0.0
 12
395.4675317468974
 22
159.9625717695649
 32
0.0
 13
395.4675317468974
 23
159.9625717695649
 33
0.0
  0
POINT
  5
9A
330
95
100
AcDbEntity
  8
Defpoints
 62
     0
100
AcDbPoint
 10
395.4675317468974
 20
159.9625717695649
 30
0.0
  0
POINT
  5
9B
330
95
100
AcDbEntity
  8
Defpoints
 62
     0
100
AcDbPoint
 10
398.4828637392295
 20
162.493935823999
 30
0.0
  0
ENDBLK
  5
9C
330
95
100
AcDbEntity
  8
0
100
AcDbBlockEnd
  0
BLOCK
  5
9E
330
9D
100
AcDbEntity
  8
0
100
AcDbBlockBegin
  2
*D10
 70
     1
 10
0.0
 20
0.0
 30
0.0
  3
*D10
  1

  0
LINE
  5
9F
330
9D
100
AcDbEntity
  8
标注
370
    -2
100
AcDbLine
 10
382.1220613221904
 20
160.6464114452224
 30
0.0
 11
381.6237134107928
 21
160.2290993806881
 31
0.0
  0
MTEXT
  5
A0
330
9D
100
AcDbEntity
  8
标注
100
AcDbMText
 10
383.770442875274
 20
162.0267513509897
 30
0.0
 40
0.65
 41
0.0
 71
     5
 72
     1
  1
\A1;R3 1/2"
 11
0.7666890944574863
 21
0.6420185608220059
 31
0.0
 73
     1
 44
1.0
  0
SOLID
  5
A1
330
9D
100
AcDbEntity
  8
标注
100
AcDbTrace
 10
381.5541614000372
 20
160.3121573659209
 30
0.0
 11
381.6932654215486
 21
160.1460413954552
 31
0.0
 12
381.1253654993956
 22
159.8117873161538
 32
0.0
 13
381.1253654993956
 23
159.8117873161538
 33
0.0
  0
POINT
  5
A2
330
9D
100
AcDbEntity
  8
Defpoints
 62
     0
100
AcDbPoint
 10
381.1253654993956
 20
159.8117873161538
 30
0.0
  0
POINT
  5
A3
330
9D
100
AcDbEntity
  8
Defpoints
 62
     0
100
AcDbPoint
 10
383.8419804010166
 20
162.0866562324522
 30
0.0
  0
ENDBLK
  5
A4
330
9D
100
AcDbEntity
  8
0
100
AcDbBlockEnd
  0
BLOCK
  5
A6
330
A5
100
AcDbEntity
  8
0
100
AcDbBlockBegin
  2
*D11
 70
     1
 10
0.0
 20
0.0
 30
0.0
  3
*D11
  1

  0
LINE
  5
A7
330
A5
100
AcDbEntity
  8
标注
370
    -2
100
AcDbLine
 10
410.0848383898012
 20
166.8996932642485
 30
0.0
 11
410.0848383898012
 21
154.7354891656021
 31
0.0
  0
LINE
  5
A8
330
A5
100
AcDbEntity
  8
标注
370
    -2
100
AcDbLine
 10
411.084838389801
 20
161.4666223981038
 30
0.0
 11
411.084838389801
 21
154.7354891656021
 31
0.0
  0
LINE
  5
A9
330
A5
100
AcDbEntity
  8
标注
370
    -2
100
AcDbLine
 10
409.4348383898013
 20
155.0554891656021
 30
0.0
 11
408.7848383898011
 21
155.0554891656021
 31
0.0
  0
LINE
  5
AA
330
A5
100
AcDbEntity
  8
标注
370
    -2
100
AcDbLine
 10
411.734838389801
 20
155.0554891656021
 30
0.0
 11
412.384838389801
 21
155.0554891656021
 31
0.0
  0
LINE
  5
AB
330
A5
100
AcDbEntity
  8
标注
370
    -2
100
AcDbLine
 10
410.0848383898012
 20
155.0554891656021
 30
0.0
 11
411.084838389801
 21
155.0554891656021
 31
0.0
  0
SOLID
  5
AC
330
A5
100
AcDbEntity
  8
标注
100
AcDbTrace
 10
409.4348383898013
 20
155.1638224989354
 30
0.0
 11
409.4348383898013
 21
154.9471558322688
 31
0.0
 12
410.0848383898012
 22
155.0554891656021
 32
0.0
 13
410.0848383898012
 23
155.0554891656021
 33
0.0
  0
SOLID
  5
AD
330
A5
100
AcDbEntity
  8
标注
100
AcDbTrace
 10
411.734838389801
 20
155.1638224989354
 30
0.0
 11
411.734838389801
 21
154.9471558322688
 31
0.0
 12
411.084838389801
 22
155.0554891656021
 32
0.0
 13
411.084838389801
 23
155.0554891656021
 33
0.0
  0
MTEXT
  5
AE
330
A5
100
AcDbEntity
  8
标注
100
AcDbMText
 10
412.9098383898011
 20
155.0554891656021
 30
0.0
 40
0.65
 41
0.0
 71
     5
 72
     1
  1
\A1;1"
 73
     1
 44
1.0
  0
POINT
  5
AF
330
A5
100
AcDbEntity
  8
Defpoints
 62
     0
100
AcDbPoint
 10
410.0848383898012
 20
167.7796932642485
 30
0.0
  0
POINT
  5
B0
330
A5
100
AcDbEntity
  8
Defpoints
 62
     0
100
AcDbPoint
 10
411.084838389801
 20
162.3466223981038
 30
0.0
  0
POINT
  5
B1
330
A5
100
AcDbEntity
  8
Defpoints
 62
     0
100
AcDbPoint
 10
411.084838389801
 20
155.0554891656021
 30
0.0
  0
ENDBLK
  5
B2
330
A5
100
AcDbEntity
  8
0
100
AcDbBlockEnd
  0
BLOCK
  5
B4
330
B3
100
AcDbEntity
  8
0
100
AcDbBlockBegin
  2
*D12
 70
     1
 10
0.0
 20
0.0
 30
0.0
  3
*D12
  1

  0
LINE
  5
B5
330
B3
100
AcDbEntity
  8
标注
370
    -2
100
AcDbLine
 10
393.0690903583053
 20
167.5573310595366
 30
0.0
 11
393.0690903583053
 21
167.2196932642485
 31
0.0
  0
LINE
  5
B6
330
B3
100
AcDbEntity
  8
标注
370
    -2
100
AcDbLine
 10
394.3368068937383
 20
167.5573310595366
 30
0.0
 11
394.3368068937383
 21
167.2196932642485
 31
0.0
  0
LINE
  5
B7
330
B3
100
AcDbEntity
  8
标注
370
    -2
100
AcDbLine
 10
392.4190903583053
 20
166.8996932642485
 30
0.0
 11
391.7690903583052
 21
166.8996932642485
 31
0.0
  0
LINE
  5
B8
330
B3
100
AcDbEntity
  8
标注
370
    -2
100
AcDbLine
 10
394.9868068937383
 20
166.8996932642485
 30
0.0
 11
395.6368068937383
 21
166.8996932642485
 31
0.0
  0
LINE
  5
B9
330
B3
100
AcDbEntity
  8
标注
370
    -2
100
AcDbLine
 10
393.0690903583053
 20
166.8996932642485
 30
0.0
 11
394.3368068937383
 21
166.8996932642485
 31
0.0
  0
SOLID
  5
BA
330
B3
100
AcDbEntity
  8
标注
100
AcDbTrace
 10
392.4190903583053
 20
167.0080265975818
 30
0.0
 11
392.4190903583053
 21
166.7913599309152
 31
0.0
 12
393.0690903583053
 22
166.8996932642485
 32
0.0
 13
393.0690903583053
 23
166.8996932642485
 33
0.0
  0
SOLID
  5
BB
330
B3
100
AcDbEntity
  8
标注
100
AcDbTrace
 10
394.9868068937383
 20
167.0080265975818
 30
0.0
 11
394.9868068937383
 21
166.7913599309152
 31
0.0
 12
394.3368068937383
 22
166.8996932642485
 32
0.0
 13
394.3368068937383
 23
166.8996932642485
 33
0.0
  0
MTEXT
  5
BC
330
B3
100
AcDbEntity
  8
标注
100
AcDbMText
 10
397.3534735604049
 20
166.8996932642485
 30
0.0
 40
0.65
 41
0.0
 71
     5
 72
     1
  1
\A1;1 1/4"
 73
     1
 44
1.0
  0
POINT
  5
BD
330
B3
100
AcDbEntity
  8
Defpoints
 62
     0
100
AcDbPoint
 10
393.0690903583053
 20
166.6773310595366
 30
0.0
  0
POINT
  5
BE
330
B3
100
AcDbEntity
  8
Defpoints
 62
     0
100
AcDbPoint
 10
394.3368068937383
 20
166.6773310595366
 30
0.0
  0
POINT
  5
BF
330
B3
100
AcDbEntity
  8
Defpoints
 62
     0
100
AcDbPoint
 10
394.3368068937383
 20
166.8996932642485
 30
0.0
  0
ENDBLK
  5
C0
330
B3
100
AcDbEntity
  8
0
100
AcDbBlockEnd
  0
BLOCK
  5
C2
330
C1
100
AcDbEntity
  8
0
100
AcDbBlockBegin
  2
*D13
 70
     1
 10
0.0
 20
0.0
 30
0.0
  3
*D13
  1

  0
LINE
  5
C3
330
C1
100
AcDbEntity
  8
标注
370
    -2
100
AcDbLine
 10
403.970822641723
 20
177.1497720044059
 30
0.0
 11
413.8668928861417
 21
177.1497720044059
 31
0.0
  0
LINE
  5
C4
330
C1
100
AcDbEntity
  8
标注
370
    -2
100
AcDbLine
 10
407.0278305157852
 20
178.1497720044059
 30
0.0
 11
413.8668928861417
 21
178.1497720044059
 31
0.0
  0
LINE
  5
C5
330
C1
100
AcDbEntity
  8
标注
370
    -2
100
AcDbLine
 10
413.5468928861416
 20
176.4997720044059
 30
0.0
 11
413.5468928861416
 21
175.8497720044059
 31
0.0
  0
LINE
  5
C6
330
C1
100
AcDbEntity
  8
标注
370
    -2
100
AcDbLine
 10
413.5468928861416
 20
178.7997720044059
 30
0.0
 11
413.5468928861416
 21
179.4497720044059
 31
0.0
  0
LINE
  5
C7
330
C1
100
AcDbEntity
  8
标注
370
    -2
100
AcDbLine
 10
413.5468928861416
 20
177.1497720044059
 30
0.0
 11
413.5468928861416
 21
178.1497720044059
 31
0.0
  0
SOLID
  5
C8
330
C1
100
AcDbEntity
  8
标注
100
AcDbTrace
 10
413.4385595528083
 20
176.4997720044059
 30
0.0
 11
413.655226219475
 21
176.4997720044059
 31
0.0
 12
413.5468928861416
 22
177.1497720044059
 32
0.0
 13
413.5468928861416
 23
177.1497720044059
 33
0.0
  0
SOLID
  5
C9
330
C1
100
AcDbEntity
  8
标注
100
AcDbTrace
 10
413.4385595528083
 20
178.7997720044059
 30
0.0
 11
413.655226219475
 21
178.7997720044059
 31
0.0
 12
413.5468928861416
 22
178.1497720044059
 32
0.0
 13
413.5468928861416
 23
178.1497720044059
 33
0.0
  0
MTEXT
  5
CA
330
C1
100
AcDbEntity
  8
标注
100
AcDbMText
 10
413.5468928861416
 20
179.9747720044059
 30
0.0
 40
0.65
 41
0.0
 71
     5
 72
     1
  1
\A1;1"
 11
0.0000000000000001
 21
1.0
 31
0.0
 73
     1
 44
1.0
  0
POINT
  5
CB
330
C1
100
AcDbEntity
  8
Defpoints
 62
     0
100
AcDbPoint
 10
403.090822641723
 20
177.1497720044059
 30
0.0
  0
POINT
  5
CC
330
C1
100
AcDbEntity
  8
Defpoints
 62
     0
100
AcDbPoint
 10
406.1478305157852
 20
178.1497720044059
 30
0.0
  0
POINT
  5
CD
330
C1
100
AcDbEntity
  8
Defpoints
 62
     0
100
AcDbPoint
 10
413.5468928861416
 20
178.1497720044059
 30
0.0
  0
ENDBLK
  5
CE
330
C1
100
AcDbEntity
  8
0
100
AcDbBlockEnd
  0
BLOCK
  5
D0
330
CF
100
AcDbEntity
  8
0
100
AcDbBlockBegin
  2
*D14
 70
     1
 10
0.0
 20
0.0
 30
0.0
  3
*D14
  1

  0
LINE
  5
D1
330
CF
100
AcDbEntity
  8
标注
370
    -2
100
AcDbLine
 10
384.8130273661792
 20
158.4096145241025
 30
0.0
 11
376.0248467579627
 21
158.4096145241025
 31
0.0
  0
LINE
  5
D2
330
CF
100
AcDbEntity
  8
标注
370
    -2
100
AcDbLine
 10
382.740271460664
 20
157.4096145241047
 30
0.0
 11
376.0248467579627
 21
157.4096145241047
 31
0.0
  0
LINE
  5
D3
330
CF
100
AcDbEntity
  8
标注
370
    -2
100
AcDbLine
 10
376.3448467579627
 20
159.0596145241025
 30
0.0
 11
376.3448467579627
 21
159.7096145241025
 31
0.0
  0
LINE
  5
D4
330
CF
100
AcDbEntity
  8
标注
370
    -2
100
AcDbLine
 10
376.3448467579627
 20
156.7596145241046
 30
0.0
 11
376.3448467579627
 21
156.1096145241047
 31
0.0
  0
LINE
  5
D5
330
CF
100
AcDbEntity
  8
标注
370
    -2
100
AcDbLine
 10
376.3448467579627
 20
158.4096145241025
 30
0.0
 11
376.3448467579627
 21
157.4096145241047
 31
0.0
  0
SOLID
  5
D6
330
CF
100
AcDbEntity
  8
标注
100
AcDbTrace
 10
376.2365134246293
 20
159.0596145241025
 30
0.0
 11
376.453180091296
 21
159.0596145241025
 31
0.0
 12
376.3448467579627
 22
158.4096145241025
 32
0.0
 13
376.3448467579627
 23
158.4096145241025
 33
0.0
  0
SOLID
  5
D7
330
CF
100
AcDbEntity
  8
标注
100
AcDbTrace
 10
376.2365134246293
 20
156.7596145241046
 30
0.0
 11
376.453180091296
 21
156.7596145241046
 31
0.0
 12
376.3448467579627
 22
157.4096145241047
 32
0.0
 13
376.3448467579627
 23
157.4096145241047
 33
0.0
  0
MTEXT
  5
D8
330
CF
100
AcDbEntity
  8
标注
100
AcDbMText
 10
376.3448467579627
 20
155.5846145241048
 30
0.0
 40
0.65
 41
0.0
 71
     5
 72
     1
  1
\A1;1"
 11
0.0000000000000001
 21
1.0
 31
0.0
 73
     1
 44
1.0
  0
POINT
  5
D9
330
CF
100
AcDbEntity
  8
Defpoints
 62
     0
100
AcDbPoint
 10
385.6930273661792
 20
158.4096145241025
 30
0.0
  0
POINT
  5
DA
330
CF
100
AcDbEntity
  8
Defpoints
 62
     0
100
AcDbPoint
 10
383.620271460664
 20
157.4096145241047
 30
0.0
  0
POINT
  5
DB
330
CF
100
AcDbEntity
  8
Defpoints
 62
     0
100
AcDbPoint
 10
376.3448467579627
 20
157.4096145241047
 30
0.0
  0
ENDBLK
  5
DC
330
CF
100
AcDbEntity
  8
0
100
AcDbBlockEnd
  0
BLOCK
  5
DE
330
DD
100
AcDbEntity
  8
0
100
AcDbBlockBegin
  2
*D15
 70
     1
 10
0.0
 20
0.0
 30
0.0
  3
*D15
  1

  0
LINE
  5
DF
330
DD
100
AcDbEntity
  8
标注
370
    -2
100
AcDbLine
 10
381.7777953057845
 20
189.4580033462699
 30
0.0
 11
381.2507943712823
 21
189.0775167958716
 31
0.0
  0
MTEXT
  5
E0
330
DD
100
AcDbEntity
  8
标注
100
AcDbMText
 10
382.5547838630632
 20
190.0189771064724
 30
0.0
 40
0.65
 41
0.0
 71
     5
 72
     1
  1
\A1;R2"
 11
0.810770668464719
 21
0.5853639236895905
 31
0.0
 73
     1
 44
1.0
  0
SOLID
  5
E1
330
DD
100
AcDbEntity
  8
标注
100
AcDbTrace
 10
381.187379946216
 20
189.1653502849553
 30
0.0
 11
381.3142087963488
 21
188.9896833067879
 31
0.0
 12
380.7237934367803
 22
188.6970302454734
 32
0.0
 13
380.7237934367803
 23
188.6970302454734
 33
0.0
  0
POINT
  5
E2
330
DD
100
AcDbEntity
  8
Defpoints
 62
     0
100
AcDbPoint
 10
380.7237934367803
 20
188.6970302454734
 30
0.0
  0
POINT
  5
E3
330
DD
100
AcDbEntity
  8
Defpoints
 62
     0
100
AcDbPoint
 10
382.3453347737098
 20
189.8677580928525
 30
0.0
  0
ENDBLK
  5
E4
330
DD
100
AcDbEntity
  8
0
100
AcDbBlockEnd
  0
BLOCK
  5
E6
330
E5
100
AcDbEntity
  8
0
100
AcDbBlockBegin
  2
*D16
 70
     1
 10
0.0
 20
0.0
 30
0.0
  3
*D16
  1

  0
LINE
  5
E7
330
E5
100
AcDbEntity
  8
标注
370
    -2
100
AcDbLine
 10
396.0372869859617
 20
187.9846386845254
 30
0.0
 11
395.5219025176843
 21
187.5885593365931
 31
0.0
  0
MTEXT
  5
E8
330
E5
100
AcDbEntity
  8
标注
100
AcDbMText
 10
396.7971487020117
 20
188.5686018257078
 30
0.0
 40
0.65
 41
0.0
 71
     5
 72
     1
  1
\A1;R2"
 11
0.7928991819651401
 21
0.6093528429727818
 31
0.0
 73
     1
 44
1.0
  0
SOLID
  5
E9
330
E5
100
AcDbEntity
  8
标注
100
AcDbTrace
 10
395.4558892930289
 20
187.6744567479726
 30
0.0
 11
395.5879157423396
 21
187.5026619252135
 31
0.0
 12
395.006518049407
 22
187.1924799886608
 32
0.0
 13
395.006518049407
 23
187.1924799886608
 33
0.0
  0
POINT
  5
EA
330
E5
100
AcDbEntity
  8
Defpoints
 62
     0
100
AcDbPoint
 10
395.006518049407
 20
187.1924799886608
 30
0.0
  0
POINT
  5
EB
330
E5
100
AcDbEntity
  8
Defpoints
 62
     0
100
AcDbPoint
 10
396.5923164133372
 20
188.4111856746064
 30
0.0
  0
ENDBLK
  5
EC
330
E5
100
AcDbEntity
  8
0
100
AcDbBlockEnd
  0
BLOCK
  5
2E8
330
2DC
100
AcDbEntity
  8
0
100
AcDbBlockBegin
  2
*D17
 70
     1
 10
0.0
 20
0.0
 30
0.0
  3
*D17
  1

  0
LINE
  5
323
330
2DC
100
AcDbEntity
  8
标注
370
    -2
100
AcDbLine
 10
145.6725645583578
 20
209.5128721613436
 30
0.0
 11
155.5686348027764
 21
209.5128721613436
 31
0.0
  0
LINE
  5
324
330
2DC
100
AcDbEntity
  8
标注
370
    -2
100
AcDbLine
 10
148.7295724324201
 20
210.5128721613435
 30
0.0
 11
155.5686348027764
 21
210.5128721613435
 31
0.0
  0
LINE
  5
325
330
2DC
100
AcDbEntity
  8
标注
370
    -2
100
AcDbLine
 10
155.2486348027764
 20
208.8628721613436
 30
0.0
 11
155.2486348027764
 21
208.2128721613436
 31
0.0
  0
LINE
  5
326
330
2DC
100
AcDbEntity
  8
标注
370
    -2
100
AcDbLine
 10
155.2486348027764
 20
211.1628721613436
 30
0.0
 11
155.2486348027764
 21
211.8128721613435
 31
0.0
  0
LINE
  5
327
330
2DC
100
AcDbEntity
  8
标注
370
    -2
100
AcDbLine
 10
155.2486348027764
 20
209.5128721613436
 30
0.0
 11
155.2486348027764
 21
210.5128721613435
 31
0.0
  0
SOLID
  5
328
330
2DC
100
AcDbEntity
  8
标注
100
AcDbTrace
 10
155.1403014694431
 20
208.8628721613436
 30
0.0
 11
155.3569681361097
 21
208.8628721613436
 31
0.0
 12
155.2486348027764
 22
209.5128721613436
 32
0.0
 13
155.2486348027764
 23
209.5128721613436
 33
0.0
  0
SOLID
  5
329
330
2DC
100
AcDbEntity
  8
标注
100
AcDbTrace
 10
155.1403014694431
 20
211.1628721613436
 30
0.0
 11
155.3569681361097
 21
211.1628721613436
 31
0.0
 12
155.2486348027764
 22
210.5128721613435
 32
0.0
 13
155.2486348027764
 23
210.5128721613435
 33
0.0
  0
MTEXT
  5
32A
330
2DC
100
AcDbEntity
  8
标注
100
AcDbMText
 10
155.2486348027764
 20
212.3378721613436
 30
0.0
 40
0.65
 41
0.0
 71
     5
 72
     1
  1
\A1;1"
 11
0.0000000000000001
 21
1.0
 31
0.0
 73
     1
 44
1.0
  0
POINT
  5
32B
330
2DC
100
AcDbEntity
  8
Defpoints
 62
     0
100
AcDbPoint
 10
144.7925645583578
 20
209.5128721613436
 30
0.0
  0
POINT
  5
32C
330
2DC
100
AcDbEntity
  8
Defpoints
 62
     0
100
AcDbPoint
 10
147.8495724324201
 20
210.5128721613435
 30
0.0
  0
POINT
  5
32D
330
2DC
100
AcDbEntity
  8
Defpoints
 62
     0
100
AcDbPoint
 10
155.2486348027764
 20
210.5128721613435
 30
0.0
  0
ENDBLK
  5
2E9
330
2DC
100
AcDbEntity
  8
0
100
AcDbBlockEnd
  0
BLOCK
  5
2F6
330
2EA
100
AcDbEntity
  8
0
100
AcDbBlockBegin
  2
*D18
 70
     1
 10
0.0
 20
0.0
 30
0.0
  3
*D18
  1

  0
LINE
  5
33C
330
2EA
100
AcDbEntity
  8
标注
370
    -2
100
AcDbLine
 10
151.786580306436
 20
199.2627934211861
 30
0.0
 11
151.786580306436
 21
187.0985893225397
 31
0.0
  0
LINE
  5
33D
330
2EA
100
AcDbEntity
  8
标注
370
    -2
100
AcDbLine
 10
152.7865803064359
 20
193.8297225550414
 30
0.0
 11
152.7865803064359
 21
187.0985893225397
 31
0.0
  0
LINE
  5
33E
330
2EA
100
AcDbEntity
  8
标注
370
    -2
100
AcDbLine
 10
151.136580306436
 20
187.4185893225396
 30
0.0
 11
150.486580306436
 21
187.4185893225396
 31
0.0
  0
LINE
  5
33F
330
2EA
100
AcDbEntity
  8
标注
370
    -2
100
AcDbLine
 10
153.4365803064359
 20
187.4185893225396
 30
0.0
 11
154.0865803064358
 21
187.4185893225396
 31
0.0
  0
LINE
  5
340
330
2EA
100
AcDbEntity
  8
标注
370
    -2
100
AcDbLine
 10
151.786580306436
 20
187.4185893225396
 30
0.0
 11
152.7865803064359
 21
187.4185893225396
 31
0.0
  0
SOLID
  5
341
330
2EA
100
AcDbEntity
  8
标注
100
AcDbTrace
 10
151.136580306436
 20
187.5269226558731
 30
0.0
 11
151.136580306436
 21
187.3102559892064
 31
0.0
 12
151.786580306436
 22
187.4185893225396
 32
0.0
 13
151.786580306436
 23
187.4185893225396
 33
0.0
  0
SOLID
  5
342
330
2EA
100
AcDbEntity
  8
标注
100
AcDbTrace
 10
153.4365803064359
 20
187.5269226558731
 30
0.0
 11
153.4365803064359
 21
187.3102559892064
 31
0.0
 12
152.7865803064359
 22
187.4185893225396
 32
0.0
 13
152.7865803064359
 23
187.4185893225396
 33
0.0
  0
MTEXT
  5
343
330
2EA
100
AcDbEntity
  8
标注
100
AcDbMText
 10
154.6115803064359
 20
187.4185893225396
 30
0.0
 40
0.65
 41
0.0
 71
     5
 72
     1
  1
\A1;1"
 73
     1
 44
1.0
  0
POINT
  5
344
330
2EA
100
AcDbEntity
  8
Defpoints
 62
     0
100
AcDbPoint
 10
151.786580306436
 20
200.1427934211862
 30
0.0
  0
POINT
  5
345
330
2EA
100
AcDbEntity
  8
Defpoints
 62
     0
100
AcDbPoint
 10
152.7865803064359
 20
194.7097225550414
 30
0.0
  0
POINT
  5
346
330
2EA
100
AcDbEntity
  8
Defpoints
 62
     0
100
AcDbPoint
 10
152.7865803064359
 20
187.4185893225396
 30
0.0
  0
ENDBLK
  5
2F7
330
2EA
100
AcDbEntity
  8
0
100
AcDbBlockEnd
  0
BLOCK
  5
303
330
2F8
100
AcDbEntity
  8
0
100
AcDbBlockBegin
  2
*D19
 70
     1
 10
0.0
 20
0.0
 30
0.0
  3
*D19
  1

  0
LINE
  5
398
330
2F8
100
AcDbEntity
  8
标注
370
    -2
100
AcDbLine
 10
148.7295724324201
 20
210.5128721613435
 30
0.0
 11
158.0065956389688
 21
210.5128721613435
 31
0.0
  0
LINE
  5
399
330
2F8
100
AcDbEntity
  8
标注
370
    -2
100
AcDbLine
 10
148.7295724324201
 20
189.7727146810258
 30
0.0
 11
158.0065956389688
 21
189.7727146810258
 31
0.0
  0
LINE
  5
39A
330
2F8
100
AcDbEntity
  8
标注
370
    -2
100
AcDbLine
 10
157.6865956389688
 20
209.8628721613435
 30
0.0
 11
157.6865956389688
 21
202.3469600878513
 31
0.0
  0
LINE
  5
39B
330
2F8
100
AcDbEntity
  8
标注
370
    -2
100
AcDbLine
 10
157.6865956389688
 20
190.4227146810258
 30
0.0
 11
157.6865956389688
 21
197.9386267545179
 31
0.0
  0
SOLID
  5
39C
330
2F8
100
AcDbEntity
  8
标注
100
AcDbTrace
 10
157.5782623056355
 20
209.8628721613435
 30
0.0
 11
157.7949289723022
 21
209.8628721613435
 31
0.0
 12
157.6865956389688
 22
210.5128721613435
 32
0.0
 13
157.6865956389688
 23
210.5128721613435
 33
0.0
  0
SOLID
  5
39D
330
2F8
100
AcDbEntity
  8
标注
100
AcDbTrace
 10
157.5782623056355
 20
190.4227146810258
 30
0.0
 11
157.7949289723021
 21
190.4227146810258
 31
0.0
 12
157.6865956389688
 22
189.7727146810258
 32
0.0
 13
157.6865956389688
 23
189.7727146810258
 33
0.0
  0
MTEXT
  5
39E
330
2F8
100
AcDbEntity
  8
标注
100
AcDbMText
 10
157.6865956389688
 20
200.1427934211847
 30
0.0
 40
0.65
 41
0.0
 71
     5
 72
     1
  1
\A1;20 3/4"
 11
0.0000000000000001
 21
1.0
 31
0.0
 73
     1
 44
1.0
  0
POINT
  5
39F
330
2F8
100
AcDbEntity
  8
Defpoints
 62
     0
100
AcDbPoint
 10
147.8495724324201
 20
210.5128721613435
 30
0.0
  0
POINT
  5
3A0
330
2F8
100
AcDbEntity
  8
Defpoints
 62
     0
100
AcDbPoint
 10
147.8495724324201
 20
189.7727146810258
 30
0.0
  0
POINT
  5
3A1
330
2F8
100
AcDbEntity
  8
Defpoints
 62
     0
100
AcDbPoint
 10
157.6865956389688
 20
189.7727146810258
 30
0.0
  0
ENDBLK
  5
304
330
2F8
100
AcDbEntity
  8
0
100
AcDbBlockEnd
  0
BLOCK
  5
30B
330
305
100
AcDbEntity
  8
0
100
AcDbBlockBegin
  2
*D20
 70
     1
 10
0.0
 20
0.0
 30
0.0
  3
*D20
  1

  0
LINE
  5
3BC
330
305
100
AcDbEntity
  8
标注
370
    -2
100
AcDbLine
 10
137.7390289025965
 20
220.3477388414632
 30
0.0
 11
137.2236444343192
 21
219.9516594935309
 31
0.0
  0
MTEXT
  5
3BD
330
305
100
AcDbEntity
  8
标注
100
AcDbMText
 10
138.4988906186465
 20
220.9317019826455
 30
0.0
 40
0.65
 41
0.0
 71
     5
 72
     1
  1
\A1;R2"
 11
0.7928991819651359
 21
0.6093528429727872
 31
0.0
 73
     1
 44
1.0
  0
SOLID
  5
3BE
330
305
100
AcDbEntity
  8
标注
100
AcDbTrace
 10
137.1576312096638
 20
220.0375569049104
 30
0.0
 11
137.2896576589746
 21
219.8657620821513
 31
0.0
 12
136.7082599660419
 22
219.5555801455986
 32
0.0
 13
136.7082599660419
 23
219.5555801455986
 33
0.0
  0
POINT
  5
3BF
330
305
100
AcDbEntity
  8
Defpoints
 62
     0
100
AcDbPoint
 10
136.7082599660419
 20
219.5555801455986
 30
0.0
  0
POINT
  5
3C0
330
305
100
AcDbEntity
  8
Defpoints
 62
     0
100
AcDbPoint
 10
138.2940583299721
 20
220.7742858315441
 30
0.0
  0
ENDBLK
  5
30C
330
305
100
AcDbEntity
  8
0
100
AcDbBlockEnd
  0
BLOCK
  5
313
330
30D
100
AcDbEntity
  8
0
100
AcDbBlockBegin
  2
*D21
 70
     1
 10
0.0
 20
0.0
 30
0.0
  3
*D21
  1

  0
LINE
  5
3C1
330
30D
100
AcDbEntity
  8
标注
370
    -2
100
AcDbLine
 10
123.4795372224193
 20
221.8211035032077
 30
0.0
 11
122.9525362879172
 21
221.4406169528095
 31
0.0
  0
MTEXT
  5
3C2
330
30D
100
AcDbEntity
  8
标注
100
AcDbMText
 10
124.256525779698
 20
222.3820772634102
 30
0.0
 40
0.65
 41
0.0
 71
     5
 72
     1
  1
\A1;R2"
 11
0.810770668464719
 21
0.5853639236895905
 31
0.0
 73
     1
 44
1.0
  0
SOLID
  5
3C3
330
30D
100
AcDbEntity
  8
标注
100
AcDbTrace
 10
122.8891218628509
 20
221.5284504418931
 30
0.0
 11
123.0159507129836
 21
221.3527834637258
 31
0.0
 12
122.4255353534152
 22
221.0601304024113
 32
0.0
 13
122.4255353534152
 23
221.0601304024113
 33
0.0
  0
POINT
  5
3C4
330
30D
100
AcDbEntity
  8
Defpoints
 62
     0
100
AcDbPoint
 10
122.4255353534152
 20
221.0601304024113
 30
0.0
  0
POINT
  5
3C5
330
30D
100
AcDbEntity
  8
Defpoints
 62
     0
100
AcDbPoint
 10
124.0470766903445
 20
222.2308582497904
 30
0.0
  0
ENDBLK
  5
314
330
30D
100
AcDbEntity
  8
0
100
AcDbBlockEnd
  0
BLOCK
  5
321
330
315
100
AcDbEntity
  8
0
100
AcDbBlockBegin
  2
*D22
 70
     1
 10
0.0
 20
0.0
 30
0.0
  3
*D22
  1

  0
LINE
  5
316
330
315
100
AcDbEntity
  8
标注
370
    -2
100
AcDbLine
 10
126.5147692828139
 20
190.77271468104
 30
0.0
 11
117.7265886745974
 21
190.77271468104
 31
0.0
  0
LINE
  5
317
330
315
100
AcDbEntity
  8
标注
370
    -2
100
AcDbLine
 10
124.4420133772987
 20
189.7727146810424
 30
0.0
 11
117.7265886745974
 21
189.7727146810424
 31
0.0
  0
LINE
  5
318
330
315
100
AcDbEntity
  8
标注
370
    -2
100
AcDbLine
 10
118.0465886745974
 20
191.4227146810402
 30
0.0
 11
118.0465886745974
 21
192.0727146810402
 31
0.0
  0
LINE
  5
319
330
315
100
AcDbEntity
  8
标注
370
    -2
100
AcDbLine
 10
118.0465886745974
 20
189.1227146810424
 30
0.0
 11
118.0465886745974
 21
188.4727146810424
 31
0.0
  0
LINE
  5
31A
330
315
100
AcDbEntity
  8
标注
370
    -2
100
AcDbLine
 10
118.0465886745974
 20
190.77271468104
 30
0.0
 11
118.0465886745974
 21
189.7727146810424
 31
0.0
  0
SOLID
  5
31B
330
315
100
AcDbEntity
  8
标注
100
AcDbTrace
 10
117.9382553412641
 20
191.4227146810402
 30
0.0
 11
118.1549220079308
 21
191.4227146810402
 31
0.0
 12
118.0465886745974
 22
190.77271468104
 32
0.0
 13
118.0465886745974
 23
190.77271468104
 33
0.0
  0
SOLID
  5
31C
330
315
100
AcDbEntity
  8
标注
100
AcDbTrace
 10
117.9382553412641
 20
189.1227146810424
 30
0.0
 11
118.1549220079308
 21
189.1227146810424
 31
0.0
 12
118.0465886745974
 22
189.7727146810424
 32
0.0
 13
118.0465886745974
 23
189.7727146810424
 33
0.0
  0
MTEXT
  5
31D
330
315
100
AcDbEntity
  8
标注
100
AcDbMText
 10
118.0465886745974
 20
187.9477146810424
 30
0.0
 40
0.65
 41
0.0
 71
     5
 72
     1
  1
\A1;1"
 11
0.0000000000000001
 21
1.0
 31
0.0
 73
     1
 44
1.0
  0
POINT
  5
31E
330
315
100
AcDbEntity
  8
Defpoints
 62
     0
100
AcDbPoint
 10
127.3947692828139
 20
190.77271468104
 30
0.0
  0
POINT
  5
31F
330
315
100
AcDbEntity
  8
Defpoints
 62
     0
100
AcDbPoint
 10
125.3220133772987
 20
189.7727146810424
 30
0.0
  0
POINT
  5
320
330
315
100
AcDbEntity
  8
Defpoints
 62
     0
100
AcDbPoint
 10
118.0465886745974
 20
189.7727146810424
 30
0.0
  0
ENDBLK
  5
322
330
315
100
AcDbEntity
  8
0
100
AcDbBlockEnd
  0
BLOCK
  5
33A
330
32E
100
AcDbEntity
  8
0
100
AcDbBlockBegin
  2
*D23
 70
     1
 10
0.0
 20
0.0
 30
0.0
  3
*D23
  1

  0
LINE
  5
32F
330
32E
100
AcDbEntity
  8
标注
370
    -2
100
AcDbLine
 10
134.77083227494
 20
199.9204312164741
 30
0.0
 11
134.77083227494
 21
199.5827934211861
 31
0.0
  0
LINE
  5
330
330
32E
100
AcDbEntity
  8
标注
370
    -2
100
AcDbLine
 10
136.038548810373
 20
199.9204312164741
 30
0.0
 11
136.038548810373
 21
199.5827934211861
 31
0.0
  0
LINE
  5
331
330
32E
100
AcDbEntity
  8
标注
370
    -2
100
AcDbLine
 10
134.12083227494
 20
199.2627934211861
 30
0.0
 11
133.47083227494
 21
199.2627934211861
 31
0.0
  0
LINE
  5
332
330
32E
100
AcDbEntity
  8
标注
370
    -2
100
AcDbLine
 10
136.6885488103731
 20
199.2627934211861
 30
0.0
 11
137.3385488103731
 21
199.2627934211861
 31
0.0
  0
LINE
  5
333
330
32E
100
AcDbEntity
  8
标注
370
    -2
100
AcDbLine
 10
134.77083227494
 20
199.2627934211861
 30
0.0
 11
136.038548810373
 21
199.2627934211861
 31
0.0
  0
SOLID
  5
334
330
32E
100
AcDbEntity
  8
标注
100
AcDbTrace
 10
134.12083227494
 20
199.3711267545195
 30
0.0
 11
134.12083227494
 21
199.1544600878528
 31
0.0
 12
134.77083227494
 22
199.2627934211861
 32
0.0
 13
134.77083227494
 23
199.2627934211861
 33
0.0
  0
SOLID
  5
335
330
32E
100
AcDbEntity
  8
标注
100
AcDbTrace
 10
136.6885488103731
 20
199.3711267545195
 30
0.0
 11
136.6885488103731
 21
199.1544600878528
 31
0.0
 12
136.038548810373
 22
199.2627934211861
 32
0.0
 13
136.038548810373
 23
199.2627934211861
 33
0.0
  0
MTEXT
  5
336
330
32E
100
AcDbEntity
  8
标注
100
AcDbMText
 10
139.0552154770397
 20
199.2627934211861
 30
0.0
 40
0.65
 41
0.0
 71
     5
 72
     1
  1
\A1;1 1/4"
 73
     1
 44
1.0
  0
POINT
  5
337
330
32E
100
AcDbEntity
  8
Defpoints
 62
     0
100
AcDbPoint
 10
134.77083227494
 20
199.0404312164742
 30
0.0
  0
POINT
  5
338
330
32E
100
AcDbEntity
  8
Defpoints
 62
     0
100
AcDbPoint
 10
136.038548810373
 20
199.0404312164742
 30
0.0
  0
POINT
  5
339
330
32E
100
AcDbEntity
  8
Defpoints
 62
     0
100
AcDbPoint
 10
136.038548810373
 20
199.2627934211861
 30
0.0
  0
ENDBLK
  5
33B
330
32E
100
AcDbEntity
  8
0
100
AcDbBlockEnd
  0
BLOCK
  5
34D
330
347
100
AcDbEntity
  8
0
100
AcDbBlockBegin
  2
*D24
 70
     1
 10
0.0
 20
0.0
 30
0.0
  3
*D24
  1

  0
LINE
  5
3C6
330
347
100
AcDbEntity
  8
标注
370
    -2
100
AcDbLine
 10
123.8238032388251
 20
193.0095116021601
 30
0.0
 11
123.3254553274277
 21
192.5921995376257
 31
0.0
  0
MTEXT
  5
3C7
330
347
100
AcDbEntity
  8
标注
100
AcDbMText
 10
125.4721847919087
 20
194.3898515079274
 30
0.0
 40
0.65
 41
0.0
 71
     5
 72
     1
  1
\A1;R3 1/2"
 11
0.7666890944574901
 21
0.6420185608220015
 31
0.0
 73
     1
 44
1.0
  0
SOLID
  5
3C8
330
347
100
AcDbEntity
  8
标注
100
AcDbTrace
 10
123.2559033166719
 20
192.6752575228585
 30
0.0
 11
123.3950073381834
 21
192.5091415523928
 31
0.0
 12
122.8271074160303
 22
192.1748874730915
 32
0.0
 13
122.8271074160303
 23
192.1748874730915
 33
0.0
  0
POINT
  5
3C9
330
347
100
AcDbEntity
  8
Defpoints
 62
     0
100
AcDbPoint
 10
122.8271074160303
 20
192.1748874730915
 30
0.0
  0
POINT
  5
3CA
330
347
100
AcDbEntity
  8
Defpoints
 62
     0
100
AcDbPoint
 10
125.5437223176513
 20
194.4497563893898
 30
0.0
  0
ENDBLK
  5
34E
330
347
100
AcDbEntity
  8
0
100
AcDbBlockEnd
  0
BLOCK
  5
355
330
34F
100
AcDbEntity
  8
0
100
AcDbBlockBegin
  2
*D25
 70
     1
 10
0.0
 20
0.0
 30
0.0
  3
*D25
  1

  0
LINE
  5
3CB
330
34F
100
AcDbEntity
  8
标注
370
    -2
100
AcDbLine
 10
138.1649362874002
 20
193.1615283372769
 30
0.0
 11
137.6671049754661
 21
192.7436001318898
 31
0.0
  0
MTEXT
  5
3CC
330
34F
100
AcDbEntity
  8
标注
100
AcDbMText
 10
139.894580973735
 20
194.6135609483011
 30
0.0
 40
0.65
 41
0.0
 71
     5
 72
     1
  1
\A1;R3 7/8"
 11
0.7658943260523343
 21
0.6429664698262583
 31
0.0
 73
     1
 44
1.0
  0
SOLID
  5
3CD
330
34F
100
AcDbEntity
  8
标注
100
AcDbTrace
 10
137.5974502745683
 20
192.8265720172121
 30
0.0
 11
137.736759676364
 21
192.6606282465675
 31
0.0
 12
137.1692736635321
 22
192.3256719265026
 32
0.0
 13
137.1692736635321
 23
192.3256719265026
 33
0.0
  0
POINT
  5
3CE
330
34F
100
AcDbEntity
  8
Defpoints
 62
     0
100
AcDbPoint
 10
137.1692736635321
 20
192.3256719265026
 30
0.0
  0
POINT
  5
3CF
330
34F
100
AcDbEntity
  8
Defpoints
 62
     0
100
AcDbPoint
 10
140.1846056558642
 20
194.8570359809368
 30
0.0
  0
ENDBLK
  5
356
330
34F
100
AcDbEntity
  8
0
100
AcDbBlockEnd
  0
BLOCK
  5
362
330
357
100
AcDbEntity
  8
0
100
AcDbBlockBegin
  2
*D26
 70
     1
 10
0.0
 20
0.0
 30
0.0
  3
*D26
  1

  0
LINE
  5
358
330
357
100
AcDbEntity
  8
标注
370
    -2
100
AcDbLine
 10
152.7865803064359
 20
193.8297225550414
 30
0.0
 11
152.7865803064359
 21
184.8511816833886
 31
0.0
  0
LINE
  5
359
330
357
100
AcDbEntity
  8
标注
370
    -2
100
AcDbLine
 10
120.778706290688
 20
193.4360217676566
 30
0.0
 11
120.778706290688
 21
184.8511816833886
 31
0.0
  0
LINE
  5
35A
330
357
100
AcDbEntity
  8
标注
370
    -2
100
AcDbLine
 10
152.1365803064359
 20
185.1711816833886
 30
0.0
 11
137.7409766318952
 21
185.1711816833886
 31
0.0
  0
LINE
  5
35B
330
357
100
AcDbEntity
  8
标注
370
    -2
100
AcDbLine
 10
121.428706290688
 20
185.1711816833886
 30
0.0
 11
135.8243099652285
 21
185.1711816833886
 31
0.0
  0
SOLID
  5
35C
330
357
100
AcDbEntity
  8
标注
100
AcDbTrace
 10
152.1365803064359
 20
185.2795150167219
 30
0.0
 11
152.1365803064359
 21
185.0628483500553
 31
0.0
 12
152.7865803064359
 22
185.1711816833886
 32
0.0
 13
152.7865803064359
 23
185.1711816833886
 33
0.0
  0
SOLID
  5
35D
330
357
100
AcDbEntity
  8
标注
100
AcDbTrace
 10
121.428706290688
 20
185.2795150167219
 30
0.0
 11
121.428706290688
 21
185.0628483500553
 31
0.0
 12
120.778706290688
 22
185.1711816833886
 32
0.0
 13
120.778706290688
 23
185.1711816833886
 33
0.0
  0
MTEXT
  5
35E
330
357
100
AcDbEntity
  8
标注
100
AcDbMText
 10
136.7826432985619
 20
185.1711816833886
 30
0.0
 40
0.65
 41
0.0
 71
     5
 72
     1
  1
\A1;32"
 73
     1
 44
1.0
  0
POINT
  5
35F
330
357
100
AcDbEntity
  8
Defpoints
 62
     0
100
AcDbPoint
 10
152.7865803064359
 20
194.7097225550414
 30
0.0
  0
POINT
  5
360
330
357
100
AcDbEntity
  8
Defpoints
 62
     0
100
AcDbPoint
 10
120.778706290688
 20
194.3160217676565
 30
0.0
  0
POINT
  5
361
330
357
100
AcDbEntity
  8
Defpoints
 62
     0
100
AcDbPoint
 10
120.778706290688
 20
185.1711816833886
 30
0.0
  0
ENDBLK
  5
363
330
357
100
AcDbEntity
  8
0
100
AcDbBlockEnd
  0
BLOCK
  5
36F
330
364
100
AcDbEntity
  8
0
100
AcDbBlockBegin
  2
*D27
 70
     1
 10
0.0
 20
0.0
 30
0.0
  3
*D27
  1

  0
LINE
  5
365
330
364
100
AcDbEntity
  8
标注
370
    -2
100
AcDbLine
 10
134.7708322749399
 20
198.1604312164743
 30
0.0
 11
134.7708322749399
 21
187.0945799508248
 31
0.0
  0
LINE
  5
366
330
364
100
AcDbEntity
  8
标注
370
    -2
100
AcDbLine
 10
121.778706290688
 20
198.1604312164732
 30
0.0
 11
121.778706290688
 21
187.0945799508248
 31
0.0
  0
LINE
  5
367
330
364
100
AcDbEntity
  8
标注
370
    -2
100
AcDbLine
 10
134.1208322749399
 20
187.4145799508248
 30
0.0
 11
129.1247692828139
 21
187.4145799508248
 31
0.0
  0
LINE
  5
368
330
364
100
AcDbEntity
  8
标注
370
    -2
100
AcDbLine
 10
122.428706290688
 20
187.4145799508248
 30
0.0
 11
127.4247692828139
 21
187.4145799508248
 31
0.0
  0
SOLID
  5
369
330
364
100
AcDbEntity
  8
标注
100
AcDbTrace
 10
134.1208322749399
 20
187.5229132841582
 30
0.0
 11
134.1208322749399
 21
187.3062466174915
 31
0.0
 12
134.7708322749399
 22
187.4145799508248
 32
0.0
 13
134.7708322749399
 23
187.4145799508248
 33
0.0
  0
SOLID
  5
36A
330
364
100
AcDbEntity
  8
标注
100
AcDbTrace
 10
122.428706290688
 20
187.5229132841582
 30
0.0
 11
122.428706290688
 21
187.3062466174915
 31
0.0
 12
121.778706290688
 22
187.4145799508248
 32
0.0
 13
121.778706290688
 23
187.4145799508248
 33
0.0
  0
MTEXT
  5
36B
330
364
100
AcDbEntity
  8
标注
100
AcDbMText
 10
128.2747692828139
 20
187.4145799508248
 30
0.0
 40
0.65
 41
0.0
 71
     5
 72
     1
  1
\A1;13"
 73
     1
 44
1.0
  0
POINT
  5
36C
330
364
100
AcDbEntity
  8
Defpoints
 62
     0
100
AcDbPoint
 10
134.7708322749399
 20
199.0404312164742
 30
0.0
  0
POINT
  5
36D
330
364
100
AcDbEntity
  8
Defpoints
 62
     0
100
AcDbPoint
 10
121.778706290688
 20
199.0404312164732
 30
0.0
  0
POINT
  5
36E
330
364
100
AcDbEntity
  8
Defpoints
 62
     0
100
AcDbPoint
 10
121.778706290688
 20
187.4145799508248
 30
0.0
  0
ENDBLK
  5
370
330
364
100
AcDbEntity
  8
0
100
AcDbBlockEnd
  0
BLOCK
  5
37C
330
371
100
AcDbEntity
  8
0
100
AcDbBlockBegin
  2
*D28
 70
     1
 10
0.0
 20
0.0
 30
0.0
  3
*D28
  1

  0
LINE
  5
3D0
330
371
100
AcDbEntity
  8
标注
370
    -2
100
AcDbLine
 10
151.786580306436
 20
199.2627934211861
 30
0.0
 11
151.786580306436
 21
187.0985893225397
 31
0.0
  0
LINE
  5
3D1
330
371
100
AcDbEntity
  8
标注
370
    -2
100
AcDbLine
 10
136.038548810373
 20
199.2627934211861
 30
0.0
 11
136.038548810373
 21
187.0985893225397
 31
0.0
  0
LINE
  5
3D2
330
371
100
AcDbEntity
  8
标注
370
    -2
100
AcDbLine
 10
151.1365803064359
 20
187.4185893225396
 30
0.0
 11
146.0625645584045
 21
187.4185893225396
 31
0.0
  0
LINE
  5
3D3
330
371
100
AcDbEntity
  8
标注
370
    -2
100
AcDbLine
 10
136.688548810373
 20
187.4185893225396
 30
0.0
 11
141.7625645584045
 21
187.4185893225396
 31
0.0
  0
SOLID
  5
3D4
330
371
100
AcDbEntity
  8
标注
100
AcDbTrace
 10
151.1365803064359
 20
187.5269226558731
 30
0.0
 11
151.1365803064359
 21
187.3102559892064
 31
0.0
 12
151.786580306436
 22
187.4185893225396
 32
0.0
 13
151.786580306436
 23
187.4185893225396
 33
0.0
  0
SOLID
  5
3D5
330
371
100
AcDbEntity
  8
标注
100
AcDbTrace
 10
136.688548810373
 20
187.5269226558731
 30
0.0
 11
136.688548810373
 21
187.3102559892064
 31
0.0
 12
136.038548810373
 22
187.4185893225396
 32
0.0
 13
136.038548810373
 23
187.4185893225396
 33
0.0
  0
MTEXT
  5
3D6
330
371
100
AcDbEntity
  8
标注
100
AcDbMText
 10
143.9125645584045
 20
187.4185893225396
 30
0.0
 40
0.65
 41
0.0
 71
     5
 72
     1
  1
\A1;15 3/4"
 73
     1
 44
1.0
  0
POINT
  5
3D7
330
371
100
AcDbEntity
  8
Defpoints
 62
     0
100
AcDbPoint
 10
151.786580306436
 20
200.1427934211862
 30
0.0
  0
POINT
  5
3D8
330
371
100
AcDbEntity
  8
Defpoints
 62
     0
100
AcDbPoint
 10
136.038548810373
 20
200.1427934211862
 30
0.0
  0
POINT
  5
3D9
330
371
100
AcDbEntity
  8
Defpoints
 62
     0
100
AcDbPoint
 10
136.038548810373
 20
187.4185893225396
 30
0.0
  0
ENDBLK
  5
37D
330
371
100
AcDbEntity
  8
0
100
AcDbBlockEnd
  0
BLOCK
  5
389
330
37E
100
AcDbEntity
  8
0
100
AcDbBlockBegin
  2
*D29
 70
     1
 10
0.0
 20
0.0
 30
0.0
  3
*D29
  1

  0
LINE
  5
37F
330
37E
100
AcDbEntity
  8
标注
370
    -2
100
AcDbLine
 10
124.4420133773021
 20
208.3081477519064
 30
0.0
 11
115.385427759201
 21
208.3081477519064
 31
0.0
  0
LINE
  5
380
330
37E
100
AcDbEntity
  8
标注
370
    -2
100
AcDbLine
 10
124.4420133773021
 20
189.7727146810424
 30
0.0
 11
115.385427759201
 21
189.7727146810424
 31
0.0
  0
LINE
  5
381
330
37E
100
AcDbEntity
  8
标注
370
    -2
100
AcDbLine
 10
115.705427759201
 20
207.6581477519064
 30
0.0
 11
115.705427759201
 21
201.082097883141
 31
0.0
  0
LINE
  5
382
330
37E
100
AcDbEntity
  8
标注
370
    -2
100
AcDbLine
 10
115.705427759201
 20
190.4227146810424
 30
0.0
 11
115.705427759201
 21
196.9987645498077
 31
0.0
  0
SOLID
  5
383
330
37E
100
AcDbEntity
  8
标注
100
AcDbTrace
 10
115.5970944258677
 20
207.6581477519064
 30
0.0
 11
115.8137610925344
 21
207.6581477519064
 31
0.0
 12
115.705427759201
 22
208.3081477519064
 32
0.0
 13
115.705427759201
 23
208.3081477519064
 33
0.0
  0
SOLID
  5
384
330
37E
100
AcDbEntity
  8
标注
100
AcDbTrace
 10
115.5970944258677
 20
190.4227146810424
 30
0.0
 11
115.8137610925344
 21
190.4227146810424
 31
0.0
 12
115.705427759201
 22
189.7727146810424
 32
0.0
 13
115.705427759201
 23
189.7727146810424
 33
0.0
  0
MTEXT
  5
385
330
37E
100
AcDbEntity
  8
标注
100
AcDbMText
 10
115.705427759201
 20
199.0404312164744
 30
0.0
 40
0.65
 41
0.0
 71
     5
 72
     1
  1
\A1;18 1/2"
 11
0.0000000000000001
 21
1.0
 31
0.0
 73
     1
 44
1.0
  0
POINT
  5
386
330
37E
100
AcDbEntity
  8
Defpoints
 62
     0
100
AcDbPoint
 10
125.3220133773021
 20
208.3081477519064
 30
0.0
  0
POINT
  5
387
330
37E
100
AcDbEntity
  8
Defpoints
 62
     0
100
AcDbPoint
 10
125.3220133773021
 20
189.7727146810424
 30
0.0
  0
POINT
  5
388
330
37E
100
AcDbEntity
  8
Defpoints
 62
     0
100
AcDbPoint
 10
115.705427759201
 20
189.7727146810424
 30
0.0
  0
ENDBLK
  5
38A
330
37E
100
AcDbEntity
  8
0
100
AcDbBlockEnd
  0
BLOCK
  5
396
330
38B
100
AcDbEntity
  8
0
100
AcDbBlockBegin
  2
*D30
 70
     1
 10
0.0
 20
0.0
 30
0.0
  3
*D30
  1

  0
LINE
  5
38C
330
38B
100
AcDbEntity
  8
标注
370
    -2
100
AcDbLine
 10
127.3947692828139
 20
207.3081477519063
 30
0.0
 11
117.7265886745974
 21
207.3081477519063
 31
0.0
  0
LINE
  5
38D
330
38B
100
AcDbEntity
  8
标注
370
    -2
100
AcDbLine
 10
127.394769282814
 20
190.77271468104
 30
0.0
 11
117.7265886745974
 21
190.77271468104
 31
0.0
  0
LINE
  5
38E
330
38B
100
AcDbEntity
  8
标注
370
    -2
100
AcDbLine
 10
118.0465886745974
 20
206.6581477519063
 30
0.0
 11
118.0465886745974
 21
201.0820978831398
 31
0.0
  0
LINE
  5
38F
330
38B
100
AcDbEntity
  8
标注
370
    -2
100
AcDbLine
 10
118.0465886745974
 20
191.4227146810402
 30
0.0
 11
118.0465886745974
 21
196.9987645498065
 31
0.0
  0
SOLID
  5
390
330
38B
100
AcDbEntity
  8
标注
100
AcDbTrace
 10
117.938255341264
 20
206.6581477519063
 30
0.0
 11
118.1549220079307
 21
206.6581477519063
 31
0.0
 12
118.0465886745974
 22
207.3081477519063
 32
0.0
 13
118.0465886745974
 23
207.3081477519063
 33
0.0
  0
SOLID
  5
391
330
38B
100
AcDbEntity
  8
标注
100
AcDbTrace
 10
117.938255341264
 20
191.4227146810402
 30
0.0
 11
118.1549220079307
 21
191.4227146810402
 31
0.0
 12
118.0465886745974
 22
190.77271468104
 32
0.0
 13
118.0465886745974
 23
190.77271468104
 33
0.0
  0
MTEXT
  5
392
330
38B
100
AcDbEntity
  8
标注
100
AcDbMText
 10
118.0465886745974
 20
199.0404312164732
 30
0.0
 40
0.65
 41
0.0
 71
     5
 72
     1
  1
\A1;16 1/2"
 11
0.0000000000000001
 21
1.0
 31
0.0
 73
     1
 44
1.0
  0
POINT
  5
393
330
38B
100
AcDbEntity
  8
Defpoints
 62
     0
100
AcDbPoint
 10
128.2747692828139
 20
207.3081477519063
 30
0.0
  0
POINT
  5
394
330
38B
100
AcDbEntity
  8
Defpoints
 62
     0
100
AcDbPoint
 10
128.2747692828139
 20
190.77271468104
 30
0.0
  0
POINT
  5
395
330
38B
100
AcDbEntity
  8
Defpoints
 62
     0
100
AcDbPoint
 10
118.0465886745974
 20
190.77271468104
 30
0.0
  0
ENDBLK
  5
397
330
38B
100
AcDbEntity
  8
0
100
AcDbBlockEnd
  0
BLOCK
  5
3AD
330
3A2
100
AcDbEntity
  8
0
100
AcDbBlockBegin
  2
*D31
 70
     1
 10
0.0
 20
0.0
 30
0.0
  3
*D31
  1

  0
LINE
  5
3A3
330
3A2
100
AcDbEntity
  8
标注
370
    -2
100
AcDbLine
 10
144.7925645583578
 20
209.5128721613436
 30
0.0
 11
155.5686348027764
 21
209.5128721613436
 31
0.0
  0
LINE
  5
3A4
330
3A2
100
AcDbEntity
  8
标注
370
    -2
100
AcDbLine
 10
144.7925645583307
 20
190.7727146810286
 30
0.0
 11
155.5686348027764
 21
190.7727146810286
 31
0.0
  0
LINE
  5
3A5
330
3A2
100
AcDbEntity
  8
标注
370
    -2
100
AcDbLine
 10
155.2486348027764
 20
208.8628721613436
 30
0.0
 11
155.2486348027764
 21
202.2927934211862
 31
0.0
  0
LINE
  5
3A6
330
3A2
100
AcDbEntity
  8
标注
370
    -2
100
AcDbLine
 10
155.2486348027764
 20
191.4227146810287
 30
0.0
 11
155.2486348027764
 21
197.9927934211861
 31
0.0
  0
SOLID
  5
3A7
330
3A2
100
AcDbEntity
  8
标注
100
AcDbTrace
 10
155.1403014694431
 20
208.8628721613436
 30
0.0
 11
155.3569681361097
 21
208.8628721613436
 31
0.0
 12
155.2486348027764
 22
209.5128721613436
 32
0.0
 13
155.2486348027764
 23
209.5128721613436
 33
0.0
  0
SOLID
  5
3A8
330
3A2
100
AcDbEntity
  8
标注
100
AcDbTrace
 10
155.1403014694431
 20
191.4227146810287
 30
0.0
 11
155.3569681361097
 21
191.4227146810287
 31
0.0
 12
155.2486348027764
 22
190.7727146810286
 32
0.0
 13
155.2486348027764
 23
190.7727146810286
 33
0.0
  0
MTEXT
  5
3A9
330
3A2
100
AcDbEntity
  8
标注
100
AcDbMText
 10
155.2486348027764
 20
200.1427934211862
 30
0.0
 40
0.65
 41
0.0
 71
     5
 72
     1
  1
\A1;18 3/4"
 11
0.0000000000000001
 21
1.0
 31
0.0
 73
     1
 44
1.0
  0
POINT
  5
3AA
330
3A2
100
AcDbEntity
  8
Defpoints
 62
     0
100
AcDbPoint
 10
143.9125645583578
 20
209.5128721613436
 30
0.0
  0
POINT
  5
3AB
330
3A2
100
AcDbEntity
  8
Defpoints
 62
     0
100
AcDbPoint
 10
143.9125645583307
 20
190.7727146810286
 30
0.0
  0
POINT
  5
3AC
330
3A2
100
AcDbEntity
  8
Defpoints
 62
     0
100
AcDbPoint
 10
155.2486348027764
 20
190.7727146810286
 30
0.0
  0
ENDBLK
  5
3AE
330
3A2
100
AcDbEntity
  8
0
100
AcDbBlockEnd
  0
BLOCK
  5
3BA
330
3AF
100
AcDbEntity
  8
0
100
AcDbBlockBegin
  2
*D32
 70
     1
 10
0.0
 20
0.0
 30
0.0
  3
*D32
  1

  0
LINE
  5
3B0
330
3AF
100
AcDbEntity
  8
标注
370
    -2
100
AcDbLine
 10
119.898706290688
 20
227.5530373669663
 30
0.0
 11
117.7668041979879
 21
227.5530373669663
 31
0.0
  0
LINE
  5
3B1
330
3AF
100
AcDbEntity
  8
标注
370
    -2
100
AcDbLine
 10
125.4461691089878
 20
220.0845334299561
 30
0.0
 11
117.7668041979879
 21
220.0845334299561
 31
0.0
  0
LINE
  5
3B2
330
3AF
100
AcDbEntity
  8
标注
370
    -2
100
AcDbLine
 10
118.0868041979879
 20
226.9030373669663
 30
0.0
 11
118.0868041979879
 21
225.6437853984613
 31
0.0
  0
LINE
  5
3B3
330
3AF
100
AcDbEntity
  8
标注
370
    -2
100
AcDbLine
 10
118.0868041979879
 20
220.7345334299562
 30
0.0
 11
118.0868041979879
 21
221.9937853984613
 31
0.0
  0
SOLID
  5
3B4
330
3AF
100
AcDbEntity
  8
标注
100
AcDbTrace
 10
117.9784708646546
 20
226.9030373669663
 30
0.0
 11
118.1951375313213
 21
226.9030373669663
 31
0.0
 12
118.0868041979879
 22
227.5530373669663
 32
0.0
 13
118.0868041979879
 23
227.5530373669663
 33
0.0
  0
SOLID
  5
3B5
330
3AF
100
AcDbEntity
  8
标注
100
AcDbTrace
 10
117.9784708646546
 20
220.7345334299562
 30
0.0
 11
118.1951375313212
 21
220.7345334299562
 31
0.0
 12
118.0868041979879
 22
220.0845334299561
 32
0.0
 13
118.0868041979879
 23
220.0845334299561
 33
0.0
  0
MTEXT
  5
3B6
330
3AF
100
AcDbEntity
  8
标注
100
AcDbMText
 10
118.0868041979879
 20
223.8187853984613
 30
0.0
 40
0.65
 41
0.0
 71
     5
 72
     1
  1
\A1;7 1/2"
 11
0.0000000000000001
 21
1.0
 31
0.0
 73
     1
 44
1.0
  0
POINT
  5
3B7
330
3AF
100
AcDbEntity
  8
Defpoints
 62
     0
100
AcDbPoint
 10
120.778706290688
 20
227.5530373669663
 30
0.0
  0
POINT
  5
3B8
330
3AF
100
AcDbEntity
  8
Defpoints
 62
     0
100
AcDbPoint
 10
126.3261691089878
 20
220.0845334299561
 30
0.0
  0
POINT
  5
3B9
330
3AF
100
AcDbEntity
  8
Defpoints
 62
     0
100
AcDbPoint
 10
118.0868041979879
 20
220.0845334299561
 30
0.0
  0
ENDBLK
  5
3BB
330
3AF
100
AcDbEntity
  8
0
100
AcDbBlockEnd
  0
BLOCK
  5
3EC
330
3E1
100
AcDbEntity
  8
0
100
AcDbBlockBegin
  2
*D33
 70
     1
 10
0.0
 20
0.0
 30
0.0
  3
*D33
  1

  0
LINE
  5
3EF
330
3E1
100
AcDbEntity
  8
0
370
    -2
100
AcDbLine
 10
153.6665803064359
 20
227.5530373669663
 30
0.0
 11
155.5511955925999
 21
227.5530373669663
 31
0.0
  0
LINE
  5
3F0
330
3E1
100
AcDbEntity
  8
0
370
    -2
100
AcDbLine
 10
146.9268003162948
 20
218.5372893354703
 30
0.0
 11
155.5511955925999
 21
218.5372893354703
 31
0.0
  0
LINE
  5
3F1
330
3E1
100
AcDbEntity
  8
0
370
    -2
100
AcDbLine
 10
155.2311955926
 20
226.9030373669663
 30
0.0
 11
155.2311955926
 21
223.6784966845517
 31
0.0
  0
LINE
  5
3F2
330
3E1
100
AcDbEntity
  8
0
370
    -2
100
AcDbLine
 10
155.2311955926
 20
219.1872893354703
 30
0.0
 11
155.2311955926
 21
222.411830017885
 31
0.0
  0
SOLID
  5
3F3
330
3E1
100
AcDbEntity
  8
0
100
AcDbTrace
 10
155.1228622592667
 20
226.9030373669663
 30
0.0
 11
155.3395289259333
 21
226.9030373669663
 31
0.0
 12
155.2311955926
 22
227.5530373669663
 32
0.0
 13
155.2311955926
 23
227.5530373669663
 33
0.0
  0
SOLID
  5
3F4
330
3E1
100
AcDbEntity
  8
0
100
AcDbTrace
 10
155.1228622592667
 20
219.1872893354703
 30
0.0
 11
155.3395289259333
 21
219.1872893354703
 31
0.0
 12
155.2311955926
 22
218.5372893354703
 32
0.0
 13
155.2311955926
 23
218.5372893354703
 33
0.0
  0
MTEXT
  5
3F5
330
3E1
100
AcDbEntity
  8
0
100
AcDbMText
 10
155.2311955925999
 20
223.0451633512184
 30
0.0
 40
0.65
 41
0.0
 71
     5
 72
     1
  1
\A1;9"
 11
0.0000000000000001
 21
1.0
 31
0.0
 73
     1
 44
1.0
  0
POINT
  5
3F6
330
3E1
100
AcDbEntity
  8
Defpoints
 62
     0
100
AcDbPoint
 10
152.7865803064359
 20
227.5530373669663
 30
0.0
  0
POINT
  5
3F7
330
3E1
100
AcDbEntity
  8
Defpoints
 62
     0
100
AcDbPoint
 10
146.0468003162948
 20
218.5372893354703
 30
0.0
  0
POINT
  5
3F8
330
3E1
100
AcDbEntity
  8
Defpoints
 62
     0
100
AcDbPoint
 10
155.2311955926
 20
218.5372893354703
 30
0.0
  0
ENDBLK
  5
3ED
330
3E1
100
AcDbEntity
  8
0
100
AcDbBlockEnd
  0
ENDSEC
  0
SECTION
  2
ENTITIES
  0
ARC
  5
1ED
330
21
100
AcDbEntity
  8
虚线
 62
    11
 48
0.15
370
    35
100
AcDbCircle
 10
124.4991606231833
 20
65.07375023792622
 30
0.0
 40
3.293307086614173
100
AcDbArc
 50
95.60687072650223
 51
174.4700400460036
  0
ARC
  5
1EE
330
21
100
AcDbEntity
  8
虚线
 62
    11
 48
0.15
370
    35
100
AcDbCircle
 10
127.2302075883459
 20
37.25472895414981
 30
0.0
 40
31.24606299212599
100
AcDbArc
 50
90.0
 51
95.60687072650223
  0
LINE
  5
1EF
330
21
100
AcDbEntity
  8
虚线
 62
    11
 48
0.15
370
    35
100
AcDbLine
 10
127.2302075883459
 20
68.50079194627578
 30
0.0
 11
135.3677371590133
 21
68.50079194627578
 31
0.0
  0
ARC
  5
1F0
330
21
100
AcDbEntity
  8
虚线
 62
    11
 48
0.15
370
    35
100
AcDbCircle
 10
135.3677371590133
 20
69.30079194627579
 30
0.0
 40
0.8
100
AcDbArc
 50
270.0
 51
327.215981503853
  0
ARC
  5
1F1
330
21
100
AcDbEntity
  8
虚线
 62
    11
 48
0.15
370
    35
100
AcDbCircle
 10
139.1400439613961
 20
66.87119505580493
 30
0.0
 40
3.687007874015747
100
AcDbArc
 50
94.52582694667567
 51
147.215981503853
  0
ARC
  5
1F2
330
21
100
AcDbEntity
  8
虚线
 62
    11
 48
0.15
370
    35
100
AcDbCircle
 10
142.8680028639364
 20
19.77441399350835
 30
0.0
 40
50.93110236220472
100
AcDbArc
 50
85.47417305342889
 51
94.52582694667567
  0
ARC
  5
1F3
330
21
100
AcDbEntity
  8
虚线
 62
    11
 48
0.15
370
    35
100
AcDbCircle
 10
146.5959617664767
 20
66.87119505580493
 30
0.0
 40
3.687007874015747
100
AcDbArc
 50
4.529676129561186
 51
85.47417305342889
  0
ARC
  5
1F4
330
21
100
AcDbEntity
  8
虚线
 62
    11
 48
0.15
370
    35
100
AcDbCircle
 10
79.87587687968442
 20
61.58543761555563
 30
0.0
 40
70.61614173228345
100
AcDbArc
 50
355.4703238704389
 51
4.529676129561186
  0
ARC
  5
1F5
330
21
100
AcDbEntity
  8
虚线
 62
    11
 48
0.15
370
    35
100
AcDbCircle
 10
146.5959617664767
 20
56.29968017530632
 30
0.0
 40
3.687007874015747
100
AcDbArc
 50
274.5258269466757
 51
355.4703238704389
  0
ARC
  5
1F6
330
21
100
AcDbEntity
  8
虚线
 62
    11
 48
0.15
370
    35
100
AcDbCircle
 10
142.8680028639364
 20
103.3964612376029
 30
0.0
 40
50.93110236220472
100
AcDbArc
 50
270.0
 51
274.5258269465712
  0
LINE
  5
1F7
330
21
100
AcDbEntity
  8
虚线
 62
    11
 48
0.15
370
    35
100
AcDbLine
 10
127.2302075883459
 20
52.46535887540971
 30
0.0
 11
142.8680028639364
 21
52.46535887540971
 31
0.0
  0
ARC
  5
1F8
330
21
100
AcDbEntity
  8
虚线
 62
    11
 48
0.15
370
    35
100
AcDbCircle
 10
127.2302075883459
 20
83.71142186753571
 30
0.0
 40
31.24606299212599
100
AcDbArc
 50
264.3931292734978
 51
270.0
  0
ARC
  5
1F9
330
21
100
AcDbEntity
  8
虚线
 62
    11
 48
0.15
370
    35
100
AcDbCircle
 10
124.4991606231833
 20
55.89240058375935
 30
0.0
 40
3.293307086614173
100
AcDbArc
 50
185.5299599539963
 51
264.3931292734978
  0
ARC
  5
1FA
330
21
100
AcDbEntity
  8
虚线
 62
    11
 48
0.15
370
    35
100
AcDbCircle
 10
171.9152469584247
 20
60.48307541084272
 30
0.0
 40
50.93110236220472
100
AcDbArc
 50
174.4700400460036
 51
185.5299599539963
  0
ARC
  5
1FB
330
21
100
AcDbEntity
  8
截面层
 62
     1
 48
0.2
370
    35
100
AcDbCircle
 10
135.3851757770386
 20
99.28556313024152
 30
0.0
 40
0.8
100
AcDbArc
 50
270.0
 51
325.5509695917234
  0
ARC
  5
1FC
330
21
100
AcDbEntity
  8
截面层
 62
     1
 48
0.2
370
    35
100
AcDbCircle
 10
139.2914533021347
 20
96.60596623977063
 30
0.0
 40
3.937007874015747
100
AcDbArc
 50
94.52582694667567
 51
145.5509695917233
  0
ARC
  5
1FD
330
21
100
AcDbEntity
  8
截面层
 62
     1
 48
0.2
370
    35
100
AcDbCircle
 10
143.019412204675
 20
49.50918517747403
 30
0.0
 40
51.18110236220473
100
AcDbArc
 50
85.47417305342889
 51
94.52582694667567
  0
ARC
  5
1FE
330
21
100
AcDbEntity
  8
截面层
 62
     1
 48
0.2
370
    35
100
AcDbCircle
 10
146.7473711072153
 20
96.60596623977063
 30
0.0
 40
3.937007874015747
100
AcDbArc
 50
4.529676129561186
 51
85.47417305342889
  0
ARC
  5
1FF
330
21
100
AcDbEntity
  8
截面层
 62
     1
 48
0.2
370
    35
100
AcDbCircle
 10
80.02728622042303
 20
91.32020879952131
 30
0.0
 40
70.86614173228347
100
AcDbArc
 50
355.4703238704389
 51
4.529676129561186
  0
ARC
  5
200
330
21
100
AcDbEntity
  8
截面层
 62
     1
 48
0.2
370
    35
100
AcDbCircle
 10
143.019412204675
 20
133.1312324215686
 30
0.0
 40
51.18110236220473
100
AcDbArc
 50
270.0
 51
274.5258269465712
  0
ARC
  5
201
330
21
100
AcDbEntity
  8
截面层
 62
     1
 48
0.2
370
    35
100
AcDbCircle
 10
146.7473711072153
 20
86.034451359272
 30
0.0
 40
3.937007874015747
100
AcDbArc
 50
274.5258269466757
 51
355.4703238704389
  0
LINE
  5
202
330
21
100
AcDbEntity
  8
截面层
 62
     1
 48
0.2
370
    35
100
AcDbLine
 10
127.3816169290845
 20
81.95013005937541
 30
0.0
 11
143.019412204675
 21
81.95013005937537
 31
0.0
  0
ARC
  5
203
330
21
100
AcDbEntity
  8
截面层
 62
     1
 48
0.2
370
    35
100
AcDbCircle
 10
127.3816169290845
 20
113.4461930515014
 30
0.0
 40
31.49606299212599
100
AcDbArc
 50
264.3931292734978
 51
270.0
  0
ARC
  5
204
330
21
100
AcDbEntity
  8
截面层
 62
     1
 48
0.2
370
    35
100
AcDbCircle
 10
124.6505699639219
 20
85.62717176772505
 30
0.0
 40
3.543307086614173
100
AcDbArc
 50
185.5299599539963
 51
264.3931292734978
  0
ARC
  5
205
330
21
100
AcDbEntity
  8
截面层
 62
     1
 48
0.2
370
    35
100
AcDbCircle
 10
172.0666562991633
 20
90.21784659480841
 30
0.0
 40
51.18110236220473
100
AcDbArc
 50
174.4700400460036
 51
185.5299599539963
  0
ARC
  5
206
330
21
100
AcDbEntity
  8
截面层
 62
     1
 48
0.2
370
    35
100
AcDbCircle
 10
124.6505699639219
 20
94.8085214218919
 30
0.0
 40
3.543307086614173
100
AcDbArc
 50
95.60687072650223
 51
174.4700400460036
  0
LINE
  5
207
330
21
100
AcDbEntity
  8
截面层
 62
     1
 48
0.2
370
    35
100
AcDbLine
 10
127.3816169290845
 20
98.48556313024149
 30
0.0
 11
135.3851757770386
 21
98.48556313024149
 31
0.0
  0
ARC
  5
208
330
21
100
AcDbEntity
  8
截面层
 62
     1
 48
0.2
370
    35
100
AcDbCircle
 10
127.3816169290845
 20
66.9895001381155
 30
0.0
 40
31.49606299212599
100
AcDbArc
 50
90.0
 51
95.60687072650223
  0
ARC
  5
209
330
21
100
AcDbEntity
  8
虚线
 62
     3
 48
0.3
370
    35
100
AcDbCircle
 10
147.3063254610916
 20
126.558085059532
 30
0.0
 40
4.187007874015748
100
AcDbArc
 50
4.529676129561186
 51
85.47417305342889
  0
ARC
  5
20A
330
21
100
AcDbEntity
  8
虚线
 62
     3
 48
0.3
370
    35
100
AcDbCircle
 10
143.5783665585513
 20
79.4613039972354
 30
0.0
 40
51.43110236220472
100
AcDbArc
 50
85.47417305342889
 51
94.52582694667567
  0
ARC
  5
20B
330
21
100
AcDbEntity
  8
虚线
 62
     3
 48
0.3
370
    35
100
AcDbCircle
 10
139.850407656011
 20
126.558085059532
 30
0.0
 40
4.187007874015748
100
AcDbArc
 50
94.52582694667567
 51
144.0240359943858
  0
ARC
  5
20C
330
21
100
AcDbEntity
  8
虚线
 62
     3
 48
0.3
370
    35
100
AcDbCircle
 10
135.8146041926547
 20
129.4876819500029
 30
0.0
 40
0.8
100
AcDbArc
 50
269.9999999999968
 51
324.024035994385
  0
LINE
  5
20D
330
21
100
AcDbEntity
  8
虚线
 62
     3
 48
0.3
370
    35
100
AcDbLine
 10
127.9405712829607
 20
128.6876819500028
 30
0.0
 11
135.8146041926547
 21
128.6876819500028
 31
0.0
  0
ARC
  5
20E
330
21
100
AcDbEntity
  8
虚线
 62
     3
 48
0.3
370
    35
100
AcDbCircle
 10
127.9405712829607
 20
96.94161895787686
 30
0.0
 40
31.74606299212598
100
AcDbArc
 50
90.0
 51
95.60687072650223
  0
ARC
  5
20F
330
21
100
AcDbEntity
  8
虚线
 62
     3
 48
0.3
370
    35
100
AcDbCircle
 10
125.2095243177982
 20
124.7606402416532
 30
0.0
 40
3.793307086614173
100
AcDbArc
 50
95.60687072650223
 51
174.4700400460036
  0
ARC
  5
210
330
21
100
AcDbEntity
  8
虚线
 62
     3
 48
0.3
370
    35
100
AcDbCircle
 10
172.6256106530396
 20
120.1699654145698
 30
0.0
 40
51.43110236220472
100
AcDbArc
 50
174.4700400460036
 51
185.5299599539963
  0
ARC
  5
211
330
21
100
AcDbEntity
  8
虚线
 62
     3
 48
0.3
370
    35
100
AcDbCircle
 10
125.2095243177982
 20
115.5792905874864
 30
0.0
 40
3.793307086614173
100
AcDbArc
 50
185.5299599539963
 51
264.3931292734978
  0
ARC
  5
212
330
21
100
AcDbEntity
  8
虚线
 62
     3
 48
0.3
370
    35
100
AcDbCircle
 10
127.9405712829607
 20
143.3983118712627
 30
0.0
 40
31.74606299212598
100
AcDbArc
 50
264.3931292734978
 51
270.0
  0
LINE
  5
213
330
21
100
AcDbEntity
  8
虚线
 62
     3
 48
0.3
370
    35
100
AcDbLine
 10
127.9405712829607
 20
111.6522488791368
 30
0.0
 11
143.5783665585513
 21
111.6522488791368
 31
0.0
  0
ARC
  5
214
330
21
100
AcDbEntity
  8
虚线
 62
     3
 48
0.3
370
    35
100
AcDbCircle
 10
80.58624057429931
 20
121.2723276192827
 30
0.0
 40
71.11614173228345
100
AcDbArc
 50
355.4703238704389
 51
4.529676129561186
  0
ARC
  5
215
330
21
100
AcDbEntity
  8
虚线
 62
     3
 48
0.3
370
    35
100
AcDbCircle
 10
143.5783665585513
 20
163.08335124133
 30
0.0
 40
51.43110236220472
100
AcDbArc
 50
270.0
 51
274.5258269465712
  0
ARC
  5
216
330
21
100
AcDbEntity
  8
虚线
 62
     3
 48
0.3
370
    35
100
AcDbCircle
 10
147.3063254610916
 20
115.9865701790333
 30
0.0
 40
4.187007874015748
100
AcDbArc
 50
274.5258269466757
 51
355.4703238704389
  0
ARC
  5
217
330
21
100
AcDbEntity
  8
0
100
AcDbCircle
 10
144.1619238400837
 20
201.0505306280072
 30
0.0
 40
51.18110236220473
100
AcDbArc
 50
265.4741730533243
 51
270.0
  0
ARC
  5
218
330
21
100
AcDbEntity
  8
0
100
AcDbCircle
 10
128.5241285644932
 20
181.36549125794
 30
0.0
 40
31.49606299212599
100
AcDbArc
 50
270.0
 51
275.6068707265022
  0
ARC
  5
219
330
21
100
AcDbEntity
  8
0
100
AcDbCircle
 10
131.2551755296558
 20
153.5464699741636
 30
0.0
 40
3.543307086614173
100
AcDbArc
 50
275.6068707265022
 51
354.4700400460036
  0
ARC
  5
21A
330
21
100
AcDbEntity
  8
0
100
AcDbCircle
 10
140.4339649375434
 20
153.9537495657106
 30
0.0
 40
3.937007874015747
100
AcDbArc
 50
184.5296761295612
 51
265.4741730534289
  0
ARC
  5
21B
330
21
100
AcDbEntity
  8
0
100
AcDbCircle
 10
140.4339649375434
 20
164.5252644462092
 30
0.0
 40
3.937007874015747
100
AcDbArc
 50
145.5509695917229
 51
175.4703238704388
  0
ARC
  5
21C
330
21
100
AcDbEntity
  8
0
100
AcDbCircle
 10
128.5241285644932
 20
134.9087983445541
 30
0.0
 40
31.49606299212599
100
AcDbArc
 50
84.39312927349776
 51
90.0
  0
ARC
  5
21D
330
21
100
AcDbEntity
  8
0
100
AcDbCircle
 10
207.1540498243356
 20
159.2395070059599
 30
0.0
 40
70.86614173228347
100
AcDbArc
 50
175.4703238704388
 51
184.5296761295612
  0
ARC
  5
21E
330
21
100
AcDbEntity
  8
0
100
AcDbCircle
 10
83.8390891944145
 20
158.137144801248
 30
0.0
 40
51.18110236220473
100
AcDbArc
 50
354.4700400459906
 51
5.529959953996367
  0
ARC
  5
21F
330
21
100
AcDbEntity
  8
0
100
AcDbCircle
 10
131.2551755296559
 20
162.7278196283305
 30
0.0
 40
3.543307086614173
100
AcDbArc
 50
5.529959953996367
 51
84.39312927349776
  0
ARC
  5
220
330
21
100
AcDbEntity
  8
虚线
 62
    11
 48
0.15
370
    35
100
AcDbCircle
 10
136.6616581351606
 20
166.9548613366801
 30
0.0
 40
0.8
100
AcDbArc
 50
270.0
 51
327.2159815038534
  0
ARC
  5
221
330
21
100
AcDbEntity
  8
虚线
 62
     3
 48
0.3
370
    35
100
AcDbCircle
 10
136.3981614741872
 20
167.4548613366801
 30
0.0
 40
0.8
100
AcDbArc
 50
269.9999999999968
 51
324.0240359943843
  0
ARC
  5
222
330
21
100
AcDbEntity
  8
截面层
 62
     1
 48
0.2
370
    35
100
AcDbCircle
 10
136.5276874124473
 20
167.2048613366801
 30
0.0
 40
0.8
100
AcDbArc
 50
270.0
 51
325.5509695917234
  0
LINE
  5
223
330
21
100
AcDbEntity
  8
虚线
 62
    11
 48
0.15
370
    35
100
AcDbLine
 10
128.5241285644932
 20
150.119428265814
 30
0.0
 11
144.1619238400837
 21
150.119428265814
 31
0.0
  0
LINE
  5
224
330
21
100
AcDbEntity
  8
截面层
 62
     1
 48
0.2
370
    35
100
AcDbLine
 10
128.5241285644932
 20
149.869428265814
 30
0.0
 11
144.1619238400837
 21
149.8694282658139
 31
0.0
  0
LINE
  5
225
330
21
100
AcDbEntity
  8
虚线
 62
     3
 48
0.3
370
    35
100
AcDbLine
 10
128.5241285644932
 20
149.619428265814
 30
0.0
 11
144.1619238400837
 21
149.619428265814
 31
0.0
  0
LINE
  5
226
330
21
100
AcDbEntity
  8
虚线
 62
    11
 48
0.15
370
    35
100
AcDbLine
 10
128.5241285644932
 20
166.1548613366801
 30
0.0
 11
136.6616581351606
 21
166.1548613366801
 31
0.0
  0
LINE
  5
227
330
21
100
AcDbEntity
  8
截面层
 62
     1
 48
0.2
370
    35
100
AcDbLine
 10
128.5241285644932
 20
166.4048613366801
 30
0.0
 11
136.5276874124473
 21
166.4048613366801
 31
0.0
  0
LINE
  5
228
330
21
100
AcDbEntity
  8
虚线
 62
     3
 48
0.3
370
    35
100
AcDbLine
 10
128.5241285644932
 20
166.6548613366801
 30
0.0
 11
136.3981614741871
 21
166.6548613366801
 31
0.0
  0
ARC
  5
229
330
21
100
AcDbEntity
  8
虚线
 62
    11
 48
0.15
370
    35
100
AcDbCircle
 10
128.5241285644932
 20
134.9087983445541
 30
0.0
 40
31.24606299212599
100
AcDbArc
 50
90.0
 51
95.60687072650223
  0
ARC
  5
22A
330
21
100
AcDbEntity
  8
虚线
 62
    11
 48
0.15
370
    35
100
AcDbCircle
 10
125.7930815993306
 20
162.7278196283305
 30
0.0
 40
3.293307086614173
100
AcDbArc
 50
95.60687072650223
 51
174.4700400460036
  0
ARC
  5
22B
330
21
100
AcDbEntity
  8
虚线
 62
    11
 48
0.15
370
    35
100
AcDbCircle
 10
173.2091679345719
 20
158.137144801247
 30
0.0
 40
50.93110236220472
100
AcDbArc
 50
174.4700400460036
 51
185.5299599539963
  0
ARC
  5
22C
330
21
100
AcDbEntity
  8
虚线
 62
    11
 48
0.15
370
    35
100
AcDbCircle
 10
125.7930815993306
 20
153.5464699741636
 30
0.0
 40
3.293307086614173
100
AcDbArc
 50
185.5299599539963
 51
264.3931292734978
  0
ARC
  5
22D
330
21
100
AcDbEntity
  8
虚线
 62
    11
 48
0.15
370
    35
100
AcDbCircle
 10
128.5241285644932
 20
181.36549125794
 30
0.0
 40
31.24606299212599
100
AcDbArc
 50
264.3931292734978
 51
270.0
  0
ARC
  5
22E
330
21
100
AcDbEntity
  8
虚线
 62
    11
 48
0.15
370
    35
100
AcDbCircle
 10
144.1619238400837
 20
201.0505306280072
 30
0.0
 40
50.93110236220472
100
AcDbArc
 50
270.0
 51
274.5258269465712
  0
ARC
  5
22F
330
21
100
AcDbEntity
  8
虚线
 62
    11
 48
0.15
370
    35
100
AcDbCircle
 10
147.889882742624
 20
153.9537495657106
 30
0.0
 40
3.687007874015747
100
AcDbArc
 50
274.5258269466757
 51
355.4703238704389
  0
ARC
  5
230
330
21
100
AcDbEntity
  8
虚线
 62
    11
 48
0.15
370
    35
100
AcDbCircle
 10
81.16979785583174
 20
159.2395070059599
 30
0.0
 40
70.61614173228345
100
AcDbArc
 50
355.4703238704389
 51
4.529676129561186
  0
ARC
  5
231
330
21
100
AcDbEntity
  8
虚线
 62
    11
 48
0.15
370
    35
100
AcDbCircle
 10
147.889882742624
 20
164.5252644462092
 30
0.0
 40
3.687007874015747
100
AcDbArc
 50
4.529676129561186
 51
85.47417305342889
  0
ARC
  5
232
330
21
100
AcDbEntity
  8
虚线
 62
    11
 48
0.15
370
    35
100
AcDbCircle
 10
144.1619238400837
 20
117.4284833839126
 30
0.0
 40
50.93110236220472
100
AcDbArc
 50
85.47417305342889
 51
94.52582694667567
  0
ARC
  5
233
330
21
100
AcDbEntity
  8
虚线
 62
    11
 48
0.15
370
    35
100
AcDbCircle
 10
140.4339649375434
 20
164.5252644462092
 30
0.0
 40
3.687007874015747
100
AcDbArc
 50
94.52582694667567
 51
147.2159815038537
  0
ARC
  5
234
330
21
100
AcDbEntity
  8
虚线
 62
     3
 48
0.3
370
    35
100
AcDbCircle
 10
144.1619238400837
 20
201.0505306280072
 30
0.0
 40
51.43110236220472
100
AcDbArc
 50
270.0
 51
274.5258269465712
  0
ARC
  5
235
330
21
100
AcDbEntity
  8
虚线
 62
     3
 48
0.3
370
    35
100
AcDbCircle
 10
147.889882742624
 20
153.9537495657106
 30
0.0
 40
4.187007874015748
100
AcDbArc
 50
274.5258269466757
 51
355.4703238704389
  0
ARC
  5
236
330
21
100
AcDbEntity
  8
虚线
 62
     3
 48
0.3
370
    35
100
AcDbCircle
 10
81.16979785583174
 20
159.2395070059599
 30
0.0
 40
71.11614173228345
100
AcDbArc
 50
355.4703238704389
 51
4.529676129561186
  0
ARC
  5
237
330
21
100
AcDbEntity
  8
虚线
 62
     3
 48
0.3
370
    35
100
AcDbCircle
 10
147.889882742624
 20
164.5252644462092
 30
0.0
 40
4.187007874015748
100
AcDbArc
 50
4.529676129561186
 51
85.47417305342889
  0
ARC
  5
238
330
21
100
AcDbEntity
  8
虚线
 62
     3
 48
0.3
370
    35
100
AcDbCircle
 10
144.1619238400837
 20
117.4284833839126
 30
0.0
 40
51.43110236220472
100
AcDbArc
 50
85.47417305342889
 51
94.52582694667567
  0
ARC
  5
239
330
21
100
AcDbEntity
  8
虚线
 62
     3
 48
0.3
370
    35
100
AcDbCircle
 10
140.4339649375434
 20
164.5252644462092
 30
0.0
 40
4.187007874015748
100
AcDbArc
 50
94.52582694667567
 51
144.024035994385
  0
ARC
  5
23A
330
21
100
AcDbEntity
  8
虚线
 62
     3
 48
0.3
370
    35
100
AcDbCircle
 10
128.5241285644932
 20
134.9087983445541
 30
0.0
 40
31.74606299212598
100
AcDbArc
 50
90.0
 51
95.60687072650223
  0
ARC
  5
23B
330
21
100
AcDbEntity
  8
虚线
 62
     3
 48
0.3
370
    35
100
AcDbCircle
 10
125.7930815993306
 20
162.7278196283305
 30
0.0
 40
3.793307086614173
100
AcDbArc
 50
95.60687072650223
 51
174.4700400460036
  0
ARC
  5
23C
330
21
100
AcDbEntity
  8
虚线
 62
     3
 48
0.3
370
    35
100
AcDbCircle
 10
128.5241285644932
 20
181.36549125794
 30
0.0
 40
31.74606299212598
100
AcDbArc
 50
264.3931292734978
 51
270.0
  0
ARC
  5
23D
330
21
100
AcDbEntity
  8
虚线
 62
     3
 48
0.3
370
    35
100
AcDbCircle
 10
173.2091679345719
 20
158.137144801247
 30
0.0
 40
51.43110236220472
100
AcDbArc
 50
174.4700400460036
 51
185.5299599539963
  0
ARC
  5
23E
330
21
100
AcDbEntity
  8
虚线
 62
     3
 48
0.3
370
    35
100
AcDbCircle
 10
125.7930815993306
 20
153.5464699741636
 30
0.0
 40
3.793307086614173
100
AcDbArc
 50
185.5299599539963
 51
264.3931292734978
  0
ARC
  5
23F
330
21
100
AcDbEntity
  8
截面层
 62
     1
 48
0.2
370
    35
100
AcDbCircle
 10
173.2091679345719
 20
158.137144801247
 30
0.0
 40
51.18110236220473
100
AcDbArc
 50
174.4700400460036
 51
185.5299599539963
  0
ARC
  5
240
330
21
100
AcDbEntity
  8
截面层
 62
     1
 48
0.2
370
    35
100
AcDbCircle
 10
128.5241285644932
 20
181.36549125794
 30
0.0
 40
31.49606299212599
100
AcDbArc
 50
264.3931292734978
 51
270.0
  0
ARC
  5
241
330
21
100
AcDbEntity
  8
截面层
 62
     1
 48
0.2
370
    35
100
AcDbCircle
 10
125.7930815993306
 20
153.5464699741636
 30
0.0
 40
3.543307086614173
100
AcDbArc
 50
185.5299599539963
 51
264.3931292734978
  0
ARC
  5
242
330
21
100
AcDbEntity
  8
截面层
 62
     1
 48
0.2
370
    35
100
AcDbCircle
 10
128.5241285644932
 20
134.9087983445541
 30
0.0
 40
31.49606299212599
100
AcDbArc
 50
90.0
 51
95.60687072650223
  0
ARC
  5
243
330
21
100
AcDbEntity
  8
截面层
 62
     1
 48
0.2
370
    35
100
AcDbCircle
 10
125.7930815993306
 20
162.7278196283305
 30
0.0
 40
3.543307086614173
100
AcDbArc
 50
95.60687072650223
 51
174.4700400460036
  0
ARC
  5
244
330
21
100
AcDbEntity
  8
截面层
 62
     1
 48
0.2
370
    35
100
AcDbCircle
 10
81.16979785583174
 20
159.2395070059599
 30
0.0
 40
70.86614173228347
100
AcDbArc
 50
355.4703238704389
 51
4.529676129561186
  0
ARC
  5
245
330
21
100
AcDbEntity
  8
截面层
 62
     1
 48
0.2
370
    35
100
AcDbCircle
 10
147.889882742624
 20
153.9537495657106
 30
0.0
 40
3.937007874015747
100
AcDbArc
 50
274.5258269466757
 51
355.4703238704389
  0
ARC
  5
246
330
21
100
AcDbEntity
  8
截面层
 62
     1
 48
0.2
370
    35
100
AcDbCircle
 10
144.1619238400837
 20
117.4284833839126
 30
0.0
 40
51.18110236220473
100
AcDbArc
 50
85.47417305342889
 51
94.52582694667567
  0
ARC
  5
247
330
21
100
AcDbEntity
  8
截面层
 62
     1
 48
0.2
370
    35
100
AcDbCircle
 10
147.889882742624
 20
164.5252644462092
 30
0.0
 40
3.937007874015747
100
AcDbArc
 50
4.529676129561186
 51
85.47417305342889
  0
ARC
  5
248
330
21
100
AcDbEntity
  8
截面层
 62
     1
 48
0.2
370
    35
100
AcDbCircle
 10
140.4339649375434
 20
164.5252644462092
 30
0.0
 40
3.937007874015747
100
AcDbArc
 50
94.52582694667567
 51
145.5509695917221
  0
LINE
  5
249
330
21
100
AcDbEntity
  8
0
100
AcDbLine
 10
125.5713726589779
 20
148.8694282658161
 30
0.0
 11
148.0989317140957
 21
148.8694282657995
 31
0.0
  0
ARC
  5
24A
330
21
100
AcDbEntity
  8
0
100
AcDbCircle
 10
125.5713726589813
 20
153.4127353524303
 30
0.0
 40
4.543307086614173
100
AcDbArc
 50
180.0
 51
270.0
  0
ARC
  5
24B
330
21
100
AcDbEntity
  8
0
100
AcDbCircle
 10
148.0989317140993
 20
153.8064361398152
 30
0.0
 40
4.937007874015748
100
AcDbArc
 50
270.0
 51
0.0
  0
LINE
  5
24C
330
21
100
AcDbEntity
  8
0
100
AcDbLine
 10
125.5713726589813
 20
167.4048613366801
 30
0.0
 11
134.4693930475643
 21
167.4048613366801
 31
0.0
  0
LINE
  5
24D
330
21
100
AcDbEntity
  8
0
100
AcDbLine
 10
148.0989317140993
 20
169.6095857461173
 30
0.0
 11
140.3233411629184
 21
169.6095857461173
 31
0.0
  0
ARC
  5
24E
330
21
100
AcDbEntity
  8
0
100
AcDbCircle
 10
148.0989317140993
 20
164.6725778721015
 30
0.0
 40
4.937007874015748
100
AcDbArc
 50
0.0
 51
90.0
  0
LINE
  5
24F
330
21
100
AcDbEntity
  8
0
100
AcDbLine
 10
121.0280655723672
 20
153.4127353524303
 30
0.0
 11
121.0280655723672
 21
162.861554250066
 31
0.0
  0
ARC
  5
250
330
21
100
AcDbEntity
  8
0
100
AcDbCircle
 10
125.5713726589813
 20
162.861554250066
 30
0.0
 40
4.543307086614173
100
AcDbArc
 50
90.0
 51
180.0
  0
LINE
  5
251
330
21
100
AcDbEntity
  8
0
100
AcDbLine
 10
153.0359395881151
 20
153.8064361398152
 30
0.0
 11
153.0359395881151
 21
164.6725778721015
 31
0.0
  0
ARC
  5
252
330
21
100
AcDbEntity
  8
0
100
AcDbCircle
 10
140.3233411629184
 20
164.6725778721015
 30
0.0
 40
4.937007874015748
100
AcDbArc
 50
90.0
 51
131.2749345984819
  0
ARC
  5
253
330
21
100
AcDbEntity
  8
0
100
AcDbCircle
 10
134.4693930475643
 20
171.3418692106959
 30
0.0
 40
3.937007874015747
100
AcDbArc
 50
270.0
 51
311.2749345984819
  0
ARC
  5
254
330
21
100
AcDbEntity
  8
截面层
 62
     1
 48
0.2
370
    35
100
AcDbCircle
 10
144.1619238400837
 20
201.0505306280072
 30
0.0
 40
51.18110236220473
100
AcDbArc
 50
270.0
 51
274.5258269465712
  0
CIRCLE
  5
255
330
21
100
AcDbEntity
  8
0
100
AcDbCircle
 10
144.1619238400371
 20
163.0977747224951
 30
0.0
 40
1.771653543307085
  0
LINE
  5
256
330
21
100
AcDbEntity
  8
中心线
 48
0.1
100
AcDbLine
 10
128.5241285644932
 20
164.860675430243
 30
0.0
 11
128.5241285644932
 21
156.8121765666973
 31
0.0
  0
LINE
  5
257
330
21
100
AcDbEntity
  8
中心线
 48
0.1
100
AcDbLine
 10
123.9965911938802
 20
160.8930503130581
 30
0.0
 11
133.0497749332725
 21
160.8930503130581
 31
0.0
  0
CIRCLE
  5
258
330
21
100
AcDbEntity
  8
0
100
AcDbCircle
 10
128.5231830635762
 20
160.8930503130581
 30
0.0
 40
1.771653543307085
  0
CIRCLE
  5
259
330
21
100
AcDbEntity
  8
0
100
AcDbCircle
 10
128.5231830635762
 20
160.8930503130581
 30
0.0
 40
2.165354330708659
  0
CIRCLE
  5
25A
330
21
100
AcDbEntity
  8
0
100
AcDbCircle
 10
128.5231830635762
 20
160.8930503130581
 30
0.0
 40
2.283464566929133
  0
CIRCLE
  5
25B
330
21
100
AcDbEntity
  8
0
100
AcDbCircle
 10
144.1609783391201
 20
163.0977747224951
 30
0.0
 40
2.165354330708659
  0
CIRCLE
  5
25C
330
21
100
AcDbEntity
  8
0
100
AcDbCircle
 10
144.1609783391201
 20
163.0977747224951
 30
0.0
 40
2.283464566929133
  0
LINE
  5
25D
330
21
100
AcDbEntity
  8
中心线
 48
0.1
100
AcDbLine
 10
144.1619238400371
 20
167.0653998396802
 30
0.0
 11
144.1619238400371
 21
159.0169009761345
 31
0.0
  0
LINE
  5
25E
330
21
100
AcDbEntity
  8
中心线
 48
0.1
100
AcDbLine
 10
139.6343864694241
 20
163.0977747224951
 30
0.0
 11
148.6875702088164
 21
163.0977747224951
 31
0.0
  0
LINE
  5
25F
330
21
100
AcDbEntity
  8
中心线
 48
0.1
100
AcDbLine
 10
139.3850271877449
 20
204.0010611377215
 30
0.0
 11
148.438210927137
 21
204.0010611377215
 31
0.0
  0
LINE
  5
260
330
21
100
AcDbEntity
  8
中心线
 48
0.1
100
AcDbLine
 10
143.9125645583579
 20
207.9686862549064
 30
0.0
 11
143.9125645583579
 21
199.9201873913607
 31
0.0
  0
CIRCLE
  5
261
330
21
100
AcDbEntity
  8
0
100
AcDbCircle
 10
143.9116190574408
 20
204.0010611377215
 30
0.0
 40
2.283464566929133
  0
CIRCLE
  5
262
330
21
100
AcDbEntity
  8
0
100
AcDbCircle
 10
143.9116190574408
 20
204.0010611377215
 30
0.0
 40
2.165354330708659
  0
CIRCLE
  5
263
330
21
100
AcDbEntity
  8
0
100
AcDbCircle
 10
128.273823781897
 20
201.7963367282843
 30
0.0
 40
2.283464566929133
  0
CIRCLE
  5
264
330
21
100
AcDbEntity
  8
0
100
AcDbCircle
 10
128.273823781897
 20
201.7963367282843
 30
0.0
 40
2.165354330708659
  0
CIRCLE
  5
265
330
21
100
AcDbEntity
  8
0
100
AcDbCircle
 10
128.273823781897
 20
201.7963367282843
 30
0.0
 40
1.771653543307085
  0
LINE
  5
266
330
21
100
AcDbEntity
  8
中心线
 48
0.1
100
AcDbLine
 10
123.7472319122009
 20
201.7963367282843
 30
0.0
 11
132.8004156515932
 21
201.7963367282843
 31
0.0
  0
LINE
  5
267
330
21
100
AcDbEntity
  8
中心线
 48
0.1
100
AcDbLine
 10
128.2747692828139
 20
205.7639618454693
 30
0.0
 11
128.2747692828139
 21
197.7154629819235
 31
0.0
  0
MTEXT
  5
268
330
21
100
AcDbEntity
  8
标注
 48
5.0
100
AcDbMText
 10
127.658867625469
 20
50.382554206885
 30
0.0
 40
0.7874015748031497
 41
15.1555422233215
 71
     1
 72
     5
  1
1/4" {\fArial|b0|i0|c0|p32;OVERHANG CUTOUT}
 73
     1
 44
1.0
  0
MTEXT
  5
269
330
21
100
AcDbEntity
  8
标注
 48
5.0
100
AcDbMText
 10
131.2008989974812
 20
80.08219346040618
 30
0.0
 40
0.7874015748031497
 41
15.1555422233215
 71
     1
 72
     5
  1
{\fArial|b0|i0|c0|p32;FLUSH CUTOUT}
 73
     1
 44
1.0
  0
MTEXT
  5
26A
330
21
100
AcDbEntity
  8
标注
 48
5.0
100
AcDbMText
 10
129.8482519863938
 20
109.6371411595318
 30
0.0
 40
0.7874015748031497
 41
15.1555422233215
 71
     1
 72
     5
  1
1/4" {\fArial|b0|i0|c0|p32;REVEAL CUTOUT}
 73
     1
 44
1.0
  0
MTEXT
  5
26B
330
21
100
AcDbEntity
  8
标注
 48
5.0
100
AcDbMText
 10
134.6575382754627
 20
141.0170424418815
 30
0.0
 40
0.7874015748031497
 41
15.1555422233215
 71
     1
 72
     5
  1
1/4" {\fArial|b0|i0|c0|p32;OVERHANG CUTOUT}
 73
     1
 44
1.0
  0
MTEXT
  5
26C
330
21
100
AcDbEntity
  8
标注
 48
5.0
100
AcDbMText
 10
134.6575382754623
 20
142.9855463788894
 30
0.0
 40
0.7874015748031497
 41
15.1555422233215
 71
     1
 72
     5
  1
{\fArial|b0|i0|c0|p32;FLUSH CUTOUT}
 73
     1
 44
1.0
  0
MTEXT
  5
26D
330
21
100
AcDbEntity
  8
标注
 48
5.0
100
AcDbMText
 10
134.6575382754627
 20
144.9540503158973
 30
0.0
 40
0.7874015748031497
 41
15.1555422233215
 71
     1
 72
     5
  1
1/4" {\fArial|b0|i0|c0|p32;REVEAL CUTOUT}
 73
     1
 44
1.0
  0
LINE
  5
26E
330
21
100
AcDbEntity
  8
虚线
 62
    11
 48
0.15
370
    35
100
AcDbLine
 10
126.9921321948957
 20
140.4688775042707
 30
0.0
 11
133.2089371989797
 21
140.4688775042707
 31
0.0
  0
LINE
  5
26F
330
21
100
AcDbEntity
  8
截面层
 62
     1
 48
0.2
370
    35
100
AcDbLine
 10
126.9921321948957
 20
142.4373814412786
 30
0.0
 11
133.2089371989797
 21
142.4373814412786
 31
0.0
  0
LINE
  5
270
330
21
100
AcDbEntity
  8
虚线
 62
     3
 48
0.3
370
    35
100
AcDbLine
 10
126.9921321948957
 20
144.4058853782865
 30
0.0
 11
133.2089371989797
 21
144.4058853782865
 31
0.0
  0
MTEXT
  5
271
330
21
100
AcDbEntity
  8
标注
 48
5.0
100
AcDbMText
 10
132.0920891452491
 20
216.0878276870517
 30
0.0
 40
0.7874015748031497
 41
15.1555422233215
 71
     1
 72
     5
  1
{\fArial|b0|i0|c0|p32;FRONT VIEW }
 73
     1
 44
1.0
  0
MTEXT
  5
272
330
21
100
AcDbEntity
  8
标注
 48
5.0
100
AcDbMText
 10
131.8576309980209
 20
182.0105508529116
 30
0.0
 40
0.7874015748031497
 41
15.1555422233215
 71
     1
 72
     5
  1
{\fArial|b0|i0|c0|p32;OVERHEAD VIEW}
 73
     1
 44
1.0
  0
DIMENSION
  5
273
102
{ACAD_XDICTIONARY
360
274
102
}
102
{ACAD_REACTORS
330
275
102
}
330
21
100
AcDbEntity
  8
标注
100
AcDbDimension
  2
*D20
 10
138.2940583299721
 20
220.7742858315441
 30
0.0
 11
138.4988906186465
 21
220.9317019826455
 31
0.0
 70
   164
 71
     5
 42
1.999999999999943
  3
副本Standard
100
AcDbRadialDimension
 15
136.7082599660419
 25
219.5555801455986
 35
0.0
 40
0.0
1001
ACAD
1000
DSTYLE
1002
{
1070
   288
1070
     1
1002
}
  0
DIMENSION
  5
276
102
{ACAD_XDICTIONARY
360
277
102
}
102
{ACAD_REACTORS
330
278
102
}
330
21
100
AcDbEntity
  8
标注
100
AcDbDimension
  2
*D21
 10
124.0470766903445
 20
222.2308582497904
 30
0.0
 11
124.256525779698
 21
222.3820772634102
 31
0.0
 70
   164
 71
     5
 42
1.999999999999885
  3
副本Standard
100
AcDbRadialDimension
 15
122.4255353534152
 25
221.0601304024113
 35
0.0
 40
0.0
1001
ACAD
1000
DSTYLE
1002
{
1070
   288
1070
     1
1002
}
  0
ARC
  5
279
102
{ACAD_REACTORS
330
278
102
}
330
21
100
AcDbEntity
  8
截面层
100
AcDbCircle
 10
124.0470766903445
 20
222.2308582497904
 30
0.0
 40
2.0
100
AcDbArc
 50
183.0063160085388
 51
265.2226832491582
  0
ARC
  5
27A
330
21
100
AcDbEntity
  8
截面层
100
AcDbCircle
 10
132.4953428398794
 20
222.2308582497904
 30
0.0
 40
2.0
100
AcDbArc
 50
274.7773167508385
 51
356.9936839914628
  0
ARC
  5
27B
102
{ACAD_REACTORS
330
275
102
}
330
21
100
AcDbEntity
  8
截面层
100
AcDbCircle
 10
138.2940583299721
 20
220.7742858315441
 30
0.0
 40
2.0
100
AcDbArc
 50
182.9828715692971
 51
264.5847158873523
  0
ARC
  5
27C
330
21
100
AcDbEntity
  8
截面层
100
AcDbCircle
 10
149.3507234049762
 20
220.7742858315442
 30
0.0
 40
2.0
100
AcDbArc
 50
275.4152841126444
 51
357.0171284307037
  0
LINE
  5
27D
102
{ACAD_REACTORS
330
3F9
102
}
330
21
100
AcDbEntity
  8
0
100
AcDbLine
 10
141.5979814186552
 20
218.5372893354703
 30
0.0
 11
146.046800316293
 21
218.5372893354703
 31
0.0
  0
LINE
  5
27E
330
21
100
AcDbEntity
  8
截面层
100
AcDbLine
 10
145.940785068496
 20
218.3404389417695
 30
0.0
 11
146.046800316293
 21
218.5372893354703
 31
0.0
  0
LINE
  5
27F
330
21
100
AcDbEntity
  8
截面层
100
AcDbLine
 10
141.7509363272644
 20
218.3404389417695
 30
0.0
 11
142.0522436691908
 21
218.3404389417695
 31
0.0
  0
LINE
  5
280
330
21
100
AcDbEntity
  8
截面层
100
AcDbLine
 10
141.5979814186552
 20
218.5372893354703
 30
0.0
 11
141.7509363272644
 21
218.3404389417695
 31
0.0
  0
LINE
  5
281
330
21
100
AcDbEntity
  8
截面层
100
AcDbLine
 10
145.5925380657581
 20
218.3404389417695
 30
0.0
 11
145.940785068496
 21
218.3404389417695
 31
0.0
  0
LINE
  5
282
330
21
100
AcDbEntity
  8
0
100
AcDbLine
 10
142.0522436691908
 20
218.3404389417695
 30
0.0
 11
145.5925380657581
 21
218.3404389417695
 31
0.0
  0
LINE
  5
283
330
21
100
AcDbEntity
  8
中心线
 48
0.1
100
AcDbLine
 10
143.8223908674747
 20
220.989880570425
 30
0.0
 11
143.8223908674743
 21
217.2943139350592
 31
0.0
  0
LINE
  5
284
330
21
100
AcDbEntity
  8
0
100
AcDbLine
 10
126.046800316293
 20
220.0845334299585
 30
0.0
 11
130.4956192139309
 21
220.0845334299585
 31
0.0
  0
LINE
  5
285
330
21
100
AcDbEntity
  8
截面层
100
AcDbLine
 10
130.3896039661338
 20
219.8876830362577
 30
0.0
 11
130.4956192139309
 21
220.0845334299585
 31
0.0
  0
LINE
  5
286
330
21
100
AcDbEntity
  8
截面层
100
AcDbLine
 10
126.1997552249023
 20
219.8876830362577
 30
0.0
 11
126.5010625668287
 21
219.8876830362577
 31
0.0
  0
LINE
  5
287
330
21
100
AcDbEntity
  8
截面层
100
AcDbLine
 10
126.046800316293
 20
220.0845334299585
 30
0.0
 11
126.1997552249023
 21
219.8876830362577
 31
0.0
  0
LINE
  5
288
330
21
100
AcDbEntity
  8
截面层
100
AcDbLine
 10
130.041356963396
 20
219.8876830362577
 30
0.0
 11
130.3896039661338
 21
219.8876830362577
 31
0.0
  0
LINE
  5
289
330
21
100
AcDbEntity
  8
0
100
AcDbLine
 10
126.5010625668287
 20
219.8876830362577
 30
0.0
 11
130.041356963396
 21
219.8876830362577
 31
0.0
  0
LINE
  5
28A
330
21
100
AcDbEntity
  8
中心线
 48
0.1
100
AcDbLine
 10
128.2712097651126
 20
222.5371246649132
 30
0.0
 11
128.2712097651122
 21
218.8415580295474
 31
0.0
  0
DIMENSION
  5
28B
102
{ACAD_XDICTIONARY
360
28C
102
}
102
{ACAD_REACTORS
330
28D
102
}
330
21
100
AcDbEntity
  8
标注
100
AcDbDimension
  2
*D22
 10
118.0465886745974
 20
189.7727146810424
 30
0.0
 11
118.0465886745974
 21
187.9477146810424
 31
0.0
 70
    32
 71
     5
 42
0.9999999999977832
  3
副本Standard
100
AcDbAlignedDimension
 13
127.3947692828139
 23
190.77271468104
 33
0.0
 14
125.3220133772987
 24
189.7727146810424
 34
0.0
 50
90.0
100
AcDbRotatedDimension
  0
DIMENSION
  5
28E
330
21
100
AcDbEntity
  8
标注
100
AcDbDimension
  2
*D17
 10
155.2486348027764
 20
210.5128721613435
 30
0.0
 11
155.2486348027764
 21
212.3378721613436
 31
0.0
 70
    32
 71
     5
 42
0.9999999999999715
  3
副本Standard
100
AcDbAlignedDimension
 13
144.7925645583578
 23
209.5128721613436
 33
0.0
 14
147.8495724324201
 24
210.5128721613435
 34
0.0
 50
90.0
100
AcDbRotatedDimension
  0
DIMENSION
  5
28F
102
{ACAD_XDICTIONARY
360
290
102
}
102
{ACAD_REACTORS
330
291
102
}
330
21
100
AcDbEntity
  8
标注
100
AcDbDimension
  2
*D23
 10
136.038548810373
 20
199.2627934211861
 30
0.0
 11
139.0552154770397
 21
199.2627934211861
 31
0.0
 70
    32
 71
     5
 42
1.267716535433065
  3
副本Standard
100
AcDbAlignedDimension
 13
134.77083227494
 23
199.0404312164742
 33
0.0
 14
136.038548810373
 24
199.0404312164742
 34
0.0
100
AcDbRotatedDimension
  0
DIMENSION
  5
292
330
21
100
AcDbEntity
  8
标注
100
AcDbDimension
  2
*D18
 10
152.7865803064359
 20
187.4185893225396
 30
0.0
 11
154.6115803064359
 21
187.4185893225396
 31
0.0
 70
    32
 71
     5
 42
0.9999999999998864
  3
副本Standard
100
AcDbAlignedDimension
 13
151.786580306436
 23
200.1427934211862
 33
0.0
 14
152.7865803064359
 24
194.7097225550414
 34
0.0
100
AcDbRotatedDimension
  0
DIMENSION
  5
293
102
{ACAD_XDICTIONARY
360
294
102
}
102
{ACAD_REACTORS
330
295
102
}
330
21
100
AcDbEntity
  8
标注
100
AcDbDimension
  2
*D24
 10
125.5437223176513
 20
194.4497563893898
 30
0.0
 11
125.4721847919087
 21
194.3898515079274
 31
0.0
 70
   164
 71
     5
 42
3.543307086614162
  3
副本Standard
100
AcDbRadialDimension
 15
122.8271074160303
 25
192.1748874730915
 35
0.0
 40
0.0
  0
DIMENSION
  5
296
102
{ACAD_XDICTIONARY
360
297
102
}
102
{ACAD_REACTORS
330
298
102
}
330
21
100
AcDbEntity
  8
标注
100
AcDbDimension
  2
*D25
 10
140.1846056558642
 20
194.8570359809368
 30
0.0
 11
139.894580973735
 21
194.6135609483011
 31
0.0
 70
   164
 71
     5
 42
3.93700787401579
  3
副本Standard
100
AcDbRadialDimension
 15
137.1692736635321
 25
192.3256719265026
 35
0.0
 40
0.0
  0
DIMENSION
  5
299
102
{ACAD_XDICTIONARY
360
29A
102
}
102
{ACAD_REACTORS
330
29B
102
}
330
21
100
AcDbEntity
  8
标注
100
AcDbDimension
  2
*D26
 10
120.778706290688
 20
185.1711816833886
 30
0.0
 11
136.7826432985619
 21
185.1711816833886
 31
0.0
 70
   160
 71
     5
 42
32.00787401574793
  3
副本Standard
100
AcDbAlignedDimension
 13
152.7865803064359
 23
194.7097225550414
 33
0.0
 14
120.778706290688
 24
194.3160217676565
 34
0.0
 50
180.0
100
AcDbRotatedDimension
  0
DIMENSION
  5
29C
102
{ACAD_XDICTIONARY
360
29D
102
}
102
{ACAD_REACTORS
330
29E
102
}
330
21
100
AcDbEntity
  8
标注
100
AcDbDimension
  2
*D27
 10
121.778706290688
 20
187.4145799508248
 30
0.0
 11
128.2747692828139
 21
187.4145799508248
 31
0.0
 70
    32
 71
     5
 42
12.99212598425197
  3
副本Standard
100
AcDbAlignedDimension
 13
134.7708322749399
 23
199.0404312164742
 33
0.0
 14
121.778706290688
 24
199.0404312164732
 34
0.0
 50
180.0
100
AcDbRotatedDimension
  0
DIMENSION
  5
29F
102
{ACAD_XDICTIONARY
360
2A0
102
}
102
{ACAD_REACTORS
330
2A1
102
}
330
21
100
AcDbEntity
  8
标注
100
AcDbDimension
  2
*D28
 10
136.038548810373
 20
187.4185893225396
 30
0.0
 11
143.9125645584045
 21
187.4185893225396
 31
0.0
 70
    32
 71
     5
 42
15.74803149606293
  3
副本Standard
100
AcDbAlignedDimension
 13
151.786580306436
 23
200.1427934211862
 33
0.0
 14
136.038548810373
 24
200.1427934211862
 34
0.0
 50
180.0
100
AcDbRotatedDimension
  0
DIMENSION
  5
2A2
102
{ACAD_XDICTIONARY
360
2A3
102
}
102
{ACAD_REACTORS
330
2A4
102
}
330
21
100
AcDbEntity
  8
标注
100
AcDbDimension
  2
*D29
 10
115.705427759201
 20
189.7727146810424
 30
0.0
 11
115.705427759201
 21
199.0404312164744
 31
0.0
 70
   160
 71
     5
 42
18.53543307086397
  3
副本Standard
100
AcDbAlignedDimension
 13
125.3220133773021
 23
208.3081477519064
 33
0.0
 14
125.3220133773021
 24
189.7727146810424
 34
0.0
 50
90.0
100
AcDbRotatedDimension
  0
DIMENSION
  5
2A5
102
{ACAD_XDICTIONARY
360
2A6
102
}
102
{ACAD_REACTORS
330
2A7
102
}
330
21
100
AcDbEntity
  8
标注
100
AcDbDimension
  2
*D30
 10
118.0465886745974
 20
190.77271468104
 30
0.0
 11
118.0465886745974
 21
199.0404312164732
 31
0.0
 70
   160
 71
     5
 42
16.53543307086613
  3
副本Standard
100
AcDbAlignedDimension
 13
128.2747692828139
 23
207.3081477519063
 33
0.0
 14
128.2747692828139
 24
190.77271468104
 34
0.0
 50
90.0
100
AcDbRotatedDimension
  0
DIMENSION
  5
2A8
330
21
100
AcDbEntity
  8
标注
100
AcDbDimension
  2
*D19
 10
157.6865956389688
 20
189.7727146810258
 30
0.0
 11
157.6865956389688
 21
200.1427934211847
 31
0.0
 70
   160
 71
     5
 42
20.74015748031775
  3
副本Standard
100
AcDbAlignedDimension
 13
147.8495724324201
 23
210.5128721613435
 33
0.0
 14
147.8495724324201
 24
189.7727146810258
 34
0.0
 50
90.0
100
AcDbRotatedDimension
  0
DIMENSION
  5
2A9
102
{ACAD_XDICTIONARY
360
2AA
102
}
102
{ACAD_REACTORS
330
2AB
102
}
330
21
100
AcDbEntity
  8
标注
100
AcDbDimension
  2
*D31
 10
155.2486348027764
 20
190.7727146810286
 30
0.0
 11
155.2486348027764
 21
200.1427934211862
 31
0.0
 70
   160
 71
     5
 42
18.7401574803149
  3
副本Standard
100
AcDbAlignedDimension
 13
143.9125645583578
 23
209.5128721613436
 33
0.0
 14
143.9125645583307
 24
190.7727146810286
 34
0.0
 50
90.0
100
AcDbRotatedDimension
  0
DIMENSION
  5
2AC
102
{ACAD_XDICTIONARY
360
2AD
102
}
102
{ACAD_REACTORS
330
2AE
102
}
330
21
100
AcDbEntity
  8
标注
100
AcDbDimension
  2
*D32
 10
118.0868041979879
 20
220.0845334299561
 30
0.0
 11
118.0868041979879
 21
223.8187853984613
 31
0.0
 70
    32
 71
     5
 42
7.468503937010153
  3
副本Standard
100
AcDbAlignedDimension
 13
120.778706290688
 23
227.5530373669663
 33
0.0
 14
126.3261691089878
 24
220.0845334299561
 34
0.0
 50
90.0
100
AcDbRotatedDimension
  0
LINE
  5
2AF
330
21
100
AcDbEntity
  8
0
100
AcDbLine
 10
134.9641231509387
 20
227.5530373669663
 30
0.0
 11
121.5782963792851
 21
227.5530373669663
 31
0.0
  0
LINE
  5
2B0
330
21
100
AcDbEntity
  8
0
100
AcDbLine
 10
151.8932570092064
 20
227.5530373669663
 30
0.0
 11
135.7515247257419
 21
227.5530373669663
 31
0.0
  0
ARC
  5
2B1
330
21
100
AcDbEntity
  8
截面层
100
AcDbCircle
 10
121.5782963792851
 20
227.3561869732656
 30
0.0
 40
0.1968503937007874
100
AcDbArc
 50
0.0
 51
90.0
  0
LINE
  5
2B2
102
{ACAD_REACTORS
330
2AE
102
}
330
21
100
AcDbEntity
  8
截面层
100
AcDbLine
 10
121.5782963792851
 20
227.5530373669663
 30
0.0
 11
120.778706290688
 21
227.5530373669663
 31
0.0
  0
ARC
  5
2B3
330
21
100
AcDbEntity
  8
截面层
100
AcDbCircle
 10
134.9641231509387
 20
227.3561869732656
 30
0.0
 40
0.1968503937007874
100
AcDbArc
 50
90.0
 51
180.0
  0
ARC
  5
2B4
330
21
100
AcDbEntity
  8
截面层
100
AcDbCircle
 10
135.7515247257419
 20
227.3561869732656
 30
0.0
 40
0.1968503937007874
100
AcDbArc
 50
0.0
 51
90.0
  0
ARC
  5
2B5
330
21
100
AcDbEntity
  8
截面层
100
AcDbCircle
 10
151.8932570092064
 20
227.3561869732656
 30
0.0
 40
0.1968503937007874
100
AcDbArc
 50
90.0
 51
180.0
  0
LINE
  5
2B6
330
21
100
AcDbEntity
  8
截面层
100
AcDbLine
 10
135.7515247257419
 20
227.5530373669663
 30
0.0
 11
134.9641231509387
 21
227.5530373669663
 31
0.0
  0
LINE
  5
2B7
102
{ACAD_REACTORS
330
3F9
102
}
330
21
100
AcDbEntity
  8
截面层
100
AcDbLine
 10
152.7865803064359
 20
227.5530373669663
 30
0.0
 11
151.8932570092064
 21
227.5530373669663
 31
0.0
  0
ARC
  5
2B8
330
21
100
AcDbEntity
  8
截面层
100
AcDbCircle
 10
130.9768923352016
 20
305.1495048898573
 30
0.0
 40
85.20771782408159
100
AcDbArc
 50
265.2226832491582
 51
266.6830315546355
  0
ARC
  5
2B9
330
21
100
AcDbEntity
  8
截面层
100
AcDbCircle
 10
144.9276257783822
 20
290.7508554513039
 30
0.0
 40
72.2902874716107
100
AcDbArc
 50
264.5847158873523
 51
267.360059091941
  0
ARC
  5
2BA
330
21
100
AcDbEntity
  8
截面层
100
AcDbCircle
 10
125.5655271950211
 20
305.1495048898731
 30
0.0
 40
85.20771782409743
100
AcDbArc
 50
273.3169684453645
 51
274.7773167508418
  0
ARC
  5
2BB
102
{ACAD_REACTORS
330
3F9
102
}
330
21
100
AcDbEntity
  8
截面层
100
AcDbCircle
 10
142.7171559565632
 20
290.7508554513496
 30
0.0
 40
72.29028747165672
100
AcDbArc
 50
272.6399409080623
 51
275.4152841126477
  0
LINE
  5
2BC
330
21
100
AcDbEntity
  8
截面层
100
AcDbLine
 10
134.7672727572379
 20
227.3561869732656
 30
0.0
 11
134.4925903587302
 21
222.1259661697987
 31
0.0
  0
LINE
  5
2BD
330
21
100
AcDbEntity
  8
截面层
100
AcDbLine
 10
151.6964066155057
 20
227.3561869732656
 30
0.0
 11
151.3480136766455
 21
220.6702109993553
 31
0.0
  0
LINE
  5
2BE
330
21
100
AcDbEntity
  8
截面层
100
AcDbLine
 10
135.9483751194426
 20
227.3561869732656
 30
0.0
 11
136.2967680583027
 21
220.6702109993552
 31
0.0
  0
LINE
  5
2BF
330
21
100
AcDbEntity
  8
截面层
100
AcDbLine
 10
121.7751467729859
 20
227.3561869732656
 30
0.0
 11
122.0498291714938
 21
222.1259661697986
 31
0.0
  0
CIRCLE
  5
2C0
330
21
100
AcDbEntity
  8
0
100
AcDbCircle
 10
143.9125645583579
 20
204.0010611377215
 30
0.0
 40
1.771653543307085
  0
ARC
  5
2C1
102
{ACAD_REACTORS
330
2AB
102
}
330
21
100
AcDbEntity
  8
0
100
AcDbCircle
 10
143.9125645584045
 20
241.9538170432335
 30
0.0
 40
51.18110236220473
100
AcDbArc
 50
265.4741730533243
 51
274.5258269465712
  0
ARC
  5
2C2
330
21
100
AcDbEntity
  8
0
100
AcDbCircle
 10
134.2200337658851
 20
212.2451556259221
 30
0.0
 40
3.937007874015747
100
AcDbArc
 50
270.0
 51
311.2749345984819
  0
ARC
  5
2C3
330
21
100
AcDbEntity
  8
0
100
AcDbCircle
 10
140.0739818812392
 20
205.5758642873278
 30
0.0
 40
4.937007874015748
100
AcDbArc
 50
90.0
 51
131.2749345984819
  0
LINE
  5
2C4
102
{ACAD_REACTORS
330
29B
102
}
330
21
100
AcDbEntity
  8
0
100
AcDbLine
 10
152.7865803064359
 20
194.7097225550414
 30
0.0
 11
152.7865803064359
 21
205.5758642873278
 31
0.0
  0
ARC
  5
2C5
102
{ACAD_REACTORS
330
2A4
102
}
330
21
100
AcDbEntity
  8
0
100
AcDbCircle
 10
125.3220133773021
 20
203.7648406652922
 30
0.0
 40
4.543307086614173
100
AcDbArc
 50
90.0
 51
180.0
  0
LINE
  5
2C6
102
{ACAD_REACTORS
330
29B
102
}
330
21
100
AcDbEntity
  8
0
100
AcDbLine
 10
120.778706290688
 20
194.3160217676565
 30
0.0
 11
120.778706290688
 21
203.7648406652922
 31
0.0
  0
ARC
  5
2C7
330
21
100
AcDbEntity
  8
0
100
AcDbCircle
 10
147.8495724324201
 20
205.5758642873278
 30
0.0
 40
4.937007874015748
100
AcDbArc
 50
0.0
 51
90.0
  0
LINE
  5
2C8
330
21
100
AcDbEntity
  8
0
100
AcDbLine
 10
147.8495724324201
 20
210.5128721613435
 30
0.0
 11
140.0739818812392
 21
210.5128721613435
 31
0.0
  0
LINE
  5
2C9
102
{ACAD_REACTORS
330
2A4
102
}
330
21
100
AcDbEntity
  8
0
100
AcDbLine
 10
125.3220133773021
 20
208.3081477519064
 30
0.0
 11
134.2200337658851
 21
208.3081477519064
 31
0.0
  0
ARC
  5
2CA
330
21
100
AcDbEntity
  8
0
100
AcDbCircle
 10
147.8495724324201
 20
194.7097225550414
 30
0.0
 40
4.937007874015748
100
AcDbArc
 50
270.0
 51
0.0
  0
ARC
  5
2CB
102
{ACAD_REACTORS
330
29B
102
}
330
21
100
AcDbEntity
  8
0
100
AcDbCircle
 10
125.3220133773021
 20
194.3160217676565
 30
0.0
 40
4.543307086614173
100
AcDbArc
 50
180.0
 51
270.0
  0
LINE
  5
2CC
102
{ACAD_REACTORS
330
28D
102
}
330
21
100
AcDbEntity
  8
0
100
AcDbLine
 10
125.3220133772987
 20
189.7727146810424
 30
0.0
 11
147.8495724324165
 21
189.7727146810258
 31
0.0
  0
ARC
  5
2CD
330
21
100
AcDbEntity
  8
0
100
AcDbCircle
 10
140.1846056558641
 20
205.4285508614355
 30
0.0
 40
3.937007874015747
100
AcDbArc
 50
94.52582694667567
 51
175.4703238704388
  0
ARC
  5
2CE
330
21
100
AcDbEntity
  8
0
100
AcDbCircle
 10
147.6405234609448
 20
205.4285508614355
 30
0.0
 40
3.937007874015747
100
AcDbArc
 50
4.529676129561186
 51
85.47417305342889
  0
ARC
  5
2CF
102
{ACAD_REACTORS
330
2AB
102
}
330
21
100
AcDbEntity
  8
0
100
AcDbCircle
 10
143.9125645584045
 20
158.3317697991389
 30
0.0
 40
51.18110236220473
100
AcDbArc
 50
85.47417305342889
 51
94.52582694667567
  0
ARC
  5
2D0
330
21
100
AcDbEntity
  8
0
100
AcDbCircle
 10
147.6405234609448
 20
194.8570359809368
 30
0.0
 40
3.937007874015747
100
AcDbArc
 50
274.5258269466757
 51
355.4703238704389
  0
ARC
  5
2D1
102
{ACAD_REACTORS
330
2A1
102
}
330
21
100
AcDbEntity
  8
0
100
AcDbCircle
 10
80.92043857415252
 20
200.1427934211862
 30
0.0
 40
70.86614173228347
100
AcDbArc
 50
355.4703238704389
 51
4.529676129561186
  0
ARC
  5
2D2
102
{ACAD_REACTORS
330
298
102
}
330
21
100
AcDbEntity
  8
0
100
AcDbCircle
 10
140.1846056558641
 20
194.8570359809368
 30
0.0
 40
3.937007874015747
100
AcDbArc
 50
184.5296761295612
 51
265.4741730534289
  0
ARC
  5
2D3
102
{ACAD_REACTORS
330
2A1
102
}
330
21
100
AcDbEntity
  8
0
100
AcDbCircle
 10
206.9046905426564
 20
200.1427934211862
 30
0.0
 40
70.86614173228347
100
AcDbArc
 50
175.4703238704388
 51
184.5296761295612
  0
ARC
  5
2D4
330
21
100
AcDbEntity
  8
0
100
AcDbCircle
 10
131.0058162479765
 20
194.4497563893899
 30
0.0
 40
3.543307086614173
100
AcDbArc
 50
275.6068707265022
 51
354.4700400460036
  0
ARC
  5
2D5
102
{ACAD_REACTORS
330
291
102
}
330
21
100
AcDbEntity
  8
0
100
AcDbCircle
 10
83.58972991273526
 20
199.0404312164742
 30
0.0
 40
51.18110236220473
100
AcDbArc
 50
354.4700400459906
 51
5.529959953996367
  0
ARC
  5
2D6
330
21
100
AcDbEntity
  8
0
100
AcDbCircle
 10
125.5437223176514
 20
203.6311060435568
 30
0.0
 40
3.543307086614173
100
AcDbArc
 50
95.60687072650223
 51
174.4700400460036
  0
ARC
  5
2D7
330
21
100
AcDbEntity
  8
0
100
AcDbCircle
 10
131.0058162479766
 20
203.6311060435568
 30
0.0
 40
3.543307086614173
100
AcDbArc
 50
5.529959953996367
 51
84.39312927349776
  0
ARC
  5
2D8
102
{ACAD_REACTORS
330
2A7
102
}
330
21
100
AcDbEntity
  8
0
100
AcDbCircle
 10
128.2747692828139
 20
175.8120847597803
 30
0.0
 40
31.49606299212599
100
AcDbArc
 50
84.39312927349776
 51
95.60687072650223
  0
ARC
  5
2D9
102
{ACAD_REACTORS
330
295
102
}
330
21
100
AcDbEntity
  8
0
100
AcDbCircle
 10
125.5437223176514
 20
194.4497563893899
 30
0.0
 40
3.543307086614173
100
AcDbArc
 50
185.5299599539963
 51
264.3931292734978
  0
ARC
  5
2DA
102
{ACAD_REACTORS
330
2A7
102
}
330
21
100
AcDbEntity
  8
0
100
AcDbCircle
 10
128.2747692828139
 20
222.2687776731662
 30
0.0
 40
31.49606299212599
100
AcDbArc
 50
264.3931292734978
 51
275.6068707265022
  0
ARC
  5
2DB
102
{ACAD_REACTORS
330
29E
102
}
330
21
100
AcDbEntity
  8
0
100
AcDbCircle
 10
172.9598086528928
 20
199.0404312164732
 30
0.0
 40
51.18110236220473
100
AcDbArc
 50
174.4700400460036
 51
185.5299599539963
  0
DIMENSION
  5
3E0
102
{ACAD_XDICTIONARY
360
3EE
102
}
102
{ACAD_REACTORS
330
3F9
102
}
330
21
100
AcDbEntity
  8
0
100
AcDbDimension
  2
*D33
 10
155.2311955926
 20
218.5372893354703
 30
0.0
 11
155.2311955925999
 21
223.0451633512184
 31
0.0
 70
    32
 71
     5
 42
9.015748031496002
  3
副本Standard
100
AcDbAlignedDimension
 13
152.7865803064359
 23
227.5530373669663
 33
0.0
 14
146.0468003162948
 24
218.5372893354703
 34
0.0
 50
90.0
100
AcDbRotatedDimension
  0
ENDSEC
  0
SECTION
  2
OBJECTS
  0
DICTIONARY
  5
C
330
0
100
AcDbDictionary
281
     1
  3
ACAD_COLOR
350
1C
  3
ACAD_GROUP
350
D
  3
ACAD_LAYOUT
350
1A
  3
ACAD_MATERIAL
350
1B
  3
ACAD_MLINESTYLE
350
17
  3
ACAD_PLOTSETTINGS
350
19
  3
ACAD_PLOTSTYLENAME
350
E
  0
DICTIONARY
  5
F7
330
2
100
AcDbDictionary
280
     1
281
     1
  3
ACAD_LAYERSTATES
360
F8
  0
DICTIONARY
  5
274
330
273
100
AcDbDictionary
280
     1
281
     1
  3
ACAD_DIMASSOC
360
275
  0
DICTIONARY
  5
277
330
276
100
AcDbDictionary
280
     1
281
     1
  3
ACAD_DIMASSOC
360
278
  0
DICTIONARY
  5
28C
330
28B
100
AcDbDictionary
280
     1
281
     1
  3
ACAD_DIMASSOC
360
28D
  0
DICTIONARY
  5
290
330
28F
100
AcDbDictionary
280
     1
281
     1
  3
ACAD_DIMASSOC
360
291
  0
DICTIONARY
  5
294
330
293
100
AcDbDictionary
280
     1
281
     1
  3
ACAD_DIMASSOC
360
295
  0
DICTIONARY
  5
297
330
296
100
AcDbDictionary
280
     1
281
     1
  3
ACAD_DIMASSOC
360
298
  0
DICTIONARY
  5
29A
330
299
100
AcDbDictionary
280
     1
281
     1
  3
ACAD_DIMASSOC
360
29B
  0
DICTIONARY
  5
29D
330
29C
100
AcDbDictionary
280
     1
281
     1
  3
ACAD_DIMASSOC
360
29E
  0
DICTIONARY
  5
2A0
330
29F
100
AcDbDictionary
280
     1
281
     1
  3
ACAD_DIMASSOC
360
2A1
  0
DICTIONARY
  5
2A3
330
2A2
100
AcDbDictionary
280
     1
281
     1
  3
ACAD_DIMASSOC
360
2A4
  0
DICTIONARY
  5
2A6
330
2A5
100
AcDbDictionary
280
     1
281
     1
  3
ACAD_DIMASSOC
360
2A7
  0
DICTIONARY
  5
2AA
330
2A9
100
AcDbDictionary
280
     1
281
     1
  3
ACAD_DIMASSOC
360
2AB
  0
DICTIONARY
  5
2AD
330
2AC
100
AcDbDictionary
280
     1
281
     1
  3
ACAD_DIMASSOC
360
2AE
  0
DICTIONARY
  5
3EE
330
3E0
100
AcDbDictionary
280
     1
281
     1
  3
ACAD_DIMASSOC
360
3F9
  0
DICTIONARY
  5
1C
102
{ACAD_REACTORS
330
C
102
}
330
C
100
AcDbDictionary
281
     1
  0
DICTIONARY
  5
D
102
{ACAD_REACTORS
330
C
102
}
330
C
100
AcDbDictionary
281
     1
  0
DICTIONARY
  5
1A
102
{ACAD_REACTORS
330
C
102
}
330
C
100
AcDbDictionary
281
     1
  3
Model
350
24
  3
布局1
350
20
  3
布局2
350
28
  0
DICTIONARY
  5
1B
102
{ACAD_REACTORS
330
C
102
}
330
C
100
AcDbDictionary
281
     1
  0
DICTIONARY
  5
17
102
{ACAD_REACTORS
330
C
102
}
330
C
100
AcDbDictionary
281
     1
  3
Standard
350
18
  0
DICTIONARY
  5
19
102
{ACAD_REACTORS
330
C
102
}
330
C
100
AcDbDictionary
281
     1
  0
ACDBDICTIONARYWDFLT
  5
E
102
{ACAD_REACTORS
330
C
102
}
330
C
100
AcDbDictionary
281
     1
  3
Normal
350
F
100
AcDbDictionaryWithDefault
340
F
  0
DICTIONARY
  5
F8
102
{ACAD_REACTORS
330
F7
102
}
330
F7
100
AcDbDictionary
281
     1
  0
DIMASSOC
  5
275
102
{ACAD_REACTORS
330
274
102
}
330
274
100
AcDbDimAssoc
330
273
 90
        2
 70
     0
 71
     0
  1
AcDbOsnapPointRef
 72
     3
331
27B
 73
     2
 91
        0
 40
0.0
 10
0.0
 20
0.0
 30
0.0
 75
     0
  0
DIMASSOC
  5
278
102
{ACAD_REACTORS
330
277
102
}
330
277
100
AcDbDimAssoc
330
276
 90
        2
 70
     0
 71
     0
  1
AcDbOsnapPointRef
 72
     3
331
279
 73
     2
 91
        0
 40
0.0
 10
0.0
 20
0.0
 30
0.0
 75
     0
  0
DIMASSOC
  5
28D
102
{ACAD_REACTORS
330
28C
102
}
330
28C
100
AcDbDimAssoc
330
28B
 90
        2
 70
     0
 71
     0
  1
AcDbOsnapPointRef
 72
    13
331
2CC
 73
     2
 91
        0
 40
0.0
 10
0.0
 20
0.0
 30
2.000000000000000E+50
 75
     0
  0
DIMASSOC
  5
291
102
{ACAD_REACTORS
330
290
102
}
330
290
100
AcDbDimAssoc
330
28F
 90
        1
 70
     0
 71
     0
  1
AcDbOsnapPointRef
 72
     5
331
2D5
 73
     2
 91
        0
 40
6.283185307179585
 10
0.0
 20
0.0
 30
0.0
 75
     0
  0
DIMASSOC
  5
295
102
{ACAD_REACTORS
330
294
102
}
330
294
100
AcDbDimAssoc
330
293
 90
        2
 70
     0
 71
     0
  1
AcDbOsnapPointRef
 72
     3
331
2D9
 73
     2
 91
        0
 40
0.0
 10
0.0
 20
0.0
 30
0.0
 75
     0
  0
DIMASSOC
  5
298
102
{ACAD_REACTORS
330
297
102
}
330
297
100
AcDbDimAssoc
330
296
 90
        2
 70
     0
 71
     0
  1
AcDbOsnapPointRef
 72
     3
331
2D2
 73
     2
 91
        0
 40
0.0
 10
0.0
 20
0.0
 30
0.0
 75
     0
  0
DIMASSOC
  5
29B
102
{ACAD_REACTORS
330
29A
102
}
330
29A
100
AcDbDimAssoc
330
299
 90
        3
 70
     0
 71
     0
  1
AcDbOsnapPointRef
 72
    13
331
2C4
 73
     2
 91
        0
 40
0.0
 10
0.0
 20
0.0
 30
2.000000000000000E+50
 75
     0
  1
AcDbOsnapPointRef
 72
    11
331
2C6
 73
     2
 91
        0
 40
0.0000000000000038
 10
0.0
 20
0.0
 30
0.0
332
2CB
 74
     2
 92
        0
 75
     0
  0
DIMASSOC
  5
29E
102
{ACAD_REACTORS
330
29D
102
}
330
29D
100
AcDbDimAssoc
330
29C
 90
        2
 70
     0
 71
     0
  1
AcDbOsnapPointRef
 72
     2
331
2DB
 73
     2
 91
        0
 40
6.283185307179584
 10
0.0
 20
0.0
 30
0.0
 75
     0
  0
DIMASSOC
  5
2A1
102
{ACAD_REACTORS
330
2A0
102
}
330
2A0
100
AcDbDimAssoc
330
29F
 90
        3
 70
     0
 71
     0
  1
AcDbOsnapPointRef
 72
     2
331
2D1
 73
     2
 91
        0
 40
3.141592653589792
 10
0.0
 20
0.0
 30
0.0
 75
     0
  1
AcDbOsnapPointRef
 72
     2
331
2D3
 73
     2
 91
        0
 40
6.283185307179584
 10
0.0
 20
0.0
 30
0.0
 75
     0
  0
DIMASSOC
  5
2A4
102
{ACAD_REACTORS
330
2A3
102
}
330
2A3
100
AcDbDimAssoc
330
2A2
 90
        1
 70
     0
 71
     0
  1
AcDbOsnapPointRef
 72
    11
331
2C9
 73
     2
 91
        0
 40
0.000000000000001
 10
0.0
 20
0.0
 30
0.0
332
2C5
 74
     2
 92
        0
 75
     0
  0
DIMASSOC
  5
2A7
102
{ACAD_REACTORS
330
2A6
102
}
330
2A6
100
AcDbDimAssoc
330
2A5
 90
        3
 70
     0
 71
     0
  1
AcDbOsnapPointRef
 72
     2
331
2D8
 73
     2
 91
        0
 40
1.570796326794896
 10
0.0
 20
0.0
 30
0.0
 75
     0
  1
AcDbOsnapPointRef
 72
     2
331
2DA
 73
     2
 91
        0
 40
4.712388980384688
 10
0.0
 20
0.0
 30
0.0
 75
     0
  0
DIMASSOC
  5
2AB
102
{ACAD_REACTORS
330
2AA
102
}
330
2AA
100
AcDbDimAssoc
330
2A9
 90
        3
 70
     0
 71
     0
  1
AcDbOsnapPointRef
 72
     2
331
2CF
 73
     2
 91
        0
 40
1.570796326793979
 10
0.0
 20
0.0
 30
0.0
 75
     0
  1
AcDbOsnapPointRef
 72
     8
331
2C1
 73
     2
 91
        0
 40
4.712388980386132
 10
0.0
 20
0.0
 30
0.0
 75
     1
  1
AcDbOsnapPointRef
 72
     2
331
2CF
 73
     2
 91
        0
 40
1.570796326793979
 10
0.0
 20
0.0
 30
0.0
 75
     0
  0
DIMASSOC
  5
2AE
102
{ACAD_REACTORS
330
2AD
102
}
330
2AD
100
AcDbDimAssoc
330
2AC
 90
        1
 70
     0
 71
     0
  1
AcDbOsnapPointRef
 72
     1
331
2B2
 73
     2
 91
        0
 40
1.0
 10
0.0
 20
0.0
 30
2.000000000000000E+50
 75
     0
  0
DIMASSOC
  5
3F9
102
{ACAD_REACTORS
330
3EE
102
}
330
3EE
100
AcDbDimAssoc
330
3E0
 90
        3
 70
     0
 71
     0
  1
AcDbOsnapPointRef
 72
    13
331
2B7
 73
     2
 91
        0
 40
0.0
 10
0.0
 20
0.0
 30
2.000000000000000E+50
 75
     0
  1
AcDbOsnapPointRef
 72
    11
331
27D
 73
     2
 91
        0
 40
1.0
 10
0.0
 20
0.0
 30
0.0
332
2BB
 74
     2
 92
        0
 75
     0
  0
LAYOUT
  5
24
102
{ACAD_REACTORS
330
1A
102
}
330
1A
100
AcDbPlotSettings
  1

  2
FX DocuPrint 255-AP
  4

  6

 40
0.0
 41
0.0
 42
0.0
 43
0.0
 44
0.0
 45
0.0
 46
0.0
 47
0.0
 48
0.0
 49
0.0
140
0.0
141
0.0
142
1.0
143
1.0
 70
  1712
 72
     0
 73
     0
 74
     0
  7

 75
     0
147
1.0
 76
     0
 77
     2
 78
   300
148
0.0
149
0.0
100
AcDbLayout
  1
Model
 70
     1
 71
     0
 10
0.0
 20
0.0
 11
12.0
 21
9.0
 12
0.0
 22
0.0
 32
0.0
 14
0.0
 24
0.0
 34
0.0
 15
0.0
 25
0.0
 35
0.0
146
0.0
 13
0.0
 23
0.0
 33
0.0
 16
1.0
 26
0.0
 36
0.0
 17
0.0
 27
1.0
 37
0.0
 76
     0
330
21
  0
LAYOUT
  5
20
102
{ACAD_REACTORS
330
1A
102
}
330
1A
100
AcDbPlotSettings
  1

  2
FX DocuPrint 255-AP
  4

  6

 40
0.0
 41
0.0
 42
0.0
 43
0.0
 44
0.0
 45
0.0
 46
0.0
 47
0.0
 48
0.0
 49
0.0
140
0.0
141
0.0
142
1.0
143
1.0
 70
   688
 72
     0
 73
     0
 74
     5
  7

 75
    16
147
1.0
 76
     0
 77
     2
 78
   300
148
0.0
149
0.0
100
AcDbLayout
  1
布局1
 70
     1
 71
     1
 10
0.0
 20
0.0
 11
420.0
 21
297.0
 12
0.0
 22
0.0
 32
0.0
 14
1.000000000000000E+20
 24
1.000000000000000E+20
 34
1.000000000000000E+20
 15
-1.000000000000000E+20
 25
-1.000000000000000E+20
 35
-1.000000000000000E+20
146
0.0
 13
0.0
 23
0.0
 33
0.0
 16
1.0
 26
0.0
 36
0.0
 17
0.0
 27
1.0
 37
0.0
 76
     0
330
1D
  0
LAYOUT
  5
28
102
{ACAD_REACTORS
330
1A
102
}
330
1A
100
AcDbPlotSettings
  1

  2
FX DocuPrint 255-AP
  4

  6

 40
0.0
 41
0.0
 42
0.0
 43
0.0
 44
0.0
 45
0.0
 46
0.0
 47
0.0
 48
0.0
 49
0.0
140
0.0
141
0.0
142
1.0
143
1.0
 70
   688
 72
     0
 73
     0
 74
     5
  7

 75
    16
147
1.0
 76
     0
 77
     2
 78
   300
148
0.0
149
0.0
100
AcDbLayout
  1
布局2
 70
     1
 71
     2
 10
0.0
 20
0.0
 11
12.0
 21
9.0
 12
0.0
 22
0.0
 32
0.0
 14
0.0
 24
0.0
 34
0.0
 15
0.0
 25
0.0
 35
0.0
146
0.0
 13
0.0
 23
0.0
 33
0.0
 16
1.0
 26
0.0
 36
0.0
 17
0.0
 27
1.0
 37
0.0
 76
     0
330
25
  0
MLINESTYLE
  5
18
102
{ACAD_REACTORS
330
17
102
}
330
17
100
AcDbMlineStyle
  2
STANDARD
 70
     0
  3

 62
   256
 51
90.0
 52
90.0
 71
     2
 49
0.5
 62
   256
  6
BYLAYER
 49
-0.5
 62
   256
  6
BYLAYER
  0
ACDBPLACEHOLDER
  5
F
102
{ACAD_REACTORS
330
E
102
}
330
E
  0
ENDSEC
  0
EOF
