  0
SECTION
  2
HEADER
  9
$ACADVER
  1
AC1018
  9
$ACADMAINTVER
 70
     0
  9
$DWGCODEPAGE
  3
ANSI_936
  9
$INSBASE
 10
0.0
 20
0.0
 30
0.0
  9
$EXTMIN
 10
377.1644416944662
 20
76.77981857767974
 30
-0.0015258207003583
  9
$EXTMAX
 10
415.3122063963442
 20
237.2664405555165
 30
0.0000000349246037
  9
$LIMMIN
 10
0.0
 20
0.0
  9
$LIMMAX
 10
420.0
 20
297.0
  9
$ORTHOMODE
 70
     1
  9
$REGENMODE
 70
     1
  9
$FILLMODE
 70
     1
  9
$QTEXTMODE
 70
     0
  9
$MIRRTEXT
 70
     0
  9
$LTSCALE
 40
1.0
  9
$ATTMODE
 70
     1
  9
$TEXTSIZE
 40
2.5
  9
$TRACEWID
 40
1.0
  9
$TEXTSTYLE
  7
Standard
  9
$CLAYER
  8
标注
  9
$CELTYPE
  6
ByLayer
  9
$CECOLOR
 62
   256
  9
$CELTSCALE
 40
1.0
  9
$DISPSILH
 70
     0
  9
$DIMSCALE
 40
1.0
  9
$DIMASZ
 40
0.65
  9
$DIMEXO
 40
0.88
  9
$DIMDLI
 40
0.015
  9
$DIMRND
 40
0.0
  9
$DIMDLE
 40
0.0
  9
$DIMEXE
 40
0.32
  9
$DIMTP
 40
0.0
  9
$DIMTM
 40
0.0
  9
$DIMTXT
 40
0.65
  9
$DIMCEN
 40
0.09
  9
$DIMTSZ
 40
0.0
  9
$DIMTOL
 70
     0
  9
$DIMLIM
 70
     0
  9
$DIMTIH
 70
     0
  9
$DIMTOH
 70
     0
  9
$DIMSE1
 70
     0
  9
$DIMSE2
 70
     0
  9
$DIMTAD
 70
     0
  9
$DIMZIN
 70
     8
  9
$DIMBLK
  1

  9
$DIMASO
 70
     1
  9
$DIMSHO
 70
     1
  9
$DIMPOST
  1
"
  9
$DIMAPOST
  1
"
  9
$DIMALT
 70
     0
  9
$DIMALTD
 70
     1
  9
$DIMALTF
 40
0.03937
  9
$DIMLFAC
 40
1.0
  9
$DIMTOFL
 70
     1
  9
$DIMTVP
 40
0.0
  9
$DIMTIX
 70
     0
  9
$DIMSOXD
 70
     0
  9
$DIMSAH
 70
     0
  9
$DIMBLK1
  1

  9
$DIMBLK2
  1

  9
$DIMSTYLE
  2
副本Standard
  9
$DIMCLRD
 70
   256
  9
$DIMCLRE
 70
   256
  9
$DIMCLRT
 70
   256
  9
$DIMTFAC
 40
1.0
  9
$DIMGAP
 40
0.2
  9
$DIMJUST
 70
     0
  9
$DIMSD1
 70
     0
  9
$DIMSD2
 70
     0
  9
$DIMTOLJ
 70
     1
  9
$DIMTZIN
 70
     0
  9
$DIMALTZ
 70
     0
  9
$DIMALTTZ
 70
     0
  9
$DIMUPT
 70
     0
  9
$DIMDEC
 70
     3
  9
$DIMTDEC
 70
     3
  9
$DIMALTU
 70
     2
  9
$DIMALTTD
 70
     1
  9
$DIMTXSTY
  7
Standard
  9
$DIMAUNIT
 70
     0
  9
$DIMADEC
 70
     1
  9
$DIMALTRND
 40
0.0
  9
$DIMAZIN
 70
     2
  9
$DIMDSEP
 70
    44
  9
$DIMATFIT
 70
     3
  9
$DIMFRAC
 70
     2
  9
$DIMLDRBLK
  1

  9
$DIMLUNIT
 70
     5
  9
$DIMLWD
 70
    -2
  9
$DIMLWE
 70
    -2
  9
$DIMTMOVE
 70
     0
  9
$LUNITS
 70
     2
  9
$LUPREC
 70
     4
  9
$SKETCHINC
 40
1.0
  9
$FILLETRAD
 40
0.0
  9
$AUNITS
 70
     0
  9
$AUPREC
 70
     0
  9
$MENU
  1
.
  9
$ELEVATION
 40
0.0
  9
$PELEVATION
 40
0.0
  9
$THICKNESS
 40
0.0
  9
$LIMCHECK
 70
     0
  9
$CHAMFERA
 40
0.0
  9
$CHAMFERB
 40
0.0
  9
$CHAMFERC
 40
0.0
  9
$CHAMFERD
 40
0.0
  9
$SKPOLY
 70
     0
  9
$TDCREATE
 40
2455855.628782743
  9
$TDUCREATE
 40
2455855.295449410
  9
$TDUPDATE
 40
2456157.720010301
  9
$TDUUPDATE
 40
2456157.386676968
  9
$TDINDWG
 40
0.0384866898
  9
$TDUSRTIMER
 40
0.0384859606
  9
$USRTIMER
 70
     1
  9
$ANGBASE
 50
0.0
  9
$ANGDIR
 70
     0
  9
$PDMODE
 70
     0
  9
$PDSIZE
 40
0.0
  9
$PLINEWID
 40
0.0
  9
$SPLFRAME
 70
     0
  9
$SPLINETYPE
 70
     6
  9
$SPLINESEGS
 70
     8
  9
$HANDSEED
  5
1820
  9
$SURFTAB1
 70
     6
  9
$SURFTAB2
 70
     6
  9
$SURFTYPE
 70
     6
  9
$SURFU
 70
     6
  9
$SURFV
 70
     6
  9
$UCSBASE
  2

  9
$UCSNAME
  2

  9
$UCSORG
 10
0.0
 20
0.0
 30
0.0
  9
$UCSXDIR
 10
1.0
 20
0.0
 30
0.0
  9
$UCSYDIR
 10
0.0
 20
1.0
 30
0.0
  9
$UCSORTHOREF
  2

  9
$UCSORTHOVIEW
 70
     0
  9
$UCSORGTOP
 10
0.0
 20
0.0
 30
0.0
  9
$UCSORGBOTTOM
 10
0.0
 20
0.0
 30
0.0
  9
$UCSORGLEFT
 10
0.0
 20
0.0
 30
0.0
  9
$UCSORGRIGHT
 10
0.0
 20
0.0
 30
0.0
  9
$UCSORGFRONT
 10
0.0
 20
0.0
 30
0.0
  9
$UCSORGBACK
 10
0.0
 20
0.0
 30
0.0
  9
$PUCSBASE
  2

  9
$PUCSNAME
  2

  9
$PUCSORG
 10
0.0
 20
0.0
 30
0.0
  9
$PUCSXDIR
 10
1.0
 20
0.0
 30
0.0
  9
$PUCSYDIR
 10
0.0
 20
1.0
 30
0.0
  9
$PUCSORTHOREF
  2

  9
$PUCSORTHOVIEW
 70
     0
  9
$PUCSORGTOP
 10
0.0
 20
0.0
 30
0.0
  9
$PUCSORGBOTTOM
 10
0.0
 20
0.0
 30
0.0
  9
$PUCSORGLEFT
 10
0.0
 20
0.0
 30
0.0
  9
$PUCSORGRIGHT
 10
0.0
 20
0.0
 30
0.0
  9
$PUCSORGFRONT
 10
0.0
 20
0.0
 30
0.0
  9
$PUCSORGBACK
 10
0.0
 20
0.0
 30
0.0
  9
$USERI1
 70
     0
  9
$USERI2
 70
     0
  9
$USERI3
 70
     0
  9
$USERI4
 70
     0
  9
$USERI5
 70
     0
  9
$USERR1
 40
0.0
  9
$USERR2
 40
0.0
  9
$USERR3
 40
0.0
  9
$USERR4
 40
0.0
  9
$USERR5
 40
0.0
  9
$WORLDVIEW
 70
     1
  9
$SHADEDGE
 70
     3
  9
$SHADEDIF
 70
    70
  9
$TILEMODE
 70
     1
  9
$MAXACTVP
 70
    64
  9
$PINSBASE
 10
0.0
 20
0.0
 30
0.0
  9
$PLIMCHECK
 70
     0
  9
$PEXTMIN
 10
1.000000000000000E+20
 20
1.000000000000000E+20
 30
1.000000000000000E+20
  9
$PEXTMAX
 10
-1.000000000000000E+20
 20
-1.000000000000000E+20
 30
-1.000000000000000E+20
  9
$PLIMMIN
 10
0.0
 20
0.0
  9
$PLIMMAX
 10
420.0
 20
297.0
  9
$UNITMODE
 70
     0
  9
$VISRETAIN
 70
     1
  9
$PLINEGEN
 70
     0
  9
$PSLTSCALE
 70
     1
  9
$TREEDEPTH
 70
  3020
  9
$CMLSTYLE
  2
Standard
  9
$CMLJUST
 70
     0
  9
$CMLSCALE
 40
20.0
  9
$PROXYGRAPHICS
 70
     1
  9
$MEASUREMENT
 70
     1
  9
$CELWEIGHT
370
    -1
  9
$ENDCAPS
280
     0
  9
$JOINSTYLE
280
     0
  9
$LWDISPLAY
290
     0
  9
$INSUNITS
 70
     4
  9
$HYPERLINKBASE
  1

  9
$STYLESHEET
  1
acad.ctb
  9
$XEDIT
290
     1
  9
$CEPSNTYPE
380
     0
  9
$PSTYLEMODE
290
     1
  9
$FINGERPRINTGUID
  2
{B48F46D2-D0EA-4C00-A4A8-23CB7417C210}
  9
$VERSIONGUID
  2
{FC8495E9-3208-4FC9-B430-9C8EE1A3C321}
  9
$EXTNAMES
290
     1
  9
$PSVPSCALE
 40
0.0
  9
$OLESTARTUP
290
     0
  9
$SORTENTS
280
   127
  9
$INDEXCTL
280
     0
  9
$HIDETEXT
280
     1
  9
$XCLIPFRAME
290
     0
  9
$HALOGAP
280
     0
  9
$OBSCOLOR
 70
   257
  9
$OBSLTYPE
280
     0
  9
$INTERSECTIONDISPLAY
280
     0
  9
$INTERSECTIONCOLOR
 70
   257
  9
$DIMASSOC
280
     2
  9
$PROJECTNAME
  1

  0
ENDSEC
  0
SECTION
  2
CLASSES
  0
CLASS
  1
ACDBDICTIONARYWDFLT
  2
AcDbDictionaryWithDefault
  3
ObjectDBX Classes
 90
        0
 91
        1
280
     0
281
     0
  0
CLASS
  1
DIMASSOC
  2
AcDbDimAssoc
  3
"AcDbDimAssoc|Product Desc:     AcDim ARX App For Dimension|Company:          Autodesk, Inc.|WEB Address:      www.autodesk.com"
 90
        0
 91
       26
280
     0
281
     0
  0
CLASS
  1
SORTENTSTABLE
  2
AcDbSortentsTable
  3
ObjectDBX Classes
 90
        0
 91
        0
280
     0
281
     0
  0
ENDSEC
  0
SECTION
  2
TABLES
  0
TABLE
  2
VPORT
  5
8
330
0
100
AcDbSymbolTable
 70
     4
  0
VPORT
  5
181F
330
8
100
AcDbSymbolTableRecord
100
AcDbViewportTableRecord
  2
*Active
 70
     0
 10
0.0
 20
0.0
 11
1.0
 21
1.0
 12
413.3928376071755
 22
173.6213374464017
 13
0.0
 23
0.0
 14
10.0
 24
10.0
 15
10.0
 25
10.0
 16
0.0
 26
0.0
 36
1.0
 17
0.0
 27
0.0
 37
0.0
 40
227.6036374174539
 41
1.49746192893401
 42
50.0
 43
0.0
 44
0.0
 50
0.0
 51
0.0
 71
     0
 72
  1000
 73
     1
 74
     3
 75
     0
 76
     0
 77
     0
 78
     0
281
     0
 65
     1
110
0.0
120
0.0
130
0.0
111
1.0
121
0.0
131
0.0
112
0.0
122
1.0
132
0.0
 79
     0
146
0.0
  0
ENDTAB
  0
TABLE
  2
LTYPE
  5
5
330
0
100
AcDbSymbolTable
 70
     3
  0
LTYPE
  5
14
330
5
100
AcDbSymbolTableRecord
100
AcDbLinetypeTableRecord
  2
ByBlock
 70
     0
  3

 72
    65
 73
     0
 40
0.0
  0
LTYPE
  5
15
330
5
100
AcDbSymbolTableRecord
100
AcDbLinetypeTableRecord
  2
ByLayer
 70
     0
  3

 72
    65
 73
     0
 40
0.0
  0
LTYPE
  5
16
330
5
100
AcDbSymbolTableRecord
100
AcDbLinetypeTableRecord
  2
Continuous
 70
     0
  3
Solid line
 72
    65
 73
     0
 40
0.0
  0
LTYPE
  5
ED
330
5
100
AcDbSymbolTableRecord
100
AcDbLinetypeTableRecord
  2
CENTER2
 70
     0
  3
Center (.5x) ___ _ ___ _ ___ _ ___ _ ___ _ ___
 72
    65
 73
     4
 40
28.575
 49
19.05
 74
     0
 49
-3.174999999999998
 74
     0
 49
3.174999999999998
 74
     0
 49
-3.174999999999998
 74
     0
  0
LTYPE
  5
EE
330
5
100
AcDbSymbolTableRecord
100
AcDbLinetypeTableRecord
  2
HIDDEN2
 70
     0
  3
Hidden (.5x) _ _ _ _ _ _ _ _ _ _ _ _ _ _ _ _ _
 72
    65
 73
     2
 40
4.762499999999998
 49
3.174999999999998
 74
     0
 49
-1.587499999999999
 74
     0
  0
ENDTAB
  0
TABLE
  2
LAYER
  5
2
102
{ACAD_XDICTIONARY
360
F7
102
}
330
0
100
AcDbSymbolTable
 70
     7
  0
LAYER
  5
10
330
2
100
AcDbSymbolTableRecord
100
AcDbLayerTableRecord
  2
0
 70
     0
 62
     7
  6
Continuous
370
    -3
390
F
  0
LAYER
  5
EF
330
2
100
AcDbSymbolTableRecord
100
AcDbLayerTableRecord
  2
中心线
 70
     0
 62
     1
  6
CENTER2
370
    -3
390
F
  0
LAYER
  5
F0
330
2
100
AcDbSymbolTableRecord
100
AcDbLayerTableRecord
  2
虚线
 70
     0
 62
     4
  6
HIDDEN2
370
    -3
390
F
  0
LAYER
  5
F1
330
2
100
AcDbSymbolTableRecord
100
AcDbLayerTableRecord
  2
Defpoints
 70
     0
 62
     7
  6
Continuous
290
     0
370
    -3
390
F
  0
LAYER
  5
F2
330
2
100
AcDbSymbolTableRecord
100
AcDbLayerTableRecord
  2
标注
 70
     0
 62
    80
  6
Continuous
370
     5
390
F
1001
AcAecLayerStandard
1000

1000

  0
LAYER
  5
F3
330
2
100
AcDbSymbolTableRecord
100
AcDbLayerTableRecord
  2
截面层
 70
     0
 62
     6
  6
Continuous
370
    50
390
F
  0
LAYER
  5
1012
330
2
100
AcDbSymbolTableRecord
100
AcDbLayerTableRecord
  2
剖面线
 70
     0
 62
   200
  6
Continuous
370
    20
390
F
  0
ENDTAB
  0
TABLE
  2
STYLE
  5
3
330
0
100
AcDbSymbolTable
 70
     1
  0
STYLE
  5
11
330
3
100
AcDbSymbolTableRecord
100
AcDbTextStyleTableRecord
  2
Standard
 70
     0
 40
0.0
 41
1.0
 50
0.0
 71
     0
 42
2.5
  3
txt
  4

  0
ENDTAB
  0
TABLE
  2
VIEW
  5
6
330
0
100
AcDbSymbolTable
 70
     0
  0
ENDTAB
  0
TABLE
  2
UCS
  5
7
330
0
100
AcDbSymbolTable
 70
     0
  0
ENDTAB
  0
TABLE
  2
APPID
  5
9
330
0
100
AcDbSymbolTable
 70
     6
  0
APPID
  5
12
330
9
100
AcDbSymbolTableRecord
100
AcDbRegAppTableRecord
  2
ACAD
 70
     0
  0
APPID
  5
F6
330
9
100
AcDbSymbolTableRecord
100
AcDbRegAppTableRecord
  2
AcAecLayerStandard
 70
     0
  0
APPID
  5
7AE
330
9
100
AcDbSymbolTableRecord
100
AcDbRegAppTableRecord
  2
ACAD_DSTYLE_DIMEXT_LENGTH
 70
     0
  0
APPID
  5
7AF
330
9
100
AcDbSymbolTableRecord
100
AcDbRegAppTableRecord
  2
ACAD_DSTYLE_DIMEXT_ENABLED
 70
     0
  0
APPID
  5
7B0
330
9
100
AcDbSymbolTableRecord
100
AcDbRegAppTableRecord
  2
ACAD_DSTYLE_DIMJOGGED_JOGANGLE_SYMBOL
 70
     0
  0
APPID
  5
7B1
330
9
100
AcDbSymbolTableRecord
100
AcDbRegAppTableRecord
  2
ACAD_DSTYLE_DIMARC_LENGTH_SYMBOL
 70
     0
  0
ENDTAB
  0
TABLE
  2
DIMSTYLE
  5
A
330
0
100
AcDbSymbolTable
 70
     9
100
AcDbDimStyleTable
 71
     4
340
F5
340
1013
340
F4
340
29
  0
DIMSTYLE
105
29
330
A
100
AcDbSymbolTableRecord
100
AcDbDimStyleTableRecord
  2
ISO-25
 70
     0
 41
2.5
 42
0.625
 43
3.75
 44
1.25
 73
     0
 74
     0
 77
     1
 78
     8
140
2.5
141
2.5
143
0.03937007874016
147
0.625
171
     3
172
     1
271
     2
272
     2
274
     3
283
     0
284
     8
340
11
  0
DIMSTYLE
105
F4
330
A
100
AcDbSymbolTableRecord
100
AcDbDimStyleTableRecord
  2
Standard
 70
     0
340
11
  0
DIMSTYLE
105
F5
102
{ACAD_REACTORS
330
1095
330
1098
330
109C
330
10AD
330
10B0
330
10B3
330
10B4
330
10E5
102
}
330
A
100
AcDbSymbolTableRecord
100
AcDbDimStyleTableRecord
  2
副本Standard
 70
     0
  3
"
  4
"
 41
0.65
 42
0.88
 43
0.015
 44
0.32
 73
     0
 74
     0
 78
     8
 79
     2
140
0.65
143
0.03937
147
0.2
171
     1
172
     1
176
   256
177
   256
178
   256
179
     1
271
     3
272
     3
274
     1
276
     2
277
     5
278
    44
340
11
  0
DIMSTYLE
105
1013
330
A
100
AcDbSymbolTableRecord
100
AcDbDimStyleTableRecord
  2
XIAO
 70
     0
 41
2.0
 42
1.5
 43
1.0
 44
0.5
 73
     0
 74
     0
 77
     1
 78
     8
140
2.0
141
1.0
143
0.03937007874016
147
0.8
171
     3
172
     1
179
     1
271
     1
272
     1
274
     3
278
    44
283
     0
284
     8
340
11
  0
DIMSTYLE
105
1465
330
A
100
AcDbSymbolTableRecord
100
AcDbDimStyleTableRecord
  2
xiaoXIAO
 70
     0
 41
2.0
 42
2.0
 43
1.0
 44
0.5
 73
     0
 74
     0
 77
     1
 78
     8
140
2.0
141
0.2
143
0.03937007874016
147
0.7
171
     3
172
     1
179
     1
271
     2
272
     2
274
     3
278
    44
283
     0
284
     8
340
11
  0
ENDTAB
  0
TABLE
  2
BLOCK_RECORD
  5
1
330
0
100
AcDbSymbolTable
 70
   152
  0
BLOCK_RECORD
  5
21
330
1
100
AcDbSymbolTableRecord
100
AcDbBlockTableRecord
  2
*Model_Space
340
24
  0
BLOCK_RECORD
  5
1D
330
1
100
AcDbSymbolTableRecord
100
AcDbBlockTableRecord
  2
*Paper_Space
340
20
  0
BLOCK_RECORD
  5
25
330
1
100
AcDbSymbolTableRecord
100
AcDbBlockTableRecord
  2
*Paper_Space0
340
28
  0
BLOCK_RECORD
  5
59A
330
1
100
AcDbSymbolTableRecord
100
AcDbBlockTableRecord
  2
*D1
340
0
  0
BLOCK_RECORD
  5
5A7
330
1
100
AcDbSymbolTableRecord
100
AcDbBlockTableRecord
  2
*D2
340
0
  0
BLOCK_RECORD
  5
5B5
330
1
100
AcDbSymbolTableRecord
100
AcDbBlockTableRecord
  2
*D3
340
0
  0
BLOCK_RECORD
  5
5C3
330
1
100
AcDbSymbolTableRecord
100
AcDbBlockTableRecord
  2
*D4
340
0
  0
BLOCK_RECORD
  5
5D0
330
1
100
AcDbSymbolTableRecord
100
AcDbBlockTableRecord
  2
*D5
340
0
  0
BLOCK_RECORD
  5
5D8
330
1
100
AcDbSymbolTableRecord
100
AcDbBlockTableRecord
  2
*D6
340
0
  0
BLOCK_RECORD
  5
5E5
330
1
100
AcDbSymbolTableRecord
100
AcDbBlockTableRecord
  2
*D7
340
0
  0
BLOCK_RECORD
  5
5FC
330
1
100
AcDbSymbolTableRecord
100
AcDbBlockTableRecord
  2
*D8
340
0
  0
BLOCK_RECORD
  5
609
330
1
100
AcDbSymbolTableRecord
100
AcDbBlockTableRecord
  2
*D9
340
0
  0
BLOCK_RECORD
  5
616
330
1
100
AcDbSymbolTableRecord
100
AcDbBlockTableRecord
  2
*D10
340
0
  0
BLOCK_RECORD
  5
62F
330
1
100
AcDbSymbolTableRecord
100
AcDbBlockTableRecord
  2
*D11
340
0
  0
BLOCK_RECORD
  5
648
330
1
100
AcDbSymbolTableRecord
100
AcDbBlockTableRecord
  2
*D12
340
0
  0
BLOCK_RECORD
  5
650
330
1
100
AcDbSymbolTableRecord
100
AcDbBlockTableRecord
  2
*D13
340
0
  0
BLOCK_RECORD
  5
658
330
1
100
AcDbSymbolTableRecord
100
AcDbBlockTableRecord
  2
*D14
340
0
  0
BLOCK_RECORD
  5
665
330
1
100
AcDbSymbolTableRecord
100
AcDbBlockTableRecord
  2
*D15
340
0
  0
BLOCK_RECORD
  5
672
330
1
100
AcDbSymbolTableRecord
100
AcDbBlockTableRecord
  2
*D16
340
0
  0
BLOCK_RECORD
  5
67F
330
1
100
AcDbSymbolTableRecord
100
AcDbBlockTableRecord
  2
*D17
340
0
  0
BLOCK_RECORD
  5
87C
330
1
100
AcDbSymbolTableRecord
100
AcDbBlockTableRecord
  2
*D18
340
0
  0
BLOCK_RECORD
  5
889
330
1
100
AcDbSymbolTableRecord
100
AcDbBlockTableRecord
  2
*D19
340
0
  0
BLOCK_RECORD
  5
896
330
1
100
AcDbSymbolTableRecord
100
AcDbBlockTableRecord
  2
*D20
340
0
  0
BLOCK_RECORD
  5
8A3
330
1
100
AcDbSymbolTableRecord
100
AcDbBlockTableRecord
  2
*D21
340
0
  0
BLOCK_RECORD
  5
8B0
330
1
100
AcDbSymbolTableRecord
100
AcDbBlockTableRecord
  2
*D22
340
0
  0
BLOCK_RECORD
  5
8BD
330
1
100
AcDbSymbolTableRecord
100
AcDbBlockTableRecord
  2
*D23
340
0
  0
BLOCK_RECORD
  5
8CA
330
1
100
AcDbSymbolTableRecord
100
AcDbBlockTableRecord
  2
*D24
340
0
  0
BLOCK_RECORD
  5
8D7
330
1
100
AcDbSymbolTableRecord
100
AcDbBlockTableRecord
  2
*D25
340
0
  0
BLOCK_RECORD
  5
8E4
330
1
100
AcDbSymbolTableRecord
100
AcDbBlockTableRecord
  2
*D26
340
0
  0
BLOCK_RECORD
  5
AD6
330
1
100
AcDbSymbolTableRecord
100
AcDbBlockTableRecord
  2
*D27
340
0
  0
BLOCK_RECORD
  5
AF2
330
1
100
AcDbSymbolTableRecord
100
AcDbBlockTableRecord
  2
*D28
340
0
  0
BLOCK_RECORD
  5
B0E
330
1
100
AcDbSymbolTableRecord
100
AcDbBlockTableRecord
  2
*D29
340
0
  0
BLOCK_RECORD
  5
B1D
330
1
100
AcDbSymbolTableRecord
100
AcDbBlockTableRecord
  2
*D30
340
0
  0
BLOCK_RECORD
  5
B37
330
1
100
AcDbSymbolTableRecord
100
AcDbBlockTableRecord
  2
*D31
340
0
  0
BLOCK_RECORD
  5
B47
330
1
100
AcDbSymbolTableRecord
100
AcDbBlockTableRecord
  2
*D32
340
0
  0
BLOCK_RECORD
  5
B59
330
1
100
AcDbSymbolTableRecord
100
AcDbBlockTableRecord
  2
*D33
340
0
  0
BLOCK_RECORD
  5
B69
330
1
100
AcDbSymbolTableRecord
100
AcDbBlockTableRecord
  2
*D34
340
0
  0
BLOCK_RECORD
  5
B79
330
1
100
AcDbSymbolTableRecord
100
AcDbBlockTableRecord
  2
*D35
340
0
  0
BLOCK_RECORD
  5
B89
330
1
100
AcDbSymbolTableRecord
100
AcDbBlockTableRecord
  2
*D36
340
0
  0
BLOCK_RECORD
  5
B99
330
1
100
AcDbSymbolTableRecord
100
AcDbBlockTableRecord
  2
*D37
340
0
  0
BLOCK_RECORD
  5
BA9
330
1
100
AcDbSymbolTableRecord
100
AcDbBlockTableRecord
  2
*D38
340
0
  0
BLOCK_RECORD
  5
C6C
330
1
100
AcDbSymbolTableRecord
100
AcDbBlockTableRecord
  2
*D39
340
0
  0
BLOCK_RECORD
  5
C79
330
1
100
AcDbSymbolTableRecord
100
AcDbBlockTableRecord
  2
*D40
340
0
  0
BLOCK_RECORD
  5
C86
330
1
100
AcDbSymbolTableRecord
100
AcDbBlockTableRecord
  2
*D41
340
0
  0
BLOCK_RECORD
  5
C93
330
1
100
AcDbSymbolTableRecord
100
AcDbBlockTableRecord
  2
*D42
340
0
  0
BLOCK_RECORD
  5
CA0
330
1
100
AcDbSymbolTableRecord
100
AcDbBlockTableRecord
  2
*D43
340
0
  0
BLOCK_RECORD
  5
CAD
330
1
100
AcDbSymbolTableRecord
100
AcDbBlockTableRecord
  2
*D44
340
0
  0
BLOCK_RECORD
  5
CBA
330
1
100
AcDbSymbolTableRecord
100
AcDbBlockTableRecord
  2
*D45
340
0
  0
BLOCK_RECORD
  5
CC7
330
1
100
AcDbSymbolTableRecord
100
AcDbBlockTableRecord
  2
*D46
340
0
  0
BLOCK_RECORD
  5
CD5
330
1
100
AcDbSymbolTableRecord
100
AcDbBlockTableRecord
  2
*D47
340
0
  0
BLOCK_RECORD
  5
CE3
330
1
100
AcDbSymbolTableRecord
100
AcDbBlockTableRecord
  2
*D48
340
0
  0
BLOCK_RECORD
  5
CF1
330
1
100
AcDbSymbolTableRecord
100
AcDbBlockTableRecord
  2
*D49
340
0
  0
BLOCK_RECORD
  5
CFF
330
1
100
AcDbSymbolTableRecord
100
AcDbBlockTableRecord
  2
*D50
340
0
  0
BLOCK_RECORD
  5
D07
330
1
100
AcDbSymbolTableRecord
100
AcDbBlockTableRecord
  2
*D51
340
0
  0
BLOCK_RECORD
  5
D0F
330
1
100
AcDbSymbolTableRecord
100
AcDbBlockTableRecord
  2
*D52
340
0
  0
BLOCK_RECORD
  5
D17
330
1
100
AcDbSymbolTableRecord
100
AcDbBlockTableRecord
  2
*D53
340
0
  0
BLOCK_RECORD
  5
DC5
330
1
100
AcDbSymbolTableRecord
100
AcDbBlockTableRecord
  2
*D54
340
0
  0
BLOCK_RECORD
  5
DD3
330
1
100
AcDbSymbolTableRecord
100
AcDbBlockTableRecord
  2
*D55
340
0
  0
BLOCK_RECORD
  5
DE1
330
1
100
AcDbSymbolTableRecord
100
AcDbBlockTableRecord
  2
*D56
340
0
  0
BLOCK_RECORD
  5
DE9
330
1
100
AcDbSymbolTableRecord
100
AcDbBlockTableRecord
  2
*D57
340
0
  0
BLOCK_RECORD
  5
DF1
330
1
100
AcDbSymbolTableRecord
100
AcDbBlockTableRecord
  2
*D58
340
0
  0
BLOCK_RECORD
  5
DF9
330
1
100
AcDbSymbolTableRecord
100
AcDbBlockTableRecord
  2
*D59
340
0
  0
BLOCK_RECORD
  5
E17
330
1
100
AcDbSymbolTableRecord
100
AcDbBlockTableRecord
  2
*D60
340
0
  0
BLOCK_RECORD
  5
E25
330
1
100
AcDbSymbolTableRecord
100
AcDbBlockTableRecord
  2
*D61
340
0
  0
BLOCK_RECORD
  5
E33
330
1
100
AcDbSymbolTableRecord
100
AcDbBlockTableRecord
  2
*D62
340
0
  0
BLOCK_RECORD
  5
E40
330
1
100
AcDbSymbolTableRecord
100
AcDbBlockTableRecord
  2
*D63
340
0
  0
BLOCK_RECORD
  5
E4D
330
1
100
AcDbSymbolTableRecord
100
AcDbBlockTableRecord
  2
*D64
340
0
  0
BLOCK_RECORD
  5
E5A
330
1
100
AcDbSymbolTableRecord
100
AcDbBlockTableRecord
  2
*D65
340
0
  0
BLOCK_RECORD
  5
E67
330
1
100
AcDbSymbolTableRecord
100
AcDbBlockTableRecord
  2
*D66
340
0
  0
BLOCK_RECORD
  5
E74
330
1
100
AcDbSymbolTableRecord
100
AcDbBlockTableRecord
  2
*D67
340
0
  0
BLOCK_RECORD
  5
E81
330
1
100
AcDbSymbolTableRecord
100
AcDbBlockTableRecord
  2
*D68
340
0
  0
BLOCK_RECORD
  5
F53
330
1
100
AcDbSymbolTableRecord
100
AcDbBlockTableRecord
  2
_None
340
0
  0
BLOCK_RECORD
  5
F56
330
1
100
AcDbSymbolTableRecord
100
AcDbBlockTableRecord
  2
*D70
340
0
  0
BLOCK_RECORD
  5
F5E
330
1
100
AcDbSymbolTableRecord
100
AcDbBlockTableRecord
  2
*D71
340
0
  0
BLOCK_RECORD
  5
F66
330
1
100
AcDbSymbolTableRecord
100
AcDbBlockTableRecord
  2
*D72
340
0
  0
BLOCK_RECORD
  5
F74
330
1
100
AcDbSymbolTableRecord
100
AcDbBlockTableRecord
  2
*D73
340
0
  0
BLOCK_RECORD
  5
F82
330
1
100
AcDbSymbolTableRecord
100
AcDbBlockTableRecord
  2
*D74
340
0
  0
BLOCK_RECORD
  5
F90
330
1
100
AcDbSymbolTableRecord
100
AcDbBlockTableRecord
  2
*D75
340
0
  0
BLOCK_RECORD
  5
F9E
330
1
100
AcDbSymbolTableRecord
100
AcDbBlockTableRecord
  2
*D76
340
0
  0
BLOCK_RECORD
  5
FA6
330
1
100
AcDbSymbolTableRecord
100
AcDbBlockTableRecord
  2
*D77
340
0
  0
BLOCK_RECORD
  5
FAE
330
1
100
AcDbSymbolTableRecord
100
AcDbBlockTableRecord
  2
*D78
340
0
  0
BLOCK_RECORD
  5
FB6
330
1
100
AcDbSymbolTableRecord
100
AcDbBlockTableRecord
  2
*D79
340
0
  0
BLOCK_RECORD
  5
FC4
330
1
100
AcDbSymbolTableRecord
100
AcDbBlockTableRecord
  2
*D80
340
0
  0
BLOCK_RECORD
  5
FD2
330
1
100
AcDbSymbolTableRecord
100
AcDbBlockTableRecord
  2
*D81
340
0
  0
BLOCK_RECORD
  5
FE0
330
1
100
AcDbSymbolTableRecord
100
AcDbBlockTableRecord
  2
*D82
340
0
  0
BLOCK_RECORD
  5
FEE
330
1
100
AcDbSymbolTableRecord
100
AcDbBlockTableRecord
  2
*D83
340
0
  0
BLOCK_RECORD
  5
FF9
330
1
100
AcDbSymbolTableRecord
100
AcDbBlockTableRecord
  2
*D84
340
0
  0
BLOCK_RECORD
  5
1004
330
1
100
AcDbSymbolTableRecord
100
AcDbBlockTableRecord
  2
*D85
340
0
  0
BLOCK_RECORD
  5
10EA
330
1
100
AcDbSymbolTableRecord
100
AcDbBlockTableRecord
  2
*D86
340
0
  0
BLOCK_RECORD
  5
10F2
330
1
100
AcDbSymbolTableRecord
100
AcDbBlockTableRecord
  2
*D87
340
0
  0
BLOCK_RECORD
  5
10FA
330
1
100
AcDbSymbolTableRecord
100
AcDbBlockTableRecord
  2
*D88
340
0
  0
BLOCK_RECORD
  5
1107
330
1
100
AcDbSymbolTableRecord
100
AcDbBlockTableRecord
  2
*D89
340
0
  0
BLOCK_RECORD
  5
1115
330
1
100
AcDbSymbolTableRecord
100
AcDbBlockTableRecord
  2
*D90
340
0
  0
BLOCK_RECORD
  5
1123
330
1
100
AcDbSymbolTableRecord
100
AcDbBlockTableRecord
  2
*D91
340
0
  0
BLOCK_RECORD
  5
1130
330
1
100
AcDbSymbolTableRecord
100
AcDbBlockTableRecord
  2
*D92
340
0
  0
BLOCK_RECORD
  5
1138
330
1
100
AcDbSymbolTableRecord
100
AcDbBlockTableRecord
  2
*D93
340
0
  0
BLOCK_RECORD
  5
1140
330
1
100
AcDbSymbolTableRecord
100
AcDbBlockTableRecord
  2
*D94
340
0
  0
BLOCK_RECORD
  5
114D
330
1
100
AcDbSymbolTableRecord
100
AcDbBlockTableRecord
  2
*D95
340
0
  0
BLOCK_RECORD
  5
115A
330
1
100
AcDbSymbolTableRecord
100
AcDbBlockTableRecord
  2
*D96
340
0
  0
BLOCK_RECORD
  5
1176
330
1
100
AcDbSymbolTableRecord
100
AcDbBlockTableRecord
  2
*D97
340
0
  0
BLOCK_RECORD
  5
1183
330
1
100
AcDbSymbolTableRecord
100
AcDbBlockTableRecord
  2
*D98
340
0
  0
BLOCK_RECORD
  5
11A6
330
1
100
AcDbSymbolTableRecord
100
AcDbBlockTableRecord
  2
*D99
340
0
  0
BLOCK_RECORD
  5
11B1
330
1
100
AcDbSymbolTableRecord
100
AcDbBlockTableRecord
  2
*D100
340
0
  0
BLOCK_RECORD
  5
11BC
330
1
100
AcDbSymbolTableRecord
100
AcDbBlockTableRecord
  2
*D101
340
0
  0
BLOCK_RECORD
  5
1241
330
1
100
AcDbSymbolTableRecord
100
AcDbBlockTableRecord
  2
*D102
340
0
  0
BLOCK_RECORD
  5
1251
330
1
100
AcDbSymbolTableRecord
100
AcDbBlockTableRecord
  2
*D103
340
0
  0
BLOCK_RECORD
  5
1261
330
1
100
AcDbSymbolTableRecord
100
AcDbBlockTableRecord
  2
*D104
340
0
  0
BLOCK_RECORD
  5
126E
330
1
100
AcDbSymbolTableRecord
100
AcDbBlockTableRecord
  2
*D105
340
0
  0
BLOCK_RECORD
  5
12C1
330
1
100
AcDbSymbolTableRecord
100
AcDbBlockTableRecord
  2
*D106
340
0
  0
BLOCK_RECORD
  5
12D8
330
1
100
AcDbSymbolTableRecord
100
AcDbBlockTableRecord
  2
*D107
340
0
  0
BLOCK_RECORD
  5
1364
330
1
100
AcDbSymbolTableRecord
100
AcDbBlockTableRecord
  2
*D108
340
0
  0
BLOCK_RECORD
  5
1372
330
1
100
AcDbSymbolTableRecord
100
AcDbBlockTableRecord
  2
*D109
340
0
  0
BLOCK_RECORD
  5
137A
330
1
100
AcDbSymbolTableRecord
100
AcDbBlockTableRecord
  2
*D110
340
0
  0
BLOCK_RECORD
  5
1388
330
1
100
AcDbSymbolTableRecord
100
AcDbBlockTableRecord
  2
*D111
340
0
  0
BLOCK_RECORD
  5
1396
330
1
100
AcDbSymbolTableRecord
100
AcDbBlockTableRecord
  2
*D112
340
0
  0
BLOCK_RECORD
  5
13A4
330
1
100
AcDbSymbolTableRecord
100
AcDbBlockTableRecord
  2
*D113
340
0
  0
BLOCK_RECORD
  5
13AC
330
1
100
AcDbSymbolTableRecord
100
AcDbBlockTableRecord
  2
*D114
340
0
  0
BLOCK_RECORD
  5
13BA
330
1
100
AcDbSymbolTableRecord
100
AcDbBlockTableRecord
  2
*D115
340
0
  0
BLOCK_RECORD
  5
13C8
330
1
100
AcDbSymbolTableRecord
100
AcDbBlockTableRecord
  2
*D116
340
0
  0
BLOCK_RECORD
  5
13D0
330
1
100
AcDbSymbolTableRecord
100
AcDbBlockTableRecord
  2
*D117
340
0
  0
BLOCK_RECORD
  5
13D8
330
1
100
AcDbSymbolTableRecord
100
AcDbBlockTableRecord
  2
*D118
340
0
  0
BLOCK_RECORD
  5
13E0
330
1
100
AcDbSymbolTableRecord
100
AcDbBlockTableRecord
  2
*D119
340
0
  0
BLOCK_RECORD
  5
13E9
330
1
100
AcDbSymbolTableRecord
100
AcDbBlockTableRecord
  2
*D120
340
0
  0
BLOCK_RECORD
  5
13F7
330
1
100
AcDbSymbolTableRecord
100
AcDbBlockTableRecord
  2
*D121
340
0
  0
BLOCK_RECORD
  5
1405
330
1
100
AcDbSymbolTableRecord
100
AcDbBlockTableRecord
  2
*D122
340
0
  0
BLOCK_RECORD
  5
1413
330
1
100
AcDbSymbolTableRecord
100
AcDbBlockTableRecord
  2
*D123
340
0
  0
BLOCK_RECORD
  5
141B
330
1
100
AcDbSymbolTableRecord
100
AcDbBlockTableRecord
  2
*D124
340
0
  0
BLOCK_RECORD
  5
1426
330
1
100
AcDbSymbolTableRecord
100
AcDbBlockTableRecord
  2
*D125
340
0
  0
BLOCK_RECORD
  5
1431
330
1
100
AcDbSymbolTableRecord
100
AcDbBlockTableRecord
  2
*D126
340
0
  0
BLOCK_RECORD
  5
143F
330
1
100
AcDbSymbolTableRecord
100
AcDbBlockTableRecord
  2
*D127
340
0
  0
BLOCK_RECORD
  5
144D
330
1
100
AcDbSymbolTableRecord
100
AcDbBlockTableRecord
  2
*D128
340
0
  0
BLOCK_RECORD
  5
145B
330
1
100
AcDbSymbolTableRecord
100
AcDbBlockTableRecord
  2
*D129
340
0
  0
BLOCK_RECORD
  5
1558
330
1
100
AcDbSymbolTableRecord
100
AcDbBlockTableRecord
  2
*D130
340
0
  0
BLOCK_RECORD
  5
1566
330
1
100
AcDbSymbolTableRecord
100
AcDbBlockTableRecord
  2
*D131
340
0
  0
BLOCK_RECORD
  5
1574
330
1
100
AcDbSymbolTableRecord
100
AcDbBlockTableRecord
  2
*D132
340
0
  0
BLOCK_RECORD
  5
1581
330
1
100
AcDbSymbolTableRecord
100
AcDbBlockTableRecord
  2
*D133
340
0
  0
BLOCK_RECORD
  5
1589
330
1
100
AcDbSymbolTableRecord
100
AcDbBlockTableRecord
  2
*D134
340
0
  0
BLOCK_RECORD
  5
1596
330
1
100
AcDbSymbolTableRecord
100
AcDbBlockTableRecord
  2
*D135
340
0
  0
BLOCK_RECORD
  5
159E
330
1
100
AcDbSymbolTableRecord
100
AcDbBlockTableRecord
  2
*D136
340
0
  0
BLOCK_RECORD
  5
15A6
330
1
100
AcDbSymbolTableRecord
100
AcDbBlockTableRecord
  2
*D137
340
0
  0
BLOCK_RECORD
  5
15B1
330
1
100
AcDbSymbolTableRecord
100
AcDbBlockTableRecord
  2
*D138
340
0
  0
BLOCK_RECORD
  5
15C7
330
1
100
AcDbSymbolTableRecord
100
AcDbBlockTableRecord
  2
*D139
340
0
  0
BLOCK_RECORD
  5
15E0
330
1
100
AcDbSymbolTableRecord
100
AcDbBlockTableRecord
  2
*D140
340
0
  0
BLOCK_RECORD
  5
15F7
330
1
100
AcDbSymbolTableRecord
100
AcDbBlockTableRecord
  2
*D141
340
0
  0
BLOCK_RECORD
  5
1609
330
1
100
AcDbSymbolTableRecord
100
AcDbBlockTableRecord
  2
*D142
340
0
  0
BLOCK_RECORD
  5
161B
330
1
100
AcDbSymbolTableRecord
100
AcDbBlockTableRecord
  2
*D143
340
0
  0
BLOCK_RECORD
  5
1628
330
1
100
AcDbSymbolTableRecord
100
AcDbBlockTableRecord
  2
*D144
340
0
  0
BLOCK_RECORD
  5
1635
330
1
100
AcDbSymbolTableRecord
100
AcDbBlockTableRecord
  2
*D145
340
0
  0
BLOCK_RECORD
  5
163D
330
1
100
AcDbSymbolTableRecord
100
AcDbBlockTableRecord
  2
*D146
340
0
  0
BLOCK_RECORD
  5
164A
330
1
100
AcDbSymbolTableRecord
100
AcDbBlockTableRecord
  2
*D147
340
0
  0
BLOCK_RECORD
  5
1652
330
1
100
AcDbSymbolTableRecord
100
AcDbBlockTableRecord
  2
*D148
340
0
  0
BLOCK_RECORD
  5
165B
330
1
100
AcDbSymbolTableRecord
100
AcDbBlockTableRecord
  2
*D149
340
0
  0
BLOCK_RECORD
  5
1668
330
1
100
AcDbSymbolTableRecord
100
AcDbBlockTableRecord
  2
*D150
340
0
  0
BLOCK_RECORD
  5
1675
330
1
100
AcDbSymbolTableRecord
100
AcDbBlockTableRecord
  2
*D151
340
0
  0
ENDTAB
  0
ENDSEC
  0
SECTION
  2
BLOCKS
  0
BLOCK
  5
22
330
21
100
AcDbEntity
  8
0
100
AcDbBlockBegin
  2
*Model_Space
 70
     0
 10
0.0
 20
0.0
 30
0.0
  3
*Model_Space
  1

  0
ENDBLK
  5
23
330
21
100
AcDbEntity
  8
0
100
AcDbBlockEnd
  0
BLOCK
  5
1E
330
1D
100
AcDbEntity
 67
     1
  8
0
100
AcDbBlockBegin
  2
*Paper_Space
 70
     0
 10
0.0
 20
0.0
 30
0.0
  3
*Paper_Space
  1

  0
ENDBLK
  5
1F
330
1D
100
AcDbEntity
 67
     1
  8
0
100
AcDbBlockEnd
  0
BLOCK
  5
26
330
25
100
AcDbEntity
  8
0
100
AcDbBlockBegin
  2
*Paper_Space0
 70
     0
 10
0.0
 20
0.0
 30
0.0
  3
*Paper_Space0
  1

  0
ENDBLK
  5
27
330
25
100
AcDbEntity
  8
0
100
AcDbBlockEnd
  0
BLOCK
  5
5A5
330
59A
100
AcDbEntity
  8
0
100
AcDbBlockBegin
  2
*D1
 70
     1
 10
0.0
 20
0.0
 30
0.0
  3
*D1
  1

  0
LINE
  5
6EF
330
59A
100
AcDbEntity
  8
标注
370
    -2
100
AcDbLine
 10
202.9990531621331
 20
210.5128721613448
 30
0.0
 11
193.7220299555844
 21
210.5128721613448
 31
0.0
  0
LINE
  5
6F0
330
59A
100
AcDbEntity
  8
标注
370
    -2
100
AcDbLine
 10
202.9990531621331
 20
189.7727146810271
 30
0.0
 11
193.7220299555844
 21
189.7727146810271
 31
0.0
  0
LINE
  5
6F1
330
59A
100
AcDbEntity
  8
标注
370
    -2
100
AcDbLine
 10
194.0420299555844
 20
209.8628721613448
 30
0.0
 11
194.0420299555844
 21
202.3469600878526
 31
0.0
  0
LINE
  5
6F2
330
59A
100
AcDbEntity
  8
标注
370
    -2
100
AcDbLine
 10
194.0420299555844
 20
190.4227146810271
 30
0.0
 11
194.0420299555844
 21
197.9386267545192
 31
0.0
  0
SOLID
  5
6F3
330
59A
100
AcDbEntity
  8
标注
100
AcDbTrace
 10
193.9336966222511
 20
209.8628721613448
 30
0.0
 11
194.1503632889178
 21
209.8628721613448
 31
0.0
 12
194.0420299555844
 22
210.5128721613448
 32
0.0
 13
194.0420299555844
 23
210.5128721613448
 33
0.0
  0
SOLID
  5
6F4
330
59A
100
AcDbEntity
  8
标注
100
AcDbTrace
 10
193.9336966222511
 20
190.4227146810271
 30
0.0
 11
194.1503632889177
 21
190.4227146810271
 31
0.0
 12
194.0420299555844
 22
189.7727146810271
 32
0.0
 13
194.0420299555844
 23
189.7727146810271
 33
0.0
  0
MTEXT
  5
6F5
330
59A
100
AcDbEntity
  8
标注
100
AcDbMText
 10
194.0420299555844
 20
200.142793421186
 30
0.0
 40
0.65
 41
0.0
 71
     5
 72
     1
  1
\A1;20 3/4"
 11
0.0000000000000001
 21
1.0
 31
0.0
 73
     1
 44
1.0
  0
POINT
  5
6F6
330
59A
100
AcDbEntity
  8
Defpoints
 62
     0
100
AcDbPoint
 10
203.8790531621331
 20
210.5128721613448
 30
0.0
  0
POINT
  5
6F7
330
59A
100
AcDbEntity
  8
Defpoints
 62
     0
100
AcDbPoint
 10
203.8790531621331
 20
189.7727146810271
 30
0.0
  0
POINT
  5
6F8
330
59A
100
AcDbEntity
  8
Defpoints
 62
     0
100
AcDbPoint
 10
194.0420299555844
 20
189.7727146810271
 30
0.0
  0
ENDBLK
  5
5A6
330
59A
100
AcDbEntity
  8
0
100
AcDbBlockEnd
  0
BLOCK
  5
5B3
330
5A7
100
AcDbEntity
  8
0
100
AcDbBlockBegin
  2
*D2
 70
     1
 10
0.0
 20
0.0
 30
0.0
  3
*D2
  1

  0
LINE
  5
692
330
5A7
100
AcDbEntity
  8
标注
370
    -2
100
AcDbLine
 10
206.0560610361954
 20
209.5128721613449
 30
0.0
 11
196.1599907917767
 21
209.5128721613449
 31
0.0
  0
LINE
  5
693
330
5A7
100
AcDbEntity
  8
标注
370
    -2
100
AcDbLine
 10
202.9990531621331
 20
210.5128721613448
 30
0.0
 11
196.1599907917767
 21
210.5128721613448
 31
0.0
  0
LINE
  5
694
330
5A7
100
AcDbEntity
  8
标注
370
    -2
100
AcDbLine
 10
196.4799907917767
 20
208.8628721613449
 30
0.0
 11
196.4799907917767
 21
208.2128721613449
 31
0.0
  0
LINE
  5
695
330
5A7
100
AcDbEntity
  8
标注
370
    -2
100
AcDbLine
 10
196.4799907917767
 20
211.1628721613448
 30
0.0
 11
196.4799907917767
 21
211.8128721613448
 31
0.0
  0
LINE
  5
696
330
5A7
100
AcDbEntity
  8
标注
370
    -2
100
AcDbLine
 10
196.4799907917767
 20
209.5128721613449
 30
0.0
 11
196.4799907917767
 21
210.5128721613448
 31
0.0
  0
SOLID
  5
697
330
5A7
100
AcDbEntity
  8
标注
100
AcDbTrace
 10
196.3716574584434
 20
208.8628721613449
 30
0.0
 11
196.5883241251101
 21
208.8628721613449
 31
0.0
 12
196.4799907917767
 22
209.5128721613449
 32
0.0
 13
196.4799907917767
 23
209.5128721613449
 33
0.0
  0
SOLID
  5
698
330
5A7
100
AcDbEntity
  8
标注
100
AcDbTrace
 10
196.3716574584434
 20
211.1628721613448
 30
0.0
 11
196.5883241251101
 21
211.1628721613448
 31
0.0
 12
196.4799907917767
 22
210.5128721613448
 32
0.0
 13
196.4799907917767
 23
210.5128721613448
 33
0.0
  0
MTEXT
  5
699
330
5A7
100
AcDbEntity
  8
标注
100
AcDbMText
 10
196.4799907917767
 20
212.3378721613448
 30
0.0
 40
0.65
 41
0.0
 71
     5
 72
     1
  1
\A1;1"
 11
0.0000000000000001
 21
1.0
 31
0.0
 73
     1
 44
1.0
  0
POINT
  5
69A
330
5A7
100
AcDbEntity
  8
Defpoints
 62
     0
100
AcDbPoint
 10
206.9360610361954
 20
209.5128721613449
 30
0.0
  0
POINT
  5
69B
330
5A7
100
AcDbEntity
  8
Defpoints
 62
     0
100
AcDbPoint
 10
203.8790531621331
 20
210.5128721613448
 30
0.0
  0
POINT
  5
69C
330
5A7
100
AcDbEntity
  8
Defpoints
 62
     0
100
AcDbPoint
 10
196.4799907917767
 20
210.5128721613448
 30
0.0
  0
ENDBLK
  5
5B4
330
5A7
100
AcDbEntity
  8
0
100
AcDbBlockEnd
  0
BLOCK
  5
5C1
330
5B5
100
AcDbEntity
  8
0
100
AcDbBlockBegin
  2
*D3
 70
     1
 10
0.0
 20
0.0
 30
0.0
  3
*D3
  1

  0
LINE
  5
6A8
330
5B5
100
AcDbEntity
  8
标注
370
    -2
100
AcDbLine
 10
199.9420452881172
 20
199.2627934211875
 30
0.0
 11
199.9420452881172
 21
187.098589322541
 31
0.0
  0
LINE
  5
6A9
330
5B5
100
AcDbEntity
  8
标注
370
    -2
100
AcDbLine
 10
198.9420452881173
 20
193.8297225550427
 30
0.0
 11
198.9420452881173
 21
187.098589322541
 31
0.0
  0
LINE
  5
6AA
330
5B5
100
AcDbEntity
  8
标注
370
    -2
100
AcDbLine
 10
200.5920452881172
 20
187.418589322541
 30
0.0
 11
201.2420452881172
 21
187.418589322541
 31
0.0
  0
LINE
  5
6AB
330
5B5
100
AcDbEntity
  8
标注
370
    -2
100
AcDbLine
 10
198.2920452881172
 20
187.418589322541
 30
0.0
 11
197.6420452881173
 21
187.418589322541
 31
0.0
  0
LINE
  5
6AC
330
5B5
100
AcDbEntity
  8
标注
370
    -2
100
AcDbLine
 10
199.9420452881172
 20
187.418589322541
 30
0.0
 11
198.9420452881173
 21
187.418589322541
 31
0.0
  0
SOLID
  5
6AD
330
5B5
100
AcDbEntity
  8
标注
100
AcDbTrace
 10
200.5920452881172
 20
187.5269226558743
 30
0.0
 11
200.5920452881172
 21
187.3102559892076
 31
0.0
 12
199.9420452881172
 22
187.418589322541
 32
0.0
 13
199.9420452881172
 23
187.418589322541
 33
0.0
  0
SOLID
  5
6AE
330
5B5
100
AcDbEntity
  8
标注
100
AcDbTrace
 10
198.2920452881172
 20
187.5269226558743
 30
0.0
 11
198.2920452881172
 21
187.3102559892076
 31
0.0
 12
198.9420452881173
 22
187.418589322541
 32
0.0
 13
198.9420452881173
 23
187.418589322541
 33
0.0
  0
MTEXT
  5
6AF
330
5B5
100
AcDbEntity
  8
标注
100
AcDbMText
 10
197.1170452881173
 20
187.418589322541
 30
0.0
 40
0.65
 41
0.0
 71
     5
 72
     1
  1
\A1;1"
 73
     1
 44
1.0
  0
POINT
  5
6B0
330
5B5
100
AcDbEntity
  8
Defpoints
 62
     0
100
AcDbPoint
 10
199.9420452881172
 20
200.1427934211875
 30
0.0
  0
POINT
  5
6B1
330
5B5
100
AcDbEntity
  8
Defpoints
 62
     0
100
AcDbPoint
 10
198.9420452881173
 20
194.7097225550427
 30
0.0
  0
POINT
  5
6B2
330
5B5
100
AcDbEntity
  8
Defpoints
 62
     0
100
AcDbPoint
 10
198.9420452881173
 20
187.418589322541
 30
0.0
  0
ENDBLK
  5
5C2
330
5B5
100
AcDbEntity
  8
0
100
AcDbBlockEnd
  0
BLOCK
  5
5CE
330
5C3
100
AcDbEntity
  8
0
100
AcDbBlockBegin
  2
*D4
 70
     1
 10
0.0
 20
0.0
 30
0.0
  3
*D4
  1

  0
LINE
  5
5C4
330
5C3
100
AcDbEntity
  8
标注
370
    -2
100
AcDbLine
 10
203.0070067301248
 20
220.1817819961139
 30
0.0
 11
194.3504395567531
 21
220.1817819961139
 31
0.0
  0
LINE
  5
5C5
330
5C3
100
AcDbEntity
  8
标注
370
    -2
100
AcDbLine
 10
196.2672267399818
 20
230.1975300276099
 30
0.0
 11
194.3504395567531
 21
230.1975300276099
 31
0.0
  0
LINE
  5
5C6
330
5C3
100
AcDbEntity
  8
标注
370
    -2
100
AcDbLine
 10
194.6704395567531
 20
220.8317819961139
 30
0.0
 11
194.6704395567531
 21
224.3938226785286
 31
0.0
  0
LINE
  5
5C7
330
5C3
100
AcDbEntity
  8
标注
370
    -2
100
AcDbLine
 10
194.6704395567531
 20
229.5475300276099
 30
0.0
 11
194.6704395567531
 21
225.9854893451952
 31
0.0
  0
SOLID
  5
5C8
330
5C3
100
AcDbEntity
  8
标注
100
AcDbTrace
 10
194.5621062234197
 20
220.8317819961139
 30
0.0
 11
194.7787728900864
 21
220.8317819961139
 31
0.0
 12
194.6704395567531
 22
220.1817819961139
 32
0.0
 13
194.6704395567531
 23
220.1817819961139
 33
0.0
  0
SOLID
  5
5C9
330
5C3
100
AcDbEntity
  8
标注
100
AcDbTrace
 10
194.5621062234197
 20
229.5475300276099
 30
0.0
 11
194.7787728900864
 21
229.5475300276099
 31
0.0
 12
194.6704395567531
 22
230.1975300276099
 32
0.0
 13
194.6704395567531
 23
230.1975300276099
 33
0.0
  0
MTEXT
  5
5CA
330
5C3
100
AcDbEntity
  8
标注
100
AcDbMText
 10
194.670439556753
 20
225.1896560118619
 30
0.0
 40
0.65
 41
0.0
 71
     5
 72
     1
  1
\A1;10"
 11
0.0000000000000001
 21
1.0
 31
0.0
 73
     1
 44
1.0
  0
POINT
  5
5CB
330
5C3
100
AcDbEntity
  8
Defpoints
 62
     0
100
AcDbPoint
 10
203.8870067301248
 20
220.1817819961139
 30
0.0
  0
POINT
  5
5CC
330
5C3
100
AcDbEntity
  8
Defpoints
 62
     0
100
AcDbPoint
 10
197.1472267399818
 20
230.1975300276099
 30
0.0
  0
POINT
  5
5CD
330
5C3
100
AcDbEntity
  8
Defpoints
 62
     0
100
AcDbPoint
 10
194.6704395567531
 20
230.1975300276099
 30
0.0
  0
ENDBLK
  5
5CF
330
5C3
100
AcDbEntity
  8
0
100
AcDbBlockEnd
  0
BLOCK
  5
5D6
330
5D0
100
AcDbEntity
  8
0
100
AcDbBlockBegin
  2
*D5
 70
     1
 10
0.0
 20
0.0
 30
0.0
  3
*D5
  1

  0
LINE
  5
5D1
330
5D0
100
AcDbEntity
  8
标注
370
    -2
100
AcDbLine
 10
200.0446062196895
 20
222.038461727769
 30
0.0
 11
199.4959662198399
 21
221.6899016173645
 31
0.0
  0
MTEXT
  5
5D2
330
5D0
100
AcDbEntity
  8
标注
100
AcDbMText
 10
200.8534985271599
 20
222.5523644546473
 30
0.0
 40
0.65
 41
0.0
 71
     5
 72
     1
  1
\A1;R2"
 11
0.8440615382299974
 21
0.53624632369911
 31
0.0
 73
     1
 44
1.0
  0
SOLID
  5
5D3
330
5D0
100
AcDbEntity
  8
标注
100
AcDbTrace
 10
199.4378728681058
 20
221.7813416173394
 30
0.0
 11
199.554059571574
 21
221.5984616173896
 31
0.0
 12
198.9473262199904
 22
221.3413415069601
 32
0.0
 13
198.9473262199904
 23
221.3413415069601
 33
0.0
  0
POINT
  5
5D4
330
5D0
100
AcDbEntity
  8
Defpoints
 62
     0
100
AcDbPoint
 10
198.9473262199904
 20
221.3413415069601
 30
0.0
  0
POINT
  5
5D5
330
5D0
100
AcDbEntity
  8
Defpoints
 62
     0
100
AcDbPoint
 10
200.6354492964505
 20
222.4138341543584
 30
0.0
  0
ENDBLK
  5
5D7
330
5D0
100
AcDbEntity
  8
0
100
AcDbBlockEnd
  0
BLOCK
  5
5E3
330
5D8
100
AcDbEntity
  8
0
100
AcDbBlockBegin
  2
*D6
 70
     1
 10
0.0
 20
0.0
 30
0.0
  3
*D6
  1

  0
LINE
  5
6DB
330
5D8
100
AcDbEntity
  8
标注
370
    -2
100
AcDbLine
 10
227.2866122172511
 20
208.3081477519077
 30
0.0
 11
236.3431978353523
 21
208.3081477519077
 31
0.0
  0
LINE
  5
6DC
330
5D8
100
AcDbEntity
  8
标注
370
    -2
100
AcDbLine
 10
227.2866122172511
 20
189.7727146810437
 30
0.0
 11
236.3431978353522
 21
189.7727146810437
 31
0.0
  0
LINE
  5
6DD
330
5D8
100
AcDbEntity
  8
标注
370
    -2
100
AcDbLine
 10
236.0231978353523
 20
207.6581477519077
 30
0.0
 11
236.0231978353523
 21
201.0820978831424
 31
0.0
  0
LINE
  5
6DE
330
5D8
100
AcDbEntity
  8
标注
370
    -2
100
AcDbLine
 10
236.0231978353521
 20
190.4227146810437
 30
0.0
 11
236.0231978353523
 21
196.998764549809
 31
0.0
  0
SOLID
  5
6DF
330
5D8
100
AcDbEntity
  8
标注
100
AcDbTrace
 10
235.9148645020189
 20
207.6581477519077
 30
0.0
 11
236.1315311686856
 21
207.6581477519077
 31
0.0
 12
236.0231978353523
 22
208.3081477519077
 32
0.0
 13
236.0231978353523
 23
208.3081477519077
 33
0.0
  0
SOLID
  5
6E0
330
5D8
100
AcDbEntity
  8
标注
100
AcDbTrace
 10
235.9148645020189
 20
190.4227146810437
 30
0.0
 11
236.1315311686856
 21
190.4227146810437
 31
0.0
 12
236.0231978353521
 22
189.7727146810437
 32
0.0
 13
236.0231978353521
 23
189.7727146810437
 33
0.0
  0
MTEXT
  5
6E1
330
5D8
100
AcDbEntity
  8
标注
100
AcDbMText
 10
236.0231978353521
 20
199.0404312164756
 30
0.0
 40
0.65
 41
0.0
 71
     5
 72
     1
  1
\A1;18 1/2"
 11
0.0000000000000001
 21
1.0
 31
0.0
 73
     1
 44
1.0
  0
POINT
  5
6E2
330
5D8
100
AcDbEntity
  8
Defpoints
 62
     0
100
AcDbPoint
 10
226.4066122172511
 20
208.3081477519077
 30
0.0
  0
POINT
  5
6E3
330
5D8
100
AcDbEntity
  8
Defpoints
 62
     0
100
AcDbPoint
 10
226.4066122172511
 20
189.7727146810437
 30
0.0
  0
POINT
  5
6E4
330
5D8
100
AcDbEntity
  8
Defpoints
 62
     0
100
AcDbPoint
 10
236.0231978353521
 20
189.7727146810437
 30
0.0
  0
ENDBLK
  5
5E4
330
5D8
100
AcDbEntity
  8
0
100
AcDbBlockEnd
  0
BLOCK
  5
5F0
330
5E5
100
AcDbEntity
  8
0
100
AcDbBlockBegin
  2
*D7
 70
     1
 10
0.0
 20
0.0
 30
0.0
  3
*D7
  1

  0
LINE
  5
722
330
5E5
100
AcDbEntity
  8
标注
370
    -2
100
AcDbLine
 10
224.3338563117393
 20
207.3081477519076
 30
0.0
 11
234.0020369199558
 21
207.3081477519076
 31
0.0
  0
LINE
  5
723
330
5E5
100
AcDbEntity
  8
标注
370
    -2
100
AcDbLine
 10
224.3338563117393
 20
190.7727146810413
 30
0.0
 11
234.0020369199558
 21
190.7727146810413
 31
0.0
  0
LINE
  5
724
330
5E5
100
AcDbEntity
  8
标注
370
    -2
100
AcDbLine
 10
233.6820369199559
 20
206.6581477519076
 30
0.0
 11
233.6820369199559
 21
201.0820978831411
 31
0.0
  0
LINE
  5
725
330
5E5
100
AcDbEntity
  8
标注
370
    -2
100
AcDbLine
 10
233.6820369199558
 20
191.4227146810413
 30
0.0
 11
233.6820369199559
 21
196.9987645498078
 31
0.0
  0
SOLID
  5
726
330
5E5
100
AcDbEntity
  8
标注
100
AcDbTrace
 10
233.5737035866225
 20
206.6581477519076
 30
0.0
 11
233.7903702532892
 21
206.6581477519076
 31
0.0
 12
233.6820369199559
 22
207.3081477519076
 32
0.0
 13
233.6820369199559
 23
207.3081477519076
 33
0.0
  0
SOLID
  5
727
330
5E5
100
AcDbEntity
  8
标注
100
AcDbTrace
 10
233.5737035866225
 20
191.4227146810413
 30
0.0
 11
233.7903702532892
 21
191.4227146810413
 31
0.0
 12
233.6820369199558
 22
190.7727146810413
 32
0.0
 13
233.6820369199558
 23
190.7727146810413
 33
0.0
  0
MTEXT
  5
728
330
5E5
100
AcDbEntity
  8
标注
100
AcDbMText
 10
233.6820369199558
 20
199.0404312164745
 30
0.0
 40
0.65
 41
0.0
 71
     5
 72
     1
  1
\A1;16 1/2"
 11
0.0000000000000001
 21
1.0
 31
0.0
 73
     1
 44
1.0
  0
POINT
  5
729
330
5E5
100
AcDbEntity
  8
Defpoints
 62
     0
100
AcDbPoint
 10
223.4538563117393
 20
207.3081477519076
 30
0.0
  0
POINT
  5
72A
330
5E5
100
AcDbEntity
  8
Defpoints
 62
     0
100
AcDbPoint
 10
223.4538563117393
 20
190.7727146810413
 30
0.0
  0
POINT
  5
72B
330
5E5
100
AcDbEntity
  8
Defpoints
 62
     0
100
AcDbPoint
 10
233.6820369199558
 20
190.7727146810413
 30
0.0
  0
ENDBLK
  5
5F1
330
5E5
100
AcDbEntity
  8
0
100
AcDbBlockEnd
  0
BLOCK
  5
607
330
5FC
100
AcDbEntity
  8
0
100
AcDbBlockBegin
  2
*D8
 70
     1
 10
0.0
 20
0.0
 30
0.0
  3
*D8
  1

  0
LINE
  5
72C
330
5FC
100
AcDbEntity
  8
标注
370
    -2
100
AcDbLine
 10
206.9360610361954
 20
209.5128721613449
 30
0.0
 11
196.1599907917768
 21
209.5128721613449
 31
0.0
  0
LINE
  5
72D
330
5FC
100
AcDbEntity
  8
标注
370
    -2
100
AcDbLine
 10
206.9360610362225
 20
190.7727146810299
 30
0.0
 11
196.1599907917768
 21
190.7727146810299
 31
0.0
  0
LINE
  5
72E
330
5FC
100
AcDbEntity
  8
标注
370
    -2
100
AcDbLine
 10
196.4799907917768
 20
208.8628721613449
 30
0.0
 11
196.4799907917768
 21
202.2927934211875
 31
0.0
  0
LINE
  5
72F
330
5FC
100
AcDbEntity
  8
标注
370
    -2
100
AcDbLine
 10
196.4799907917768
 20
191.4227146810299
 30
0.0
 11
196.4799907917768
 21
197.9927934211874
 31
0.0
  0
SOLID
  5
730
330
5FC
100
AcDbEntity
  8
标注
100
AcDbTrace
 10
196.3716574584435
 20
208.8628721613449
 30
0.0
 11
196.5883241251102
 21
208.8628721613449
 31
0.0
 12
196.4799907917768
 22
209.5128721613449
 32
0.0
 13
196.4799907917768
 23
209.5128721613449
 33
0.0
  0
SOLID
  5
731
330
5FC
100
AcDbEntity
  8
标注
100
AcDbTrace
 10
196.3716574584435
 20
191.4227146810299
 30
0.0
 11
196.5883241251101
 21
191.4227146810299
 31
0.0
 12
196.4799907917768
 22
190.7727146810299
 32
0.0
 13
196.4799907917768
 23
190.7727146810299
 33
0.0
  0
MTEXT
  5
732
330
5FC
100
AcDbEntity
  8
标注
100
AcDbMText
 10
196.4799907917768
 20
200.1427934211875
 30
0.0
 40
0.65
 41
0.0
 71
     5
 72
     1
  1
\A1;18 3/4"
 11
0.0000000000000001
 21
1.0
 31
0.0
 73
     1
 44
1.0
  0
POINT
  5
733
330
5FC
100
AcDbEntity
  8
Defpoints
 62
     0
100
AcDbPoint
 10
207.8160610361954
 20
209.5128721613449
 30
0.0
  0
POINT
  5
734
330
5FC
100
AcDbEntity
  8
Defpoints
 62
     0
100
AcDbPoint
 10
207.8160610362225
 20
190.7727146810299
 30
0.0
  0
POINT
  5
735
330
5FC
100
AcDbEntity
  8
Defpoints
 62
     0
100
AcDbPoint
 10
196.4799907917768
 20
190.7727146810299
 30
0.0
  0
ENDBLK
  5
608
330
5FC
100
AcDbEntity
  8
0
100
AcDbBlockEnd
  0
BLOCK
  5
614
330
609
100
AcDbEntity
  8
0
100
AcDbBlockBegin
  2
*D9
 70
     1
 10
0.0
 20
0.0
 30
0.0
  3
*D9
  1

  0
LINE
  5
60A
330
609
100
AcDbEntity
  8
标注
370
    -2
100
AcDbLine
 10
230.0351007557297
 20
230.1975300276099
 30
0.0
 11
232.1670028484299
 21
230.1975300276099
 31
0.0
  0
LINE
  5
60B
330
609
100
AcDbEntity
  8
标注
370
    -2
100
AcDbLine
 10
224.7670067301261
 20
222.2290260906021
 30
0.0
 11
232.1670028484299
 21
222.2290260906021
 31
0.0
  0
LINE
  5
60C
330
609
100
AcDbEntity
  8
标注
370
    -2
100
AcDbLine
 10
231.8470028484298
 20
229.5475300276099
 30
0.0
 11
231.8470028484298
 21
226.8466113924393
 31
0.0
  0
LINE
  5
60D
330
609
100
AcDbEntity
  8
标注
370
    -2
100
AcDbLine
 10
231.8470028484298
 20
222.8790260906021
 30
0.0
 11
231.8470028484298
 21
225.5799447257726
 31
0.0
  0
SOLID
  5
60E
330
609
100
AcDbEntity
  8
标注
100
AcDbTrace
 10
231.7386695150966
 20
229.5475300276099
 30
0.0
 11
231.9553361817632
 21
229.5475300276099
 31
0.0
 12
231.8470028484298
 22
230.1975300276099
 32
0.0
 13
231.8470028484298
 23
230.1975300276099
 33
0.0
  0
SOLID
  5
60F
330
609
100
AcDbEntity
  8
标注
100
AcDbTrace
 10
231.7386695150966
 20
222.8790260906021
 30
0.0
 11
231.9553361817632
 21
222.8790260906021
 31
0.0
 12
231.8470028484298
 22
222.2290260906021
 32
0.0
 13
231.8470028484298
 23
222.2290260906021
 33
0.0
  0
MTEXT
  5
610
330
609
100
AcDbEntity
  8
标注
100
AcDbMText
 10
231.8470028484298
 20
226.213278059106
 30
0.0
 40
0.65
 41
0.0
 71
     5
 72
     1
  1
\A1;8"
 11
0.0000000000000001
 21
1.0
 31
0.0
 73
     1
 44
1.0
  0
POINT
  5
611
330
609
100
AcDbEntity
  8
Defpoints
 62
     0
100
AcDbPoint
 10
229.1551007557298
 20
230.1975300276099
 30
0.0
  0
POINT
  5
612
330
609
100
AcDbEntity
  8
Defpoints
 62
     0
100
AcDbPoint
 10
223.8870067301261
 20
222.2290260906021
 30
0.0
  0
POINT
  5
613
330
609
100
AcDbEntity
  8
Defpoints
 62
     0
100
AcDbPoint
 10
231.8470028484298
 20
222.2290260906021
 30
0.0
  0
ENDBLK
  5
615
330
609
100
AcDbEntity
  8
0
100
AcDbBlockEnd
  0
BLOCK
  5
622
330
616
100
AcDbEntity
  8
0
100
AcDbBlockBegin
  2
*D10
 70
     1
 10
0.0
 20
0.0
 30
0.0
  3
*D10
  1

  0
LINE
  5
687
330
616
100
AcDbEntity
  8
标注
370
    -2
100
AcDbLine
 10
225.2138563117393
 20
190.7727146810413
 30
0.0
 11
234.0020369199558
 21
190.7727146810413
 31
0.0
  0
LINE
  5
688
330
616
100
AcDbEntity
  8
标注
370
    -2
100
AcDbLine
 10
227.2866122172545
 20
189.7727146810437
 30
0.0
 11
234.0020369199558
 21
189.7727146810437
 31
0.0
  0
LINE
  5
689
330
616
100
AcDbEntity
  8
标注
370
    -2
100
AcDbLine
 10
233.6820369199558
 20
191.4227146810414
 30
0.0
 11
233.6820369199558
 21
192.0727146810414
 31
0.0
  0
LINE
  5
68A
330
616
100
AcDbEntity
  8
标注
370
    -2
100
AcDbLine
 10
233.6820369199558
 20
189.1227146810437
 30
0.0
 11
233.6820369199558
 21
188.4727146810437
 31
0.0
  0
LINE
  5
68B
330
616
100
AcDbEntity
  8
标注
370
    -2
100
AcDbLine
 10
233.6820369199558
 20
190.7727146810413
 30
0.0
 11
233.6820369199558
 21
189.7727146810437
 31
0.0
  0
SOLID
  5
68C
330
616
100
AcDbEntity
  8
标注
100
AcDbTrace
 10
233.5737035866225
 20
191.4227146810414
 30
0.0
 11
233.7903702532891
 21
191.4227146810414
 31
0.0
 12
233.6820369199558
 22
190.7727146810413
 32
0.0
 13
233.6820369199558
 23
190.7727146810413
 33
0.0
  0
SOLID
  5
68D
330
616
100
AcDbEntity
  8
标注
100
AcDbTrace
 10
233.5737035866225
 20
189.1227146810437
 30
0.0
 11
233.7903702532891
 21
189.1227146810437
 31
0.0
 12
233.6820369199558
 22
189.7727146810437
 32
0.0
 13
233.6820369199558
 23
189.7727146810437
 33
0.0
  0
MTEXT
  5
68E
330
616
100
AcDbEntity
  8
标注
100
AcDbMText
 10
233.6820369199558
 20
187.9477146810437
 30
0.0
 40
0.65
 41
0.0
 71
     5
 72
     1
  1
\A1;1"
 11
0.0000000000000001
 21
1.0
 31
0.0
 73
     1
 44
1.0
  0
POINT
  5
68F
330
616
100
AcDbEntity
  8
Defpoints
 62
     0
100
AcDbPoint
 10
224.3338563117393
 20
190.7727146810413
 30
0.0
  0
POINT
  5
690
330
616
100
AcDbEntity
  8
Defpoints
 62
     0
100
AcDbPoint
 10
226.4066122172545
 20
189.7727146810437
 30
0.0
  0
POINT
  5
691
330
616
100
AcDbEntity
  8
Defpoints
 62
     0
100
AcDbPoint
 10
233.6820369199558
 20
189.7727146810437
 30
0.0
  0
ENDBLK
  5
623
330
616
100
AcDbEntity
  8
0
100
AcDbBlockEnd
  0
BLOCK
  5
63B
330
62F
100
AcDbEntity
  8
0
100
AcDbBlockBegin
  2
*D11
 70
     1
 10
0.0
 20
0.0
 30
0.0
  3
*D11
  1

  0
LINE
  5
703
330
62F
100
AcDbEntity
  8
标注
370
    -2
100
AcDbLine
 10
216.9577933196132
 20
199.9204312164755
 30
0.0
 11
216.9577933196132
 21
199.5827934211874
 31
0.0
  0
LINE
  5
704
330
62F
100
AcDbEntity
  8
标注
370
    -2
100
AcDbLine
 10
215.6900767841802
 20
199.9204312164755
 30
0.0
 11
215.6900767841802
 21
199.5827934211874
 31
0.0
  0
LINE
  5
705
330
62F
100
AcDbEntity
  8
标注
370
    -2
100
AcDbLine
 10
217.6077933196132
 20
199.2627934211874
 30
0.0
 11
218.2577933196132
 21
199.2627934211874
 31
0.0
  0
LINE
  5
706
330
62F
100
AcDbEntity
  8
标注
370
    -2
100
AcDbLine
 10
215.0400767841802
 20
199.2627934211874
 30
0.0
 11
214.3900767841802
 21
199.2627934211874
 31
0.0
  0
LINE
  5
707
330
62F
100
AcDbEntity
  8
标注
370
    -2
100
AcDbLine
 10
216.9577933196132
 20
199.2627934211874
 30
0.0
 11
215.6900767841802
 21
199.2627934211874
 31
0.0
  0
SOLID
  5
708
330
62F
100
AcDbEntity
  8
标注
100
AcDbTrace
 10
217.6077933196132
 20
199.3711267545207
 30
0.0
 11
217.6077933196132
 21
199.1544600878541
 31
0.0
 12
216.9577933196132
 22
199.2627934211874
 32
0.0
 13
216.9577933196132
 23
199.2627934211874
 33
0.0
  0
SOLID
  5
709
330
62F
100
AcDbEntity
  8
标注
100
AcDbTrace
 10
215.0400767841802
 20
199.3711267545207
 30
0.0
 11
215.0400767841802
 21
199.1544600878541
 31
0.0
 12
215.6900767841802
 22
199.2627934211874
 32
0.0
 13
215.6900767841802
 23
199.2627934211874
 33
0.0
  0
MTEXT
  5
70A
330
62F
100
AcDbEntity
  8
标注
100
AcDbMText
 10
212.6734101175135
 20
199.2627934211874
 30
0.0
 40
0.65
 41
0.0
 71
     5
 72
     1
  1
\A1;1 1/4"
 73
     1
 44
1.0
  0
POINT
  5
70B
330
62F
100
AcDbEntity
  8
Defpoints
 62
     0
100
AcDbPoint
 10
216.9577933196132
 20
199.0404312164755
 30
0.0
  0
POINT
  5
70C
330
62F
100
AcDbEntity
  8
Defpoints
 62
     0
100
AcDbPoint
 10
215.6900767841802
 20
199.0404312164755
 30
0.0
  0
POINT
  5
70D
330
62F
100
AcDbEntity
  8
Defpoints
 62
     0
100
AcDbPoint
 10
215.6900767841802
 20
199.2627934211874
 30
0.0
  0
ENDBLK
  5
63C
330
62F
100
AcDbEntity
  8
0
100
AcDbBlockEnd
  0
BLOCK
  5
64E
330
648
100
AcDbEntity
  8
0
100
AcDbBlockBegin
  2
*D12
 70
     1
 10
0.0
 20
0.0
 30
0.0
  3
*D12
  1

  0
LINE
  5
70E
330
648
100
AcDbEntity
  8
标注
370
    -2
100
AcDbLine
 10
227.9048223557279
 20
193.0095116021615
 30
0.0
 11
228.4031702671254
 21
192.5921995376272
 31
0.0
  0
MTEXT
  5
70F
330
648
100
AcDbEntity
  8
标注
100
AcDbMText
 10
226.2564408026443
 20
194.3898515079288
 30
0.0
 40
0.65
 41
0.0
 71
     5
 72
     1
  1
\A1;R3 1/2"
 11
0.7666890944575071
 21
-0.6420185608219812
 31
0.0
 73
     1
 44
1.0
  0
SOLID
  5
710
330
648
100
AcDbEntity
  8
标注
100
AcDbTrace
 10
228.4727222778812
 20
192.6752575228601
 30
0.0
 11
228.3336182563697
 21
192.5091415523943
 31
0.0
 12
228.9015181785228
 22
192.1748874730929
 32
0.0
 13
228.9015181785228
 23
192.1748874730929
 33
0.0
  0
POINT
  5
711
330
648
100
AcDbEntity
  8
Defpoints
 62
     0
100
AcDbPoint
 10
228.9015181785228
 20
192.1748874730929
 30
0.0
  0
POINT
  5
712
330
648
100
AcDbEntity
  8
Defpoints
 62
     0
100
AcDbPoint
 10
226.1849032769017
 20
194.4497563893912
 30
0.0
  0
ENDBLK
  5
64F
330
648
100
AcDbEntity
  8
0
100
AcDbBlockEnd
  0
BLOCK
  5
656
330
650
100
AcDbEntity
  8
0
100
AcDbBlockBegin
  2
*D13
 70
     1
 10
0.0
 20
0.0
 30
0.0
  3
*D13
  1

  0
LINE
  5
713
330
650
100
AcDbEntity
  8
标注
370
    -2
100
AcDbLine
 10
213.5636893071532
 20
193.1615283372782
 30
0.0
 11
214.0615206190872
 21
192.7436001318911
 31
0.0
  0
MTEXT
  5
714
330
650
100
AcDbEntity
  8
标注
100
AcDbMText
 10
211.8340446208183
 20
194.6135609483025
 30
0.0
 40
0.65
 41
0.0
 71
     5
 72
     1
  1
\A1;R3 7/8"
 11
0.7658943260523478
 21
-0.6429664698262424
 31
0.0
 73
     1
 44
1.0
  0
SOLID
  5
715
330
650
100
AcDbEntity
  8
标注
100
AcDbTrace
 10
214.131175319985
 20
192.8265720172134
 30
0.0
 11
213.9918659181894
 21
192.6606282465688
 31
0.0
 12
214.5593519310212
 22
192.325671926504
 32
0.0
 13
214.5593519310212
 23
192.325671926504
 33
0.0
  0
POINT
  5
716
330
650
100
AcDbEntity
  8
Defpoints
 62
     0
100
AcDbPoint
 10
214.5593519310212
 20
192.325671926504
 30
0.0
  0
POINT
  5
717
330
650
100
AcDbEntity
  8
Defpoints
 62
     0
100
AcDbPoint
 10
211.5440199386891
 20
194.8570359809381
 30
0.0
  0
ENDBLK
  5
657
330
650
100
AcDbEntity
  8
0
100
AcDbBlockEnd
  0
BLOCK
  5
663
330
658
100
AcDbEntity
  8
0
100
AcDbBlockBegin
  2
*D14
 70
     1
 10
0.0
 20
0.0
 30
0.0
  3
*D14
  1

  0
LINE
  5
6BD
330
658
100
AcDbEntity
  8
标注
370
    -2
100
AcDbLine
 10
198.9420452881173
 20
193.8297225550427
 30
0.0
 11
198.9420452881173
 21
184.8511816833898
 31
0.0
  0
LINE
  5
6BE
330
658
100
AcDbEntity
  8
标注
370
    -2
100
AcDbLine
 10
230.9499193038652
 20
193.4360217676578
 30
0.0
 11
230.9499193038652
 21
184.8511816833898
 31
0.0
  0
LINE
  5
6BF
330
658
100
AcDbEntity
  8
标注
370
    -2
100
AcDbLine
 10
199.5920452881172
 20
185.1711816833899
 30
0.0
 11
213.9876489626579
 21
185.1711816833899
 31
0.0
  0
LINE
  5
6C0
330
658
100
AcDbEntity
  8
标注
370
    -2
100
AcDbLine
 10
230.2999193038652
 20
185.1711816833899
 30
0.0
 11
215.9043156293246
 21
185.1711816833899
 31
0.0
  0
SOLID
  5
6C1
330
658
100
AcDbEntity
  8
标注
100
AcDbTrace
 10
199.5920452881172
 20
185.2795150167231
 30
0.0
 11
199.5920452881172
 21
185.0628483500566
 31
0.0
 12
198.9420452881173
 22
185.1711816833899
 32
0.0
 13
198.9420452881173
 23
185.1711816833899
 33
0.0
  0
SOLID
  5
6C2
330
658
100
AcDbEntity
  8
标注
100
AcDbTrace
 10
230.2999193038652
 20
185.2795150167231
 30
0.0
 11
230.2999193038652
 21
185.0628483500566
 31
0.0
 12
230.9499193038652
 22
185.1711816833899
 32
0.0
 13
230.9499193038652
 23
185.1711816833899
 33
0.0
  0
MTEXT
  5
6C3
330
658
100
AcDbEntity
  8
标注
100
AcDbMText
 10
214.9459822959913
 20
185.1711816833899
 30
0.0
 40
0.65
 41
0.0
 71
     5
 72
     1
  1
\A1;32"
 73
     1
 44
1.0
  0
POINT
  5
6C4
330
658
100
AcDbEntity
  8
Defpoints
 62
     0
100
AcDbPoint
 10
198.9420452881173
 20
194.7097225550427
 30
0.0
  0
POINT
  5
6C5
330
658
100
AcDbEntity
  8
Defpoints
 62
     0
100
AcDbPoint
 10
230.9499193038652
 20
194.3160217676578
 30
0.0
  0
POINT
  5
6C6
330
658
100
AcDbEntity
  8
Defpoints
 62
     0
100
AcDbPoint
 10
230.9499193038652
 20
185.1711816833899
 30
0.0
  0
ENDBLK
  5
664
330
658
100
AcDbEntity
  8
0
100
AcDbBlockEnd
  0
BLOCK
  5
670
330
665
100
AcDbEntity
  8
0
100
AcDbBlockBegin
  2
*D15
 70
     1
 10
0.0
 20
0.0
 30
0.0
  3
*D15
  1

  0
LINE
  5
6C7
330
665
100
AcDbEntity
  8
标注
370
    -2
100
AcDbLine
 10
216.9577933196133
 20
198.1604312164755
 30
0.0
 11
216.9577933196133
 21
187.0945799508261
 31
0.0
  0
LINE
  5
6C8
330
665
100
AcDbEntity
  8
标注
370
    -2
100
AcDbLine
 10
229.9499193038652
 20
198.1604312164745
 30
0.0
 11
229.9499193038652
 21
187.0945799508261
 31
0.0
  0
LINE
  5
6C9
330
665
100
AcDbEntity
  8
标注
370
    -2
100
AcDbLine
 10
217.6077933196133
 20
187.4145799508261
 30
0.0
 11
222.6038563117392
 21
187.4145799508261
 31
0.0
  0
LINE
  5
6CA
330
665
100
AcDbEntity
  8
标注
370
    -2
100
AcDbLine
 10
229.2999193038652
 20
187.4145799508261
 30
0.0
 11
224.3038563117392
 21
187.4145799508261
 31
0.0
  0
SOLID
  5
6CB
330
665
100
AcDbEntity
  8
标注
100
AcDbTrace
 10
217.6077933196133
 20
187.5229132841594
 30
0.0
 11
217.6077933196133
 21
187.3062466174928
 31
0.0
 12
216.9577933196133
 22
187.4145799508261
 32
0.0
 13
216.9577933196133
 23
187.4145799508261
 33
0.0
  0
SOLID
  5
6CC
330
665
100
AcDbEntity
  8
标注
100
AcDbTrace
 10
229.2999193038652
 20
187.5229132841594
 30
0.0
 11
229.2999193038652
 21
187.3062466174928
 31
0.0
 12
229.9499193038652
 22
187.4145799508261
 32
0.0
 13
229.9499193038652
 23
187.4145799508261
 33
0.0
  0
MTEXT
  5
6CD
330
665
100
AcDbEntity
  8
标注
100
AcDbMText
 10
223.4538563117392
 20
187.4145799508261
 30
0.0
 40
0.65
 41
0.0
 71
     5
 72
     1
  1
\A1;13"
 73
     1
 44
1.0
  0
POINT
  5
6CE
330
665
100
AcDbEntity
  8
Defpoints
 62
     0
100
AcDbPoint
 10
216.9577933196133
 20
199.0404312164755
 30
0.0
  0
POINT
  5
6CF
330
665
100
AcDbEntity
  8
Defpoints
 62
     0
100
AcDbPoint
 10
229.9499193038652
 20
199.0404312164745
 30
0.0
  0
POINT
  5
6D0
330
665
100
AcDbEntity
  8
Defpoints
 62
     0
100
AcDbPoint
 10
229.9499193038652
 20
187.4145799508261
 30
0.0
  0
ENDBLK
  5
671
330
665
100
AcDbEntity
  8
0
100
AcDbBlockEnd
  0
BLOCK
  5
67D
330
672
100
AcDbEntity
  8
0
100
AcDbBlockBegin
  2
*D16
 70
     1
 10
0.0
 20
0.0
 30
0.0
  3
*D16
  1

  0
LINE
  5
718
330
672
100
AcDbEntity
  8
标注
370
    -2
100
AcDbLine
 10
199.9420452881172
 20
199.2627934211875
 30
0.0
 11
199.9420452881172
 21
187.098589322541
 31
0.0
  0
LINE
  5
719
330
672
100
AcDbEntity
  8
标注
370
    -2
100
AcDbLine
 10
215.6900767841802
 20
199.2627934211875
 30
0.0
 11
215.6900767841802
 21
187.098589322541
 31
0.0
  0
LINE
  5
71A
330
672
100
AcDbEntity
  8
标注
370
    -2
100
AcDbLine
 10
200.5920452881172
 20
187.418589322541
 30
0.0
 11
205.6660610361487
 21
187.418589322541
 31
0.0
  0
LINE
  5
71B
330
672
100
AcDbEntity
  8
标注
370
    -2
100
AcDbLine
 10
215.0400767841802
 20
187.418589322541
 30
0.0
 11
209.9660610361487
 21
187.418589322541
 31
0.0
  0
SOLID
  5
71C
330
672
100
AcDbEntity
  8
标注
100
AcDbTrace
 10
200.5920452881172
 20
187.5269226558743
 30
0.0
 11
200.5920452881172
 21
187.3102559892076
 31
0.0
 12
199.9420452881172
 22
187.418589322541
 32
0.0
 13
199.9420452881172
 23
187.418589322541
 33
0.0
  0
SOLID
  5
71D
330
672
100
AcDbEntity
  8
标注
100
AcDbTrace
 10
215.0400767841802
 20
187.5269226558743
 30
0.0
 11
215.0400767841802
 21
187.3102559892076
 31
0.0
 12
215.6900767841802
 22
187.418589322541
 32
0.0
 13
215.6900767841802
 23
187.418589322541
 33
0.0
  0
MTEXT
  5
71E
330
672
100
AcDbEntity
  8
标注
100
AcDbMText
 10
207.8160610361487
 20
187.418589322541
 30
0.0
 40
0.65
 41
0.0
 71
     5
 72
     1
  1
\A1;15 3/4"
 73
     1
 44
1.0
  0
POINT
  5
71F
330
672
100
AcDbEntity
  8
Defpoints
 62
     0
100
AcDbPoint
 10
199.9420452881172
 20
200.1427934211875
 30
0.0
  0
POINT
  5
720
330
672
100
AcDbEntity
  8
Defpoints
 62
     0
100
AcDbPoint
 10
215.6900767841802
 20
200.1427934211875
 30
0.0
  0
POINT
  5
721
330
672
100
AcDbEntity
  8
Defpoints
 62
     0
100
AcDbPoint
 10
215.6900767841802
 20
187.418589322541
 30
0.0
  0
ENDBLK
  5
67E
330
672
100
AcDbEntity
  8
0
100
AcDbBlockEnd
  0
BLOCK
  5
685
330
67F
100
AcDbEntity
  8
0
100
AcDbBlockBegin
  2
*D17
 70
     1
 10
0.0
 20
0.0
 30
0.0
  3
*D17
  1

  0
LINE
  5
680
330
67F
100
AcDbEntity
  8
标注
370
    -2
100
AcDbLine
 10
216.909699555007
 20
223.9467469862881
 30
0.0
 11
216.3942130147025
 21
223.550800491462
 31
0.0
  0
MTEXT
  5
681
330
67F
100
AcDbEntity
  8
标注
100
AcDbMText
 10
217.6697117618661
 20
224.5305142543007
 30
0.0
 40
0.65
 41
0.0
 71
     5
 72
     1
  1
\A1;R2"
 11
0.793056215852955
 21
0.609148453578429
 31
0.0
 73
     1
 44
1.0
  0
SOLID
  5
682
330
67F
100
AcDbEntity
  8
标注
100
AcDbTrace
 10
216.3282219322315
 20
223.6367149148461
 30
0.0
 11
216.4602040971735
 21
223.4648860680779
 31
0.0
 12
215.8787264743981
 22
223.1548539966361
 32
0.0
 13
215.8787264743981
 23
223.1548539966361
 33
0.0
  0
POINT
  5
683
330
67F
100
AcDbEntity
  8
Defpoints
 62
     0
100
AcDbPoint
 10
215.8787264743981
 20
223.1548539966361
 30
0.0
  0
POINT
  5
684
330
67F
100
AcDbEntity
  8
Defpoints
 62
     0
100
AcDbPoint
 10
217.4648389061041
 20
224.3731509037929
 30
0.0
  0
ENDBLK
  5
686
330
67F
100
AcDbEntity
  8
0
100
AcDbBlockEnd
  0
BLOCK
  5
887
330
87C
100
AcDbEntity
  8
0
100
AcDbBlockBegin
  2
*D18
 70
     1
 10
0.0
 20
0.0
 30
0.0
  3
*D18
  1

  0
LINE
  5
C48
330
87C
100
AcDbEntity
  8
标注
370
    -2
100
AcDbLine
 10
198.3544287709788
 20
228.9003785154762
 30
0.0
 11
196.2462173539444
 21
228.9003785154762
 31
0.0
  0
LINE
  5
C49
330
87C
100
AcDbEntity
  8
标注
370
    -2
100
AcDbLine
 10
205.9882870386953
 20
219.9003785154762
 30
0.0
 11
196.2462173539444
 21
219.9003785154762
 31
0.0
  0
LINE
  5
C4A
330
87C
100
AcDbEntity
  8
标注
370
    -2
100
AcDbLine
 10
196.5662173539444
 20
228.2503785154762
 30
0.0
 11
196.5662173539444
 21
225.0337118488095
 31
0.0
  0
LINE
  5
C4B
330
87C
100
AcDbEntity
  8
标注
370
    -2
100
AcDbLine
 10
196.5662173539444
 20
220.5503785154762
 30
0.0
 11
196.5662173539444
 21
223.7670451821428
 31
0.0
  0
SOLID
  5
C4C
330
87C
100
AcDbEntity
  8
标注
100
AcDbTrace
 10
196.4578840206111
 20
228.2503785154762
 30
0.0
 11
196.6745506872777
 21
228.2503785154762
 31
0.0
 12
196.5662173539444
 22
228.9003785154762
 32
0.0
 13
196.5662173539444
 23
228.9003785154762
 33
0.0
  0
SOLID
  5
C4D
330
87C
100
AcDbEntity
  8
标注
100
AcDbTrace
 10
196.4578840206111
 20
220.5503785154762
 30
0.0
 11
196.6745506872777
 21
220.5503785154762
 31
0.0
 12
196.5662173539444
 22
219.9003785154762
 32
0.0
 13
196.5662173539444
 23
219.9003785154762
 33
0.0
  0
MTEXT
  5
C4E
330
87C
100
AcDbEntity
  8
标注
100
AcDbMText
 10
196.5662173539443
 20
224.4003785154762
 30
0.0
 40
0.65
 41
0.0
 71
     5
 72
     1
  1
\A1;9"
 11
0.0000000000000001
 21
1.0
 31
0.0
 73
     1
 44
1.0
  0
POINT
  5
C4F
330
87C
100
AcDbEntity
  8
Defpoints
 62
     0
100
AcDbPoint
 10
199.2344287709789
 20
228.9003785154762
 30
0.0
  0
POINT
  5
C50
330
87C
100
AcDbEntity
  8
Defpoints
 62
     0
100
AcDbPoint
 10
206.8682870386953
 20
219.9003785154762
 30
0.0
  0
POINT
  5
C51
330
87C
100
AcDbEntity
  8
Defpoints
 62
     0
100
AcDbPoint
 10
196.5662173539444
 20
219.9003785154762
 30
0.0
  0
ENDBLK
  5
888
330
87C
100
AcDbEntity
  8
0
100
AcDbBlockEnd
  0
BLOCK
  5
894
330
889
100
AcDbEntity
  8
0
100
AcDbBlockBegin
  2
*D19
 70
     1
 10
0.0
 20
0.0
 30
0.0
  3
*D19
  1

  0
LINE
  5
A75
330
889
100
AcDbEntity
  8
标注
370
    -2
100
AcDbLine
 10
306.9058723247739
 20
230.6178766621064
 30
0.0
 11
308.8425618239226
 21
230.6178766621064
 31
0.0
  0
LINE
  5
A76
330
889
100
AcDbEntity
  8
标注
370
    -2
100
AcDbLine
 10
301.3707126712346
 20
223.6178766621064
 30
0.0
 11
308.8425618239226
 21
223.6178766621064
 31
0.0
  0
LINE
  5
A77
330
889
100
AcDbEntity
  8
标注
370
    -2
100
AcDbLine
 10
308.5225618239225
 20
229.9678766621064
 30
0.0
 11
308.5225618239225
 21
227.7512099954397
 31
0.0
  0
LINE
  5
A78
330
889
100
AcDbEntity
  8
标注
370
    -2
100
AcDbLine
 10
308.5225618239225
 20
224.2678766621064
 30
0.0
 11
308.5225618239225
 21
226.484543328773
 31
0.0
  0
SOLID
  5
A79
330
889
100
AcDbEntity
  8
标注
100
AcDbTrace
 10
308.4142284905892
 20
229.9678766621064
 30
0.0
 11
308.6308951572558
 21
229.9678766621064
 31
0.0
 12
308.5225618239225
 22
230.6178766621064
 32
0.0
 13
308.5225618239225
 23
230.6178766621064
 33
0.0
  0
SOLID
  5
A7A
330
889
100
AcDbEntity
  8
标注
100
AcDbTrace
 10
308.4142284905892
 20
224.2678766621064
 30
0.0
 11
308.6308951572558
 21
224.2678766621064
 31
0.0
 12
308.5225618239225
 22
223.6178766621064
 32
0.0
 13
308.5225618239225
 23
223.6178766621064
 33
0.0
  0
MTEXT
  5
A7B
330
889
100
AcDbEntity
  8
标注
100
AcDbMText
 10
308.5225618239225
 20
227.1178766621064
 30
0.0
 40
0.65
 41
0.0
 71
     5
 72
     1
  1
\A1;7"
 11
0.0000000000000001
 21
1.0
 31
0.0
 73
     1
 44
1.0
  0
POINT
  5
A7C
330
889
100
AcDbEntity
  8
Defpoints
 62
     0
100
AcDbPoint
 10
306.0258723247738
 20
230.6178766621064
 30
0.0
  0
POINT
  5
A7D
330
889
100
AcDbEntity
  8
Defpoints
 62
     0
100
AcDbPoint
 10
300.4907126712347
 20
223.6178766621064
 30
0.0
  0
POINT
  5
A7E
330
889
100
AcDbEntity
  8
Defpoints
 62
     0
100
AcDbPoint
 10
308.5225618239225
 20
223.6178766621064
 30
0.0
  0
ENDBLK
  5
895
330
889
100
AcDbEntity
  8
0
100
AcDbBlockEnd
  0
BLOCK
  5
8A1
330
896
100
AcDbEntity
  8
0
100
AcDbBlockBegin
  2
*D20
 70
     1
 10
0.0
 20
0.0
 30
0.0
  3
*D20
  1

  0
LINE
  5
C3E
330
896
100
AcDbEntity
  8
标注
370
    -2
100
AcDbLine
 10
208.2126964875147
 20
208.4053273304736
 30
0.0
 11
196.2462173539447
 21
208.4053273304736
 31
0.0
  0
LINE
  5
C3F
330
896
100
AcDbEntity
  8
标注
370
    -2
100
AcDbLine
 10
203.291436644995
 20
189.9013903225996
 30
0.0
 11
196.2462173539447
 21
189.9013903225996
 31
0.0
  0
LINE
  5
C40
330
896
100
AcDbEntity
  8
标注
370
    -2
100
AcDbLine
 10
196.5662173539447
 20
207.7553273304736
 30
0.0
 11
196.5662173539447
 21
201.1950254932032
 31
0.0
  0
LINE
  5
C41
330
896
100
AcDbEntity
  8
标注
370
    -2
100
AcDbLine
 10
196.5662173539447
 20
190.5513903225996
 30
0.0
 11
196.5662173539447
 21
197.1116921598699
 31
0.0
  0
SOLID
  5
C42
330
896
100
AcDbEntity
  8
标注
100
AcDbTrace
 10
196.4578840206114
 20
207.7553273304736
 30
0.0
 11
196.674550687278
 21
207.7553273304736
 31
0.0
 12
196.5662173539447
 22
208.4053273304736
 32
0.0
 13
196.5662173539447
 23
208.4053273304736
 33
0.0
  0
SOLID
  5
C43
330
896
100
AcDbEntity
  8
标注
100
AcDbTrace
 10
196.4578840206113
 20
190.5513903225996
 30
0.0
 11
196.674550687278
 21
190.5513903225996
 31
0.0
 12
196.5662173539447
 22
189.9013903225996
 32
0.0
 13
196.5662173539447
 23
189.9013903225996
 33
0.0
  0
MTEXT
  5
C44
330
896
100
AcDbEntity
  8
标注
100
AcDbMText
 10
196.5662173539446
 20
199.1533588265366
 30
0.0
 40
0.65
 41
0.0
 71
     5
 72
     1
  1
\A1;18 1/2"
 11
0.0000000000000001
 21
1.0
 31
0.0
 73
     1
 44
1.0
  0
POINT
  5
C45
330
896
100
AcDbEntity
  8
Defpoints
 62
     0
100
AcDbPoint
 10
209.0926964875147
 20
208.4053273304736
 30
0.0
  0
POINT
  5
C46
330
896
100
AcDbEntity
  8
Defpoints
 62
     0
100
AcDbPoint
 10
204.171436644995
 20
189.9013903225996
 30
0.0
  0
POINT
  5
C47
330
896
100
AcDbEntity
  8
Defpoints
 62
     0
100
AcDbPoint
 10
196.5662173539447
 20
189.9013903225996
 30
0.0
  0
ENDBLK
  5
8A2
330
896
100
AcDbEntity
  8
0
100
AcDbBlockEnd
  0
BLOCK
  5
8AE
330
8A3
100
AcDbEntity
  8
0
100
AcDbBlockBegin
  2
*D21
 70
     1
 10
0.0
 20
0.0
 30
0.0
  3
*D21
  1

  0
LINE
  5
C34
330
8A3
100
AcDbEntity
  8
标注
370
    -2
100
AcDbLine
 10
205.6536413694045
 20
209.4053100857582
 30
0.0
 11
193.8752387198185
 21
209.4053100857582
 31
0.0
  0
LINE
  5
C35
330
8A3
100
AcDbEntity
  8
标注
370
    -2
100
AcDbLine
 10
203.291436644995
 20
188.9013903225995
 30
0.0
 11
193.8752387198184
 21
188.9013903225995
 31
0.0
  0
LINE
  5
C36
330
8A3
100
AcDbEntity
  8
标注
370
    -2
100
AcDbLine
 10
194.1952387198185
 20
208.7553100857582
 30
0.0
 11
194.1952387198185
 21
201.2491835375122
 31
0.0
  0
LINE
  5
C37
330
8A3
100
AcDbEntity
  8
标注
370
    -2
100
AcDbLine
 10
194.1952387198185
 20
189.5513903225996
 30
0.0
 11
194.1952387198185
 21
197.0575168708455
 31
0.0
  0
SOLID
  5
C38
330
8A3
100
AcDbEntity
  8
标注
100
AcDbTrace
 10
194.0869053864851
 20
208.7553100857582
 30
0.0
 11
194.3035720531518
 21
208.7553100857582
 31
0.0
 12
194.1952387198185
 22
209.4053100857582
 32
0.0
 13
194.1952387198185
 23
209.4053100857582
 33
0.0
  0
SOLID
  5
C39
330
8A3
100
AcDbEntity
  8
标注
100
AcDbTrace
 10
194.0869053864851
 20
189.5513903225996
 30
0.0
 11
194.3035720531518
 21
189.5513903225996
 31
0.0
 12
194.1952387198185
 22
188.9013903225995
 32
0.0
 13
194.1952387198185
 23
188.9013903225995
 33
0.0
  0
MTEXT
  5
C3A
330
8A3
100
AcDbEntity
  8
标注
100
AcDbMText
 10
194.1952387198184
 20
199.1533502041789
 30
0.0
 40
0.65
 41
0.0
 71
     5
 72
     1
  1
\A1;20 1/2"
 11
0.0000000000000001
 21
1.0
 31
0.0
 73
     1
 44
1.0
  0
POINT
  5
C3B
330
8A3
100
AcDbEntity
  8
Defpoints
 62
     0
100
AcDbPoint
 10
206.5336413694045
 20
209.4053100857582
 30
0.0
  0
POINT
  5
C3C
330
8A3
100
AcDbEntity
  8
Defpoints
 62
     0
100
AcDbPoint
 10
204.171436644995
 20
188.9013903225995
 30
0.0
  0
POINT
  5
C3D
330
8A3
100
AcDbEntity
  8
Defpoints
 62
     0
100
AcDbPoint
 10
194.1952387198185
 20
188.9013903225995
 30
0.0
  0
ENDBLK
  5
8AF
330
8A3
100
AcDbEntity
  8
0
100
AcDbBlockEnd
  0
BLOCK
  5
8BB
330
8B0
100
AcDbEntity
  8
0
100
AcDbBlockBegin
  2
*D22
 70
     1
 10
0.0
 20
0.0
 30
0.0
  3
*D22
  1

  0
LINE
  5
C2A
330
8B0
100
AcDbEntity
  8
标注
370
    -2
100
AcDbLine
 10
226.5081295583807
 20
206.4369952141638
 30
0.0
 11
235.9627587817186
 21
206.4369952141638
 31
0.0
  0
LINE
  5
C2B
330
8B0
100
AcDbEntity
  8
标注
370
    -2
100
AcDbLine
 10
226.5081295583807
 20
189.9015621432976
 30
0.0
 11
235.9627587817186
 21
189.9015621432976
 31
0.0
  0
LINE
  5
C2C
330
8B0
100
AcDbEntity
  8
标注
370
    -2
100
AcDbLine
 10
235.6427587817186
 20
205.7869952141639
 30
0.0
 11
235.6427587817186
 21
200.2109453453974
 31
0.0
  0
LINE
  5
C2D
330
8B0
100
AcDbEntity
  8
标注
370
    -2
100
AcDbLine
 10
235.6427587817186
 20
190.5515621432977
 30
0.0
 11
235.6427587817186
 21
196.1276120120641
 31
0.0
  0
SOLID
  5
C2E
330
8B0
100
AcDbEntity
  8
标注
100
AcDbTrace
 10
235.5344254483853
 20
205.7869952141639
 30
0.0
 11
235.7510921150519
 21
205.7869952141639
 31
0.0
 12
235.6427587817186
 22
206.4369952141638
 32
0.0
 13
235.6427587817186
 23
206.4369952141638
 33
0.0
  0
SOLID
  5
C2F
330
8B0
100
AcDbEntity
  8
标注
100
AcDbTrace
 10
235.5344254483852
 20
190.5515621432977
 30
0.0
 11
235.7510921150519
 21
190.5515621432977
 31
0.0
 12
235.6427587817186
 22
189.9015621432976
 32
0.0
 13
235.6427587817186
 23
189.9015621432976
 33
0.0
  0
MTEXT
  5
C30
330
8B0
100
AcDbEntity
  8
标注
100
AcDbMText
 10
235.6427587817185
 20
198.1692786787308
 30
0.0
 40
0.65
 41
0.0
 71
     5
 72
     1
  1
\A1;16 1/2"
 11
0.0000000000000001
 21
1.0
 31
0.0
 73
     1
 44
1.0
  0
POINT
  5
C31
330
8B0
100
AcDbEntity
  8
Defpoints
 62
     0
100
AcDbPoint
 10
225.6281295583808
 20
206.4369952141638
 30
0.0
  0
POINT
  5
C32
330
8B0
100
AcDbEntity
  8
Defpoints
 62
     0
100
AcDbPoint
 10
225.6281295583808
 20
189.9015621432976
 30
0.0
  0
POINT
  5
C33
330
8B0
100
AcDbEntity
  8
Defpoints
 62
     0
100
AcDbPoint
 10
235.6427587817186
 20
189.9015621432976
 30
0.0
  0
ENDBLK
  5
8BC
330
8B0
100
AcDbEntity
  8
0
100
AcDbBlockEnd
  0
BLOCK
  5
8C8
330
8BD
100
AcDbEntity
  8
0
100
AcDbBlockBegin
  2
*D23
 70
     1
 10
0.0
 20
0.0
 30
0.0
  3
*D23
  1

  0
LINE
  5
C20
330
8BD
100
AcDbEntity
  8
标注
370
    -2
100
AcDbLine
 10
229.4608854638926
 20
207.4369952141638
 30
0.0
 11
238.1228989213742
 21
207.4369952141638
 31
0.0
  0
LINE
  5
C21
330
8BD
100
AcDbEntity
  8
标注
370
    -2
100
AcDbLine
 10
229.4608854638926
 20
188.9013903225995
 30
0.0
 11
238.1228989213742
 21
188.9013903225995
 31
0.0
  0
LINE
  5
C22
330
8BD
100
AcDbEntity
  8
标注
370
    -2
100
AcDbLine
 10
237.8028989213742
 20
206.7869952141638
 30
0.0
 11
237.8028989213742
 21
200.2108594350484
 31
0.0
  0
LINE
  5
C23
330
8BD
100
AcDbEntity
  8
标注
370
    -2
100
AcDbLine
 10
237.8028989213742
 20
189.5513903225996
 30
0.0
 11
237.8028989213742
 21
196.127526101715
 31
0.0
  0
SOLID
  5
C24
330
8BD
100
AcDbEntity
  8
标注
100
AcDbTrace
 10
237.6945655880409
 20
206.7869952141638
 30
0.0
 11
237.9112322547076
 21
206.7869952141638
 31
0.0
 12
237.8028989213742
 22
207.4369952141638
 32
0.0
 13
237.8028989213742
 23
207.4369952141638
 33
0.0
  0
SOLID
  5
C25
330
8BD
100
AcDbEntity
  8
标注
100
AcDbTrace
 10
237.6945655880409
 20
189.5513903225996
 30
0.0
 11
237.9112322547075
 21
189.5513903225996
 31
0.0
 12
237.8028989213742
 22
188.9013903225995
 32
0.0
 13
237.8028989213742
 23
188.9013903225995
 33
0.0
  0
MTEXT
  5
C26
330
8BD
100
AcDbEntity
  8
标注
100
AcDbMText
 10
237.8028989213742
 20
198.1691927683817
 30
0.0
 40
0.65
 41
0.0
 71
     5
 72
     1
  1
\A1;18 1/2"
 11
0.0000000000000001
 21
1.0
 31
0.0
 73
     1
 44
1.0
  0
POINT
  5
C27
330
8BD
100
AcDbEntity
  8
Defpoints
 62
     0
100
AcDbPoint
 10
228.5808854638926
 20
207.4369952141638
 30
0.0
  0
POINT
  5
C28
330
8BD
100
AcDbEntity
  8
Defpoints
 62
     0
100
AcDbPoint
 10
228.5808854638926
 20
188.9013903225995
 30
0.0
  0
POINT
  5
C29
330
8BD
100
AcDbEntity
  8
Defpoints
 62
     0
100
AcDbPoint
 10
237.8028989213742
 20
188.9013903225995
 30
0.0
  0
ENDBLK
  5
8C9
330
8BD
100
AcDbEntity
  8
0
100
AcDbBlockEnd
  0
BLOCK
  5
8D5
330
8CA
100
AcDbEntity
  8
0
100
AcDbBlockBegin
  2
*D24
 70
     1
 10
0.0
 20
0.0
 30
0.0
  3
*D24
  1

  0
LINE
  5
C16
330
8CA
100
AcDbEntity
  8
标注
370
    -2
100
AcDbLine
 10
219.1320665662548
 20
197.2892786787308
 30
0.0
 11
219.1320665662548
 21
185.9859484721582
 31
0.0
  0
LINE
  5
C17
330
8CA
100
AcDbEntity
  8
标注
370
    -2
100
AcDbLine
 10
232.1241925505068
 20
197.2892786787309
 30
0.0
 11
232.1241925505068
 21
185.9859484721582
 31
0.0
  0
LINE
  5
C18
330
8CA
100
AcDbEntity
  8
标注
370
    -2
100
AcDbLine
 10
219.7820665662548
 20
186.3059484721581
 30
0.0
 11
224.7781295583808
 21
186.3059484721581
 31
0.0
  0
LINE
  5
C19
330
8CA
100
AcDbEntity
  8
标注
370
    -2
100
AcDbLine
 10
231.4741925505068
 20
186.3059484721581
 30
0.0
 11
226.4781295583808
 21
186.3059484721581
 31
0.0
  0
SOLID
  5
C1A
330
8CA
100
AcDbEntity
  8
标注
100
AcDbTrace
 10
219.7820665662548
 20
186.4142818054915
 30
0.0
 11
219.7820665662548
 21
186.1976151388248
 31
0.0
 12
219.1320665662548
 22
186.3059484721581
 32
0.0
 13
219.1320665662548
 23
186.3059484721581
 33
0.0
  0
SOLID
  5
C1B
330
8CA
100
AcDbEntity
  8
标注
100
AcDbTrace
 10
231.4741925505068
 20
186.4142818054915
 30
0.0
 11
231.4741925505068
 21
186.1976151388248
 31
0.0
 12
232.1241925505068
 22
186.3059484721581
 32
0.0
 13
232.1241925505068
 23
186.3059484721581
 33
0.0
  0
MTEXT
  5
C1C
330
8CA
100
AcDbEntity
  8
标注
100
AcDbMText
 10
225.6281295583808
 20
186.3059484721581
 30
0.0
 40
0.65
 41
0.0
 71
     5
 72
     1
  1
\A1;13"
 73
     1
 44
1.0
  0
POINT
  5
C1D
330
8CA
100
AcDbEntity
  8
Defpoints
 62
     0
100
AcDbPoint
 10
219.1320665662548
 20
198.1692786787308
 30
0.0
  0
POINT
  5
C1E
330
8CA
100
AcDbEntity
  8
Defpoints
 62
     0
100
AcDbPoint
 10
232.1241925505068
 20
198.1692786787309
 30
0.0
  0
POINT
  5
C1F
330
8CA
100
AcDbEntity
  8
Defpoints
 62
     0
100
AcDbPoint
 10
232.1241925505068
 20
186.3059484721581
 30
0.0
  0
ENDBLK
  5
8D6
330
8CA
100
AcDbEntity
  8
0
100
AcDbBlockEnd
  0
BLOCK
  5
8E2
330
8D7
100
AcDbEntity
  8
0
100
AcDbBlockBegin
  2
*D25
 70
     1
 10
0.0
 20
0.0
 30
0.0
  3
*D25
  1

  0
LINE
  5
C0C
330
8D7
100
AcDbEntity
  8
标注
370
    -2
100
AcDbLine
 10
200.2344287709792
 20
192.9583981966153
 30
0.0
 11
200.2344287709792
 21
185.9763542414809
 31
0.0
  0
LINE
  5
C0D
330
8D7
100
AcDbEntity
  8
标注
370
    -2
100
AcDbLine
 10
217.9509642040501
 20
192.9583981966153
 30
0.0
 11
217.9509642040501
 21
185.9763542414809
 31
0.0
  0
LINE
  5
C0E
330
8D7
100
AcDbEntity
  8
标注
370
    -2
100
AcDbLine
 10
200.8844287709792
 20
186.2963542414809
 30
0.0
 11
206.9426964875146
 21
186.2963542414809
 31
0.0
  0
LINE
  5
C0F
330
8D7
100
AcDbEntity
  8
标注
370
    -2
100
AcDbLine
 10
217.3009642040501
 20
186.2963542414809
 30
0.0
 11
211.2426964875146
 21
186.2963542414809
 31
0.0
  0
SOLID
  5
C10
330
8D7
100
AcDbEntity
  8
标注
100
AcDbTrace
 10
200.8844287709792
 20
186.4046875748142
 30
0.0
 11
200.8844287709792
 21
186.1880209081476
 31
0.0
 12
200.2344287709792
 22
186.2963542414809
 32
0.0
 13
200.2344287709792
 23
186.2963542414809
 33
0.0
  0
SOLID
  5
C11
330
8D7
100
AcDbEntity
  8
标注
100
AcDbTrace
 10
217.3009642040501
 20
186.4046875748142
 30
0.0
 11
217.3009642040501
 21
186.1880209081476
 31
0.0
 12
217.9509642040501
 22
186.2963542414809
 32
0.0
 13
217.9509642040501
 23
186.2963542414809
 33
0.0
  0
MTEXT
  5
C12
330
8D7
100
AcDbEntity
  8
标注
100
AcDbMText
 10
209.0926964875146
 20
186.2963542414809
 30
0.0
 40
0.65
 41
0.0
 71
     5
 72
     1
  1
\A1;17 3/4"
 73
     1
 44
1.0
  0
POINT
  5
C13
330
8D7
100
AcDbEntity
  8
Defpoints
 62
     0
100
AcDbPoint
 10
200.2344287709792
 20
193.8383981966153
 30
0.0
  0
POINT
  5
C14
330
8D7
100
AcDbEntity
  8
Defpoints
 62
     0
100
AcDbPoint
 10
217.9509642040501
 20
193.8383981966153
 30
0.0
  0
POINT
  5
C15
330
8D7
100
AcDbEntity
  8
Defpoints
 62
     0
100
AcDbPoint
 10
217.9509642040501
 20
186.2963542414809
 30
0.0
  0
ENDBLK
  5
8E3
330
8D7
100
AcDbEntity
  8
0
100
AcDbBlockEnd
  0
BLOCK
  5
8EF
330
8E4
100
AcDbEntity
  8
0
100
AcDbBlockBegin
  2
*D26
 70
     1
 10
0.0
 20
0.0
 30
0.0
  3
*D26
  1

  0
LINE
  5
C02
330
8E4
100
AcDbEntity
  8
标注
370
    -2
100
AcDbLine
 10
199.2344287709792
 20
192.9583981966153
 30
0.0
 11
199.2344287709792
 21
183.7624627921467
 31
0.0
  0
LINE
  5
C03
330
8E4
100
AcDbEntity
  8
标注
370
    -2
100
AcDbLine
 10
233.1241925505068
 20
192.9583981966153
 30
0.0
 11
233.1241925505068
 21
183.7624627921467
 31
0.0
  0
LINE
  5
C04
330
8E4
100
AcDbEntity
  8
标注
370
    -2
100
AcDbLine
 10
199.8844287709792
 20
184.0824627921467
 30
0.0
 11
213.9209773274097
 21
184.0824627921467
 31
0.0
  0
LINE
  5
C05
330
8E4
100
AcDbEntity
  8
标注
370
    -2
100
AcDbLine
 10
232.4741925505067
 20
184.0824627921467
 30
0.0
 11
218.4376439940763
 21
184.0824627921467
 31
0.0
  0
SOLID
  5
C06
330
8E4
100
AcDbEntity
  8
标注
100
AcDbTrace
 10
199.8844287709792
 20
184.1907961254801
 30
0.0
 11
199.8844287709792
 21
183.9741294588134
 31
0.0
 12
199.2344287709792
 22
184.0824627921467
 32
0.0
 13
199.2344287709792
 23
184.0824627921467
 33
0.0
  0
SOLID
  5
C07
330
8E4
100
AcDbEntity
  8
标注
100
AcDbTrace
 10
232.4741925505067
 20
184.1907961254801
 30
0.0
 11
232.4741925505067
 21
183.9741294588134
 31
0.0
 12
233.1241925505068
 22
184.0824627921467
 32
0.0
 13
233.1241925505068
 23
184.0824627921467
 33
0.0
  0
MTEXT
  5
C08
330
8E4
100
AcDbEntity
  8
标注
100
AcDbMText
 10
216.179310660743
 20
184.0824627921467
 30
0.0
 40
0.65
 41
0.0
 71
     5
 72
     1
  1
\A1;33 7/8"
 73
     1
 44
1.0
  0
POINT
  5
C09
330
8E4
100
AcDbEntity
  8
Defpoints
 62
     0
100
AcDbPoint
 10
199.2344287709792
 20
193.8383981966153
 30
0.0
  0
POINT
  5
C0A
330
8E4
100
AcDbEntity
  8
Defpoints
 62
     0
100
AcDbPoint
 10
233.1241925505068
 20
193.8383981966153
 30
0.0
  0
POINT
  5
C0B
330
8E4
100
AcDbEntity
  8
Defpoints
 62
     0
100
AcDbPoint
 10
233.1241925505068
 20
184.0824627921467
 30
0.0
  0
ENDBLK
  5
8F0
330
8E4
100
AcDbEntity
  8
0
100
AcDbBlockEnd
  0
BLOCK
  5
AE2
330
AD6
100
AcDbEntity
  8
0
100
AcDbBlockBegin
  2
*D27
 70
     1
 10
0.0
 20
0.0
 30
0.0
  3
*D27
  1

  0
LINE
  5
BF7
330
AD6
100
AcDbEntity
  8
标注
370
    -2
100
AcDbLine
 10
232.1241925505068
 20
197.2892786787307
 30
0.0
 11
232.1241925505068
 21
185.9859484721582
 31
0.0
  0
LINE
  5
BF8
330
AD6
100
AcDbEntity
  8
标注
370
    -2
100
AcDbLine
 10
233.1241925505068
 20
192.5646974092138
 30
0.0
 11
233.1241925505068
 21
185.9859484721582
 31
0.0
  0
LINE
  5
BF9
330
AD6
100
AcDbEntity
  8
标注
370
    -2
100
AcDbLine
 10
231.4741925505068
 20
186.3059484721581
 30
0.0
 11
230.8241925505068
 21
186.3059484721581
 31
0.0
  0
LINE
  5
BFA
330
AD6
100
AcDbEntity
  8
标注
370
    -2
100
AcDbLine
 10
233.7741925505067
 20
186.3059484721581
 30
0.0
 11
234.4241925505067
 21
186.3059484721581
 31
0.0
  0
LINE
  5
BFB
330
AD6
100
AcDbEntity
  8
标注
370
    -2
100
AcDbLine
 10
232.1241925505068
 20
186.3059484721581
 30
0.0
 11
233.1241925505068
 21
186.3059484721581
 31
0.0
  0
SOLID
  5
BFC
330
AD6
100
AcDbEntity
  8
标注
100
AcDbTrace
 10
231.4741925505068
 20
186.4142818054915
 30
0.0
 11
231.4741925505068
 21
186.1976151388248
 31
0.0
 12
232.1241925505068
 22
186.3059484721581
 32
0.0
 13
232.1241925505068
 23
186.3059484721581
 33
0.0
  0
SOLID
  5
BFD
330
AD6
100
AcDbEntity
  8
标注
100
AcDbTrace
 10
233.7741925505067
 20
186.4142818054915
 30
0.0
 11
233.7741925505067
 21
186.1976151388248
 31
0.0
 12
233.1241925505068
 22
186.3059484721581
 32
0.0
 13
233.1241925505068
 23
186.3059484721581
 33
0.0
  0
MTEXT
  5
BFE
330
AD6
100
AcDbEntity
  8
标注
100
AcDbMText
 10
234.9491925505067
 20
186.3059484721581
 30
0.0
 40
0.65
 41
0.0
 71
     5
 72
     1
  1
\A1;1"
 73
     1
 44
1.0
  0
POINT
  5
BFF
330
AD6
100
AcDbEntity
  8
Defpoints
 62
     0
100
AcDbPoint
 10
232.1241925505068
 20
198.1692786787307
 30
0.0
  0
POINT
  5
C00
330
AD6
100
AcDbEntity
  8
Defpoints
 62
     0
100
AcDbPoint
 10
233.1241925505068
 20
193.4446974092138
 30
0.0
  0
POINT
  5
C01
330
AD6
100
AcDbEntity
  8
Defpoints
 62
     0
100
AcDbPoint
 10
233.1241925505068
 20
186.3059484721581
 30
0.0
  0
ENDBLK
  5
AE3
330
AD6
100
AcDbEntity
  8
0
100
AcDbBlockEnd
  0
BLOCK
  5
AFE
330
AF2
100
AcDbEntity
  8
0
100
AcDbBlockBegin
  2
*D28
 70
     1
 10
0.0
 20
0.0
 30
0.0
  3
*D28
  1

  0
LINE
  5
BEC
330
AF2
100
AcDbEntity
  8
标注
370
    -2
100
AcDbLine
 10
219.1320665662548
 20
197.2892786787307
 30
0.0
 11
219.1320665662548
 21
197.5166047187522
 31
0.0
  0
LINE
  5
BED
330
AF2
100
AcDbEntity
  8
标注
370
    -2
100
AcDbLine
 10
217.9509642040501
 20
197.2892786787307
 30
0.0
 11
217.9509642040501
 21
197.5166047187522
 31
0.0
  0
LINE
  5
BEE
330
AF2
100
AcDbEntity
  8
标注
370
    -2
100
AcDbLine
 10
219.7820665662548
 20
197.8366047187521
 30
0.0
 11
220.4320665662548
 21
197.8366047187521
 31
0.0
  0
LINE
  5
BEF
330
AF2
100
AcDbEntity
  8
标注
370
    -2
100
AcDbLine
 10
217.3009642040501
 20
197.8366047187521
 30
0.0
 11
216.6509642040501
 21
197.8366047187521
 31
0.0
  0
LINE
  5
BF0
330
AF2
100
AcDbEntity
  8
标注
370
    -2
100
AcDbLine
 10
219.1320665662548
 20
197.8366047187521
 30
0.0
 11
217.9509642040501
 21
197.8366047187521
 31
0.0
  0
SOLID
  5
BF1
330
AF2
100
AcDbEntity
  8
标注
100
AcDbTrace
 10
219.7820665662548
 20
197.9449380520854
 30
0.0
 11
219.7820665662548
 21
197.7282713854189
 31
0.0
 12
219.1320665662548
 22
197.8366047187521
 32
0.0
 13
219.1320665662548
 23
197.8366047187521
 33
0.0
  0
SOLID
  5
BF2
330
AF2
100
AcDbEntity
  8
标注
100
AcDbTrace
 10
217.3009642040501
 20
197.9449380520854
 30
0.0
 11
217.3009642040501
 21
197.7282713854189
 31
0.0
 12
217.9509642040501
 22
197.8366047187521
 32
0.0
 13
217.9509642040501
 23
197.8366047187521
 33
0.0
  0
MTEXT
  5
BF3
330
AF2
100
AcDbEntity
  8
标注
100
AcDbMText
 10
214.9342975373834
 20
197.8366047187521
 30
0.0
 40
0.65
 41
0.0
 71
     5
 72
     1
  1
\A1;1 1/8"
 73
     1
 44
1.0
  0
POINT
  5
BF4
330
AF2
100
AcDbEntity
  8
Defpoints
 62
     0
100
AcDbPoint
 10
219.1320665662548
 20
198.1692786787307
 30
0.0
  0
POINT
  5
BF5
330
AF2
100
AcDbEntity
  8
Defpoints
 62
     0
100
AcDbPoint
 10
217.9509642040501
 20
198.1692786787307
 30
0.0
  0
POINT
  5
BF6
330
AF2
100
AcDbEntity
  8
Defpoints
 62
     0
100
AcDbPoint
 10
217.9509642040501
 20
197.8366047187521
 30
0.0
  0
ENDBLK
  5
AFF
330
AF2
100
AcDbEntity
  8
0
100
AcDbBlockEnd
  0
BLOCK
  5
B1A
330
B0E
100
AcDbEntity
  8
0
100
AcDbBlockBegin
  2
*D29
 70
     1
 10
0.0
 20
0.0
 30
0.0
  3
*D29
  1

  0
LINE
  5
BE1
330
B0E
100
AcDbEntity
  8
标注
370
    -2
100
AcDbLine
 10
226.5081295583807
 20
206.4369952141638
 30
0.0
 11
235.9627587817186
 21
206.4369952141638
 31
0.0
  0
LINE
  5
BE2
330
B0E
100
AcDbEntity
  8
标注
370
    -2
100
AcDbLine
 10
229.4608854638926
 20
207.4369952141638
 30
0.0
 11
235.9627587817186
 21
207.4369952141638
 31
0.0
  0
LINE
  5
BE3
330
B0E
100
AcDbEntity
  8
标注
370
    -2
100
AcDbLine
 10
235.6427587817186
 20
205.7869952141639
 30
0.0
 11
235.6427587817186
 21
205.1369952141639
 31
0.0
  0
LINE
  5
BE4
330
B0E
100
AcDbEntity
  8
标注
370
    -2
100
AcDbLine
 10
235.6427587817186
 20
208.0869952141638
 30
0.0
 11
235.6427587817186
 21
208.7369952141638
 31
0.0
  0
LINE
  5
BE5
330
B0E
100
AcDbEntity
  8
标注
370
    -2
100
AcDbLine
 10
235.6427587817186
 20
206.4369952141638
 30
0.0
 11
235.6427587817186
 21
207.4369952141638
 31
0.0
  0
SOLID
  5
BE6
330
B0E
100
AcDbEntity
  8
标注
100
AcDbTrace
 10
235.5344254483852
 20
205.7869952141639
 30
0.0
 11
235.7510921150519
 21
205.7869952141639
 31
0.0
 12
235.6427587817186
 22
206.4369952141638
 32
0.0
 13
235.6427587817186
 23
206.4369952141638
 33
0.0
  0
SOLID
  5
BE7
330
B0E
100
AcDbEntity
  8
标注
100
AcDbTrace
 10
235.5344254483852
 20
208.0869952141638
 30
0.0
 11
235.7510921150519
 21
208.0869952141638
 31
0.0
 12
235.6427587817186
 22
207.4369952141638
 32
0.0
 13
235.6427587817186
 23
207.4369952141638
 33
0.0
  0
MTEXT
  5
BE8
330
B0E
100
AcDbEntity
  8
标注
100
AcDbMText
 10
235.6427587817185
 20
209.2619952141638
 30
0.0
 40
0.65
 41
0.0
 71
     5
 72
     1
  1
\A1;1"
 11
0.0000000000000001
 21
1.0
 31
0.0
 73
     1
 44
1.0
  0
POINT
  5
BE9
330
B0E
100
AcDbEntity
  8
Defpoints
 62
     0
100
AcDbPoint
 10
225.6281295583808
 20
206.4369952141638
 30
0.0
  0
POINT
  5
BEA
330
B0E
100
AcDbEntity
  8
Defpoints
 62
     0
100
AcDbPoint
 10
228.5808854638926
 20
207.4369952141638
 30
0.0
  0
POINT
  5
BEB
330
B0E
100
AcDbEntity
  8
Defpoints
 62
     0
100
AcDbPoint
 10
235.6427587817186
 20
207.4369952141638
 30
0.0
  0
ENDBLK
  5
B1B
330
B0E
100
AcDbEntity
  8
0
100
AcDbBlockEnd
  0
BLOCK
  5
B29
330
B1D
100
AcDbEntity
  8
0
100
AcDbBlockBegin
  2
*D30
 70
     1
 10
0.0
 20
0.0
 30
0.0
  3
*D30
  1

  0
LINE
  5
BD6
330
B1D
100
AcDbEntity
  8
标注
370
    -2
100
AcDbLine
 10
208.2126964875147
 20
208.4053273304736
 30
0.0
 11
196.2462173539447
 21
208.4053273304736
 31
0.0
  0
LINE
  5
BD7
330
B1D
100
AcDbEntity
  8
标注
370
    -2
100
AcDbLine
 10
205.6536413694045
 20
209.4053100857582
 30
0.0
 11
196.2462173539447
 21
209.4053100857582
 31
0.0
  0
LINE
  5
BD8
330
B1D
100
AcDbEntity
  8
标注
370
    -2
100
AcDbLine
 10
196.5662173539447
 20
207.7553273304736
 30
0.0
 11
196.5662173539447
 21
207.1053273304736
 31
0.0
  0
LINE
  5
BD9
330
B1D
100
AcDbEntity
  8
标注
370
    -2
100
AcDbLine
 10
196.5662173539447
 20
210.0553100857581
 30
0.0
 11
196.5662173539447
 21
210.7053100857581
 31
0.0
  0
LINE
  5
BDA
330
B1D
100
AcDbEntity
  8
标注
370
    -2
100
AcDbLine
 10
196.5662173539447
 20
208.4053273304736
 30
0.0
 11
196.5662173539447
 21
209.4053100857582
 31
0.0
  0
SOLID
  5
BDB
330
B1D
100
AcDbEntity
  8
标注
100
AcDbTrace
 10
196.4578840206113
 20
207.7553273304736
 30
0.0
 11
196.674550687278
 21
207.7553273304736
 31
0.0
 12
196.5662173539447
 22
208.4053273304736
 32
0.0
 13
196.5662173539447
 23
208.4053273304736
 33
0.0
  0
SOLID
  5
BDC
330
B1D
100
AcDbEntity
  8
标注
100
AcDbTrace
 10
196.4578840206113
 20
210.0553100857581
 30
0.0
 11
196.674550687278
 21
210.0553100857581
 31
0.0
 12
196.5662173539447
 22
209.4053100857582
 32
0.0
 13
196.5662173539447
 23
209.4053100857582
 33
0.0
  0
MTEXT
  5
BDD
330
B1D
100
AcDbEntity
  8
标注
100
AcDbMText
 10
196.5662173539446
 20
211.2303100857582
 30
0.0
 40
0.65
 41
0.0
 71
     5
 72
     1
  1
\A1;1"
 11
0.0000000000000001
 21
1.0
 31
0.0
 73
     1
 44
1.0
  0
POINT
  5
BDE
330
B1D
100
AcDbEntity
  8
Defpoints
 62
     0
100
AcDbPoint
 10
209.0926964875147
 20
208.4053273304736
 30
0.0
  0
POINT
  5
BDF
330
B1D
100
AcDbEntity
  8
Defpoints
 62
     0
100
AcDbPoint
 10
206.5336413694045
 20
209.4053100857582
 30
0.0
  0
POINT
  5
BE0
330
B1D
100
AcDbEntity
  8
Defpoints
 62
     0
100
AcDbPoint
 10
196.5662173539447
 20
209.4053100857582
 30
0.0
  0
ENDBLK
  5
B2A
330
B1D
100
AcDbEntity
  8
0
100
AcDbBlockEnd
  0
BLOCK
  5
B3D
330
B37
100
AcDbEntity
  8
0
100
AcDbBlockBegin
  2
*D31
 70
     1
 10
0.0
 20
0.0
 30
0.0
  3
*D31
  1

  0
LINE
  5
C66
330
B37
100
AcDbEntity
  8
标注
370
    -2
100
AcDbLine
 10
212.6999736020652
 20
206.7228944286465
 30
0.0
 11
212.8362639246457
 21
207.358445329811
 31
0.0
  0
MTEXT
  5
C67
330
B37
100
AcDbEntity
  8
标注
100
AcDbMText
 10
212.2037370429259
 20
204.4088373013299
 30
0.0
 40
0.65
 41
0.0
 71
     5
 72
     1
  1
\A1;R18 1/2"
 11
0.2096774193546185
 21
0.9777706171760264
 31
0.0
 73
     1
 44
1.0
  0
SOLID
  5
C68
330
B37
100
AcDbEntity
  8
标注
100
AcDbTrace
 10
212.7303387744517
 20
207.3811603835743
 30
0.0
 11
212.9421890748398
 21
207.3357302760475
 31
0.0
 12
212.9725542472262
 22
207.9939962309754
 32
0.0
 13
212.9725542472262
 23
207.9939962309754
 33
0.0
  0
POINT
  5
C69
330
B37
100
AcDbEntity
  8
Defpoints
 62
     0
100
AcDbPoint
 10
212.9725542472262
 20
207.9939962309754
 30
0.0
  0
POINT
  5
C6A
330
B37
100
AcDbEntity
  8
Defpoints
 62
     0
100
AcDbPoint
 10
209.0926964875147
 20
189.9013903225996
 30
0.0
  0
ENDBLK
  5
B3E
330
B37
100
AcDbEntity
  8
0
100
AcDbBlockEnd
  0
BLOCK
  5
B4E
330
B47
100
AcDbEntity
  8
0
100
AcDbBlockBegin
  2
*D32
 70
     1
 10
0.0
 20
0.0
 30
0.0
  3
*D32
  1

  0
LINE
  5
B51
330
B47
100
AcDbEntity
  8
标注
370
    -2
100
AcDbLine
 10
291.3000302921772
 20
210.7452229077134
 30
0.0
 11
290.7229587553321
 21
210.4460767204348
 31
0.0
  0
MTEXT
  5
B52
330
B47
100
AcDbEntity
  8
标注
100
AcDbMText
 10
293.2088053755876
 20
211.7347064502502
 30
0.0
 40
0.65
 41
0.0
 71
     5
 72
     1
  1
\A1;R6 1/4"
 11
0.8878023643769703
 21
0.4602249035055156
 31
0.0
 73
     1
 44
1.0
  0
LINE
  5
B53
330
B47
100
AcDbEntity
  8
标注
370
    -2
100
AcDbLine
 10
284.5534313798918
 20
207.2478760228852
 30
0.0
 11
290.1458872184871
 21
210.1469305331562
 31
0.0
  0
SOLID
  5
B54
330
B47
100
AcDbEntity
  8
标注
100
AcDbTrace
 10
290.6731010574524
 20
210.5422553099089
 30
0.0
 11
290.7728164532119
 21
210.3498981309606
 31
0.0
 12
290.1458872184871
 22
210.1469305331562
 32
0.0
 13
290.1458872184871
 23
210.1469305331562
 33
0.0
  0
POINT
  5
B55
330
B47
100
AcDbEntity
  8
Defpoints
 62
     0
100
AcDbPoint
 10
290.1458872184871
 20
210.1469305331562
 30
0.0
  0
POINT
  5
B56
330
B47
100
AcDbEntity
  8
Defpoints
 62
     0
100
AcDbPoint
 10
284.5534313798918
 20
207.2478760228852
 30
0.0
  0
ENDBLK
  5
B4F
330
B47
100
AcDbEntity
  8
0
100
AcDbBlockEnd
  0
BLOCK
  5
B5F
330
B59
100
AcDbEntity
  8
0
100
AcDbBlockBegin
  2
*D33
 70
     1
 10
0.0
 20
0.0
 30
0.0
  3
*D33
  1

  0
LINE
  5
C61
330
B59
100
AcDbEntity
  8
标注
370
    -2
100
AcDbLine
 10
216.0292912140767
 20
204.2492001036627
 30
0.0
 11
216.598460996212
 21
204.563120092042
 31
0.0
  0
MTEXT
  5
C62
330
B59
100
AcDbEntity
  8
标注
100
AcDbMText
 10
214.1466527039368
 20
203.2108493728699
 30
0.0
 40
0.65
 41
0.0
 71
     5
 72
     1
  1
\A1;R6 1/4"
 11
0.8756458186697425
 21
0.4829538282757432
 31
0.0
 73
     1
 44
1.0
  0
SOLID
  5
C63
330
B59
100
AcDbEntity
  8
标注
100
AcDbTrace
 10
216.5461409981488
 20
204.6579817223978
 30
0.0
 11
216.6507809942753
 21
204.4682584616861
 31
0.0
 12
217.1676307783473
 22
204.8770400804212
 32
0.0
 13
217.1676307783473
 23
204.8770400804212
 33
0.0
  0
POINT
  5
C64
330
B59
100
AcDbEntity
  8
Defpoints
 62
     0
100
AcDbPoint
 10
217.1676307783473
 20
204.8770400804212
 30
0.0
  0
POINT
  5
C65
330
B59
100
AcDbEntity
  8
Defpoints
 62
     0
100
AcDbPoint
 10
211.6517516056249
 20
201.8348112408892
 30
0.0
  0
ENDBLK
  5
B60
330
B59
100
AcDbEntity
  8
0
100
AcDbBlockEnd
  0
BLOCK
  5
B6F
330
B69
100
AcDbEntity
  8
0
100
AcDbBlockBegin
  2
*D34
 70
     1
 10
0.0
 20
0.0
 30
0.0
  3
*D34
  1

  0
LINE
  5
B72
330
B69
100
AcDbEntity
  8
标注
370
    -2
100
AcDbLine
 10
275.0599675871395
 20
197.5482183375385
 30
0.0
 11
274.5637435319238
 21
197.128383028131
 31
0.0
  0
MTEXT
  5
B73
330
B69
100
AcDbEntity
  8
标注
100
AcDbMText
 10
276.7840280866709
 20
199.0068769125313
 30
0.0
 40
0.65
 41
0.0
 71
     5
 72
     1
  1
\A1;R3 7/8"
 11
0.7634216234087449
 21
0.6459004760115574
 31
0.0
 73
     1
 44
1.0
  0
SOLID
  5
B74
330
B69
100
AcDbEntity
  8
标注
100
AcDbTrace
 10
274.4937709803559
 20
197.2110870373336
 30
0.0
 11
274.6337160834916
 21
197.0456790189284
 31
0.0
 12
274.0675194767081
 22
196.7085477187234
 32
0.0
 13
274.0675194767081
 23
196.7085477187234
 33
0.0
  0
POINT
  5
B75
330
B69
100
AcDbEntity
  8
Defpoints
 62
     0
100
AcDbPoint
 10
274.0675194767081
 20
196.7085477187234
 30
0.0
  0
POINT
  5
B76
330
B69
100
AcDbEntity
  8
Defpoints
 62
     0
100
AcDbPoint
 10
277.0731164192623
 20
199.2514629786115
 30
0.0
  0
ENDBLK
  5
B70
330
B69
100
AcDbEntity
  8
0
100
AcDbBlockEnd
  0
BLOCK
  5
B7F
330
B79
100
AcDbEntity
  8
0
100
AcDbBlockBegin
  2
*D35
 70
     1
 10
0.0
 20
0.0
 30
0.0
  3
*D35
  1

  0
LINE
  5
C5C
330
B79
100
AcDbEntity
  8
标注
370
    -2
100
AcDbLine
 10
221.2342415717706
 20
192.0728195303568
 30
0.0
 11
220.7524320725761
 21
191.6365173340684
 31
0.0
  0
MTEXT
  5
C5D
330
B79
100
AcDbEntity
  8
标注
100
AcDbMText
 10
222.8279191460292
 20
193.5159729488488
 30
0.0
 40
0.65
 41
0.0
 71
     5
 72
     1
  1
\A1;R3 1/2"
 11
0.741245383376088
 21
0.6712341481358325
 31
0.0
 73
     1
 44
1.0
  0
SOLID
  5
C5E
330
B79
100
AcDbEntity
  8
标注
100
AcDbTrace
 10
220.6797150398614
 20
191.7168189172676
 30
0.0
 11
220.8251491052908
 21
191.5562157508694
 31
0.0
 12
220.2706225733817
 22
191.2002151377802
 32
0.0
 13
220.2706225733817
 23
191.2002151377802
 33
0.0
  0
POINT
  5
C5F
330
B79
100
AcDbEntity
  8
Defpoints
 62
     0
100
AcDbPoint
 10
220.2706225733817
 20
191.2002151377802
 30
0.0
  0
POINT
  5
C60
330
B79
100
AcDbEntity
  8
Defpoints
 62
     0
100
AcDbPoint
 10
222.8970825932182
 20
193.5786038516473
 30
0.0
  0
ENDBLK
  5
B80
330
B79
100
AcDbEntity
  8
0
100
AcDbBlockEnd
  0
BLOCK
  5
B8F
330
B89
100
AcDbEntity
  8
0
100
AcDbBlockBegin
  2
*D36
 70
     1
 10
0.0
 20
0.0
 30
0.0
  3
*D36
  1

  0
LINE
  5
BC2
330
B89
100
AcDbEntity
  8
标注
370
    -2
100
AcDbLine
 10
215.6618410292741
 20
191.7796882739617
 30
0.0
 11
216.068030584133
 21
191.2722337976552
 31
0.0
  0
MTEXT
  5
BC3
330
B89
100
AcDbEntity
  8
标注
100
AcDbMText
 10
214.2505927040593
 20
193.5427672877959
 30
0.0
 40
0.65
 41
0.0
 71
     5
 72
     1
  1
\A1;R3 7/8"
 11
0.6249070074752222
 21
-0.7806991943177363
 31
0.0
 73
     1
 44
1.0
  0
SOLID
  5
BC4
330
B89
100
AcDbEntity
  8
标注
100
AcDbTrace
 10
216.152606330184
 20
191.3399320567983
 30
0.0
 11
215.9834548380819
 21
191.204535538512
 31
0.0
 12
216.4742201389919
 22
190.7647793213486
 32
0.0
 13
216.4742201389919
 23
190.7647793213486
 33
0.0
  0
POINT
  5
BC5
330
B89
100
AcDbEntity
  8
Defpoints
 62
     0
100
AcDbPoint
 10
216.4742201389919
 20
190.7647793213486
 30
0.0
  0
POINT
  5
BC6
330
B89
100
AcDbEntity
  8
Defpoints
 62
     0
100
AcDbPoint
 10
214.0139563300343
 20
193.8383981966153
 30
0.0
  0
ENDBLK
  5
B90
330
B89
100
AcDbEntity
  8
0
100
AcDbBlockEnd
  0
BLOCK
  5
B9F
330
B99
100
AcDbEntity
  8
0
100
AcDbBlockBegin
  2
*D37
 70
     1
 10
0.0
 20
0.0
 30
0.0
  3
*D37
  1

  0
LINE
  5
C57
330
B99
100
AcDbEntity
  8
标注
370
    -2
100
AcDbLine
 10
202.3865620518149
 20
221.7319917512803
 30
0.0
 11
201.9092407973348
 21
221.2907838410818
 31
0.0
  0
MTEXT
  5
C58
330
B99
100
AcDbEntity
  8
标注
100
AcDbMText
 10
203.0903049270098
 20
222.3824905932394
 30
0.0
 40
0.65
 41
0.0
 71
     5
 72
     1
  1
\A1;R2"
 11
0.7343403915077306
 21
0.6787814003051889
 31
0.0
 73
     1
 44
1.0
  0
SOLID
  5
C59
330
B99
100
AcDbEntity
  8
标注
100
AcDbTrace
 10
201.8357061456351
 20
221.3703373834952
 30
0.0
 11
201.9827754490345
 21
221.2112302986685
 31
0.0
 12
201.4319195428548
 22
220.8495759308835
 32
0.0
 13
201.4319195428548
 23
220.8495759308835
 33
0.0
  0
POINT
  5
C5A
330
B99
100
AcDbEntity
  8
Defpoints
 62
     0
100
AcDbPoint
 10
201.4319195428548
 20
220.8495759308835
 30
0.0
  0
POINT
  5
C5B
330
B99
100
AcDbEntity
  8
Defpoints
 62
     0
100
AcDbPoint
 10
202.9006003258703
 20
222.2071387314939
 30
0.0
  0
ENDBLK
  5
BA0
330
B99
100
AcDbEntity
  8
0
100
AcDbBlockEnd
  0
BLOCK
  5
BAF
330
BA9
100
AcDbEntity
  8
0
100
AcDbBlockBegin
  2
*D38
 70
     1
 10
0.0
 20
0.0
 30
0.0
  3
*D38
  1

  0
LINE
  5
C52
330
BA9
100
AcDbEntity
  8
标注
370
    -2
100
AcDbLine
 10
220.8815930628702
 20
223.5711644544409
 30
0.0
 11
220.4051409278225
 21
223.1290181404129
 31
0.0
  0
MTEXT
  5
C53
330
BA9
100
AcDbEntity
  8
标注
100
AcDbMText
 10
221.5840545440302
 20
224.2230468405078
 30
0.0
 40
0.65
 41
0.0
 71
     5
 72
     1
  1
\A1;R2"
 11
0.733003284688714
 21
0.6802250985045732
 31
0.0
 73
     1
 44
1.0
  0
SOLID
  5
C54
330
BA9
100
AcDbEntity
  8
标注
100
AcDbTrace
 10
220.3314498754845
 20
223.2084268295875
 30
0.0
 11
220.4788319801605
 21
223.0496094512382
 31
0.0
 12
219.9286887927749
 22
222.6868718263849
 32
0.0
 13
219.9286887927749
 23
222.6868718263849
 33
0.0
  0
POINT
  5
C55
330
BA9
100
AcDbEntity
  8
Defpoints
 62
     0
100
AcDbPoint
 10
219.9286887927749
 20
222.6868718263849
 30
0.0
  0
POINT
  5
C56
330
BA9
100
AcDbEntity
  8
Defpoints
 62
     0
100
AcDbPoint
 10
221.3946953621523
 20
224.0473220233941
 30
0.0
  0
ENDBLK
  5
BB0
330
BA9
100
AcDbEntity
  8
0
100
AcDbBlockEnd
  0
BLOCK
  5
C6D
330
C6C
100
AcDbEntity
  8
0
100
AcDbBlockBegin
  2
*D39
 70
     1
 10
0.0
 20
0.0
 30
0.0
  3
*D39
  1

  0
LINE
  5
C6E
330
C6C
100
AcDbEntity
  8
标注
370
    -2
100
AcDbLine
 10
208.2126964875147
 20
208.4053273304736
 30
0.0
 11
196.2462173539447
 21
208.4053273304736
 31
0.0
  0
LINE
  5
C6F
330
C6C
100
AcDbEntity
  8
标注
370
    -2
100
AcDbLine
 10
203.291436644995
 20
189.9013903225996
 30
0.0
 11
196.2462173539447
 21
189.9013903225996
 31
0.0
  0
LINE
  5
C70
330
C6C
100
AcDbEntity
  8
标注
370
    -2
100
AcDbLine
 10
196.5662173539447
 20
207.7553273304736
 30
0.0
 11
196.5662173539447
 21
201.1950254932032
 31
0.0
  0
LINE
  5
C71
330
C6C
100
AcDbEntity
  8
标注
370
    -2
100
AcDbLine
 10
196.5662173539447
 20
190.5513903225996
 30
0.0
 11
196.5662173539447
 21
197.1116921598699
 31
0.0
  0
SOLID
  5
C72
330
C6C
100
AcDbEntity
  8
标注
100
AcDbTrace
 10
196.4578840206114
 20
207.7553273304736
 30
0.0
 11
196.674550687278
 21
207.7553273304736
 31
0.0
 12
196.5662173539447
 22
208.4053273304736
 32
0.0
 13
196.5662173539447
 23
208.4053273304736
 33
0.0
  0
SOLID
  5
C73
330
C6C
100
AcDbEntity
  8
标注
100
AcDbTrace
 10
196.4578840206113
 20
190.5513903225996
 30
0.0
 11
196.674550687278
 21
190.5513903225996
 31
0.0
 12
196.5662173539447
 22
189.9013903225996
 32
0.0
 13
196.5662173539447
 23
189.9013903225996
 33
0.0
  0
MTEXT
  5
C74
330
C6C
100
AcDbEntity
  8
标注
100
AcDbMText
 10
196.5662173539446
 20
199.1533588265366
 30
0.0
 40
0.65
 41
0.0
 71
     5
 72
     1
  1
\A1;18 1/2"
 11
0.0000000000000001
 21
1.0
 31
0.0
 73
     1
 44
1.0
  0
POINT
  5
C75
330
C6C
100
AcDbEntity
  8
Defpoints
 62
     0
100
AcDbPoint
 10
209.0926964875147
 20
208.4053273304736
 30
0.0
  0
POINT
  5
C76
330
C6C
100
AcDbEntity
  8
Defpoints
 62
     0
100
AcDbPoint
 10
204.171436644995
 20
189.9013903225996
 30
0.0
  0
POINT
  5
C77
330
C6C
100
AcDbEntity
  8
Defpoints
 62
     0
100
AcDbPoint
 10
196.5662173539447
 20
189.9013903225996
 30
0.0
  0
ENDBLK
  5
C78
330
C6C
100
AcDbEntity
  8
0
100
AcDbBlockEnd
  0
BLOCK
  5
C7A
330
C79
100
AcDbEntity
  8
0
100
AcDbBlockBegin
  2
*D40
 70
     1
 10
0.0
 20
0.0
 30
0.0
  3
*D40
  1

  0
LINE
  5
C7B
330
C79
100
AcDbEntity
  8
标注
370
    -2
100
AcDbLine
 10
205.6536413694045
 20
209.4053100857582
 30
0.0
 11
193.8752387198185
 21
209.4053100857582
 31
0.0
  0
LINE
  5
C7C
330
C79
100
AcDbEntity
  8
标注
370
    -2
100
AcDbLine
 10
203.291436644995
 20
188.9013903225995
 30
0.0
 11
193.8752387198184
 21
188.9013903225995
 31
0.0
  0
LINE
  5
C7D
330
C79
100
AcDbEntity
  8
标注
370
    -2
100
AcDbLine
 10
194.1952387198185
 20
208.7553100857582
 30
0.0
 11
194.1952387198185
 21
201.2491835375122
 31
0.0
  0
LINE
  5
C7E
330
C79
100
AcDbEntity
  8
标注
370
    -2
100
AcDbLine
 10
194.1952387198185
 20
189.5513903225996
 30
0.0
 11
194.1952387198185
 21
197.0575168708455
 31
0.0
  0
SOLID
  5
C7F
330
C79
100
AcDbEntity
  8
标注
100
AcDbTrace
 10
194.0869053864851
 20
208.7553100857582
 30
0.0
 11
194.3035720531518
 21
208.7553100857582
 31
0.0
 12
194.1952387198185
 22
209.4053100857582
 32
0.0
 13
194.1952387198185
 23
209.4053100857582
 33
0.0
  0
SOLID
  5
C80
330
C79
100
AcDbEntity
  8
标注
100
AcDbTrace
 10
194.0869053864851
 20
189.5513903225996
 30
0.0
 11
194.3035720531518
 21
189.5513903225996
 31
0.0
 12
194.1952387198185
 22
188.9013903225995
 32
0.0
 13
194.1952387198185
 23
188.9013903225995
 33
0.0
  0
MTEXT
  5
C81
330
C79
100
AcDbEntity
  8
标注
100
AcDbMText
 10
194.1952387198184
 20
199.1533502041789
 30
0.0
 40
0.65
 41
0.0
 71
     5
 72
     1
  1
\A1;20 1/2"
 11
0.0000000000000001
 21
1.0
 31
0.0
 73
     1
 44
1.0
  0
POINT
  5
C82
330
C79
100
AcDbEntity
  8
Defpoints
 62
     0
100
AcDbPoint
 10
206.5336413694045
 20
209.4053100857582
 30
0.0
  0
POINT
  5
C83
330
C79
100
AcDbEntity
  8
Defpoints
 62
     0
100
AcDbPoint
 10
204.171436644995
 20
188.9013903225995
 30
0.0
  0
POINT
  5
C84
330
C79
100
AcDbEntity
  8
Defpoints
 62
     0
100
AcDbPoint
 10
194.1952387198185
 20
188.9013903225995
 30
0.0
  0
ENDBLK
  5
C85
330
C79
100
AcDbEntity
  8
0
100
AcDbBlockEnd
  0
BLOCK
  5
C87
330
C86
100
AcDbEntity
  8
0
100
AcDbBlockBegin
  2
*D41
 70
     1
 10
0.0
 20
0.0
 30
0.0
  3
*D41
  1

  0
LINE
  5
C88
330
C86
100
AcDbEntity
  8
标注
370
    -2
100
AcDbLine
 10
226.5081295583807
 20
206.4369952141638
 30
0.0
 11
235.9627587817186
 21
206.4369952141638
 31
0.0
  0
LINE
  5
C89
330
C86
100
AcDbEntity
  8
标注
370
    -2
100
AcDbLine
 10
226.5081295583807
 20
189.9015621432976
 30
0.0
 11
235.9627587817186
 21
189.9015621432976
 31
0.0
  0
LINE
  5
C8A
330
C86
100
AcDbEntity
  8
标注
370
    -2
100
AcDbLine
 10
235.6427587817186
 20
205.7869952141639
 30
0.0
 11
235.6427587817186
 21
200.2109453453974
 31
0.0
  0
LINE
  5
C8B
330
C86
100
AcDbEntity
  8
标注
370
    -2
100
AcDbLine
 10
235.6427587817186
 20
190.5515621432977
 30
0.0
 11
235.6427587817186
 21
196.1276120120641
 31
0.0
  0
SOLID
  5
C8C
330
C86
100
AcDbEntity
  8
标注
100
AcDbTrace
 10
235.5344254483853
 20
205.7869952141639
 30
0.0
 11
235.7510921150519
 21
205.7869952141639
 31
0.0
 12
235.6427587817186
 22
206.4369952141638
 32
0.0
 13
235.6427587817186
 23
206.4369952141638
 33
0.0
  0
SOLID
  5
C8D
330
C86
100
AcDbEntity
  8
标注
100
AcDbTrace
 10
235.5344254483852
 20
190.5515621432977
 30
0.0
 11
235.7510921150519
 21
190.5515621432977
 31
0.0
 12
235.6427587817186
 22
189.9015621432976
 32
0.0
 13
235.6427587817186
 23
189.9015621432976
 33
0.0
  0
MTEXT
  5
C8E
330
C86
100
AcDbEntity
  8
标注
100
AcDbMText
 10
235.6427587817185
 20
198.1692786787308
 30
0.0
 40
0.65
 41
0.0
 71
     5
 72
     1
  1
\A1;16 1/2"
 11
0.0000000000000001
 21
1.0
 31
0.0
 73
     1
 44
1.0
  0
POINT
  5
C8F
330
C86
100
AcDbEntity
  8
Defpoints
 62
     0
100
AcDbPoint
 10
225.6281295583808
 20
206.4369952141638
 30
0.0
  0
POINT
  5
C90
330
C86
100
AcDbEntity
  8
Defpoints
 62
     0
100
AcDbPoint
 10
225.6281295583808
 20
189.9015621432976
 30
0.0
  0
POINT
  5
C91
330
C86
100
AcDbEntity
  8
Defpoints
 62
     0
100
AcDbPoint
 10
235.6427587817186
 20
189.9015621432976
 30
0.0
  0
ENDBLK
  5
C92
330
C86
100
AcDbEntity
  8
0
100
AcDbBlockEnd
  0
BLOCK
  5
C94
330
C93
100
AcDbEntity
  8
0
100
AcDbBlockBegin
  2
*D42
 70
     1
 10
0.0
 20
0.0
 30
0.0
  3
*D42
  1

  0
LINE
  5
C95
330
C93
100
AcDbEntity
  8
标注
370
    -2
100
AcDbLine
 10
229.4608854638926
 20
207.4369952141638
 30
0.0
 11
238.1228989213742
 21
207.4369952141638
 31
0.0
  0
LINE
  5
C96
330
C93
100
AcDbEntity
  8
标注
370
    -2
100
AcDbLine
 10
229.4608854638926
 20
188.9013903225995
 30
0.0
 11
238.1228989213742
 21
188.9013903225995
 31
0.0
  0
LINE
  5
C97
330
C93
100
AcDbEntity
  8
标注
370
    -2
100
AcDbLine
 10
237.8028989213742
 20
206.7869952141638
 30
0.0
 11
237.8028989213742
 21
200.2108594350484
 31
0.0
  0
LINE
  5
C98
330
C93
100
AcDbEntity
  8
标注
370
    -2
100
AcDbLine
 10
237.8028989213742
 20
189.5513903225996
 30
0.0
 11
237.8028989213742
 21
196.127526101715
 31
0.0
  0
SOLID
  5
C99
330
C93
100
AcDbEntity
  8
标注
100
AcDbTrace
 10
237.6945655880409
 20
206.7869952141638
 30
0.0
 11
237.9112322547076
 21
206.7869952141638
 31
0.0
 12
237.8028989213742
 22
207.4369952141638
 32
0.0
 13
237.8028989213742
 23
207.4369952141638
 33
0.0
  0
SOLID
  5
C9A
330
C93
100
AcDbEntity
  8
标注
100
AcDbTrace
 10
237.6945655880409
 20
189.5513903225996
 30
0.0
 11
237.9112322547075
 21
189.5513903225996
 31
0.0
 12
237.8028989213742
 22
188.9013903225995
 32
0.0
 13
237.8028989213742
 23
188.9013903225995
 33
0.0
  0
MTEXT
  5
C9B
330
C93
100
AcDbEntity
  8
标注
100
AcDbMText
 10
237.8028989213742
 20
198.1691927683817
 30
0.0
 40
0.65
 41
0.0
 71
     5
 72
     1
  1
\A1;18 1/2"
 11
0.0000000000000001
 21
1.0
 31
0.0
 73
     1
 44
1.0
  0
POINT
  5
C9C
330
C93
100
AcDbEntity
  8
Defpoints
 62
     0
100
AcDbPoint
 10
228.5808854638926
 20
207.4369952141638
 30
0.0
  0
POINT
  5
C9D
330
C93
100
AcDbEntity
  8
Defpoints
 62
     0
100
AcDbPoint
 10
228.5808854638926
 20
188.9013903225995
 30
0.0
  0
POINT
  5
C9E
330
C93
100
AcDbEntity
  8
Defpoints
 62
     0
100
AcDbPoint
 10
237.8028989213742
 20
188.9013903225995
 30
0.0
  0
ENDBLK
  5
C9F
330
C93
100
AcDbEntity
  8
0
100
AcDbBlockEnd
  0
BLOCK
  5
CA1
330
CA0
100
AcDbEntity
  8
0
100
AcDbBlockBegin
  2
*D43
 70
     1
 10
0.0
 20
0.0
 30
0.0
  3
*D43
  1

  0
LINE
  5
CA2
330
CA0
100
AcDbEntity
  8
标注
370
    -2
100
AcDbLine
 10
219.1320665662548
 20
197.2892786787308
 30
0.0
 11
219.1320665662548
 21
185.9859484721582
 31
0.0
  0
LINE
  5
CA3
330
CA0
100
AcDbEntity
  8
标注
370
    -2
100
AcDbLine
 10
232.1241925505068
 20
197.2892786787309
 30
0.0
 11
232.1241925505068
 21
185.9859484721582
 31
0.0
  0
LINE
  5
CA4
330
CA0
100
AcDbEntity
  8
标注
370
    -2
100
AcDbLine
 10
219.7820665662548
 20
186.3059484721581
 30
0.0
 11
224.7781295583808
 21
186.3059484721581
 31
0.0
  0
LINE
  5
CA5
330
CA0
100
AcDbEntity
  8
标注
370
    -2
100
AcDbLine
 10
231.4741925505068
 20
186.3059484721581
 30
0.0
 11
226.4781295583808
 21
186.3059484721581
 31
0.0
  0
SOLID
  5
CA6
330
CA0
100
AcDbEntity
  8
标注
100
AcDbTrace
 10
219.7820665662548
 20
186.4142818054915
 30
0.0
 11
219.7820665662548
 21
186.1976151388248
 31
0.0
 12
219.1320665662548
 22
186.3059484721581
 32
0.0
 13
219.1320665662548
 23
186.3059484721581
 33
0.0
  0
SOLID
  5
CA7
330
CA0
100
AcDbEntity
  8
标注
100
AcDbTrace
 10
231.4741925505068
 20
186.4142818054915
 30
0.0
 11
231.4741925505068
 21
186.1976151388248
 31
0.0
 12
232.1241925505068
 22
186.3059484721581
 32
0.0
 13
232.1241925505068
 23
186.3059484721581
 33
0.0
  0
MTEXT
  5
CA8
330
CA0
100
AcDbEntity
  8
标注
100
AcDbMText
 10
225.6281295583808
 20
186.3059484721581
 30
0.0
 40
0.65
 41
0.0
 71
     5
 72
     1
  1
\A1;13"
 73
     1
 44
1.0
  0
POINT
  5
CA9
330
CA0
100
AcDbEntity
  8
Defpoints
 62
     0
100
AcDbPoint
 10
219.1320665662548
 20
198.1692786787308
 30
0.0
  0
POINT
  5
CAA
330
CA0
100
AcDbEntity
  8
Defpoints
 62
     0
100
AcDbPoint
 10
232.1241925505068
 20
198.1692786787309
 30
0.0
  0
POINT
  5
CAB
330
CA0
100
AcDbEntity
  8
Defpoints
 62
     0
100
AcDbPoint
 10
232.1241925505068
 20
186.3059484721581
 30
0.0
  0
ENDBLK
  5
CAC
330
CA0
100
AcDbEntity
  8
0
100
AcDbBlockEnd
  0
BLOCK
  5
CAE
330
CAD
100
AcDbEntity
  8
0
100
AcDbBlockBegin
  2
*D44
 70
     1
 10
0.0
 20
0.0
 30
0.0
  3
*D44
  1

  0
LINE
  5
CAF
330
CAD
100
AcDbEntity
  8
标注
370
    -2
100
AcDbLine
 10
200.2344287709792
 20
192.9583981966153
 30
0.0
 11
200.2344287709792
 21
185.9763542414809
 31
0.0
  0
LINE
  5
CB0
330
CAD
100
AcDbEntity
  8
标注
370
    -2
100
AcDbLine
 10
217.9509642040501
 20
192.9583981966153
 30
0.0
 11
217.9509642040501
 21
185.9763542414809
 31
0.0
  0
LINE
  5
CB1
330
CAD
100
AcDbEntity
  8
标注
370
    -2
100
AcDbLine
 10
200.8844287709792
 20
186.2963542414809
 30
0.0
 11
206.9426964875146
 21
186.2963542414809
 31
0.0
  0
LINE
  5
CB2
330
CAD
100
AcDbEntity
  8
标注
370
    -2
100
AcDbLine
 10
217.3009642040501
 20
186.2963542414809
 30
0.0
 11
211.2426964875146
 21
186.2963542414809
 31
0.0
  0
SOLID
  5
CB3
330
CAD
100
AcDbEntity
  8
标注
100
AcDbTrace
 10
200.8844287709792
 20
186.4046875748142
 30
0.0
 11
200.8844287709792
 21
186.1880209081476
 31
0.0
 12
200.2344287709792
 22
186.2963542414809
 32
0.0
 13
200.2344287709792
 23
186.2963542414809
 33
0.0
  0
SOLID
  5
CB4
330
CAD
100
AcDbEntity
  8
标注
100
AcDbTrace
 10
217.3009642040501
 20
186.4046875748142
 30
0.0
 11
217.3009642040501
 21
186.1880209081476
 31
0.0
 12
217.9509642040501
 22
186.2963542414809
 32
0.0
 13
217.9509642040501
 23
186.2963542414809
 33
0.0
  0
MTEXT
  5
CB5
330
CAD
100
AcDbEntity
  8
标注
100
AcDbMText
 10
209.0926964875146
 20
186.2963542414809
 30
0.0
 40
0.65
 41
0.0
 71
     5
 72
     1
  1
\A1;17 3/4"
 73
     1
 44
1.0
  0
POINT
  5
CB6
330
CAD
100
AcDbEntity
  8
Defpoints
 62
     0
100
AcDbPoint
 10
200.2344287709792
 20
193.8383981966153
 30
0.0
  0
POINT
  5
CB7
330
CAD
100
AcDbEntity
  8
Defpoints
 62
     0
100
AcDbPoint
 10
217.9509642040501
 20
193.8383981966153
 30
0.0
  0
POINT
  5
CB8
330
CAD
100
AcDbEntity
  8
Defpoints
 62
     0
100
AcDbPoint
 10
217.9509642040501
 20
186.2963542414809
 30
0.0
  0
ENDBLK
  5
CB9
330
CAD
100
AcDbEntity
  8
0
100
AcDbBlockEnd
  0
BLOCK
  5
CBB
330
CBA
100
AcDbEntity
  8
0
100
AcDbBlockBegin
  2
*D45
 70
     1
 10
0.0
 20
0.0
 30
0.0
  3
*D45
  1

  0
LINE
  5
CBC
330
CBA
100
AcDbEntity
  8
标注
370
    -2
100
AcDbLine
 10
199.2344287709792
 20
192.9583981966153
 30
0.0
 11
199.2344287709792
 21
183.7624627921467
 31
0.0
  0
LINE
  5
CBD
330
CBA
100
AcDbEntity
  8
标注
370
    -2
100
AcDbLine
 10
233.1241925505068
 20
192.9583981966153
 30
0.0
 11
233.1241925505068
 21
183.7624627921467
 31
0.0
  0
LINE
  5
CBE
330
CBA
100
AcDbEntity
  8
标注
370
    -2
100
AcDbLine
 10
199.8844287709792
 20
184.0824627921467
 30
0.0
 11
213.9209773274097
 21
184.0824627921467
 31
0.0
  0
LINE
  5
CBF
330
CBA
100
AcDbEntity
  8
标注
370
    -2
100
AcDbLine
 10
232.4741925505067
 20
184.0824627921467
 30
0.0
 11
218.4376439940763
 21
184.0824627921467
 31
0.0
  0
SOLID
  5
CC0
330
CBA
100
AcDbEntity
  8
标注
100
AcDbTrace
 10
199.8844287709792
 20
184.1907961254801
 30
0.0
 11
199.8844287709792
 21
183.9741294588134
 31
0.0
 12
199.2344287709792
 22
184.0824627921467
 32
0.0
 13
199.2344287709792
 23
184.0824627921467
 33
0.0
  0
SOLID
  5
CC1
330
CBA
100
AcDbEntity
  8
标注
100
AcDbTrace
 10
232.4741925505067
 20
184.1907961254801
 30
0.0
 11
232.4741925505067
 21
183.9741294588134
 31
0.0
 12
233.1241925505068
 22
184.0824627921467
 32
0.0
 13
233.1241925505068
 23
184.0824627921467
 33
0.0
  0
MTEXT
  5
CC2
330
CBA
100
AcDbEntity
  8
标注
100
AcDbMText
 10
216.179310660743
 20
184.0824627921467
 30
0.0
 40
0.65
 41
0.0
 71
     5
 72
     1
  1
\A1;33 7/8"
 73
     1
 44
1.0
  0
POINT
  5
CC3
330
CBA
100
AcDbEntity
  8
Defpoints
 62
     0
100
AcDbPoint
 10
199.2344287709792
 20
193.8383981966153
 30
0.0
  0
POINT
  5
CC4
330
CBA
100
AcDbEntity
  8
Defpoints
 62
     0
100
AcDbPoint
 10
233.1241925505068
 20
193.8383981966153
 30
0.0
  0
POINT
  5
CC5
330
CBA
100
AcDbEntity
  8
Defpoints
 62
     0
100
AcDbPoint
 10
233.1241925505068
 20
184.0824627921467
 30
0.0
  0
ENDBLK
  5
CC6
330
CBA
100
AcDbEntity
  8
0
100
AcDbBlockEnd
  0
BLOCK
  5
CC8
330
CC7
100
AcDbEntity
  8
0
100
AcDbBlockBegin
  2
*D46
 70
     1
 10
0.0
 20
0.0
 30
0.0
  3
*D46
  1

  0
LINE
  5
CC9
330
CC7
100
AcDbEntity
  8
标注
370
    -2
100
AcDbLine
 10
232.1241925505068
 20
197.2892786787307
 30
0.0
 11
232.1241925505068
 21
185.9859484721582
 31
0.0
  0
LINE
  5
CCA
330
CC7
100
AcDbEntity
  8
标注
370
    -2
100
AcDbLine
 10
233.1241925505068
 20
192.5646974092138
 30
0.0
 11
233.1241925505068
 21
185.9859484721582
 31
0.0
  0
LINE
  5
CCB
330
CC7
100
AcDbEntity
  8
标注
370
    -2
100
AcDbLine
 10
231.4741925505068
 20
186.3059484721581
 30
0.0
 11
230.8241925505068
 21
186.3059484721581
 31
0.0
  0
LINE
  5
CCC
330
CC7
100
AcDbEntity
  8
标注
370
    -2
100
AcDbLine
 10
233.7741925505067
 20
186.3059484721581
 30
0.0
 11
234.4241925505067
 21
186.3059484721581
 31
0.0
  0
LINE
  5
CCD
330
CC7
100
AcDbEntity
  8
标注
370
    -2
100
AcDbLine
 10
232.1241925505068
 20
186.3059484721581
 30
0.0
 11
233.1241925505068
 21
186.3059484721581
 31
0.0
  0
SOLID
  5
CCE
330
CC7
100
AcDbEntity
  8
标注
100
AcDbTrace
 10
231.4741925505068
 20
186.4142818054915
 30
0.0
 11
231.4741925505068
 21
186.1976151388248
 31
0.0
 12
232.1241925505068
 22
186.3059484721581
 32
0.0
 13
232.1241925505068
 23
186.3059484721581
 33
0.0
  0
SOLID
  5
CCF
330
CC7
100
AcDbEntity
  8
标注
100
AcDbTrace
 10
233.7741925505067
 20
186.4142818054915
 30
0.0
 11
233.7741925505067
 21
186.1976151388248
 31
0.0
 12
233.1241925505068
 22
186.3059484721581
 32
0.0
 13
233.1241925505068
 23
186.3059484721581
 33
0.0
  0
MTEXT
  5
CD0
330
CC7
100
AcDbEntity
  8
标注
100
AcDbMText
 10
234.9491925505067
 20
186.3059484721581
 30
0.0
 40
0.65
 41
0.0
 71
     5
 72
     1
  1
\A1;1"
 73
     1
 44
1.0
  0
POINT
  5
CD1
330
CC7
100
AcDbEntity
  8
Defpoints
 62
     0
100
AcDbPoint
 10
232.1241925505068
 20
198.1692786787307
 30
0.0
  0
POINT
  5
CD2
330
CC7
100
AcDbEntity
  8
Defpoints
 62
     0
100
AcDbPoint
 10
233.1241925505068
 20
193.4446974092138
 30
0.0
  0
POINT
  5
CD3
330
CC7
100
AcDbEntity
  8
Defpoints
 62
     0
100
AcDbPoint
 10
233.1241925505068
 20
186.3059484721581
 30
0.0
  0
ENDBLK
  5
CD4
330
CC7
100
AcDbEntity
  8
0
100
AcDbBlockEnd
  0
BLOCK
  5
CD6
330
CD5
100
AcDbEntity
  8
0
100
AcDbBlockBegin
  2
*D47
 70
     1
 10
0.0
 20
0.0
 30
0.0
  3
*D47
  1

  0
LINE
  5
CD7
330
CD5
100
AcDbEntity
  8
标注
370
    -2
100
AcDbLine
 10
219.1320665662548
 20
197.2892786787307
 30
0.0
 11
219.1320665662548
 21
197.5166047187522
 31
0.0
  0
LINE
  5
CD8
330
CD5
100
AcDbEntity
  8
标注
370
    -2
100
AcDbLine
 10
217.9509642040501
 20
197.2892786787307
 30
0.0
 11
217.9509642040501
 21
197.5166047187522
 31
0.0
  0
LINE
  5
CD9
330
CD5
100
AcDbEntity
  8
标注
370
    -2
100
AcDbLine
 10
219.7820665662548
 20
197.8366047187521
 30
0.0
 11
220.4320665662548
 21
197.8366047187521
 31
0.0
  0
LINE
  5
CDA
330
CD5
100
AcDbEntity
  8
标注
370
    -2
100
AcDbLine
 10
217.3009642040501
 20
197.8366047187521
 30
0.0
 11
216.6509642040501
 21
197.8366047187521
 31
0.0
  0
LINE
  5
CDB
330
CD5
100
AcDbEntity
  8
标注
370
    -2
100
AcDbLine
 10
219.1320665662548
 20
197.8366047187521
 30
0.0
 11
217.9509642040501
 21
197.8366047187521
 31
0.0
  0
SOLID
  5
CDC
330
CD5
100
AcDbEntity
  8
标注
100
AcDbTrace
 10
219.7820665662548
 20
197.9449380520854
 30
0.0
 11
219.7820665662548
 21
197.7282713854189
 31
0.0
 12
219.1320665662548
 22
197.8366047187521
 32
0.0
 13
219.1320665662548
 23
197.8366047187521
 33
0.0
  0
SOLID
  5
CDD
330
CD5
100
AcDbEntity
  8
标注
100
AcDbTrace
 10
217.3009642040501
 20
197.9449380520854
 30
0.0
 11
217.3009642040501
 21
197.7282713854189
 31
0.0
 12
217.9509642040501
 22
197.8366047187521
 32
0.0
 13
217.9509642040501
 23
197.8366047187521
 33
0.0
  0
MTEXT
  5
CDE
330
CD5
100
AcDbEntity
  8
标注
100
AcDbMText
 10
214.9342975373834
 20
197.8366047187521
 30
0.0
 40
0.65
 41
0.0
 71
     5
 72
     1
  1
\A1;1 1/8"
 73
     1
 44
1.0
  0
POINT
  5
CDF
330
CD5
100
AcDbEntity
  8
Defpoints
 62
     0
100
AcDbPoint
 10
219.1320665662548
 20
198.1692786787307
 30
0.0
  0
POINT
  5
CE0
330
CD5
100
AcDbEntity
  8
Defpoints
 62
     0
100
AcDbPoint
 10
217.9509642040501
 20
198.1692786787307
 30
0.0
  0
POINT
  5
CE1
330
CD5
100
AcDbEntity
  8
Defpoints
 62
     0
100
AcDbPoint
 10
217.9509642040501
 20
197.8366047187521
 30
0.0
  0
ENDBLK
  5
CE2
330
CD5
100
AcDbEntity
  8
0
100
AcDbBlockEnd
  0
BLOCK
  5
CE4
330
CE3
100
AcDbEntity
  8
0
100
AcDbBlockBegin
  2
*D48
 70
     1
 10
0.0
 20
0.0
 30
0.0
  3
*D48
  1

  0
LINE
  5
CE5
330
CE3
100
AcDbEntity
  8
标注
370
    -2
100
AcDbLine
 10
226.5081295583807
 20
206.4369952141638
 30
0.0
 11
235.9627587817186
 21
206.4369952141638
 31
0.0
  0
LINE
  5
CE6
330
CE3
100
AcDbEntity
  8
标注
370
    -2
100
AcDbLine
 10
229.4608854638926
 20
207.4369952141638
 30
0.0
 11
235.9627587817186
 21
207.4369952141638
 31
0.0
  0
LINE
  5
CE7
330
CE3
100
AcDbEntity
  8
标注
370
    -2
100
AcDbLine
 10
235.6427587817186
 20
205.7869952141639
 30
0.0
 11
235.6427587817186
 21
205.1369952141639
 31
0.0
  0
LINE
  5
CE8
330
CE3
100
AcDbEntity
  8
标注
370
    -2
100
AcDbLine
 10
235.6427587817186
 20
208.0869952141638
 30
0.0
 11
235.6427587817186
 21
208.7369952141638
 31
0.0
  0
LINE
  5
CE9
330
CE3
100
AcDbEntity
  8
标注
370
    -2
100
AcDbLine
 10
235.6427587817186
 20
206.4369952141638
 30
0.0
 11
235.6427587817186
 21
207.4369952141638
 31
0.0
  0
SOLID
  5
CEA
330
CE3
100
AcDbEntity
  8
标注
100
AcDbTrace
 10
235.5344254483852
 20
205.7869952141639
 30
0.0
 11
235.7510921150519
 21
205.7869952141639
 31
0.0
 12
235.6427587817186
 22
206.4369952141638
 32
0.0
 13
235.6427587817186
 23
206.4369952141638
 33
0.0
  0
SOLID
  5
CEB
330
CE3
100
AcDbEntity
  8
标注
100
AcDbTrace
 10
235.5344254483852
 20
208.0869952141638
 30
0.0
 11
235.7510921150519
 21
208.0869952141638
 31
0.0
 12
235.6427587817186
 22
207.4369952141638
 32
0.0
 13
235.6427587817186
 23
207.4369952141638
 33
0.0
  0
MTEXT
  5
CEC
330
CE3
100
AcDbEntity
  8
标注
100
AcDbMText
 10
235.6427587817185
 20
209.2619952141638
 30
0.0
 40
0.65
 41
0.0
 71
     5
 72
     1
  1
\A1;1"
 11
0.0000000000000001
 21
1.0
 31
0.0
 73
     1
 44
1.0
  0
POINT
  5
CED
330
CE3
100
AcDbEntity
  8
Defpoints
 62
     0
100
AcDbPoint
 10
225.6281295583808
 20
206.4369952141638
 30
0.0
  0
POINT
  5
CEE
330
CE3
100
AcDbEntity
  8
Defpoints
 62
     0
100
AcDbPoint
 10
228.5808854638926
 20
207.4369952141638
 30
0.0
  0
POINT
  5
CEF
330
CE3
100
AcDbEntity
  8
Defpoints
 62
     0
100
AcDbPoint
 10
235.6427587817186
 20
207.4369952141638
 30
0.0
  0
ENDBLK
  5
CF0
330
CE3
100
AcDbEntity
  8
0
100
AcDbBlockEnd
  0
BLOCK
  5
CF2
330
CF1
100
AcDbEntity
  8
0
100
AcDbBlockBegin
  2
*D49
 70
     1
 10
0.0
 20
0.0
 30
0.0
  3
*D49
  1

  0
LINE
  5
CF3
330
CF1
100
AcDbEntity
  8
标注
370
    -2
100
AcDbLine
 10
208.2126964875147
 20
208.4053273304736
 30
0.0
 11
196.2462173539447
 21
208.4053273304736
 31
0.0
  0
LINE
  5
CF4
330
CF1
100
AcDbEntity
  8
标注
370
    -2
100
AcDbLine
 10
205.6536413694045
 20
209.4053100857582
 30
0.0
 11
196.2462173539447
 21
209.4053100857582
 31
0.0
  0
LINE
  5
CF5
330
CF1
100
AcDbEntity
  8
标注
370
    -2
100
AcDbLine
 10
196.5662173539447
 20
207.7553273304736
 30
0.0
 11
196.5662173539447
 21
207.1053273304736
 31
0.0
  0
LINE
  5
CF6
330
CF1
100
AcDbEntity
  8
标注
370
    -2
100
AcDbLine
 10
196.5662173539447
 20
210.0553100857581
 30
0.0
 11
196.5662173539447
 21
210.7053100857581
 31
0.0
  0
LINE
  5
CF7
330
CF1
100
AcDbEntity
  8
标注
370
    -2
100
AcDbLine
 10
196.5662173539447
 20
208.4053273304736
 30
0.0
 11
196.5662173539447
 21
209.4053100857582
 31
0.0
  0
SOLID
  5
CF8
330
CF1
100
AcDbEntity
  8
标注
100
AcDbTrace
 10
196.4578840206113
 20
207.7553273304736
 30
0.0
 11
196.674550687278
 21
207.7553273304736
 31
0.0
 12
196.5662173539447
 22
208.4053273304736
 32
0.0
 13
196.5662173539447
 23
208.4053273304736
 33
0.0
  0
SOLID
  5
CF9
330
CF1
100
AcDbEntity
  8
标注
100
AcDbTrace
 10
196.4578840206113
 20
210.0553100857581
 30
0.0
 11
196.674550687278
 21
210.0553100857581
 31
0.0
 12
196.5662173539447
 22
209.4053100857582
 32
0.0
 13
196.5662173539447
 23
209.4053100857582
 33
0.0
  0
MTEXT
  5
CFA
330
CF1
100
AcDbEntity
  8
标注
100
AcDbMText
 10
196.5662173539446
 20
211.2303100857582
 30
0.0
 40
0.65
 41
0.0
 71
     5
 72
     1
  1
\A1;1"
 11
0.0000000000000001
 21
1.0
 31
0.0
 73
     1
 44
1.0
  0
POINT
  5
CFB
330
CF1
100
AcDbEntity
  8
Defpoints
 62
     0
100
AcDbPoint
 10
209.0926964875147
 20
208.4053273304736
 30
0.0
  0
POINT
  5
CFC
330
CF1
100
AcDbEntity
  8
Defpoints
 62
     0
100
AcDbPoint
 10
206.5336413694045
 20
209.4053100857582
 30
0.0
  0
POINT
  5
CFD
330
CF1
100
AcDbEntity
  8
Defpoints
 62
     0
100
AcDbPoint
 10
196.5662173539447
 20
209.4053100857582
 30
0.0
  0
ENDBLK
  5
CFE
330
CF1
100
AcDbEntity
  8
0
100
AcDbBlockEnd
  0
BLOCK
  5
D00
330
CFF
100
AcDbEntity
  8
0
100
AcDbBlockBegin
  2
*D50
 70
     1
 10
0.0
 20
0.0
 30
0.0
  3
*D50
  1

  0
LINE
  5
D01
330
CFF
100
AcDbEntity
  8
标注
370
    -2
100
AcDbLine
 10
212.6999736020652
 20
206.7228944286465
 30
0.0
 11
212.8362639246457
 21
207.358445329811
 31
0.0
  0
MTEXT
  5
D02
330
CFF
100
AcDbEntity
  8
标注
100
AcDbMText
 10
212.2037370429259
 20
204.4088373013299
 30
0.0
 40
0.65
 41
0.0
 71
     5
 72
     1
  1
\A1;R18 1/2"
 11
0.2096774193546185
 21
0.9777706171760264
 31
0.0
 73
     1
 44
1.0
  0
SOLID
  5
D03
330
CFF
100
AcDbEntity
  8
标注
100
AcDbTrace
 10
212.7303387744517
 20
207.3811603835743
 30
0.0
 11
212.9421890748398
 21
207.3357302760475
 31
0.0
 12
212.9725542472262
 22
207.9939962309754
 32
0.0
 13
212.9725542472262
 23
207.9939962309754
 33
0.0
  0
POINT
  5
D04
330
CFF
100
AcDbEntity
  8
Defpoints
 62
     0
100
AcDbPoint
 10
212.9725542472262
 20
207.9939962309754
 30
0.0
  0
POINT
  5
D05
330
CFF
100
AcDbEntity
  8
Defpoints
 62
     0
100
AcDbPoint
 10
209.0926964875147
 20
189.9013903225996
 30
0.0
  0
ENDBLK
  5
D06
330
CFF
100
AcDbEntity
  8
0
100
AcDbBlockEnd
  0
BLOCK
  5
D08
330
D07
100
AcDbEntity
  8
0
100
AcDbBlockBegin
  2
*D51
 70
     1
 10
0.0
 20
0.0
 30
0.0
  3
*D51
  1

  0
LINE
  5
D09
330
D07
100
AcDbEntity
  8
标注
370
    -2
100
AcDbLine
 10
216.0292912140767
 20
204.2492001036627
 30
0.0
 11
216.598460996212
 21
204.563120092042
 31
0.0
  0
MTEXT
  5
D0A
330
D07
100
AcDbEntity
  8
标注
100
AcDbMText
 10
214.1466527039368
 20
203.2108493728699
 30
0.0
 40
0.65
 41
0.0
 71
     5
 72
     1
  1
\A1;R6 1/4"
 11
0.8756458186697425
 21
0.4829538282757432
 31
0.0
 73
     1
 44
1.0
  0
SOLID
  5
D0B
330
D07
100
AcDbEntity
  8
标注
100
AcDbTrace
 10
216.5461409981488
 20
204.6579817223978
 30
0.0
 11
216.6507809942753
 21
204.4682584616861
 31
0.0
 12
217.1676307783473
 22
204.8770400804212
 32
0.0
 13
217.1676307783473
 23
204.8770400804212
 33
0.0
  0
POINT
  5
D0C
330
D07
100
AcDbEntity
  8
Defpoints
 62
     0
100
AcDbPoint
 10
217.1676307783473
 20
204.8770400804212
 30
0.0
  0
POINT
  5
D0D
330
D07
100
AcDbEntity
  8
Defpoints
 62
     0
100
AcDbPoint
 10
211.6517516056249
 20
201.8348112408892
 30
0.0
  0
ENDBLK
  5
D0E
330
D07
100
AcDbEntity
  8
0
100
AcDbBlockEnd
  0
BLOCK
  5
D10
330
D0F
100
AcDbEntity
  8
0
100
AcDbBlockBegin
  2
*D52
 70
     1
 10
0.0
 20
0.0
 30
0.0
  3
*D52
  1

  0
LINE
  5
D11
330
D0F
100
AcDbEntity
  8
标注
370
    -2
100
AcDbLine
 10
221.2342415717706
 20
192.0728195303568
 30
0.0
 11
220.7524320725761
 21
191.6365173340684
 31
0.0
  0
MTEXT
  5
D12
330
D0F
100
AcDbEntity
  8
标注
100
AcDbMText
 10
222.8279191460292
 20
193.5159729488488
 30
0.0
 40
0.65
 41
0.0
 71
     5
 72
     1
  1
\A1;R3 1/2"
 11
0.741245383376088
 21
0.6712341481358325
 31
0.0
 73
     1
 44
1.0
  0
SOLID
  5
D13
330
D0F
100
AcDbEntity
  8
标注
100
AcDbTrace
 10
220.6797150398614
 20
191.7168189172676
 30
0.0
 11
220.8251491052908
 21
191.5562157508694
 31
0.0
 12
220.2706225733817
 22
191.2002151377802
 32
0.0
 13
220.2706225733817
 23
191.2002151377802
 33
0.0
  0
POINT
  5
D14
330
D0F
100
AcDbEntity
  8
Defpoints
 62
     0
100
AcDbPoint
 10
220.2706225733817
 20
191.2002151377802
 30
0.0
  0
POINT
  5
D15
330
D0F
100
AcDbEntity
  8
Defpoints
 62
     0
100
AcDbPoint
 10
222.8970825932182
 20
193.5786038516473
 30
0.0
  0
ENDBLK
  5
D16
330
D0F
100
AcDbEntity
  8
0
100
AcDbBlockEnd
  0
BLOCK
  5
D18
330
D17
100
AcDbEntity
  8
0
100
AcDbBlockBegin
  2
*D53
 70
     1
 10
0.0
 20
0.0
 30
0.0
  3
*D53
  1

  0
LINE
  5
D19
330
D17
100
AcDbEntity
  8
标注
370
    -2
100
AcDbLine
 10
215.6618410292741
 20
191.7796882739617
 30
0.0
 11
216.068030584133
 21
191.2722337976552
 31
0.0
  0
MTEXT
  5
D1A
330
D17
100
AcDbEntity
  8
标注
100
AcDbMText
 10
214.2505927040593
 20
193.5427672877959
 30
0.0
 40
0.65
 41
0.0
 71
     5
 72
     1
  1
\A1;R3 7/8"
 11
0.6249070074752222
 21
-0.7806991943177363
 31
0.0
 73
     1
 44
1.0
  0
SOLID
  5
D1B
330
D17
100
AcDbEntity
  8
标注
100
AcDbTrace
 10
216.152606330184
 20
191.3399320567983
 30
0.0
 11
215.9834548380819
 21
191.204535538512
 31
0.0
 12
216.4742201389919
 22
190.7647793213486
 32
0.0
 13
216.4742201389919
 23
190.7647793213486
 33
0.0
  0
POINT
  5
D1C
330
D17
100
AcDbEntity
  8
Defpoints
 62
     0
100
AcDbPoint
 10
216.4742201389919
 20
190.7647793213486
 30
0.0
  0
POINT
  5
D1D
330
D17
100
AcDbEntity
  8
Defpoints
 62
     0
100
AcDbPoint
 10
214.0139563300343
 20
193.8383981966153
 30
0.0
  0
ENDBLK
  5
D1E
330
D17
100
AcDbEntity
  8
0
100
AcDbBlockEnd
  0
BLOCK
  5
DD1
330
DC5
100
AcDbEntity
  8
0
100
AcDbBlockBegin
  2
*D54
 70
     1
 10
0.0
 20
0.0
 30
0.0
  3
*D54
  1

  0
LINE
  5
E01
330
DC5
100
AcDbEntity
  8
标注
370
    -2
100
AcDbLine
 10
206.7300088410873
 20
168.373365273683
 30
0.0
 11
194.7635297075173
 21
168.373365273683
 31
0.0
  0
LINE
  5
E02
330
DC5
100
AcDbEntity
  8
标注
370
    -2
100
AcDbLine
 10
204.1709537229771
 20
169.3733480289677
 30
0.0
 11
194.7635297075173
 21
169.3733480289677
 31
0.0
  0
LINE
  5
E03
330
DC5
100
AcDbEntity
  8
标注
370
    -2
100
AcDbLine
 10
195.0835297075173
 20
167.7233652736831
 30
0.0
 11
195.0835297075173
 21
167.0733652736831
 31
0.0
  0
LINE
  5
E04
330
DC5
100
AcDbEntity
  8
标注
370
    -2
100
AcDbLine
 10
195.0835297075173
 20
170.0233480289677
 30
0.0
 11
195.0835297075173
 21
170.6733480289677
 31
0.0
  0
LINE
  5
E05
330
DC5
100
AcDbEntity
  8
标注
370
    -2
100
AcDbLine
 10
195.0835297075173
 20
168.373365273683
 30
0.0
 11
195.0835297075173
 21
169.3733480289677
 31
0.0
  0
SOLID
  5
E06
330
DC5
100
AcDbEntity
  8
标注
100
AcDbTrace
 10
194.975196374184
 20
167.7233652736831
 30
0.0
 11
195.1918630408506
 21
167.7233652736831
 31
0.0
 12
195.0835297075173
 22
168.373365273683
 32
0.0
 13
195.0835297075173
 23
168.373365273683
 33
0.0
  0
SOLID
  5
E07
330
DC5
100
AcDbEntity
  8
标注
100
AcDbTrace
 10
194.975196374184
 20
170.0233480289677
 30
0.0
 11
195.1918630408506
 21
170.0233480289677
 31
0.0
 12
195.0835297075173
 22
169.3733480289677
 32
0.0
 13
195.0835297075173
 23
169.3733480289677
 33
0.0
  0
MTEXT
  5
E08
330
DC5
100
AcDbEntity
  8
标注
100
AcDbMText
 10
195.0835297075173
 20
171.1983480289676
 30
0.0
 40
0.65
 41
0.0
 71
     5
 72
     1
  1
\A1;1"
 11
0.0000000000000001
 21
1.0
 31
0.0
 73
     1
 44
1.0
  0
POINT
  5
E09
330
DC5
100
AcDbEntity
  8
Defpoints
 62
     0
100
AcDbPoint
 10
207.6100088410873
 20
168.373365273683
 30
0.0
  0
POINT
  5
E0A
330
DC5
100
AcDbEntity
  8
Defpoints
 62
     0
100
AcDbPoint
 10
205.0509537229771
 20
169.3733480289677
 30
0.0
  0
POINT
  5
E0B
330
DC5
100
AcDbEntity
  8
Defpoints
 62
     0
100
AcDbPoint
 10
195.0835297075173
 20
169.3733480289677
 30
0.0
  0
ENDBLK
  5
DD2
330
DC5
100
AcDbEntity
  8
0
100
AcDbBlockEnd
  0
BLOCK
  5
DDF
330
DD3
100
AcDbEntity
  8
0
100
AcDbBlockBegin
  2
*D55
 70
     1
 10
0.0
 20
0.0
 30
0.0
  3
*D55
  1

  0
LINE
  5
E0C
330
DD3
100
AcDbEntity
  8
标注
370
    -2
100
AcDbLine
 10
225.0254419119534
 20
166.4050331573734
 30
0.0
 11
234.4800711352912
 21
166.4050331573734
 31
0.0
  0
LINE
  5
E0D
330
DD3
100
AcDbEntity
  8
标注
370
    -2
100
AcDbLine
 10
227.9781978174652
 20
167.4050331573733
 30
0.0
 11
234.4800711352912
 21
167.4050331573733
 31
0.0
  0
LINE
  5
E0E
330
DD3
100
AcDbEntity
  8
标注
370
    -2
100
AcDbLine
 10
234.1600711352912
 20
165.7550331573734
 30
0.0
 11
234.1600711352912
 21
165.1050331573734
 31
0.0
  0
LINE
  5
E0F
330
DD3
100
AcDbEntity
  8
标注
370
    -2
100
AcDbLine
 10
234.1600711352912
 20
168.0550331573734
 30
0.0
 11
234.1600711352912
 21
168.7050331573733
 31
0.0
  0
LINE
  5
E10
330
DD3
100
AcDbEntity
  8
标注
370
    -2
100
AcDbLine
 10
234.1600711352912
 20
166.4050331573734
 30
0.0
 11
234.1600711352912
 21
167.4050331573733
 31
0.0
  0
SOLID
  5
E11
330
DD3
100
AcDbEntity
  8
标注
100
AcDbTrace
 10
234.0517378019579
 20
165.7550331573734
 30
0.0
 11
234.2684044686245
 21
165.7550331573734
 31
0.0
 12
234.1600711352912
 22
166.4050331573734
 32
0.0
 13
234.1600711352912
 23
166.4050331573734
 33
0.0
  0
SOLID
  5
E12
330
DD3
100
AcDbEntity
  8
标注
100
AcDbTrace
 10
234.0517378019579
 20
168.0550331573734
 30
0.0
 11
234.2684044686245
 21
168.0550331573734
 31
0.0
 12
234.1600711352912
 22
167.4050331573733
 32
0.0
 13
234.1600711352912
 23
167.4050331573733
 33
0.0
  0
MTEXT
  5
E13
330
DD3
100
AcDbEntity
  8
标注
100
AcDbMText
 10
234.1600711352912
 20
169.2300331573734
 30
0.0
 40
0.65
 41
0.0
 71
     5
 72
     1
  1
\A1;1"
 11
0.0000000000000001
 21
1.0
 31
0.0
 73
     1
 44
1.0
  0
POINT
  5
E14
330
DD3
100
AcDbEntity
  8
Defpoints
 62
     0
100
AcDbPoint
 10
224.1454419119534
 20
166.4050331573734
 30
0.0
  0
POINT
  5
E15
330
DD3
100
AcDbEntity
  8
Defpoints
 62
     0
100
AcDbPoint
 10
227.0981978174652
 20
167.4050331573733
 30
0.0
  0
POINT
  5
E16
330
DD3
100
AcDbEntity
  8
Defpoints
 62
     0
100
AcDbPoint
 10
234.1600711352912
 20
167.4050331573733
 30
0.0
  0
ENDBLK
  5
DE0
330
DD3
100
AcDbEntity
  8
0
100
AcDbBlockEnd
  0
BLOCK
  5
DE7
330
DE1
100
AcDbEntity
  8
0
100
AcDbBlockBegin
  2
*D56
 70
     1
 10
0.0
 20
0.0
 30
0.0
  3
*D56
  1

  0
LINE
  5
E9E
330
DE1
100
AcDbEntity
  8
标注
370
    -2
100
AcDbLine
 10
214.1791533828467
 20
151.7477262171713
 30
0.0
 11
214.5853429377056
 21
151.2402717408648
 31
0.0
  0
MTEXT
  5
E9F
330
DE1
100
AcDbEntity
  8
标注
100
AcDbMText
 10
212.7679050576318
 20
153.5108052310055
 30
0.0
 40
0.65
 41
0.0
 71
     5
 72
     1
  1
\A1;R3 7/8"
 11
0.6249070074752209
 21
-0.7806991943177374
 31
0.0
 73
     1
 44
1.0
  0
SOLID
  5
EA0
330
DE1
100
AcDbEntity
  8
标注
100
AcDbTrace
 10
214.6699186837567
 20
151.3079700000079
 30
0.0
 11
214.5007671916545
 21
151.1725734817216
 31
0.0
 12
214.9915324925645
 22
150.7328172645582
 32
0.0
 13
214.9915324925645
 23
150.7328172645582
 33
0.0
  0
POINT
  5
EA1
330
DE1
100
AcDbEntity
  8
Defpoints
 62
     0
100
AcDbPoint
 10
214.9915324925645
 20
150.7328172645582
 30
0.0
  0
POINT
  5
EA2
330
DE1
100
AcDbEntity
  8
Defpoints
 62
     0
100
AcDbPoint
 10
212.5312686836069
 20
153.8064361398248
 30
0.0
  0
ENDBLK
  5
DE8
330
DE1
100
AcDbEntity
  8
0
100
AcDbBlockEnd
  0
BLOCK
  5
DEF
330
DE9
100
AcDbEntity
  8
0
100
AcDbBlockBegin
  2
*D57
 70
     1
 10
0.0
 20
0.0
 30
0.0
  3
*D57
  1

  0
LINE
  5
EA3
330
DE9
100
AcDbEntity
  8
标注
370
    -2
100
AcDbLine
 10
219.7515539253432
 20
152.0408574735664
 30
0.0
 11
219.2697444261487
 21
151.6045552772781
 31
0.0
  0
MTEXT
  5
EA4
330
DE9
100
AcDbEntity
  8
标注
100
AcDbMText
 10
221.3452314996018
 20
153.4840108920584
 30
0.0
 40
0.65
 41
0.0
 71
     5
 72
     1
  1
\A1;R3 1/2"
 11
0.7412453833760953
 21
0.6712341481358242
 31
0.0
 73
     1
 44
1.0
  0
SOLID
  5
EA5
330
DE9
100
AcDbEntity
  8
标注
100
AcDbTrace
 10
219.197027393434
 20
151.684856860477
 30
0.0
 11
219.3424614588634
 21
151.524253694079
 31
0.0
 12
218.7879349269543
 22
151.1682530809898
 32
0.0
 13
218.7879349269543
 23
151.1682530809898
 33
0.0
  0
POINT
  5
EA6
330
DE9
100
AcDbEntity
  8
Defpoints
 62
     0
100
AcDbPoint
 10
218.7879349269543
 20
151.1682530809898
 30
0.0
  0
POINT
  5
EA7
330
DE9
100
AcDbEntity
  8
Defpoints
 62
     0
100
AcDbPoint
 10
221.4143949467908
 20
153.5466417948568
 30
0.0
  0
ENDBLK
  5
DF0
330
DE9
100
AcDbEntity
  8
0
100
AcDbBlockEnd
  0
BLOCK
  5
DF7
330
DF1
100
AcDbEntity
  8
0
100
AcDbBlockBegin
  2
*D58
 70
     1
 10
0.0
 20
0.0
 30
0.0
  3
*D58
  1

  0
LINE
  5
E8E
330
DF1
100
AcDbEntity
  8
标注
370
    -2
100
AcDbLine
 10
214.5466035676492
 20
164.2172380468722
 30
0.0
 11
215.1157733497846
 21
164.5311580352515
 31
0.0
  0
MTEXT
  5
E8F
330
DF1
100
AcDbEntity
  8
标注
100
AcDbMText
 10
212.6639650575093
 20
163.1788873160794
 30
0.0
 40
0.65
 41
0.0
 71
     5
 72
     1
  1
\A1;R6 1/4"
 11
0.8756458186697397
 21
0.4829538282757487
 31
0.0
 73
     1
 44
1.0
  0
SOLID
  5
E90
330
DF1
100
AcDbEntity
  8
标注
100
AcDbTrace
 10
215.0634533517214
 20
164.6260196656074
 30
0.0
 11
215.1680933478478
 21
164.4362964048956
 31
0.0
 12
215.6849431319199
 22
164.8450780236307
 32
0.0
 13
215.6849431319199
 23
164.8450780236307
 33
0.0
  0
POINT
  5
E91
330
DF1
100
AcDbEntity
  8
Defpoints
 62
     0
100
AcDbPoint
 10
215.6849431319199
 20
164.8450780236307
 30
0.0
  0
POINT
  5
E92
330
DF1
100
AcDbEntity
  8
Defpoints
 62
     0
100
AcDbPoint
 10
210.1690639591975
 20
161.8028491840987
 30
0.0
  0
ENDBLK
  5
DF8
330
DF1
100
AcDbEntity
  8
0
100
AcDbBlockEnd
  0
BLOCK
  5
DFF
330
DF9
100
AcDbEntity
  8
0
100
AcDbBlockBegin
  2
*D59
 70
     1
 10
0.0
 20
0.0
 30
0.0
  3
*D59
  1

  0
LINE
  5
EBD
330
DF9
100
AcDbEntity
  8
标注
370
    -2
100
AcDbLine
 10
211.2172859556378
 20
166.6909323718559
 30
0.0
 11
211.3535762782183
 21
167.3264832730204
 31
0.0
  0
MTEXT
  5
EBE
330
DF9
100
AcDbEntity
  8
标注
100
AcDbMText
 10
210.7210493964985
 20
164.3768752445393
 30
0.0
 40
0.65
 41
0.0
 71
     5
 72
     1
  1
\A1;R18 1/2"
 11
0.2096774193546185
 21
0.9777706171760264
 31
0.0
 73
     1
 44
1.0
  0
SOLID
  5
EBF
330
DF9
100
AcDbEntity
  8
标注
100
AcDbTrace
 10
211.2476511280243
 20
167.3491983267838
 30
0.0
 11
211.4595014284124
 21
167.303768219257
 31
0.0
 12
211.4898666007988
 22
167.9620341741848
 32
0.0
 13
211.4898666007988
 23
167.9620341741848
 33
0.0
  0
POINT
  5
EC0
330
DF9
100
AcDbEntity
  8
Defpoints
 62
     0
100
AcDbPoint
 10
211.4898666007988
 20
167.9620341741848
 30
0.0
  0
POINT
  5
EC1
330
DF9
100
AcDbEntity
  8
Defpoints
 62
     0
100
AcDbPoint
 10
207.6100088410873
 20
149.8694282658091
 30
0.0
  0
ENDBLK
  5
E00
330
DF9
100
AcDbEntity
  8
0
100
AcDbBlockEnd
  0
BLOCK
  5
E23
330
E17
100
AcDbEntity
  8
0
100
AcDbBlockBegin
  2
*D60
 70
     1
 10
0.0
 20
0.0
 30
0.0
  3
*D60
  1

  0
LINE
  5
E93
330
E17
100
AcDbEntity
  8
标注
370
    -2
100
AcDbLine
 10
217.6493789198275
 20
157.2573166219402
 30
0.0
 11
217.6493789198275
 21
157.4846426619618
 31
0.0
  0
LINE
  5
E94
330
E17
100
AcDbEntity
  8
标注
370
    -2
100
AcDbLine
 10
216.4682765576227
 20
157.2573166219402
 30
0.0
 11
216.4682765576227
 21
157.4846426619618
 31
0.0
  0
LINE
  5
E95
330
E17
100
AcDbEntity
  8
标注
370
    -2
100
AcDbLine
 10
218.2993789198275
 20
157.8046426619617
 30
0.0
 11
218.9493789198275
 21
157.8046426619617
 31
0.0
  0
LINE
  5
E96
330
E17
100
AcDbEntity
  8
标注
370
    -2
100
AcDbLine
 10
215.8182765576227
 20
157.8046426619617
 30
0.0
 11
215.1682765576227
 21
157.8046426619617
 31
0.0
  0
LINE
  5
E97
330
E17
100
AcDbEntity
  8
标注
370
    -2
100
AcDbLine
 10
217.6493789198275
 20
157.8046426619617
 30
0.0
 11
216.4682765576227
 21
157.8046426619617
 31
0.0
  0
SOLID
  5
E98
330
E17
100
AcDbEntity
  8
标注
100
AcDbTrace
 10
218.2993789198275
 20
157.9129759952951
 30
0.0
 11
218.2993789198275
 21
157.6963093286284
 31
0.0
 12
217.6493789198275
 22
157.8046426619617
 32
0.0
 13
217.6493789198275
 23
157.8046426619617
 33
0.0
  0
SOLID
  5
E99
330
E17
100
AcDbEntity
  8
标注
100
AcDbTrace
 10
215.8182765576227
 20
157.9129759952951
 30
0.0
 11
215.8182765576227
 21
157.6963093286284
 31
0.0
 12
216.4682765576227
 22
157.8046426619617
 32
0.0
 13
216.4682765576227
 23
157.8046426619617
 33
0.0
  0
MTEXT
  5
E9A
330
E17
100
AcDbEntity
  8
标注
100
AcDbMText
 10
213.4516098909561
 20
157.8046426619617
 30
0.0
 40
0.65
 41
0.0
 71
     5
 72
     1
  1
\A1;1 1/8"
 73
     1
 44
1.0
  0
POINT
  5
E9B
330
E17
100
AcDbEntity
  8
Defpoints
 62
     0
100
AcDbPoint
 10
217.6493789198275
 20
158.1373166219402
 30
0.0
  0
POINT
  5
E9C
330
E17
100
AcDbEntity
  8
Defpoints
 62
     0
100
AcDbPoint
 10
216.4682765576227
 20
158.1373166219402
 30
0.0
  0
POINT
  5
E9D
330
E17
100
AcDbEntity
  8
Defpoints
 62
     0
100
AcDbPoint
 10
216.4682765576227
 20
157.8046426619617
 30
0.0
  0
ENDBLK
  5
E24
330
E17
100
AcDbEntity
  8
0
100
AcDbBlockEnd
  0
BLOCK
  5
E31
330
E25
100
AcDbEntity
  8
0
100
AcDbBlockBegin
  2
*D61
 70
     1
 10
0.0
 20
0.0
 30
0.0
  3
*D61
  1

  0
LINE
  5
EB2
330
E25
100
AcDbEntity
  8
标注
370
    -2
100
AcDbLine
 10
230.6415049040794
 20
157.2573166219402
 30
0.0
 11
230.6415049040794
 21
145.9539864153676
 31
0.0
  0
LINE
  5
EB3
330
E25
100
AcDbEntity
  8
标注
370
    -2
100
AcDbLine
 10
231.6415049040793
 20
152.5327353524233
 30
0.0
 11
231.6415049040793
 21
145.9539864153676
 31
0.0
  0
LINE
  5
EB4
330
E25
100
AcDbEntity
  8
标注
370
    -2
100
AcDbLine
 10
229.9915049040794
 20
146.2739864153677
 30
0.0
 11
229.3415049040794
 21
146.2739864153677
 31
0.0
  0
LINE
  5
EB5
330
E25
100
AcDbEntity
  8
标注
370
    -2
100
AcDbLine
 10
232.2915049040794
 20
146.2739864153677
 30
0.0
 11
232.9415049040793
 21
146.2739864153677
 31
0.0
  0
LINE
  5
EB6
330
E25
100
AcDbEntity
  8
标注
370
    -2
100
AcDbLine
 10
230.6415049040794
 20
146.2739864153677
 30
0.0
 11
231.6415049040793
 21
146.2739864153677
 31
0.0
  0
SOLID
  5
EB7
330
E25
100
AcDbEntity
  8
标注
100
AcDbTrace
 10
229.9915049040794
 20
146.382319748701
 30
0.0
 11
229.9915049040794
 21
146.1656530820344
 31
0.0
 12
230.6415049040794
 22
146.2739864153677
 32
0.0
 13
230.6415049040794
 23
146.2739864153677
 33
0.0
  0
SOLID
  5
EB8
330
E25
100
AcDbEntity
  8
标注
100
AcDbTrace
 10
232.2915049040794
 20
146.382319748701
 30
0.0
 11
232.2915049040794
 21
146.1656530820344
 31
0.0
 12
231.6415049040793
 22
146.2739864153677
 32
0.0
 13
231.6415049040793
 23
146.2739864153677
 33
0.0
  0
MTEXT
  5
EB9
330
E25
100
AcDbEntity
  8
标注
100
AcDbMText
 10
233.4665049040793
 20
146.2739864153677
 30
0.0
 40
0.65
 41
0.0
 71
     5
 72
     1
  1
\A1;1"
 73
     1
 44
1.0
  0
POINT
  5
EBA
330
E25
100
AcDbEntity
  8
Defpoints
 62
     0
100
AcDbPoint
 10
230.6415049040794
 20
158.1373166219402
 30
0.0
  0
POINT
  5
EBB
330
E25
100
AcDbEntity
  8
Defpoints
 62
     0
100
AcDbPoint
 10
231.6415049040793
 20
153.4127353524233
 30
0.0
  0
POINT
  5
EBC
330
E25
100
AcDbEntity
  8
Defpoints
 62
     0
100
AcDbPoint
 10
231.6415049040793
 20
146.2739864153677
 30
0.0
  0
ENDBLK
  5
E32
330
E25
100
AcDbEntity
  8
0
100
AcDbBlockEnd
  0
BLOCK
  5
E3E
330
E33
100
AcDbEntity
  8
0
100
AcDbBlockBegin
  2
*D62
 70
     1
 10
0.0
 20
0.0
 30
0.0
  3
*D62
  1

  0
LINE
  5
E34
330
E33
100
AcDbEntity
  8
标注
370
    -2
100
AcDbLine
 10
197.7517411245518
 20
152.9264361398249
 30
0.0
 11
197.7517411245518
 21
143.7305007353563
 31
0.0
  0
LINE
  5
E35
330
E33
100
AcDbEntity
  8
标注
370
    -2
100
AcDbLine
 10
231.6415049040794
 20
152.9264361398249
 30
0.0
 11
231.6415049040794
 21
143.7305007353563
 31
0.0
  0
LINE
  5
E36
330
E33
100
AcDbEntity
  8
标注
370
    -2
100
AcDbLine
 10
198.4017411245518
 20
144.0505007353563
 30
0.0
 11
212.4382896809823
 21
144.0505007353563
 31
0.0
  0
LINE
  5
E37
330
E33
100
AcDbEntity
  8
标注
370
    -2
100
AcDbLine
 10
230.9915049040794
 20
144.0505007353563
 30
0.0
 11
216.954956347649
 21
144.0505007353563
 31
0.0
  0
SOLID
  5
E38
330
E33
100
AcDbEntity
  8
标注
100
AcDbTrace
 10
198.4017411245518
 20
144.1588340686896
 30
0.0
 11
198.4017411245518
 21
143.942167402023
 31
0.0
 12
197.7517411245518
 22
144.0505007353563
 32
0.0
 13
197.7517411245518
 23
144.0505007353563
 33
0.0
  0
SOLID
  5
E39
330
E33
100
AcDbEntity
  8
标注
100
AcDbTrace
 10
230.9915049040794
 20
144.1588340686896
 30
0.0
 11
230.9915049040794
 21
143.942167402023
 31
0.0
 12
231.6415049040794
 22
144.0505007353563
 32
0.0
 13
231.6415049040794
 23
144.0505007353563
 33
0.0
  0
MTEXT
  5
E3A
330
E33
100
AcDbEntity
  8
标注
100
AcDbMText
 10
214.6966230143156
 20
144.0505007353563
 30
0.0
 40
0.65
 41
0.0
 71
     5
 72
     1
  1
\A1;33 7/8"
 73
     1
 44
1.0
  0
POINT
  5
E3B
330
E33
100
AcDbEntity
  8
Defpoints
 62
     0
100
AcDbPoint
 10
197.7517411245518
 20
153.8064361398249
 30
0.0
  0
POINT
  5
E3C
330
E33
100
AcDbEntity
  8
Defpoints
 62
     0
100
AcDbPoint
 10
231.6415049040794
 20
153.8064361398249
 30
0.0
  0
POINT
  5
E3D
330
E33
100
AcDbEntity
  8
Defpoints
 62
     0
100
AcDbPoint
 10
231.6415049040794
 20
144.0505007353563
 30
0.0
  0
ENDBLK
  5
E3F
330
E33
100
AcDbEntity
  8
0
100
AcDbBlockEnd
  0
BLOCK
  5
E4B
330
E40
100
AcDbEntity
  8
0
100
AcDbBlockBegin
  2
*D63
 70
     1
 10
0.0
 20
0.0
 30
0.0
  3
*D63
  1

  0
LINE
  5
E41
330
E40
100
AcDbEntity
  8
标注
370
    -2
100
AcDbLine
 10
198.7517411245518
 20
152.9264361398249
 30
0.0
 11
198.7517411245518
 21
145.9443921846904
 31
0.0
  0
LINE
  5
E42
330
E40
100
AcDbEntity
  8
标注
370
    -2
100
AcDbLine
 10
216.4682765576227
 20
152.9264361398249
 30
0.0
 11
216.4682765576227
 21
145.9443921846904
 31
0.0
  0
LINE
  5
E43
330
E40
100
AcDbEntity
  8
标注
370
    -2
100
AcDbLine
 10
199.4017411245518
 20
146.2643921846904
 30
0.0
 11
205.4600088410873
 21
146.2643921846904
 31
0.0
  0
LINE
  5
E44
330
E40
100
AcDbEntity
  8
标注
370
    -2
100
AcDbLine
 10
215.8182765576227
 20
146.2643921846904
 30
0.0
 11
209.7600088410873
 21
146.2643921846904
 31
0.0
  0
SOLID
  5
E45
330
E40
100
AcDbEntity
  8
标注
100
AcDbTrace
 10
199.4017411245518
 20
146.3727255180238
 30
0.0
 11
199.4017411245518
 21
146.1560588513571
 31
0.0
 12
198.7517411245518
 22
146.2643921846904
 32
0.0
 13
198.7517411245518
 23
146.2643921846904
 33
0.0
  0
SOLID
  5
E46
330
E40
100
AcDbEntity
  8
标注
100
AcDbTrace
 10
215.8182765576227
 20
146.3727255180238
 30
0.0
 11
215.8182765576227
 21
146.1560588513571
 31
0.0
 12
216.4682765576227
 22
146.2643921846904
 32
0.0
 13
216.4682765576227
 23
146.2643921846904
 33
0.0
  0
MTEXT
  5
E47
330
E40
100
AcDbEntity
  8
标注
100
AcDbMText
 10
207.6100088410873
 20
146.2643921846904
 30
0.0
 40
0.65
 41
0.0
 71
     5
 72
     1
  1
\A1;17 3/4"
 73
     1
 44
1.0
  0
POINT
  5
E48
330
E40
100
AcDbEntity
  8
Defpoints
 62
     0
100
AcDbPoint
 10
198.7517411245518
 20
153.8064361398248
 30
0.0
  0
POINT
  5
E49
330
E40
100
AcDbEntity
  8
Defpoints
 62
     0
100
AcDbPoint
 10
216.4682765576227
 20
153.8064361398249
 30
0.0
  0
POINT
  5
E4A
330
E40
100
AcDbEntity
  8
Defpoints
 62
     0
100
AcDbPoint
 10
216.4682765576227
 20
146.2643921846904
 30
0.0
  0
ENDBLK
  5
E4C
330
E40
100
AcDbEntity
  8
0
100
AcDbBlockEnd
  0
BLOCK
  5
E58
330
E4D
100
AcDbEntity
  8
0
100
AcDbBlockBegin
  2
*D64
 70
     1
 10
0.0
 20
0.0
 30
0.0
  3
*D64
  1

  0
LINE
  5
EA8
330
E4D
100
AcDbEntity
  8
标注
370
    -2
100
AcDbLine
 10
217.6493789198275
 20
157.2573166219403
 30
0.0
 11
217.6493789198275
 21
145.9539864153676
 31
0.0
  0
LINE
  5
EA9
330
E4D
100
AcDbEntity
  8
标注
370
    -2
100
AcDbLine
 10
230.6415049040794
 20
157.2573166219404
 30
0.0
 11
230.6415049040794
 21
145.9539864153676
 31
0.0
  0
LINE
  5
EAA
330
E4D
100
AcDbEntity
  8
标注
370
    -2
100
AcDbLine
 10
218.2993789198275
 20
146.2739864153677
 30
0.0
 11
223.2954419119535
 21
146.2739864153677
 31
0.0
  0
LINE
  5
EAB
330
E4D
100
AcDbEntity
  8
标注
370
    -2
100
AcDbLine
 10
229.9915049040794
 20
146.2739864153677
 30
0.0
 11
224.9954419119535
 21
146.2739864153677
 31
0.0
  0
SOLID
  5
EAC
330
E4D
100
AcDbEntity
  8
标注
100
AcDbTrace
 10
218.2993789198275
 20
146.382319748701
 30
0.0
 11
218.2993789198275
 21
146.1656530820344
 31
0.0
 12
217.6493789198275
 22
146.2739864153677
 32
0.0
 13
217.6493789198275
 23
146.2739864153677
 33
0.0
  0
SOLID
  5
EAD
330
E4D
100
AcDbEntity
  8
标注
100
AcDbTrace
 10
229.9915049040794
 20
146.382319748701
 30
0.0
 11
229.9915049040794
 21
146.1656530820344
 31
0.0
 12
230.6415049040794
 22
146.2739864153677
 32
0.0
 13
230.6415049040794
 23
146.2739864153677
 33
0.0
  0
MTEXT
  5
EAE
330
E4D
100
AcDbEntity
  8
标注
100
AcDbMText
 10
224.1454419119535
 20
146.2739864153677
 30
0.0
 40
0.65
 41
0.0
 71
     5
 72
     1
  1
\A1;13"
 73
     1
 44
1.0
  0
POINT
  5
EAF
330
E4D
100
AcDbEntity
  8
Defpoints
 62
     0
100
AcDbPoint
 10
217.6493789198275
 20
158.1373166219403
 30
0.0
  0
POINT
  5
EB0
330
E4D
100
AcDbEntity
  8
Defpoints
 62
     0
100
AcDbPoint
 10
230.6415049040794
 20
158.1373166219404
 30
0.0
  0
POINT
  5
EB1
330
E4D
100
AcDbEntity
  8
Defpoints
 62
     0
100
AcDbPoint
 10
230.6415049040794
 20
146.2739864153677
 30
0.0
  0
ENDBLK
  5
E59
330
E4D
100
AcDbEntity
  8
0
100
AcDbBlockEnd
  0
BLOCK
  5
E65
330
E5A
100
AcDbEntity
  8
0
100
AcDbBlockBegin
  2
*D65
 70
     1
 10
0.0
 20
0.0
 30
0.0
  3
*D65
  1

  0
LINE
  5
E5B
330
E5A
100
AcDbEntity
  8
标注
370
    -2
100
AcDbLine
 10
227.9781978174652
 20
167.4050331573733
 30
0.0
 11
236.6402112749468
 21
167.4050331573733
 31
0.0
  0
LINE
  5
E5C
330
E5A
100
AcDbEntity
  8
标注
370
    -2
100
AcDbLine
 10
227.9781978174652
 20
148.8694282658091
 30
0.0
 11
236.6402112749468
 21
148.8694282658091
 31
0.0
  0
LINE
  5
E5D
330
E5A
100
AcDbEntity
  8
标注
370
    -2
100
AcDbLine
 10
236.3202112749469
 20
166.7550331573733
 30
0.0
 11
236.3202112749469
 21
160.1788973782579
 31
0.0
  0
LINE
  5
E5E
330
E5A
100
AcDbEntity
  8
标注
370
    -2
100
AcDbLine
 10
236.3202112749469
 20
149.5194282658091
 30
0.0
 11
236.3202112749469
 21
156.0955640449246
 31
0.0
  0
SOLID
  5
E5F
330
E5A
100
AcDbEntity
  8
标注
100
AcDbTrace
 10
236.2118779416135
 20
166.7550331573733
 30
0.0
 11
236.4285446082802
 21
166.7550331573733
 31
0.0
 12
236.3202112749469
 22
167.4050331573733
 32
0.0
 13
236.3202112749469
 23
167.4050331573733
 33
0.0
  0
SOLID
  5
E60
330
E5A
100
AcDbEntity
  8
标注
100
AcDbTrace
 10
236.2118779416135
 20
149.5194282658091
 30
0.0
 11
236.4285446082802
 21
149.5194282658091
 31
0.0
 12
236.3202112749469
 22
148.8694282658091
 32
0.0
 13
236.3202112749469
 23
148.8694282658091
 33
0.0
  0
MTEXT
  5
E61
330
E5A
100
AcDbEntity
  8
标注
100
AcDbMText
 10
236.3202112749468
 20
158.1372307115913
 30
0.0
 40
0.65
 41
0.0
 71
     5
 72
     1
  1
\A1;18 1/2"
 11
0.0000000000000001
 21
1.0
 31
0.0
 73
     1
 44
1.0
  0
POINT
  5
E62
330
E5A
100
AcDbEntity
  8
Defpoints
 62
     0
100
AcDbPoint
 10
227.0981978174652
 20
167.4050331573733
 30
0.0
  0
POINT
  5
E63
330
E5A
100
AcDbEntity
  8
Defpoints
 62
     0
100
AcDbPoint
 10
227.0981978174652
 20
148.8694282658091
 30
0.0
  0
POINT
  5
E64
330
E5A
100
AcDbEntity
  8
Defpoints
 62
     0
100
AcDbPoint
 10
236.3202112749469
 20
148.8694282658091
 30
0.0
  0
ENDBLK
  5
E66
330
E5A
100
AcDbEntity
  8
0
100
AcDbBlockEnd
  0
BLOCK
  5
E72
330
E67
100
AcDbEntity
  8
0
100
AcDbBlockBegin
  2
*D66
 70
     1
 10
0.0
 20
0.0
 30
0.0
  3
*D66
  1

  0
LINE
  5
E68
330
E67
100
AcDbEntity
  8
标注
370
    -2
100
AcDbLine
 10
225.0254419119534
 20
166.4050331573734
 30
0.0
 11
234.4800711352912
 21
166.4050331573734
 31
0.0
  0
LINE
  5
E69
330
E67
100
AcDbEntity
  8
标注
370
    -2
100
AcDbLine
 10
225.0254419119534
 20
149.8696000865072
 30
0.0
 11
234.4800711352912
 21
149.8696000865072
 31
0.0
  0
LINE
  5
E6A
330
E67
100
AcDbEntity
  8
标注
370
    -2
100
AcDbLine
 10
234.1600711352912
 20
165.7550331573734
 30
0.0
 11
234.1600711352912
 21
160.1789832886069
 31
0.0
  0
LINE
  5
E6B
330
E67
100
AcDbEntity
  8
标注
370
    -2
100
AcDbLine
 10
234.1600711352912
 20
150.5196000865072
 30
0.0
 11
234.1600711352912
 21
156.0956499552736
 31
0.0
  0
SOLID
  5
E6C
330
E67
100
AcDbEntity
  8
标注
100
AcDbTrace
 10
234.0517378019579
 20
165.7550331573734
 30
0.0
 11
234.2684044686245
 21
165.7550331573734
 31
0.0
 12
234.1600711352912
 22
166.4050331573734
 32
0.0
 13
234.1600711352912
 23
166.4050331573734
 33
0.0
  0
SOLID
  5
E6D
330
E67
100
AcDbEntity
  8
标注
100
AcDbTrace
 10
234.0517378019579
 20
150.5196000865072
 30
0.0
 11
234.2684044686245
 21
150.5196000865072
 31
0.0
 12
234.1600711352912
 22
149.8696000865072
 32
0.0
 13
234.1600711352912
 23
149.8696000865072
 33
0.0
  0
MTEXT
  5
E6E
330
E67
100
AcDbEntity
  8
标注
100
AcDbMText
 10
234.1600711352912
 20
158.1373166219403
 30
0.0
 40
0.65
 41
0.0
 71
     5
 72
     1
  1
\A1;16 1/2"
 11
0.0000000000000001
 21
1.0
 31
0.0
 73
     1
 44
1.0
  0
POINT
  5
E6F
330
E67
100
AcDbEntity
  8
Defpoints
 62
     0
100
AcDbPoint
 10
224.1454419119534
 20
166.4050331573734
 30
0.0
  0
POINT
  5
E70
330
E67
100
AcDbEntity
  8
Defpoints
 62
     0
100
AcDbPoint
 10
224.1454419119534
 20
149.8696000865072
 30
0.0
  0
POINT
  5
E71
330
E67
100
AcDbEntity
  8
Defpoints
 62
     0
100
AcDbPoint
 10
234.1600711352912
 20
149.8696000865072
 30
0.0
  0
ENDBLK
  5
E73
330
E67
100
AcDbEntity
  8
0
100
AcDbBlockEnd
  0
BLOCK
  5
E7F
330
E74
100
AcDbEntity
  8
0
100
AcDbBlockBegin
  2
*D67
 70
     1
 10
0.0
 20
0.0
 30
0.0
  3
*D67
  1

  0
LINE
  5
E75
330
E74
100
AcDbEntity
  8
标注
370
    -2
100
AcDbLine
 10
204.1709537229771
 20
169.3733480289677
 30
0.0
 11
192.3925510733911
 21
169.3733480289677
 31
0.0
  0
LINE
  5
E76
330
E74
100
AcDbEntity
  8
标注
370
    -2
100
AcDbLine
 10
201.8087489985677
 20
148.8694282658091
 30
0.0
 11
192.3925510733911
 21
148.8694282658091
 31
0.0
  0
LINE
  5
E77
330
E74
100
AcDbEntity
  8
标注
370
    -2
100
AcDbLine
 10
192.712551073391
 20
168.7233480289677
 30
0.0
 11
192.712551073391
 21
161.2172214807217
 31
0.0
  0
LINE
  5
E78
330
E74
100
AcDbEntity
  8
标注
370
    -2
100
AcDbLine
 10
192.712551073391
 20
149.5194282658091
 30
0.0
 11
192.712551073391
 21
157.0255548140551
 31
0.0
  0
SOLID
  5
E79
330
E74
100
AcDbEntity
  8
标注
100
AcDbTrace
 10
192.6042177400578
 20
168.7233480289677
 30
0.0
 11
192.8208844067244
 21
168.7233480289677
 31
0.0
 12
192.712551073391
 22
169.3733480289677
 32
0.0
 13
192.712551073391
 23
169.3733480289677
 33
0.0
  0
SOLID
  5
E7A
330
E74
100
AcDbEntity
  8
标注
100
AcDbTrace
 10
192.6042177400578
 20
149.5194282658091
 30
0.0
 11
192.8208844067244
 21
149.5194282658091
 31
0.0
 12
192.712551073391
 22
148.8694282658091
 32
0.0
 13
192.712551073391
 23
148.8694282658091
 33
0.0
  0
MTEXT
  5
E7B
330
E74
100
AcDbEntity
  8
标注
100
AcDbMText
 10
192.712551073391
 20
159.1213881473884
 30
0.0
 40
0.65
 41
0.0
 71
     5
 72
     1
  1
\A1;20 1/2"
 11
0.0000000000000001
 21
1.0
 31
0.0
 73
     1
 44
1.0
  0
POINT
  5
E7C
330
E74
100
AcDbEntity
  8
Defpoints
 62
     0
100
AcDbPoint
 10
205.0509537229771
 20
169.3733480289677
 30
0.0
  0
POINT
  5
E7D
330
E74
100
AcDbEntity
  8
Defpoints
 62
     0
100
AcDbPoint
 10
202.6887489985677
 20
148.8694282658091
 30
0.0
  0
POINT
  5
E7E
330
E74
100
AcDbEntity
  8
Defpoints
 62
     0
100
AcDbPoint
 10
192.712551073391
 20
148.8694282658091
 30
0.0
  0
ENDBLK
  5
E80
330
E74
100
AcDbEntity
  8
0
100
AcDbBlockEnd
  0
BLOCK
  5
E8C
330
E81
100
AcDbEntity
  8
0
100
AcDbBlockBegin
  2
*D68
 70
     1
 10
0.0
 20
0.0
 30
0.0
  3
*D68
  1

  0
LINE
  5
E82
330
E81
100
AcDbEntity
  8
标注
370
    -2
100
AcDbLine
 10
206.7300088410873
 20
168.373365273683
 30
0.0
 11
194.7635297075173
 21
168.373365273683
 31
0.0
  0
LINE
  5
E83
330
E81
100
AcDbEntity
  8
标注
370
    -2
100
AcDbLine
 10
201.8087489985677
 20
149.8694282658091
 30
0.0
 11
194.7635297075173
 21
149.8694282658091
 31
0.0
  0
LINE
  5
E84
330
E81
100
AcDbEntity
  8
标注
370
    -2
100
AcDbLine
 10
195.0835297075173
 20
167.7233652736831
 30
0.0
 11
195.0835297075173
 21
161.1630634364128
 31
0.0
  0
LINE
  5
E85
330
E81
100
AcDbEntity
  8
标注
370
    -2
100
AcDbLine
 10
195.0835297075173
 20
150.5194282658091
 30
0.0
 11
195.0835297075173
 21
157.0797301030794
 31
0.0
  0
SOLID
  5
E86
330
E81
100
AcDbEntity
  8
标注
100
AcDbTrace
 10
194.975196374184
 20
167.7233652736831
 30
0.0
 11
195.1918630408506
 21
167.7233652736831
 31
0.0
 12
195.0835297075173
 22
168.373365273683
 32
0.0
 13
195.0835297075173
 23
168.373365273683
 33
0.0
  0
SOLID
  5
E87
330
E81
100
AcDbEntity
  8
标注
100
AcDbTrace
 10
194.975196374184
 20
150.5194282658091
 30
0.0
 11
195.1918630408506
 21
150.5194282658091
 31
0.0
 12
195.0835297075173
 22
149.8694282658091
 32
0.0
 13
195.0835297075173
 23
149.8694282658091
 33
0.0
  0
MTEXT
  5
E88
330
E81
100
AcDbEntity
  8
标注
100
AcDbMText
 10
195.0835297075173
 20
159.1213967697462
 30
0.0
 40
0.65
 41
0.0
 71
     5
 72
     1
  1
\A1;18 1/2"
 11
0.0000000000000001
 21
1.0
 31
0.0
 73
     1
 44
1.0
  0
POINT
  5
E89
330
E81
100
AcDbEntity
  8
Defpoints
 62
     0
100
AcDbPoint
 10
207.6100088410873
 20
168.373365273683
 30
0.0
  0
POINT
  5
E8A
330
E81
100
AcDbEntity
  8
Defpoints
 62
     0
100
AcDbPoint
 10
202.6887489985677
 20
149.8694282658091
 30
0.0
  0
POINT
  5
E8B
330
E81
100
AcDbEntity
  8
Defpoints
 62
     0
100
AcDbPoint
 10
195.0835297075173
 20
149.8694282658091
 30
0.0
  0
ENDBLK
  5
E8D
330
E81
100
AcDbEntity
  8
0
100
AcDbBlockEnd
  0
BLOCK
  5
F54
330
F53
100
AcDbEntity
  8
0
 48
5.0
100
AcDbBlockBegin
  2
_None
 70
     0
 10
0.0
 20
0.0
 30
0.0
  3
_None
  1

  0
ENDBLK
  5
F55
330
F53
100
AcDbEntity
  8
0
 48
5.0
100
AcDbBlockEnd
  0
BLOCK
  5
F57
330
F56
100
AcDbEntity
  8
0
 48
5.0
100
AcDbBlockBegin
  2
*D70
 70
     1
 10
0.0
 20
0.0
 30
0.0
  3
*D70
  1

  0
LINE
  5
F58
330
F56
100
AcDbEntity
  8
标注
 48
5.0
370
    -2
100
AcDbLine
 10
34037.30751748629
 20
-108200.1331944394
 30
0.0
 11
34048.84956012425
 21
-108190.5529412202
 31
0.0
  0
MTEXT
  5
F59
330
F56
100
AcDbEntity
  8
标注
 48
5.0
100
AcDbMText
 10
34017.75016746084
 20
-108216.366401283
 30
0.0
 40
15.0
 41
0.0
 71
     5
 72
     1
  1
\A1;R5,9
 11
0.7694695091979856
 21
0.6386835479442156
 31
0.0
 73
     1
 44
1.0
  0
SOLID
  5
F5A
330
F56
100
AcDbEntity
  8
标注
 48
5.0
100
AcDbTrace
 10
34047.2528512544
 20
-108188.6292674472
 30
0.0
 11
34050.44626899412
 21
-108192.4766149932
 31
0.0
 12
34060.39160276222
 22
-108180.9726880011
 32
0.0
 13
34060.39160276222
 23
-108180.9726880011
 33
0.0
  0
POINT
  5
F5B
330
F56
100
AcDbEntity
  8
Defpoints
 62
     0
 48
5.0
100
AcDbPoint
 10
34060.39160276222
 20
-108180.9726880011
 30
0.0
  0
POINT
  5
F5C
330
F56
100
AcDbEntity
  8
Defpoints
 62
     0
 48
5.0
100
AcDbPoint
 10
34055.84750057566
 20
-108184.7444336934
 30
0.0
  0
ENDBLK
  5
F5D
330
F56
100
AcDbEntity
  8
0
 48
5.0
100
AcDbBlockEnd
  0
BLOCK
  5
F5F
330
F5E
100
AcDbEntity
  8
0
 48
5.0
100
AcDbBlockBegin
  2
*D71
 70
     1
 10
0.0
 20
0.0
 30
0.0
  3
*D71
  1

  0
LINE
  5
F60
330
F5E
100
AcDbEntity
  8
标注
 48
5.0
370
    -2
100
AcDbLine
 10
34039.0884948589
 20
-108171.0883524453
 30
0.0
 11
34049.41454491716
 21
-108181.9682738694
 31
0.0
  0
MTEXT
  5
F61
330
F5E
100
AcDbEntity
  8
标注
 48
5.0
100
AcDbMText
 10
34028.99191257973
 20
-108160.4502070529
 30
0.0
 40
15.0
 41
0.0
 71
     5
 72
     1
  1
\A1;R3
 11
0.6884033372167977
 21
-0.7253280949396459
 31
0.0
 73
     1
 44
1.0
  0
SOLID
  5
F62
330
F5E
100
AcDbEntity
  8
标注
 48
5.0
100
AcDbTrace
 10
34051.2278651545
 20
-108180.2472655264
 30
0.0
 11
34047.60122467981
 21
-108183.6892822125
 31
0.0
 12
34059.74059497541
 22
-108192.8481952935
 32
0.0
 13
34059.74059497541
 23
-108192.8481952935
 33
0.0
  0
POINT
  5
F63
330
F5E
100
AcDbEntity
  8
Defpoints
 62
     0
 48
5.0
100
AcDbPoint
 10
34059.74059497541
 20
-108192.8481952935
 30
0.0
  0
POINT
  5
F64
330
F5E
100
AcDbEntity
  8
Defpoints
 62
     0
 48
5.0
100
AcDbPoint
 10
34057.70790795608
 20
-108190.7064784778
 30
0.0
  0
ENDBLK
  5
F65
330
F5E
100
AcDbEntity
  8
0
 48
5.0
100
AcDbBlockEnd
  0
BLOCK
  5
F67
330
F66
100
AcDbEntity
  8
0
 48
5.0
100
AcDbBlockBegin
  2
*D72
 70
     1
 10
0.0
 20
0.0
 30
0.0
  3
*D72
  1

  0
LINE
  5
F68
330
F66
100
AcDbEntity
  8
标注
 48
5.0
370
    -2
100
AcDbLine
 10
34061.75221317409
 20
-108206.7444336934
 30
0.0
 11
34061.75221317409
 21
-108204.9462389059
 31
0.0
  0
LINE
  5
F69
330
F66
100
AcDbEntity
  8
标注
 48
5.0
370
    -2
100
AcDbLine
 10
34031.51605320085
 20
-108206.7444336934
 30
0.0
 11
34031.51605320085
 21
-108204.9462389059
 31
0.0
  0
LINE
  5
F6A
330
F66
100
AcDbEntity
  8
标注
 48
5.0
370
    -2
100
AcDbLine
 10
34076.75221317409
 20
-108196.9462389059
 30
0.0
 11
34091.75221317409
 21
-108196.9462389059
 31
0.0
  0
LINE
  5
F6B
330
F66
100
AcDbEntity
  8
标注
 48
5.0
370
    -2
100
AcDbLine
 10
34016.51605320085
 20
-108196.9462389059
 30
0.0
 11
34001.51605320085
 21
-108196.9462389059
 31
0.0
  0
LINE
  5
F6C
330
F66
100
AcDbEntity
  8
标注
 48
5.0
370
    -2
100
AcDbLine
 10
34061.75221317409
 20
-108196.9462389059
 30
0.0
 11
34031.51605320085
 21
-108196.9462389059
 31
0.0
  0
SOLID
  5
F6D
330
F66
100
AcDbEntity
  8
标注
 48
5.0
100
AcDbTrace
 10
34076.75221317409
 20
-108194.4462389059
 30
0.0
 11
34076.75221317409
 21
-108199.446238906
 31
0.0
 12
34061.75221317409
 22
-108196.9462389059
 32
0.0
 13
34061.75221317409
 23
-108196.9462389059
 33
0.0
  0
SOLID
  5
F6E
330
F66
100
AcDbEntity
  8
标注
 48
5.0
100
AcDbTrace
 10
34016.51605320085
 20
-108194.4462389059
 30
0.0
 11
34016.51605320085
 21
-108199.446238906
 31
0.0
 12
34031.51605320085
 22
-108196.9462389059
 32
0.0
 13
34031.51605320085
 23
-108196.9462389059
 33
0.0
  0
MTEXT
  5
F6F
330
F66
100
AcDbEntity
  8
标注
 48
5.0
100
AcDbMText
 10
33970.84938653419
 20
-108196.9462389059
 30
0.0
 40
15.0
 41
0.0
 71
     5
 72
     1
  1
\A1;30,24
 73
     1
 44
1.0
  0
POINT
  5
F70
330
F66
100
AcDbEntity
  8
Defpoints
 62
     0
 48
5.0
100
AcDbPoint
 10
34061.75221317409
 20
-108184.7444336934
 30
0.0
  0
POINT
  5
F71
330
F66
100
AcDbEntity
  8
Defpoints
 62
     0
 48
5.0
100
AcDbPoint
 10
34031.51605320085
 20
-108184.7444336934
 30
0.0
  0
POINT
  5
F72
330
F66
100
AcDbEntity
  8
Defpoints
 62
     0
 48
5.0
100
AcDbPoint
 10
34031.51605320085
 20
-108196.9462389059
 30
0.0
  0
ENDBLK
  5
F73
330
F66
100
AcDbEntity
  8
0
 48
5.0
100
AcDbBlockEnd
  0
BLOCK
  5
F75
330
F74
100
AcDbEntity
  8
0
 48
5.0
100
AcDbBlockBegin
  2
*D73
 70
     1
 10
0.0
 20
0.0
 30
0.0
  3
*D73
  1

  0
LINE
  5
F76
330
F74
100
AcDbEntity
  8
标注
 48
5.0
370
    -2
100
AcDbLine
 10
34068.62822767565
 20
-108177.4533986331
 30
0.0
 11
34072.75277430976
 21
-108177.4533986331
 31
0.0
  0
LINE
  5
F77
330
F74
100
AcDbEntity
  8
标注
 48
5.0
370
    -2
100
AcDbLine
 10
34068.62822767565
 20
-108176.331351389
 30
0.0
 11
34072.75277430976
 21
-108176.331351389
 31
0.0
  0
LINE
  5
F78
330
F74
100
AcDbEntity
  8
标注
 48
5.0
370
    -2
100
AcDbLine
 10
34064.75277430976
 20
-108192.4533986331
 30
0.0
 11
34064.75277430976
 21
-108207.4533986331
 31
0.0
  0
LINE
  5
F79
330
F74
100
AcDbEntity
  8
标注
 48
5.0
370
    -2
100
AcDbLine
 10
34064.75277430976
 20
-108161.331351389
 30
0.0
 11
34064.75277430976
 21
-108146.331351389
 31
0.0
  0
LINE
  5
F7A
330
F74
100
AcDbEntity
  8
标注
 48
5.0
370
    -2
100
AcDbLine
 10
34064.75277430976
 20
-108177.4533986331
 30
0.0
 11
34064.75277430976
 21
-108176.331351389
 31
0.0
  0
SOLID
  5
F7B
330
F74
100
AcDbEntity
  8
标注
 48
5.0
100
AcDbTrace
 10
34062.25277430976
 20
-108192.4533986331
 30
0.0
 11
34067.25277430976
 21
-108192.4533986331
 31
0.0
 12
34064.75277430976
 22
-108177.4533986331
 32
0.0
 13
34064.75277430976
 23
-108177.4533986331
 33
0.0
  0
SOLID
  5
F7C
330
F74
100
AcDbEntity
  8
标注
 48
5.0
100
AcDbTrace
 10
34062.25277430976
 20
-108161.331351389
 30
0.0
 11
34067.25277430976
 21
-108161.331351389
 31
0.0
 12
34064.75277430976
 22
-108176.331351389
 32
0.0
 13
34064.75277430976
 23
-108176.331351389
 33
0.0
  0
MTEXT
  5
F7D
330
F74
100
AcDbEntity
  8
标注
 48
5.0
100
AcDbMText
 10
34064.75277430978
 20
-108127.6230180557
 30
0.0
 40
15.0
 41
0.0
 71
     5
 72
     1
  1
\A1;1,1
 11
0.0000000000000001
 21
1.0
 31
0.0
 73
     1
 44
1.0
  0
POINT
  5
F7E
330
F74
100
AcDbEntity
  8
Defpoints
 62
     0
 48
5.0
100
AcDbPoint
 10
34046.62822767566
 20
-108177.4533986331
 30
0.0
  0
POINT
  5
F7F
330
F74
100
AcDbEntity
  8
Defpoints
 62
     0
 48
5.0
100
AcDbPoint
 10
34046.62822767566
 20
-108176.331351389
 30
0.0
  0
POINT
  5
F80
330
F74
100
AcDbEntity
  8
Defpoints
 62
     0
 48
5.0
100
AcDbPoint
 10
34064.75277430976
 20
-108176.331351389
 30
0.0
  0
ENDBLK
  5
F81
330
F74
100
AcDbEntity
  8
0
 48
5.0
100
AcDbBlockEnd
  0
BLOCK
  5
F83
330
F82
100
AcDbEntity
  8
0
 48
5.0
100
AcDbBlockBegin
  2
*D74
 70
     1
 10
0.0
 20
0.0
 30
0.0
  3
*D74
  1

  0
LINE
  5
F84
330
F82
100
AcDbEntity
  8
标注
 48
5.0
370
    -2
100
AcDbLine
 10
34061.75221317409
 20
-108206.7444336934
 30
0.0
 11
34061.75221317409
 21
-108204.9462389059
 31
0.0
  0
LINE
  5
F85
330
F82
100
AcDbEntity
  8
标注
 48
5.0
370
    -2
100
AcDbLine
 10
34062.87426041818
 20
-108206.7444336934
 30
0.0
 11
34062.87426041818
 21
-108204.9462389059
 31
0.0
  0
LINE
  5
F86
330
F82
100
AcDbEntity
  8
标注
 48
5.0
370
    -2
100
AcDbLine
 10
34046.75221317408
 20
-108196.9462389059
 30
0.0
 11
34031.75221317408
 21
-108196.9462389059
 31
0.0
  0
LINE
  5
F87
330
F82
100
AcDbEntity
  8
标注
 48
5.0
370
    -2
100
AcDbLine
 10
34077.87426041819
 20
-108196.9462389059
 30
0.0
 11
34092.87426041818
 21
-108196.9462389059
 31
0.0
  0
LINE
  5
F88
330
F82
100
AcDbEntity
  8
标注
 48
5.0
370
    -2
100
AcDbLine
 10
34061.75221317409
 20
-108196.9462389059
 30
0.0
 11
34062.87426041818
 21
-108196.9462389059
 31
0.0
  0
SOLID
  5
F89
330
F82
100
AcDbEntity
  8
标注
 48
5.0
100
AcDbTrace
 10
34046.75221317408
 20
-108194.4462389059
 30
0.0
 11
34046.75221317408
 21
-108199.446238906
 31
0.0
 12
34061.75221317409
 22
-108196.9462389059
 32
0.0
 13
34061.75221317409
 23
-108196.9462389059
 33
0.0
  0
SOLID
  5
F8A
330
F82
100
AcDbEntity
  8
标注
 48
5.0
100
AcDbTrace
 10
34077.87426041819
 20
-108194.4462389059
 30
0.0
 11
34077.87426041819
 21
-108199.446238906
 31
0.0
 12
34062.87426041818
 22
-108196.9462389059
 32
0.0
 13
34062.87426041818
 23
-108196.9462389059
 33
0.0
  0
MTEXT
  5
F8B
330
F82
100
AcDbEntity
  8
标注
 48
5.0
100
AcDbMText
 10
34111.58259375151
 20
-108196.9462389059
 30
0.0
 40
15.0
 41
0.0
 71
     5
 72
     1
  1
\A1;1,1
 73
     1
 44
1.0
  0
POINT
  5
F8C
330
F82
100
AcDbEntity
  8
Defpoints
 62
     0
 48
5.0
100
AcDbPoint
 10
34061.75221317409
 20
-108184.7444336934
 30
0.0
  0
POINT
  5
F8D
330
F82
100
AcDbEntity
  8
Defpoints
 62
     0
 48
5.0
100
AcDbPoint
 10
34062.87426041818
 20
-108184.7444336934
 30
0.0
  0
POINT
  5
F8E
330
F82
100
AcDbEntity
  8
Defpoints
 62
     0
 48
5.0
100
AcDbPoint
 10
34062.87426041818
 20
-108196.9462389059
 30
0.0
  0
ENDBLK
  5
F8F
330
F82
100
AcDbEntity
  8
0
 48
5.0
100
AcDbBlockEnd
  0
BLOCK
  5
F91
330
F90
100
AcDbEntity
  8
0
 48
5.0
100
AcDbBlockBegin
  2
*D75
 70
     1
 10
0.0
 20
0.0
 30
0.0
  3
*D75
  1

  0
LINE
  5
F92
330
F90
100
AcDbEntity
  8
标注
 48
5.0
370
    -2
100
AcDbLine
 10
34065.17196734285
 20
-108161.8571184121
 30
0.0
 11
34052.52545011099
 21
-108161.8571184121
 31
0.0
  0
LINE
  5
F93
330
F90
100
AcDbEntity
  8
标注
 48
5.0
370
    -2
100
AcDbLine
 10
34066.40285368133
 20
-108170.8571184121
 30
0.0
 11
34052.52545011099
 21
-108170.8571184121
 31
0.0
  0
LINE
  5
F94
330
F90
100
AcDbEntity
  8
标注
 48
5.0
370
    -2
100
AcDbLine
 10
34044.52545011099
 20
-108146.8571184121
 30
0.0
 11
34044.52545011099
 21
-108131.8571184121
 31
0.0
  0
LINE
  5
F95
330
F90
100
AcDbEntity
  8
标注
 48
5.0
370
    -2
100
AcDbLine
 10
34044.52545011099
 20
-108185.8571184121
 30
0.0
 11
34044.52545011099
 21
-108200.8571184121
 31
0.0
  0
LINE
  5
F96
330
F90
100
AcDbEntity
  8
标注
 48
5.0
370
    -2
100
AcDbLine
 10
34044.52545011099
 20
-108161.8571184121
 30
0.0
 11
34044.52545011099
 21
-108170.8571184121
 31
0.0
  0
SOLID
  5
F97
330
F90
100
AcDbEntity
  8
标注
 48
5.0
100
AcDbTrace
 10
34042.02545011099
 20
-108146.8571184121
 30
0.0
 11
34047.02545011099
 21
-108146.8571184121
 31
0.0
 12
34044.52545011099
 22
-108161.8571184121
 32
0.0
 13
34044.52545011099
 23
-108161.8571184121
 33
0.0
  0
SOLID
  5
F98
330
F90
100
AcDbEntity
  8
标注
 48
5.0
100
AcDbTrace
 10
34042.02545011099
 20
-108185.8571184121
 30
0.0
 11
34047.02545011099
 21
-108185.8571184121
 31
0.0
 12
34044.52545011099
 22
-108170.8571184121
 32
0.0
 13
34044.52545011099
 23
-108170.8571184121
 33
0.0
  0
MTEXT
  5
F99
330
F90
100
AcDbEntity
  8
标注
 48
5.0
100
AcDbMText
 10
34044.525450111
 20
-108210.1487850788
 30
0.0
 40
15.0
 41
0.0
 71
     5
 72
     1
  1
\A1;9
 11
0.0000000000000001
 21
1.0
 31
0.0
 73
     1
 44
1.0
  0
POINT
  5
F9A
330
F90
100
AcDbEntity
  8
Defpoints
 62
     0
 48
5.0
100
AcDbPoint
 10
34043.17196734286
 20
-108161.8571184121
 30
0.0
  0
POINT
  5
F9B
330
F90
100
AcDbEntity
  8
Defpoints
 62
     0
 48
5.0
100
AcDbPoint
 10
34044.40285368134
 20
-108170.8571184121
 30
0.0
  0
POINT
  5
F9C
330
F90
100
AcDbEntity
  8
Defpoints
 62
     0
 48
5.0
100
AcDbPoint
 10
34044.52545011099
 20
-108170.8571184121
 30
0.0
  0
ENDBLK
  5
F9D
330
F90
100
AcDbEntity
  8
0
 48
5.0
100
AcDbBlockEnd
  0
BLOCK
  5
F9F
330
F9E
100
AcDbEntity
  8
0
 48
5.0
100
AcDbBlockBegin
  2
*D76
 70
     1
 10
0.0
 20
0.0
 30
0.0
  3
*D76
  1

  0
LINE
  5
FA0
330
F9E
100
AcDbEntity
  8
标注
 48
5.0
370
    -2
100
AcDbLine
 10
34048.66365596037
 20
-108207.6771463023
 30
0.0
 11
34051.92207904153
 21
-108193.0353336064
 31
0.0
  0
MTEXT
  5
FA1
330
F9E
100
AcDbEntity
  8
标注
 48
5.0
100
AcDbMText
 10
34041.93863276785
 20
-108237.8962208387
 30
0.0
 40
15.0
 41
0.0
 71
     5
 72
     1
  1
\A1;R39,4
 11
0.2172282054112475
 21
0.9761208463985436
 31
0.0
 73
     1
 44
1.0
  0
SOLID
  5
FA2
330
F9E
100
AcDbEntity
  8
标注
 48
5.0
100
AcDbTrace
 10
34049.48177692553
 20
-108192.4922630928
 30
0.0
 11
34054.36238115752
 21
-108193.5784041199
 31
0.0
 12
34055.18050212271
 22
-108178.3935209104
 32
0.0
 13
34055.18050212271
 23
-108178.3935209104
 33
0.0
  0
POINT
  5
FA3
330
F9E
100
AcDbEntity
  8
Defpoints
 62
     0
 48
5.0
100
AcDbPoint
 10
34055.18050212271
 20
-108178.3935209104
 30
0.0
  0
POINT
  5
FA4
330
F9E
100
AcDbEntity
  8
Defpoints
 62
     0
 48
5.0
100
AcDbPoint
 10
34046.62822767566
 20
-108216.8233986331
 30
0.0
  0
ENDBLK
  5
FA5
330
F9E
100
AcDbEntity
  8
0
 48
5.0
100
AcDbBlockEnd
  0
BLOCK
  5
FA7
330
FA6
100
AcDbEntity
  8
0
 48
5.0
100
AcDbBlockBegin
  2
*D77
 70
     1
 10
0.0
 20
0.0
 30
0.0
  3
*D77
  1

  0
LINE
  5
FA8
330
FA6
100
AcDbEntity
  8
标注
 48
5.0
370
    -2
100
AcDbLine
 10
34054.08373008723
 20
-108163.7724757139
 30
0.0
 11
34054.41462937417
 21
-108178.7688254585
 31
0.0
  0
MTEXT
  5
FA9
330
FA6
100
AcDbEntity
  8
标注
 48
5.0
100
AcDbMText
 10
34053.29876344539
 20
-108128.1978015976
 30
0.0
 40
15.0
 41
0.0
 71
     5
 72
     1
  1
\A1;R118,1
 11
0.0220599524635965
 21
-0.9997566496389527
 31
0.0
 73
     1
 44
1.0
  0
SOLID
  5
FAA
330
FA6
100
AcDbEntity
  8
标注
 48
5.0
100
AcDbTrace
 10
34056.91402099827
 20
-108178.7136755773
 30
0.0
 11
34051.91523775008
 21
-108178.8239753397
 31
0.0
 12
34054.74552866113
 22
-108193.7651752031
 32
0.0
 13
34054.74552866113
 23
-108193.7651752031
 33
0.0
  0
POINT
  5
FAB
330
FA6
100
AcDbEntity
  8
Defpoints
 62
     0
 48
5.0
100
AcDbPoint
 10
34054.74552866113
 20
-108193.7651752031
 30
0.0
  0
POINT
  5
FAC
330
FA6
100
AcDbEntity
  8
Defpoints
 62
     0
 48
5.0
100
AcDbPoint
 10
34052.14002767566
 20
-108075.6839173142
 30
0.0
  0
ENDBLK
  5
FAD
330
FA6
100
AcDbEntity
  8
0
 48
5.0
100
AcDbBlockEnd
  0
BLOCK
  5
FAF
330
FAE
100
AcDbEntity
  8
0
 48
5.0
100
AcDbBlockBegin
  2
*D78
 70
     1
 10
0.0
 20
0.0
 30
0.0
  3
*D78
  1

  0
LINE
  5
FB0
330
FAE
100
AcDbEntity
  8
标注
 48
5.0
370
    -2
100
AcDbLine
 10
34031.89893794242
 20
-108183.0108236411
 30
0.0
 11
34046.68557182268
 21
-108185.5318271103
 31
0.0
  0
MTEXT
  5
FB1
330
FAE
100
AcDbEntity
  8
标注
 48
5.0
100
AcDbMText
 10
34001.62741247089
 20
-108177.8497693169
 30
0.0
 40
15.0
 41
0.0
 71
     5
 72
     1
  1
\A1;R19,7
 11
0.9857755920171083
 21
-0.168066897940432
 31
0.0
 73
     1
 44
1.0
  0
SOLID
  5
FB2
330
FAE
100
AcDbEntity
  8
标注
 48
5.0
100
AcDbTrace
 10
34047.10573906753
 20
-108183.0673881302
 30
0.0
 11
34046.26540457783
 21
-108187.9962660903
 31
0.0
 12
34061.47220570294
 22
-108188.0528305794
 32
0.0
 13
34061.47220570294
 23
-108188.0528305794
 33
0.0
  0
POINT
  5
FB3
330
FAE
100
AcDbEntity
  8
Defpoints
 62
     0
 48
5.0
100
AcDbPoint
 10
34061.47220570294
 20
-108188.0528305794
 30
0.0
  0
POINT
  5
FB4
330
FAE
100
AcDbEntity
  8
Defpoints
 62
     0
 48
5.0
100
AcDbPoint
 10
34042.06721317408
 20
-108184.7444336934
 30
0.0
  0
ENDBLK
  5
FB5
330
FAE
100
AcDbEntity
  8
0
 48
5.0
100
AcDbBlockEnd
  0
BLOCK
  5
FB7
330
FB6
100
AcDbEntity
  8
0
 48
5.0
100
AcDbBlockBegin
  2
*D79
 70
     1
 10
0.0
 20
0.0
 30
0.0
  3
*D79
  1

  0
LINE
  5
FB8
330
FB6
100
AcDbEntity
  8
标注
 48
5.0
370
    -2
100
AcDbLine
 10
34068.62822767565
 20
-108177.4533986331
 30
0.0
 11
34072.75277430976
 21
-108177.4533986331
 31
0.0
  0
LINE
  5
FB9
330
FB6
100
AcDbEntity
  8
标注
 48
5.0
370
    -2
100
AcDbLine
 10
34074.14002767565
 20
-108193.7939173142
 30
0.0
 11
34072.75277430976
 21
-108193.7939173142
 31
0.0
  0
LINE
  5
FBA
330
FB6
100
AcDbEntity
  8
标注
 48
5.0
370
    -2
100
AcDbLine
 10
34064.75277430976
 20
-108162.4533986331
 30
0.0
 11
34064.75277430976
 21
-108147.4533986331
 31
0.0
  0
LINE
  5
FBB
330
FB6
100
AcDbEntity
  8
标注
 48
5.0
370
    -2
100
AcDbLine
 10
34064.75277430976
 20
-108208.7939173142
 30
0.0
 11
34064.75277430976
 21
-108223.7939173142
 31
0.0
  0
LINE
  5
FBC
330
FB6
100
AcDbEntity
  8
标注
 48
5.0
370
    -2
100
AcDbLine
 10
34064.75277430976
 20
-108177.4533986331
 30
0.0
 11
34064.75277430976
 21
-108193.7939173142
 31
0.0
  0
SOLID
  5
FBD
330
FB6
100
AcDbEntity
  8
标注
 48
5.0
100
AcDbTrace
 10
34062.25277430976
 20
-108162.4533986331
 30
0.0
 11
34067.25277430976
 21
-108162.4533986331
 31
0.0
 12
34064.75277430976
 22
-108177.4533986331
 32
0.0
 13
34064.75277430976
 23
-108177.4533986331
 33
0.0
  0
SOLID
  5
FBE
330
FB6
100
AcDbEntity
  8
标注
 48
5.0
100
AcDbTrace
 10
34062.25277430976
 20
-108208.7939173142
 30
0.0
 11
34067.25277430976
 21
-108208.7939173142
 31
0.0
 12
34064.75277430976
 22
-108193.7939173142
 32
0.0
 13
34064.75277430976
 23
-108193.7939173142
 33
0.0
  0
MTEXT
  5
FBF
330
FB6
100
AcDbEntity
  8
标注
 48
5.0
100
AcDbMText
 10
34064.75277430978
 20
-108248.2522506475
 30
0.0
 40
15.0
 41
0.0
 71
     5
 72
     1
  1
\A1;16,3
 11
0.0000000000000001
 21
1.0
 31
0.0
 73
     1
 44
1.0
  0
POINT
  5
FC0
330
FB6
100
AcDbEntity
  8
Defpoints
 62
     0
 48
5.0
100
AcDbPoint
 10
34046.62822767566
 20
-108177.4533986331
 30
0.0
  0
POINT
  5
FC1
330
FB6
100
AcDbEntity
  8
Defpoints
 62
     0
 48
5.0
100
AcDbPoint
 10
34052.14002767566
 20
-108193.7939173142
 30
0.0
  0
POINT
  5
FC2
330
FB6
100
AcDbEntity
  8
Defpoints
 62
     0
 48
5.0
100
AcDbPoint
 10
34064.75277430976
 20
-108193.7939173142
 30
0.0
  0
ENDBLK
  5
FC3
330
FB6
100
AcDbEntity
  8
0
 48
5.0
100
AcDbBlockEnd
  0
BLOCK
  5
FC5
330
FC4
100
AcDbEntity
  8
0
 48
5.0
100
AcDbBlockBegin
  2
*D80
 70
     1
 10
0.0
 20
0.0
 30
0.0
  3
*D80
  1

  0
LINE
  5
FC6
330
FC4
100
AcDbEntity
  8
标注
 48
5.0
370
    -2
100
AcDbLine
 10
34041.11642767566
 20
-108171.7939173142
 30
0.0
 11
34041.11642767566
 21
-108184.2712319125
 31
0.0
  0
LINE
  5
FC7
330
FC4
100
AcDbEntity
  8
标注
 48
5.0
370
    -2
100
AcDbLine
 10
34052.14002767566
 20
-108171.7939173142
 30
0.0
 11
34052.14002767566
 21
-108184.2712319125
 31
0.0
  0
LINE
  5
FC8
330
FC4
100
AcDbEntity
  8
标注
 48
5.0
370
    -2
100
AcDbLine
 10
34026.11642767566
 20
-108192.2712319125
 30
0.0
 11
34011.11642767566
 21
-108192.2712319125
 31
0.0
  0
LINE
  5
FC9
330
FC4
100
AcDbEntity
  8
标注
 48
5.0
370
    -2
100
AcDbLine
 10
34067.14002767566
 20
-108192.2712319125
 30
0.0
 11
34082.14002767565
 21
-108192.2712319125
 31
0.0
  0
LINE
  5
FCA
330
FC4
100
AcDbEntity
  8
标注
 48
5.0
370
    -2
100
AcDbLine
 10
34041.11642767566
 20
-108192.2712319125
 30
0.0
 11
34052.14002767566
 21
-108192.2712319125
 31
0.0
  0
SOLID
  5
FCB
330
FC4
100
AcDbEntity
  8
标注
 48
5.0
100
AcDbTrace
 10
34026.11642767566
 20
-108189.7712319125
 30
0.0
 11
34026.11642767566
 21
-108194.7712319125
 31
0.0
 12
34041.11642767566
 22
-108192.2712319125
 32
0.0
 13
34041.11642767566
 23
-108192.2712319125
 33
0.0
  0
SOLID
  5
FCC
330
FC4
100
AcDbEntity
  8
标注
 48
5.0
100
AcDbTrace
 10
34067.14002767566
 20
-108189.7712319125
 30
0.0
 11
34067.14002767566
 21
-108194.7712319125
 31
0.0
 12
34052.14002767566
 22
-108192.2712319125
 32
0.0
 13
34052.14002767566
 23
-108192.2712319125
 33
0.0
  0
MTEXT
  5
FCD
330
FC4
100
AcDbEntity
  8
标注
 48
5.0
100
AcDbMText
 10
34147.59836100899
 20
-108192.2712319125
 30
0.0
 40
15.0
 41
0.0
 71
     5
 72
     1
  1
\A1;11(直边长度)
 73
     1
 44
1.0
  0
POINT
  5
FCE
330
FC4
100
AcDbEntity
  8
Defpoints
 62
     0
 48
5.0
100
AcDbPoint
 10
34041.11642767566
 20
-108193.7939173142
 30
0.0
  0
POINT
  5
FCF
330
FC4
100
AcDbEntity
  8
Defpoints
 62
     0
 48
5.0
100
AcDbPoint
 10
34052.14002767566
 20
-108193.7939173142
 30
0.0
  0
POINT
  5
FD0
330
FC4
100
AcDbEntity
  8
Defpoints
 62
     0
 48
5.0
100
AcDbPoint
 10
34052.14002767566
 20
-108192.2712319125
 30
0.0
  0
ENDBLK
  5
FD1
330
FC4
100
AcDbEntity
  8
0
 48
5.0
100
AcDbBlockEnd
  0
BLOCK
  5
FD3
330
FD2
100
AcDbEntity
  8
0
 48
5.0
100
AcDbBlockBegin
  2
*D81
 70
     1
 10
0.0
 20
0.0
 30
0.0
  3
*D81
  1

  0
LINE
  5
FD4
330
FD2
100
AcDbEntity
  8
标注
 48
5.0
370
    -2
100
AcDbLine
 10
34068.62822767565
 20
-108176.331351389
 30
0.0
 11
34074.40006251529
 21
-108176.331351389
 31
0.0
  0
LINE
  5
FD5
330
FD2
100
AcDbEntity
  8
标注
 48
5.0
370
    -2
100
AcDbLine
 10
34074.14002767565
 20
-108194.9159645583
 30
0.0
 11
34074.40006251529
 21
-108194.9159645583
 31
0.0
  0
LINE
  5
FD6
330
FD2
100
AcDbEntity
  8
标注
 48
5.0
370
    -2
100
AcDbLine
 10
34066.40006251529
 20
-108161.331351389
 30
0.0
 11
34066.40006251529
 21
-108146.331351389
 31
0.0
  0
LINE
  5
FD7
330
FD2
100
AcDbEntity
  8
标注
 48
5.0
370
    -2
100
AcDbLine
 10
34066.40006251529
 20
-108209.9159645583
 30
0.0
 11
34066.40006251529
 21
-108224.9159645583
 31
0.0
  0
LINE
  5
FD8
330
FD2
100
AcDbEntity
  8
标注
 48
5.0
370
    -2
100
AcDbLine
 10
34066.40006251529
 20
-108176.331351389
 30
0.0
 11
34066.40006251529
 21
-108194.9159645583
 31
0.0
  0
SOLID
  5
FD9
330
FD2
100
AcDbEntity
  8
标注
 48
5.0
100
AcDbTrace
 10
34063.90006251529
 20
-108161.331351389
 30
0.0
 11
34068.90006251529
 21
-108161.331351389
 31
0.0
 12
34066.40006251529
 22
-108176.331351389
 32
0.0
 13
34066.40006251529
 23
-108176.331351389
 33
0.0
  0
SOLID
  5
FDA
330
FD2
100
AcDbEntity
  8
标注
 48
5.0
100
AcDbTrace
 10
34063.90006251529
 20
-108209.9159645583
 30
0.0
 11
34068.90006251529
 21
-108209.9159645583
 31
0.0
 12
34066.40006251529
 22
-108194.9159645583
 32
0.0
 13
34066.40006251529
 23
-108194.9159645583
 33
0.0
  0
MTEXT
  5
FDB
330
FD2
100
AcDbEntity
  8
标注
 48
5.0
100
AcDbMText
 10
34066.40006251532
 20
-108249.4992978916
 30
0.0
 40
15.0
 41
0.0
 71
     5
 72
     1
  1
\A1;18,6
 11
0.0000000000000001
 21
1.0
 31
0.0
 73
     1
 44
1.0
  0
POINT
  5
FDC
330
FD2
100
AcDbEntity
  8
Defpoints
 62
     0
 48
5.0
100
AcDbPoint
 10
34046.62822767566
 20
-108176.331351389
 30
0.0
  0
POINT
  5
FDD
330
FD2
100
AcDbEntity
  8
Defpoints
 62
     0
 48
5.0
100
AcDbPoint
 10
34052.14002767566
 20
-108194.9159645583
 30
0.0
  0
POINT
  5
FDE
330
FD2
100
AcDbEntity
  8
Defpoints
 62
     0
 48
5.0
100
AcDbPoint
 10
34066.40006251529
 20
-108194.9159645583
 30
0.0
  0
ENDBLK
  5
FDF
330
FD2
100
AcDbEntity
  8
0
 48
5.0
100
AcDbBlockEnd
  0
BLOCK
  5
FE1
330
FE0
100
AcDbEntity
  8
0
 48
5.0
100
AcDbBlockBegin
  2
*D82
 70
     1
 10
0.0
 20
0.0
 30
0.0
  3
*D82
  1

  0
LINE
  5
FE2
330
FE0
100
AcDbEntity
  8
标注
 48
5.0
370
    -2
100
AcDbLine
 10
34062.87426041818
 20
-108206.7444336934
 30
0.0
 11
34062.87426041818
 21
-108206.9228729824
 31
0.0
  0
LINE
  5
FE3
330
FE0
100
AcDbEntity
  8
标注
 48
5.0
370
    -2
100
AcDbLine
 10
34030.39400595675
 20
-108206.7444336934
 30
0.0
 11
34030.39400595675
 21
-108206.9228729824
 31
0.0
  0
LINE
  5
FE4
330
FE0
100
AcDbEntity
  8
标注
 48
5.0
370
    -2
100
AcDbLine
 10
34077.87426041819
 20
-108198.9228729824
 30
0.0
 11
34092.87426041818
 21
-108198.9228729824
 31
0.0
  0
LINE
  5
FE5
330
FE0
100
AcDbEntity
  8
标注
 48
5.0
370
    -2
100
AcDbLine
 10
34015.39400595675
 20
-108198.9228729824
 30
0.0
 11
34000.39400595676
 21
-108198.9228729824
 31
0.0
  0
LINE
  5
FE6
330
FE0
100
AcDbEntity
  8
标注
 48
5.0
370
    -2
100
AcDbLine
 10
34062.87426041818
 20
-108198.9228729824
 30
0.0
 11
34030.39400595675
 21
-108198.9228729824
 31
0.0
  0
SOLID
  5
FE7
330
FE0
100
AcDbEntity
  8
标注
 48
5.0
100
AcDbTrace
 10
34077.87426041819
 20
-108196.4228729824
 30
0.0
 11
34077.87426041819
 21
-108201.4228729824
 31
0.0
 12
34062.87426041818
 22
-108198.9228729824
 32
0.0
 13
34062.87426041818
 23
-108198.9228729824
 33
0.0
  0
SOLID
  5
FE8
330
FE0
100
AcDbEntity
  8
标注
 48
5.0
100
AcDbTrace
 10
34015.39400595675
 20
-108196.4228729824
 30
0.0
 11
34015.39400595675
 21
-108201.4228729824
 31
0.0
 12
34030.39400595675
 22
-108198.9228729824
 32
0.0
 13
34030.39400595675
 23
-108198.9228729824
 33
0.0
  0
MTEXT
  5
FE9
330
FE0
100
AcDbEntity
  8
标注
 48
5.0
100
AcDbMText
 10
33975.35233929009
 20
-108198.9228729824
 30
0.0
 40
15.0
 41
0.0
 71
     5
 72
     1
  1
\A1;32,5
 73
     1
 44
1.0
  0
POINT
  5
FEA
330
FE0
100
AcDbEntity
  8
Defpoints
 62
     0
 48
5.0
100
AcDbPoint
 10
34062.87426041818
 20
-108184.7444336934
 30
0.0
  0
POINT
  5
FEB
330
FE0
100
AcDbEntity
  8
Defpoints
 62
     0
 48
5.0
100
AcDbPoint
 10
34030.39400595675
 20
-108184.7444336934
 30
0.0
  0
POINT
  5
FEC
330
FE0
100
AcDbEntity
  8
Defpoints
 62
     0
 48
5.0
100
AcDbPoint
 10
34030.39400595675
 20
-108198.9228729824
 30
0.0
  0
ENDBLK
  5
FED
330
FE0
100
AcDbEntity
  8
0
 48
5.0
100
AcDbBlockEnd
  0
BLOCK
  5
FEF
330
FEE
100
AcDbEntity
  8
0
 48
5.0
100
AcDbBlockBegin
  2
*D83
 70
     1
 10
0.0
 20
0.0
 30
0.0
  3
*D83
  1

  0
LINE
  5
FF0
330
FEE
100
AcDbEntity
  8
标注
 48
5.0
370
    -2
100
AcDbLine
 10
34020.12655978056
 20
-108202.064269357
 30
0.0
 11
34032.63849964182
 21
-108193.7907355952
 31
0.0
  0
LINE
  5
FF1
330
FEE
100
AcDbEntity
  8
标注
 48
5.0
370
    -2
100
AcDbLine
 10
34060.61795570949
 20
-108175.2892900175
 30
0.0
 11
34073.12989557074
 21
-108167.0157562556
 31
0.0
  0
MTEXT
  5
FF2
330
FEE
100
AcDbEntity
  8
标注
 48
5.0
100
AcDbMText
 10
33998.89101740498
 20
-108216.106294714
 30
0.0
 40
15.0
 41
0.0
 71
     5
 72
     1
  1
\A1;\U+22053,5
 11
0.8341293240831896
 21
0.5515689174568498
 31
0.0
 73
     1
 44
1.0
  0
LINE
  5
FF3
330
FEE
100
AcDbEntity
  8
标注
 48
5.0
370
    -2
100
AcDbLine
 10
34048.10601584824
 20
-108183.5628237793
 30
0.0
 11
34045.15043950306
 21
-108185.5172018333
 31
0.0
  0
SOLID
  5
FF4
330
FEE
100
AcDbEntity
  8
标注
 48
5.0
100
AcDbTrace
 10
34059.23903341586
 20
-108173.2039667073
 30
0.0
 11
34061.99687800314
 21
-108177.3746133277
 31
0.0
 12
34048.10601584824
 22
-108183.5628237793
 32
0.0
 13
34048.10601584824
 23
-108183.5628237793
 33
0.0
  0
SOLID
  5
FF5
330
FEE
100
AcDbEntity
  8
标注
 48
5.0
100
AcDbTrace
 10
34031.25957734817
 20
-108191.7054122849
 30
0.0
 11
34034.01742193547
 21
-108195.8760589054
 31
0.0
 12
34045.15043950306
 22
-108185.5172018333
 32
0.0
 13
34045.15043950306
 23
-108185.5172018333
 33
0.0
  0
POINT
  5
FF6
330
FEE
100
AcDbEntity
  8
Defpoints
 62
     0
 48
5.0
100
AcDbPoint
 10
34045.15043950306
 20
-108185.5172018333
 30
0.0
  0
POINT
  5
FF7
330
FEE
100
AcDbEntity
  8
Defpoints
 62
     0
 48
5.0
100
AcDbPoint
 10
34048.10601584824
 20
-108183.5628237793
 30
0.0
  0
ENDBLK
  5
FF8
330
FEE
100
AcDbEntity
  8
0
 48
5.0
100
AcDbBlockEnd
  0
BLOCK
  5
FFA
330
FF9
100
AcDbEntity
  8
0
 48
5.0
100
AcDbBlockBegin
  2
*D84
 70
     1
 10
0.0
 20
0.0
 30
0.0
  3
*D84
  1

  0
LINE
  5
FFB
330
FF9
100
AcDbEntity
  8
标注
 48
5.0
370
    -2
100
AcDbLine
 10
34032.06526069112
 20
-108213.3521990658
 30
0.0
 11
34038.83171242418
 21
-108199.9650734989
 31
0.0
  0
LINE
  5
FFC
330
FF9
100
AcDbEntity
  8
标注
 48
5.0
370
    -2
100
AcDbLine
 10
34054.42474292712
 20
-108169.1149521137
 30
0.0
 11
34061.19119466018
 21
-108155.7278265468
 31
0.0
  0
MTEXT
  5
FFD
330
FF9
100
AcDbEntity
  8
标注
 48
5.0
100
AcDbMText
 10
34020.52470134642
 20
-108236.1846854493
 30
0.0
 40
15.0
 41
0.0
 71
     5
 72
     1
  1
\A1;\U+22054,6
 11
0.4510967822037341
 21
0.8924750377940199
 31
0.0
 73
     1
 44
1.0
  0
LINE
  5
FFE
330
FF9
100
AcDbEntity
  8
标注
 48
5.0
370
    -2
100
AcDbLine
 10
34047.65829119407
 20
-108182.5020776806
 30
0.0
 11
34045.59816415723
 21
-108186.577947932
 31
0.0
  0
SOLID
  5
FFF
330
FF9
100
AcDbEntity
  8
标注
 48
5.0
100
AcDbTrace
 10
34052.19355533263
 20
-108167.9872101583
 30
0.0
 11
34056.65593052161
 21
-108170.2426940692
 31
0.0
 12
34047.65829119407
 22
-108182.5020776806
 32
0.0
 13
34047.65829119407
 23
-108182.5020776806
 33
0.0
  0
SOLID
  5
1000
330
FF9
100
AcDbEntity
  8
标注
 48
5.0
100
AcDbTrace
 10
34036.60052482968
 20
-108198.8373315434
 30
0.0
 11
34041.06290001866
 21
-108201.0928154544
 31
0.0
 12
34045.59816415723
 22
-108186.577947932
 32
0.0
 13
34045.59816415723
 23
-108186.577947932
 33
0.0
  0
POINT
  5
1001
330
FF9
100
AcDbEntity
  8
Defpoints
 62
     0
 48
5.0
100
AcDbPoint
 10
34045.59816415723
 20
-108186.577947932
 30
0.0
  0
POINT
  5
1002
330
FF9
100
AcDbEntity
  8
Defpoints
 62
     0
 48
5.0
100
AcDbPoint
 10
34047.65829119407
 20
-108182.5020776806
 30
0.0
  0
ENDBLK
  5
1003
330
FF9
100
AcDbEntity
  8
0
 48
5.0
100
AcDbBlockEnd
  0
BLOCK
  5
1005
330
1004
100
AcDbEntity
  8
0
 48
5.0
100
AcDbBlockBegin
  2
*D85
 70
     1
 10
0.0
 20
0.0
 30
0.0
  3
*D85
  1

  0
LINE
  5
1006
330
1004
100
AcDbEntity
  8
标注
 48
5.0
370
    -2
100
AcDbLine
 10
34020.37814120762
 20
-108184.5400128063
 30
0.0
 11
34033.94226879453
 21
-108184.5400128063
 31
0.0
  0
LINE
  5
1007
330
1004
100
AcDbEntity
  8
标注
 48
5.0
370
    -2
100
AcDbLine
 10
34021.40328014815
 20
-108193.7939173142
 30
0.0
 11
34033.94226879453
 21
-108193.7939173142
 31
0.0
  0
LINE
  5
1008
330
1004
100
AcDbEntity
  8
标注
 48
5.0
370
    -2
100
AcDbLine
 10
34041.94226879453
 20
-108169.5400128063
 30
0.0
 11
34041.94226879453
 21
-108154.5400128063
 31
0.0
  0
LINE
  5
1009
330
1004
100
AcDbEntity
  8
标注
 48
5.0
370
    -2
100
AcDbLine
 10
34041.94226879453
 20
-108208.7939173142
 30
0.0
 11
34041.94226879453
 21
-108223.7939173142
 31
0.0
  0
LINE
  5
100A
330
1004
100
AcDbEntity
  8
标注
 48
5.0
370
    -2
100
AcDbLine
 10
34041.94226879453
 20
-108184.5400128063
 30
0.0
 11
34041.94226879453
 21
-108193.7939173142
 31
0.0
  0
SOLID
  5
100B
330
1004
100
AcDbEntity
  8
标注
 48
5.0
100
AcDbTrace
 10
34039.44226879453
 20
-108169.5400128063
 30
0.0
 11
34044.44226879454
 21
-108169.5400128063
 31
0.0
 12
34041.94226879453
 22
-108184.5400128063
 32
0.0
 13
34041.94226879453
 23
-108184.5400128063
 33
0.0
  0
SOLID
  5
100C
330
1004
100
AcDbEntity
  8
标注
 48
5.0
100
AcDbTrace
 10
34039.44226879453
 20
-108208.7939173142
 30
0.0
 11
34044.44226879454
 21
-108208.7939173142
 31
0.0
 12
34041.94226879453
 22
-108193.7939173142
 32
0.0
 13
34041.94226879453
 23
-108193.7939173142
 33
0.0
  0
MTEXT
  5
100D
330
1004
100
AcDbEntity
  8
标注
 48
5.0
100
AcDbMText
 10
34041.94226879455
 20
-108243.6689173142
 30
0.0
 40
15.0
 41
0.0
 71
     5
 72
     1
  1
\A1;9,3
 11
0.0000000000000001
 21
1.0
 31
0.0
 73
     1
 44
1.0
  0
POINT
  5
100E
330
1004
100
AcDbEntity
  8
Defpoints
 62
     0
 48
5.0
100
AcDbPoint
 10
34042.37814120762
 20
-108184.5400128063
 30
0.0
  0
POINT
  5
100F
330
1004
100
AcDbEntity
  8
Defpoints
 62
     0
 48
5.0
100
AcDbPoint
 10
34043.40328014815
 20
-108193.7939173142
 30
0.0
  0
POINT
  5
1010
330
1004
100
AcDbEntity
  8
Defpoints
 62
     0
 48
5.0
100
AcDbPoint
 10
34041.94226879453
 20
-108193.7939173142
 30
0.0
  0
ENDBLK
  5
1011
330
1004
100
AcDbEntity
  8
0
 48
5.0
100
AcDbBlockEnd
  0
BLOCK
  5
10F0
330
10EA
100
AcDbEntity
  8
0
100
AcDbBlockBegin
  2
*D86
 70
     1
 10
0.0
 20
0.0
 30
0.0
  3
*D86
  1

  0
LINE
  5
1148
330
10EA
100
AcDbEntity
  8
标注
370
    -2
100
AcDbLine
 10
367.3915528283247
 20
181.8115024512324
 30
0.0
 11
407.795114307157
 21
215.3477110811508
 31
0.0
  0
MTEXT
  5
1149
330
10EA
100
AcDbEntity
  8
标注
100
AcDbMText
 10
365.6538341867176
 20
180.3691421054603
 30
0.0
 40
0.65
 41
0.0
 71
     5
 72
     1
  1
\A1;R5 7/8"
 11
0.7694695091986947
 21
0.6386835479433613
 31
0.0
 73
     1
 44
1.0
  0
SOLID
  5
114A
330
10EA
100
AcDbEntity
  8
标注
100
AcDbTrace
 10
407.725923589463
 20
215.4310702779807
 30
0.0
 11
407.8643050248508
 21
215.264351884321
 31
0.0
 12
408.2952694881361
 22
215.7628553873141
 32
0.0
 13
408.2952694881361
 23
215.7628553873141
 33
0.0
  0
POINT
  5
114B
330
10EA
100
AcDbEntity
  8
Defpoints
 62
     0
100
AcDbPoint
 10
408.2952694881361
 20
215.7628553873141
 30
0.0
  0
POINT
  5
114C
330
10EA
100
AcDbEntity
  8
Defpoints
 62
     0
100
AcDbPoint
 10
403.7511673015734
 20
211.991109694943
 30
0.0
  0
ENDBLK
  5
10F1
330
10EA
100
AcDbEntity
  8
0
100
AcDbBlockEnd
  0
BLOCK
  5
10F8
330
10F2
100
AcDbEntity
  8
0
100
AcDbBlockBegin
  2
*D87
 70
     1
 10
0.0
 20
0.0
 30
0.0
  3
*D87
  1

  0
LINE
  5
1167
330
10F2
100
AcDbEntity
  8
标注
370
    -2
100
AcDbLine
 10
377.5552991705307
 20
235.5902302445564
 30
0.0
 11
407.1967995321383
 21
204.358811356557
 31
0.0
  0
MTEXT
  5
1168
330
10F2
100
AcDbEntity
  8
标注
100
AcDbMText
 10
376.8955793056993
 20
236.2853363355414
 30
0.0
 40
0.65
 41
0.0
 71
     5
 72
     1
  1
\A1;R3"
 11
0.6884033372155015
 21
-0.7253280949408763
 31
0.0
 73
     1
 44
1.0
  0
SOLID
  5
1169
330
10F2
100
AcDbEntity
  8
标注
100
AcDbTrace
 10
407.2753767424234
 20
204.4333883847553
 30
0.0
 11
407.118222321853
 21
204.2842343283586
 31
0.0
 12
407.6442617013283
 22
203.8873480948454
 32
0.0
 13
407.6442617013283
 23
203.8873480948454
 33
0.0
  0
POINT
  5
116A
330
10F2
100
AcDbEntity
  8
Defpoints
 62
     0
100
AcDbPoint
 10
407.6442617013283
 20
203.8873480948454
 30
0.0
  0
POINT
  5
116B
330
10F2
100
AcDbEntity
  8
Defpoints
 62
     0
100
AcDbPoint
 10
405.6115746819971
 20
206.0290649106095
 30
0.0
  0
ENDBLK
  5
10F9
330
10F2
100
AcDbEntity
  8
0
100
AcDbBlockEnd
  0
BLOCK
  5
1105
330
10FA
100
AcDbEntity
  8
0
100
AcDbBlockBegin
  2
*D88
 70
     1
 10
0.0
 20
0.0
 30
0.0
  3
*D88
  1

  0
LINE
  5
116C
330
10FA
100
AcDbEntity
  8
标注
370
    -2
100
AcDbLine
 10
409.6558798999951
 20
211.111109694943
 30
0.0
 11
409.6558798999951
 21
199.4693044824226
 31
0.0
  0
LINE
  5
116D
330
10FA
100
AcDbEntity
  8
标注
370
    -2
100
AcDbLine
 10
379.4197199267703
 20
211.111109694943
 30
0.0
 11
379.4197199267703
 21
199.4693044824226
 31
0.0
  0
LINE
  5
116E
330
10FA
100
AcDbEntity
  8
标注
370
    -2
100
AcDbLine
 10
409.0058798999952
 20
199.7893044824226
 30
0.0
 11
396.6336332467162
 21
199.7893044824226
 31
0.0
  0
LINE
  5
116F
330
10FA
100
AcDbEntity
  8
标注
370
    -2
100
AcDbLine
 10
380.0697199267704
 20
199.7893044824226
 30
0.0
 11
392.4419665800494
 21
199.7893044824226
 31
0.0
  0
SOLID
  5
1170
330
10FA
100
AcDbEntity
  8
标注
100
AcDbTrace
 10
409.0058798999952
 20
199.8976378157559
 30
0.0
 11
409.0058798999952
 21
199.6809711490893
 31
0.0
 12
409.6558798999951
 22
199.7893044824226
 32
0.0
 13
409.6558798999951
 23
199.7893044824226
 33
0.0
  0
SOLID
  5
1171
330
10FA
100
AcDbEntity
  8
标注
100
AcDbTrace
 10
380.0697199267704
 20
199.8976378157559
 30
0.0
 11
380.0697199267704
 21
199.6809711490893
 31
0.0
 12
379.4197199267703
 22
199.7893044824226
 32
0.0
 13
379.4197199267703
 23
199.7893044824226
 33
0.0
  0
MTEXT
  5
1172
330
10FA
100
AcDbEntity
  8
标注
100
AcDbMText
 10
394.5377999133827
 20
199.7893044824226
 30
0.0
 40
0.65
 41
0.0
 71
     5
 72
     1
  1
\A1;30 1/4"
 73
     1
 44
1.0
  0
POINT
  5
1173
330
10FA
100
AcDbEntity
  8
Defpoints
 62
     0
100
AcDbPoint
 10
409.6558798999951
 20
211.991109694943
 30
0.0
  0
POINT
  5
1174
330
10FA
100
AcDbEntity
  8
Defpoints
 62
     0
100
AcDbPoint
 10
379.4197199267703
 20
211.991109694943
 30
0.0
  0
POINT
  5
1175
330
10FA
100
AcDbEntity
  8
Defpoints
 62
     0
100
AcDbPoint
 10
379.4197199267703
 20
199.7893044824226
 30
0.0
  0
ENDBLK
  5
1106
330
10FA
100
AcDbEntity
  8
0
100
AcDbBlockEnd
  0
BLOCK
  5
1113
330
1107
100
AcDbEntity
  8
0
100
AcDbBlockBegin
  2
*D89
 70
     1
 10
0.0
 20
0.0
 30
0.0
  3
*D89
  1

  0
LINE
  5
1190
330
1107
100
AcDbEntity
  8
标注
370
    -2
100
AcDbLine
 10
395.4118944015719
 20
219.2821447552627
 30
0.0
 11
412.9764410356778
 21
219.2821447552627
 31
0.0
  0
LINE
  5
1191
330
1107
100
AcDbEntity
  8
标注
370
    -2
100
AcDbLine
 10
395.4118944015719
 20
220.4041919993682
 30
0.0
 11
412.9764410356778
 21
220.4041919993682
 31
0.0
  0
LINE
  5
1192
330
1107
100
AcDbEntity
  8
标注
370
    -2
100
AcDbLine
 10
412.6564410356778
 20
218.6321447552627
 30
0.0
 11
412.6564410356778
 21
217.9821447552627
 31
0.0
  0
LINE
  5
1193
330
1107
100
AcDbEntity
  8
标注
370
    -2
100
AcDbLine
 10
412.6564410356778
 20
221.0541919993682
 30
0.0
 11
412.6564410356778
 21
221.7041919993682
 31
0.0
  0
LINE
  5
1194
330
1107
100
AcDbEntity
  8
标注
370
    -2
100
AcDbLine
 10
412.6564410356778
 20
219.2821447552627
 30
0.0
 11
412.6564410356778
 21
220.4041919993682
 31
0.0
  0
SOLID
  5
1195
330
1107
100
AcDbEntity
  8
标注
100
AcDbTrace
 10
412.5481077023446
 20
218.6321447552627
 30
0.0
 11
412.7647743690113
 21
218.6321447552627
 31
0.0
 12
412.6564410356778
 22
219.2821447552627
 32
0.0
 13
412.6564410356778
 23
219.2821447552627
 33
0.0
  0
SOLID
  5
1196
330
1107
100
AcDbEntity
  8
标注
100
AcDbTrace
 10
412.5481077023446
 20
221.0541919993682
 30
0.0
 11
412.7647743690113
 21
221.0541919993682
 31
0.0
 12
412.6564410356778
 22
220.4041919993682
 32
0.0
 13
412.6564410356778
 23
220.4041919993682
 33
0.0
  0
MTEXT
  5
1197
330
1107
100
AcDbEntity
  8
标注
100
AcDbMText
 10
412.6564410356778
 20
223.4208586660349
 30
0.0
 40
0.65
 41
0.0
 71
     5
 72
     1
  1
\A1;1 1/8"
 11
0.0000000000000001
 21
1.0
 31
0.0
 73
     1
 44
1.0
  0
POINT
  5
1198
330
1107
100
AcDbEntity
  8
Defpoints
 62
     0
100
AcDbPoint
 10
394.5318944015719
 20
219.2821447552627
 30
0.0
  0
POINT
  5
1199
330
1107
100
AcDbEntity
  8
Defpoints
 62
     0
100
AcDbPoint
 10
394.5318944015719
 20
220.4041919993682
 30
0.0
  0
POINT
  5
119A
330
1107
100
AcDbEntity
  8
Defpoints
 62
     0
100
AcDbPoint
 10
412.6564410356778
 20
220.4041919993682
 30
0.0
  0
ENDBLK
  5
1114
330
1107
100
AcDbEntity
  8
0
100
AcDbBlockEnd
  0
BLOCK
  5
1121
330
1115
100
AcDbEntity
  8
0
100
AcDbBlockBegin
  2
*D90
 70
     1
 10
0.0
 20
0.0
 30
0.0
  3
*D90
  1

  0
LINE
  5
119B
330
1115
100
AcDbEntity
  8
标注
370
    -2
100
AcDbLine
 10
409.6558798999951
 20
211.111109694943
 30
0.0
 11
409.6558798999951
 21
199.4693044824226
 31
0.0
  0
LINE
  5
119C
330
1115
100
AcDbEntity
  8
标注
370
    -2
100
AcDbLine
 10
410.7779271440933
 20
211.111109694943
 30
0.0
 11
410.7779271440933
 21
199.4693044824226
 31
0.0
  0
LINE
  5
119D
330
1115
100
AcDbEntity
  8
标注
370
    -2
100
AcDbLine
 10
409.0058798999952
 20
199.7893044824226
 30
0.0
 11
408.355879899995
 21
199.7893044824226
 31
0.0
  0
LINE
  5
119E
330
1115
100
AcDbEntity
  8
标注
370
    -2
100
AcDbLine
 10
411.4279271440933
 20
199.7893044824226
 30
0.0
 11
412.0779271440934
 21
199.7893044824226
 31
0.0
  0
LINE
  5
119F
330
1115
100
AcDbEntity
  8
标注
370
    -2
100
AcDbLine
 10
409.6558798999951
 20
199.7893044824226
 30
0.0
 11
410.7779271440933
 21
199.7893044824226
 31
0.0
  0
SOLID
  5
11A0
330
1115
100
AcDbEntity
  8
标注
100
AcDbTrace
 10
409.0058798999952
 20
199.8976378157559
 30
0.0
 11
409.0058798999952
 21
199.6809711490893
 31
0.0
 12
409.6558798999951
 22
199.7893044824226
 32
0.0
 13
409.6558798999951
 23
199.7893044824226
 33
0.0
  0
SOLID
  5
11A1
330
1115
100
AcDbEntity
  8
标注
100
AcDbTrace
 10
411.4279271440933
 20
199.8976378157559
 30
0.0
 11
411.4279271440933
 21
199.6809711490893
 31
0.0
 12
410.7779271440933
 22
199.7893044824226
 32
0.0
 13
410.7779271440933
 23
199.7893044824226
 33
0.0
  0
MTEXT
  5
11A2
330
1115
100
AcDbEntity
  8
标注
100
AcDbMText
 10
413.79459381076
 20
199.7893044824226
 30
0.0
 40
0.65
 41
0.0
 71
     5
 72
     1
  1
\A1;1 1/8"
 73
     1
 44
1.0
  0
POINT
  5
11A3
330
1115
100
AcDbEntity
  8
Defpoints
 62
     0
100
AcDbPoint
 10
409.6558798999951
 20
211.991109694943
 30
0.0
  0
POINT
  5
11A4
330
1115
100
AcDbEntity
  8
Defpoints
 62
     0
100
AcDbPoint
 10
410.7779271440933
 20
211.991109694943
 30
0.0
  0
POINT
  5
11A5
330
1115
100
AcDbEntity
  8
Defpoints
 62
     0
100
AcDbPoint
 10
410.7779271440933
 20
199.7893044824226
 30
0.0
  0
ENDBLK
  5
1122
330
1115
100
AcDbEntity
  8
0
100
AcDbBlockEnd
  0
BLOCK
  5
112E
330
1123
100
AcDbEntity
  8
0
100
AcDbBlockBegin
  2
*D91
 70
     1
 10
0.0
 20
0.0
 30
0.0
  3
*D91
  1

  0
LINE
  5
12FF
330
1123
100
AcDbEntity
  8
标注
370
    -2
100
AcDbLine
 10
391.9556340687705
 20
236.7654897984149
 30
0.0
 11
392.7491168369066
 21
236.7654897984149
 31
0.0
  0
LINE
  5
1300
330
1123
100
AcDbEntity
  8
标注
370
    -2
100
AcDbLine
 10
393.1865204072531
 20
227.7654897984149
 30
0.0
 11
392.7491168369066
 21
227.7654897984149
 31
0.0
  0
LINE
  5
1301
330
1123
100
AcDbEntity
  8
标注
370
    -2
100
AcDbLine
 10
392.4291168369066
 20
236.1154897984149
 30
0.0
 11
392.4291168369066
 21
232.8988231317483
 31
0.0
  0
LINE
  5
1302
330
1123
100
AcDbEntity
  8
标注
370
    -2
100
AcDbLine
 10
392.4291168369066
 20
228.4154897984149
 30
0.0
 11
392.4291168369066
 21
231.6321564650816
 31
0.0
  0
SOLID
  5
1303
330
1123
100
AcDbEntity
  8
标注
100
AcDbTrace
 10
392.3207835035733
 20
236.1154897984149
 30
0.0
 11
392.5374501702399
 21
236.1154897984149
 31
0.0
 12
392.4291168369066
 22
236.7654897984149
 32
0.0
 13
392.4291168369066
 23
236.7654897984149
 33
0.0
  0
SOLID
  5
1304
330
1123
100
AcDbEntity
  8
标注
100
AcDbTrace
 10
392.3207835035733
 20
228.4154897984149
 30
0.0
 11
392.5374501702399
 21
228.4154897984149
 31
0.0
 12
392.4291168369066
 22
227.7654897984149
 32
0.0
 13
392.4291168369066
 23
227.7654897984149
 33
0.0
  0
MTEXT
  5
1305
330
1123
100
AcDbEntity
  8
标注
100
AcDbMText
 10
392.4291168369066
 20
232.265489798415
 30
0.0
 40
0.65
 41
0.0
 71
     5
 72
     1
  1
\A1;9"
 11
0.0000000000000001
 21
1.0
 31
0.0
 73
     1
 44
1.0
  0
POINT
  5
1306
330
1123
100
AcDbEntity
  8
Defpoints
 62
     0
100
AcDbPoint
 10
391.0756340687706
 20
236.7654897984149
 30
0.0
  0
POINT
  5
1307
330
1123
100
AcDbEntity
  8
Defpoints
 62
     0
100
AcDbPoint
 10
392.3065204072529
 20
227.7654897984149
 30
0.0
  0
POINT
  5
1308
330
1123
100
AcDbEntity
  8
Defpoints
 62
     0
100
AcDbPoint
 10
392.4291168369066
 20
227.7654897984149
 30
0.0
  0
ENDBLK
  5
112F
330
1123
100
AcDbEntity
  8
0
100
AcDbBlockEnd
  0
BLOCK
  5
1136
330
1130
100
AcDbEntity
  8
0
100
AcDbBlockBegin
  2
*D92
 70
     1
 10
0.0
 20
0.0
 30
0.0
  3
*D92
  1

  0
LINE
  5
11D3
330
1130
100
AcDbEntity
  8
标注
370
    -2
100
AcDbLine
 10
390.4034723577356
 20
161.3609680694982
 30
0.0
 11
402.9429705151053
 21
217.7075439278317
 31
0.0
  0
MTEXT
  5
11D4
330
1130
100
AcDbEntity
  8
标注
100
AcDbMText
 10
389.8422994937561
 20
158.8393225496353
 30
0.0
 40
0.65
 41
0.0
 71
     5
 72
     1
  1
\A1;R39 3/8"
 11
0.2172282054114222
 21
0.9761208463985045
 31
0.0
 73
     1
 44
1.0
  0
SOLID
  5
11D5
330
1130
100
AcDbEntity
  8
标注
100
AcDbTrace
 10
402.837224090079
 20
217.7310769834179
 30
0.0
 11
403.0487169401318
 21
217.6840108722455
 31
0.0
 12
403.0841688486228
 22
218.3420224779907
 32
0.0
 13
403.0841688486228
 23
218.3420224779907
 33
0.0
  0
POINT
  5
11D6
330
1130
100
AcDbEntity
  8
Defpoints
 62
     0
100
AcDbPoint
 10
403.0841688486228
 20
218.3420224779907
 30
0.0
  0
POINT
  5
11D7
330
1130
100
AcDbEntity
  8
Defpoints
 62
     0
100
AcDbPoint
 10
394.5318944015721
 20
179.9121447552674
 30
0.0
  0
ENDBLK
  5
1137
330
1130
100
AcDbEntity
  8
0
100
AcDbBlockEnd
  0
BLOCK
  5
113E
330
1138
100
AcDbEntity
  8
0
100
AcDbBlockBegin
  2
*D93
 70
     1
 10
0.0
 20
0.0
 30
0.0
  3
*D93
  1

  0
LINE
  5
11D8
330
1138
100
AcDbEntity
  8
标注
370
    -2
100
AcDbLine
 10
401.2594183818405
 20
265.9550371125748
 30
0.0
 11
402.6348564179461
 21
203.6202100075709
 31
0.0
  0
MTEXT
  5
11D9
330
1138
100
AcDbEntity
  8
标注
100
AcDbMText
 10
401.2024301713096
 20
268.5377417908088
 30
0.0
 40
0.65
 41
0.0
 71
     5
 72
     1
  1
\A1;R118 1/8"
 11
0.0220599524635965
 21
-0.9997566496389527
 31
0.0
 73
     1
 44
1.0
  0
SOLID
  5
11DA
330
1138
100
AcDbEntity
  8
标注
100
AcDbTrace
 10
402.7431633883238
 20
203.6225998357545
 30
0.0
 11
402.5265494475686
 21
203.6178201793873
 31
0.0
 12
402.6491953870475
 22
202.9703681853056
 32
0.0
 13
402.6491953870475
 23
202.9703681853056
 33
0.0
  0
POINT
  5
11DB
330
1138
100
AcDbEntity
  8
Defpoints
 62
     0
100
AcDbPoint
 10
402.6491953870475
 20
202.9703681853056
 30
0.0
  0
POINT
  5
11DC
330
1138
100
AcDbEntity
  8
Defpoints
 62
     0
100
AcDbPoint
 10
400.0436944015721
 20
321.0516260741637
 30
0.0
  0
ENDBLK
  5
113F
330
1138
100
AcDbEntity
  8
0
100
AcDbBlockEnd
  0
BLOCK
  5
1146
330
1140
100
AcDbEntity
  8
0
100
AcDbBlockBegin
  2
*D94
 70
     1
 10
0.0
 20
0.0
 30
0.0
  3
*D94
  1

  0
LINE
  5
11DD
330
1140
100
AcDbEntity
  8
标注
370
    -2
100
AcDbLine
 10
351.9708737870552
 20
218.4698084990505
 30
0.0
 11
408.7351182940426
 21
208.7919562926469
 31
0.0
  0
MTEXT
  5
11DE
330
1140
100
AcDbEntity
  8
标注
100
AcDbMText
 10
349.5310791968126
 20
218.8857740714531
 30
0.0
 40
0.65
 41
0.0
 71
     5
 72
     1
  1
\A1;R19 5/8"
 11
0.9857755920171083
 21
-0.168066897940432
 31
0.0
 73
     1
 44
1.0
  0
SOLID
  5
11DF
330
1140
100
AcDbEntity
  8
标注
100
AcDbTrace
 10
408.7533255413196
 20
208.8987486484488
 30
0.0
 11
408.7169110467658
 21
208.685163936845
 31
0.0
 12
409.3758724288538
 22
208.6827128089856
 32
0.0
 13
409.3758724288538
 23
208.6827128089856
 33
0.0
  0
POINT
  5
11E0
330
1140
100
AcDbEntity
  8
Defpoints
 62
     0
100
AcDbPoint
 10
409.3758724288538
 20
208.6827128089856
 30
0.0
  0
POINT
  5
11E1
330
1140
100
AcDbEntity
  8
Defpoints
 62
     0
100
AcDbPoint
 10
389.9708798999975
 20
211.9911096949429
 30
0.0
  0
ENDBLK
  5
1147
330
1140
100
AcDbEntity
  8
0
100
AcDbBlockEnd
  0
BLOCK
  5
1158
330
114D
100
AcDbEntity
  8
0
100
AcDbBlockBegin
  2
*D95
 70
     1
 10
0.0
 20
0.0
 30
0.0
  3
*D95
  1

  0
LINE
  5
11E2
330
114D
100
AcDbEntity
  8
标注
370
    -2
100
AcDbLine
 10
395.4118944015719
 20
219.2821447552674
 30
0.0
 11
412.9764410356778
 21
219.2821447552674
 31
0.0
  0
LINE
  5
11E3
330
114D
100
AcDbEntity
  8
标注
370
    -2
100
AcDbLine
 10
400.9236944015721
 20
202.9416260741677
 30
0.0
 11
412.9764410356778
 21
202.9416260741677
 31
0.0
  0
LINE
  5
11E4
330
114D
100
AcDbEntity
  8
标注
370
    -2
100
AcDbLine
 10
412.6564410356778
 20
218.6321447552674
 30
0.0
 11
412.6564410356778
 21
213.2618854147176
 31
0.0
  0
LINE
  5
11E5
330
114D
100
AcDbEntity
  8
标注
370
    -2
100
AcDbLine
 10
412.6564410356778
 20
203.5916260741676
 30
0.0
 11
412.6564410356778
 21
208.9618854147175
 31
0.0
  0
SOLID
  5
11E6
330
114D
100
AcDbEntity
  8
标注
100
AcDbTrace
 10
412.5481077023446
 20
218.6321447552674
 30
0.0
 11
412.7647743690113
 21
218.6321447552674
 31
0.0
 12
412.6564410356778
 22
219.2821447552674
 32
0.0
 13
412.6564410356778
 23
219.2821447552674
 33
0.0
  0
SOLID
  5
11E7
330
114D
100
AcDbEntity
  8
标注
100
AcDbTrace
 10
412.5481077023446
 20
203.5916260741676
 30
0.0
 11
412.7647743690113
 21
203.5916260741676
 31
0.0
 12
412.6564410356778
 22
202.9416260741677
 32
0.0
 13
412.6564410356778
 23
202.9416260741677
 33
0.0
  0
MTEXT
  5
11E8
330
114D
100
AcDbEntity
  8
标注
100
AcDbMText
 10
412.6564410356778
 20
211.1118854147176
 30
0.0
 40
0.65
 41
0.0
 71
     5
 72
     1
  1
\A1;16 3/8"
 11
0.0000000000000001
 21
1.0
 31
0.0
 73
     1
 44
1.0
  0
POINT
  5
11E9
330
114D
100
AcDbEntity
  8
Defpoints
 62
     0
100
AcDbPoint
 10
394.5318944015719
 20
219.2821447552674
 30
0.0
  0
POINT
  5
11EA
330
114D
100
AcDbEntity
  8
Defpoints
 62
     0
100
AcDbPoint
 10
400.0436944015721
 20
202.9416260741677
 30
0.0
  0
POINT
  5
11EB
330
114D
100
AcDbEntity
  8
Defpoints
 62
     0
100
AcDbPoint
 10
412.6564410356778
 20
202.9416260741677
 30
0.0
  0
ENDBLK
  5
1159
330
114D
100
AcDbEntity
  8
0
100
AcDbBlockEnd
  0
BLOCK
  5
1165
330
115A
100
AcDbEntity
  8
0
100
AcDbBlockBegin
  2
*D96
 70
     1
 10
0.0
 20
0.0
 30
0.0
  3
*D96
  1

  0
LINE
  5
1210
330
115A
100
AcDbEntity
  8
标注
370
    -2
100
AcDbLine
 10
389.0200944015717
 20
203.8216260741631
 30
0.0
 11
389.0200944015717
 21
204.7843114758431
 31
0.0
  0
LINE
  5
1211
330
115A
100
AcDbEntity
  8
标注
370
    -2
100
AcDbLine
 10
400.0436944015721
 20
203.8216260741631
 30
0.0
 11
400.0436944015721
 21
204.7843114758431
 31
0.0
  0
LINE
  5
1212
330
115A
100
AcDbEntity
  8
标注
370
    -2
100
AcDbLine
 10
389.6700944015717
 20
204.4643114758431
 30
0.0
 11
393.7902277349051
 21
204.4643114758431
 31
0.0
  0
LINE
  5
1213
330
115A
100
AcDbEntity
  8
标注
370
    -2
100
AcDbLine
 10
399.3936944015721
 20
204.4643114758431
 30
0.0
 11
395.2735610682386
 21
204.4643114758431
 31
0.0
  0
SOLID
  5
1214
330
115A
100
AcDbEntity
  8
标注
100
AcDbTrace
 10
389.6700944015717
 20
204.5726448091765
 30
0.0
 11
389.6700944015717
 21
204.3559781425098
 31
0.0
 12
389.0200944015717
 22
204.4643114758431
 32
0.0
 13
389.0200944015717
 23
204.4643114758431
 33
0.0
  0
SOLID
  5
1215
330
115A
100
AcDbEntity
  8
标注
100
AcDbTrace
 10
399.3936944015721
 20
204.5726448091765
 30
0.0
 11
399.3936944015721
 21
204.3559781425098
 31
0.0
 12
400.0436944015721
 22
204.4643114758431
 32
0.0
 13
400.0436944015721
 23
204.4643114758431
 33
0.0
  0
MTEXT
  5
1216
330
115A
100
AcDbEntity
  8
标注
100
AcDbMText
 10
394.5318944015719
 20
204.4643114758431
 30
0.0
 40
0.65
 41
0.0
 71
     5
 72
     1
  1
\A1;11"
 73
     1
 44
1.0
  0
POINT
  5
1217
330
115A
100
AcDbEntity
  8
Defpoints
 62
     0
100
AcDbPoint
 10
389.0200944015717
 20
202.9416260741631
 30
0.0
  0
POINT
  5
1218
330
115A
100
AcDbEntity
  8
Defpoints
 62
     0
100
AcDbPoint
 10
400.0436944015721
 20
202.9416260741631
 30
0.0
  0
POINT
  5
1219
330
115A
100
AcDbEntity
  8
Defpoints
 62
     0
100
AcDbPoint
 10
400.0436944015721
 20
204.4643114758431
 30
0.0
  0
ENDBLK
  5
1166
330
115A
100
AcDbEntity
  8
0
100
AcDbBlockEnd
  0
BLOCK
  5
1181
330
1176
100
AcDbEntity
  8
0
100
AcDbBlockBegin
  2
*D97
 70
     1
 10
0.0
 20
0.0
 30
0.0
  3
*D97
  1

  0
LINE
  5
11EC
330
1176
100
AcDbEntity
  8
标注
370
    -2
100
AcDbLine
 10
395.4118944015719
 20
220.4041919993619
 30
0.0
 11
414.6237292412093
 21
220.4041919993619
 31
0.0
  0
LINE
  5
11ED
330
1176
100
AcDbEntity
  8
标注
370
    -2
100
AcDbLine
 10
400.9236944015721
 20
201.8195788300658
 30
0.0
 11
414.6237292412093
 21
201.8195788300658
 31
0.0
  0
LINE
  5
11EE
330
1176
100
AcDbEntity
  8
标注
370
    -2
100
AcDbLine
 10
414.3037292412093
 20
219.7541919993619
 30
0.0
 11
414.3037292412093
 21
213.2618854147139
 31
0.0
  0
LINE
  5
11EF
330
1176
100
AcDbEntity
  8
标注
370
    -2
100
AcDbLine
 10
414.3037292412093
 20
202.4695788300658
 30
0.0
 11
414.3037292412093
 21
208.9618854147138
 31
0.0
  0
SOLID
  5
11F0
330
1176
100
AcDbEntity
  8
标注
100
AcDbTrace
 10
414.195395907876
 20
219.7541919993619
 30
0.0
 11
414.4120625745427
 21
219.7541919993619
 31
0.0
 12
414.3037292412093
 22
220.4041919993619
 32
0.0
 13
414.3037292412093
 23
220.4041919993619
 33
0.0
  0
SOLID
  5
11F1
330
1176
100
AcDbEntity
  8
标注
100
AcDbTrace
 10
414.195395907876
 20
202.4695788300658
 30
0.0
 11
414.4120625745427
 21
202.4695788300658
 31
0.0
 12
414.3037292412093
 22
201.8195788300658
 32
0.0
 13
414.3037292412093
 23
201.8195788300658
 33
0.0
  0
MTEXT
  5
11F2
330
1176
100
AcDbEntity
  8
标注
100
AcDbMText
 10
414.3037292412093
 20
211.1118854147139
 30
0.0
 40
0.65
 41
0.0
 71
     5
 72
     1
  1
\A1;18 5/8"
 11
0.0000000000000001
 21
1.0
 31
0.0
 73
     1
 44
1.0
  0
POINT
  5
11F3
330
1176
100
AcDbEntity
  8
Defpoints
 62
     0
100
AcDbPoint
 10
394.5318944015719
 20
220.4041919993619
 30
0.0
  0
POINT
  5
11F4
330
1176
100
AcDbEntity
  8
Defpoints
 62
     0
100
AcDbPoint
 10
400.0436944015721
 20
201.8195788300658
 30
0.0
  0
POINT
  5
11F5
330
1176
100
AcDbEntity
  8
Defpoints
 62
     0
100
AcDbPoint
 10
414.3037292412093
 20
201.8195788300658
 30
0.0
  0
ENDBLK
  5
1182
330
1176
100
AcDbEntity
  8
0
100
AcDbBlockEnd
  0
BLOCK
  5
118E
330
1183
100
AcDbEntity
  8
0
100
AcDbBlockBegin
  2
*D98
 70
     1
 10
0.0
 20
0.0
 30
0.0
  3
*D98
  1

  0
LINE
  5
11F6
330
1183
100
AcDbEntity
  8
标注
370
    -2
100
AcDbLine
 10
410.7779271440918
 20
211.111109694943
 30
0.0
 11
410.7779271440918
 21
197.4926704059754
 31
0.0
  0
LINE
  5
11F7
330
1183
100
AcDbEntity
  8
标注
370
    -2
100
AcDbLine
 10
378.2976726826707
 20
211.111109694943
 30
0.0
 11
378.2976726826707
 21
197.4926704059754
 31
0.0
  0
LINE
  5
11F8
330
1183
100
AcDbEntity
  8
标注
370
    -2
100
AcDbLine
 10
410.127927144092
 20
197.8126704059754
 30
0.0
 11
396.6877999133814
 21
197.8126704059754
 31
0.0
  0
LINE
  5
11F9
330
1183
100
AcDbEntity
  8
标注
370
    -2
100
AcDbLine
 10
378.9476726826706
 20
197.8126704059754
 30
0.0
 11
392.3877999133813
 21
197.8126704059754
 31
0.0
  0
SOLID
  5
11FA
330
1183
100
AcDbEntity
  8
标注
100
AcDbTrace
 10
410.127927144092
 20
197.9210037393087
 30
0.0
 11
410.127927144092
 21
197.704337072642
 31
0.0
 12
410.7779271440918
 22
197.8126704059754
 32
0.0
 13
410.7779271440918
 23
197.8126704059754
 33
0.0
  0
SOLID
  5
11FB
330
1183
100
AcDbEntity
  8
标注
100
AcDbTrace
 10
378.9476726826706
 20
197.9210037393087
 30
0.0
 11
378.9476726826706
 21
197.704337072642
 31
0.0
 12
378.2976726826707
 22
197.8126704059754
 32
0.0
 13
378.2976726826707
 23
197.8126704059754
 33
0.0
  0
MTEXT
  5
11FC
330
1183
100
AcDbEntity
  8
标注
100
AcDbMText
 10
394.5377999133813
 20
197.8126704059754
 30
0.0
 40
0.65
 41
0.0
 71
     5
 72
     1
  1
\A1;32 1/2"
 73
     1
 44
1.0
  0
POINT
  5
11FD
330
1183
100
AcDbEntity
  8
Defpoints
 62
     0
100
AcDbPoint
 10
410.7779271440918
 20
211.991109694943
 30
0.0
  0
POINT
  5
11FE
330
1183
100
AcDbEntity
  8
Defpoints
 62
     0
100
AcDbPoint
 10
378.2976726826707
 20
211.991109694943
 30
0.0
  0
POINT
  5
11FF
330
1183
100
AcDbEntity
  8
Defpoints
 62
     0
100
AcDbPoint
 10
378.2976726826707
 20
197.8126704059754
 30
0.0
  0
ENDBLK
  5
118F
330
1183
100
AcDbEntity
  8
0
100
AcDbBlockEnd
  0
BLOCK
  5
11AF
330
11A6
100
AcDbEntity
  8
0
100
AcDbBlockBegin
  2
*D99
 70
     1
 10
0.0
 20
0.0
 30
0.0
  3
*D99
  1

  0
LINE
  5
1208
330
11A6
100
AcDbEntity
  8
标注
370
    -2
100
AcDbLine
 10
391.9697381076755
 20
210.5013019623525
 30
0.0
 11
392.5119221683297
 21
210.8598217586995
 31
0.0
  0
LINE
  5
1209
330
11A6
100
AcDbEntity
  8
标注
370
    -2
100
AcDbLine
 10
396.5518666348167
 20
213.5312394053759
 30
0.0
 11
397.0940506954708
 21
213.8897592017229
 31
0.0
  0
MTEXT
  5
120A
330
11A6
100
AcDbEntity
  8
标注
100
AcDbMText
 10
390.1763600608966
 20
209.3154287898204
 30
0.0
 40
0.65
 41
0.0
 71
     5
 72
     1
  1
\A1;\U+22053 1/2"
 11
0.8341293240831912
 21
0.5515689174568477
 31
0.0
 73
     1
 44
1.0
  0
LINE
  5
120B
330
11A6
100
AcDbEntity
  8
标注
370
    -2
100
AcDbLine
 10
396.0096825741627
 20
213.172719609029
 30
0.0
 11
393.0541062289837
 21
211.2183415550464
 31
0.0
  0
SOLID
  5
120C
330
11A6
100
AcDbEntity
  8
标注
100
AcDbTrace
 10
396.4921133354255
 20
213.6216034154849
 30
0.0
 11
396.6116199342079
 21
213.4408753952669
 31
0.0
 12
396.0096825741627
 22
213.172719609029
 32
0.0
 13
396.0096825741627
 23
213.172719609029
 33
0.0
  0
SOLID
  5
120D
330
11A6
100
AcDbEntity
  8
标注
100
AcDbTrace
 10
392.4521688689385
 20
210.9501857688085
 30
0.0
 11
392.5716754677208
 21
210.7694577485904
 31
0.0
 12
393.0541062289837
 22
211.2183415550464
 32
0.0
 13
393.0541062289837
 23
211.2183415550464
 33
0.0
  0
POINT
  5
120E
330
11A6
100
AcDbEntity
  8
Defpoints
 62
     0
100
AcDbPoint
 10
393.0541062289837
 20
211.2183415550464
 30
0.0
  0
POINT
  5
120F
330
11A6
100
AcDbEntity
  8
Defpoints
 62
     0
100
AcDbPoint
 10
396.0096825741627
 20
213.172719609029
 30
0.0
  0
ENDBLK
  5
11B0
330
11A6
100
AcDbEntity
  8
0
100
AcDbBlockEnd
  0
BLOCK
  5
11BA
330
11B1
100
AcDbEntity
  8
0
100
AcDbBlockBegin
  2
*D100
 70
     1
 10
0.0
 20
0.0
 30
0.0
  3
*D100
  1

  0
LINE
  5
1200
330
11B1
100
AcDbEntity
  8
标注
370
    -2
100
AcDbLine
 10
392.9154050662891
 20
208.9973779072333
 30
0.0
 11
393.2086179747215
 21
209.5774866817994
 31
0.0
  0
LINE
  5
1201
330
11B1
100
AcDbEntity
  8
标注
370
    -2
100
AcDbLine
 10
395.8551708284216
 20
214.813574482273
 30
0.0
 11
396.1483837368541
 21
215.3936832568391
 31
0.0
  0
MTEXT
  5
1202
330
11B1
100
AcDbEntity
  8
标注
100
AcDbMText
 10
391.8966781664789
 20
206.9818717802152
 30
0.0
 40
0.65
 41
0.0
 71
     5
 72
     1
  1
\A1;\U+22054 5/8"
 11
0.451096782203739
 21
0.8924750377940174
 31
0.0
 73
     1
 44
1.0
  0
LINE
  5
1203
330
11B1
100
AcDbEntity
  8
标注
370
    -2
100
AcDbLine
 10
395.5619579199892
 20
214.2334657077068
 30
0.0
 11
393.5018308831539
 21
210.1575954563655
 31
0.0
  0
SOLID
  5
1204
330
11B1
100
AcDbEntity
  8
标注
100
AcDbTrace
 10
395.7584860326605
 20
214.862443300345
 30
0.0
 11
395.9518556241826
 21
214.7647056642009
 31
0.0
 12
395.5619579199892
 22
214.2334657077068
 32
0.0
 13
395.5619579199892
 23
214.2334657077068
 33
0.0
  0
SOLID
  5
1205
330
11B1
100
AcDbEntity
  8
标注
100
AcDbTrace
 10
393.1119331789603
 20
209.6263554998715
 30
0.0
 11
393.3053027704825
 21
209.5286178637274
 31
0.0
 12
393.5018308831539
 22
210.1575954563655
 32
0.0
 13
393.5018308831539
 23
210.1575954563655
 33
0.0
  0
POINT
  5
1206
330
11B1
100
AcDbEntity
  8
Defpoints
 62
     0
100
AcDbPoint
 10
393.5018308831539
 20
210.1575954563655
 30
0.0
  0
POINT
  5
1207
330
11B1
100
AcDbEntity
  8
Defpoints
 62
     0
100
AcDbPoint
 10
395.5619579199892
 20
214.2334657077068
 30
0.0
  0
ENDBLK
  5
11BB
330
11B1
100
AcDbEntity
  8
0
100
AcDbBlockEnd
  0
BLOCK
  5
11C7
330
11BC
100
AcDbEntity
  8
0
100
AcDbBlockBegin
  2
*D101
 70
     1
 10
0.0
 20
0.0
 30
0.0
  3
*D101
  1

  0
LINE
  5
11BD
330
11BC
100
AcDbEntity
  8
标注
370
    -2
100
AcDbLine
 10
389.4018079335386
 20
212.1955305820369
 30
0.0
 11
389.5259355204516
 21
212.1955305820369
 31
0.0
  0
LINE
  5
11BE
330
11BC
100
AcDbEntity
  8
标注
370
    -2
100
AcDbLine
 10
390.4269468740698
 20
202.9416260741631
 30
0.0
 11
389.5259355204516
 21
202.9416260741631
 31
0.0
  0
LINE
  5
11BF
330
11BC
100
AcDbEntity
  8
标注
370
    -2
100
AcDbLine
 10
389.8459355204516
 20
211.5455305820369
 30
0.0
 11
389.8459355204516
 21
209.3935783281
 31
0.0
  0
LINE
  5
11C0
330
11BC
100
AcDbEntity
  8
标注
370
    -2
100
AcDbLine
 10
389.8459355204516
 20
203.5916260741631
 30
0.0
 11
389.8459355204516
 21
205.7435783281
 31
0.0
  0
SOLID
  5
11C1
330
11BC
100
AcDbEntity
  8
标注
100
AcDbTrace
 10
389.7376021871182
 20
211.5455305820369
 30
0.0
 11
389.9542688537849
 21
211.5455305820369
 31
0.0
 12
389.8459355204516
 22
212.1955305820369
 32
0.0
 13
389.8459355204516
 23
212.1955305820369
 33
0.0
  0
SOLID
  5
11C2
330
11BC
100
AcDbEntity
  8
标注
100
AcDbTrace
 10
389.7376021871182
 20
203.5916260741631
 30
0.0
 11
389.9542688537849
 21
203.5916260741631
 31
0.0
 12
389.8459355204516
 22
202.9416260741631
 32
0.0
 13
389.8459355204516
 23
202.9416260741631
 33
0.0
  0
MTEXT
  5
11C3
330
11BC
100
AcDbEntity
  8
标注
100
AcDbMText
 10
389.8459355204515
 20
207.5685783281
 30
0.0
 40
0.65
 41
0.0
 71
     5
 72
     1
  1
\A1;9 1/4"
 11
0.0000000000000001
 21
1.0
 31
0.0
 73
     1
 44
1.0
  0
POINT
  5
11C4
330
11BC
100
AcDbEntity
  8
Defpoints
 62
     0
100
AcDbPoint
 10
390.2818079335387
 20
212.1955305820369
 30
0.0
  0
POINT
  5
11C5
330
11BC
100
AcDbEntity
  8
Defpoints
 62
     0
100
AcDbPoint
 10
391.3069468740698
 20
202.9416260741631
 30
0.0
  0
POINT
  5
11C6
330
11BC
100
AcDbEntity
  8
Defpoints
 62
     0
100
AcDbPoint
 10
389.8459355204516
 20
202.9416260741631
 30
0.0
  0
ENDBLK
  5
11C8
330
11BC
100
AcDbEntity
  8
0
100
AcDbBlockEnd
  0
BLOCK
  5
1247
330
1241
100
AcDbEntity
  8
0
100
AcDbBlockBegin
  2
*D102
 70
     1
 10
0.0
 20
0.0
 30
0.0
  3
*D102
  1

  0
LINE
  5
124A
330
1241
100
AcDbEntity
  8
标注
370
    -2
100
AcDbLine
 10
382.3585726693297
 20
204.8058766238519
 30
0.0
 11
381.9210486925383
 21
204.3251763328882
 31
0.0
  0
MTEXT
  5
124B
330
1241
100
AcDbEntity
  8
标注
100
AcDbMText
 10
383.0036400710093
 20
205.5146014118113
 30
0.0
 40
0.65
 41
0.0
 71
     5
 72
     1
  1
\A1;R3"
 11
0.6731138104482266
 21
0.7395389091750813
 31
0.0
 73
     1
 44
1.0
  0
SOLID
  5
124C
330
1241
100
AcDbEntity
  8
标注
100
AcDbTrace
 10
381.8409319773778
 20
204.3980969956867
 30
0.0
 11
382.001165407699
 21
204.2522556700896
 31
0.0
 12
381.483524715747
 22
203.8444760419243
 32
0.0
 13
381.483524715747
 23
203.8444760419243
 33
0.0
  0
POINT
  5
124D
330
1241
100
AcDbEntity
  8
Defpoints
 62
     0
100
AcDbPoint
 10
381.483524715747
 20
203.8444760419243
 30
0.0
  0
POINT
  5
124E
330
1241
100
AcDbEntity
  8
Defpoints
 62
     0
100
AcDbPoint
 10
383.4710654946296
 20
206.0281539233468
 30
0.0
  0
ENDBLK
  5
1248
330
1241
100
AcDbEntity
  8
0
100
AcDbBlockEnd
  0
BLOCK
  5
1257
330
1251
100
AcDbEntity
  8
0
100
AcDbBlockBegin
  2
*D103
 70
     1
 10
0.0
 20
0.0
 30
0.0
  3
*D103
  1

  0
LINE
  5
125A
330
1251
100
AcDbEntity
  8
标注
370
    -2
100
AcDbLine
 10
385.7483702872084
 20
204.2874538237704
 30
0.0
 11
385.7301644771379
 21
203.6377088365026
 31
0.0
  0
MTEXT
  5
125B
330
1251
100
AcDbEntity
  8
标注
100
AcDbMText
 10
385.8207267118476
 20
206.8697736449631
 30
0.0
 40
0.65
 41
0.0
 71
     5
 72
     1
  1
\A1;R118 1/8"
 11
0.028008938570021
 21
0.9996076727197429
 31
0.0
 73
     1
 44
1.0
  0
SOLID
  5
125C
330
1251
100
AcDbEntity
  8
标注
100
AcDbTrace
 10
385.6218736459266
 20
203.640743138181
 30
0.0
 11
385.8384553083491
 21
203.6346745348242
 31
0.0
 12
385.7119586670673
 22
202.9879638492347
 32
0.0
 13
385.7119586670673
 23
202.9879638492347
 33
0.0
  0
POINT
  5
125D
330
1251
100
AcDbEntity
  8
Defpoints
 62
     0
100
AcDbPoint
 10
385.7119586670673
 20
202.9879638492347
 30
0.0
  0
POINT
  5
125E
330
1251
100
AcDbEntity
  8
Defpoints
 62
     0
100
AcDbPoint
 10
389.0200944015727
 20
321.0516260741652
 30
0.0
  0
ENDBLK
  5
1258
330
1251
100
AcDbEntity
  8
0
100
AcDbBlockEnd
  0
BLOCK
  5
1262
330
1261
100
AcDbEntity
  8
0
100
AcDbBlockBegin
  2
*D104
 70
     1
 10
0.0
 20
0.0
 30
0.0
  3
*D104
  1

  0
LINE
  5
1263
330
1261
100
AcDbEntity
  8
标注
370
    -2
100
AcDbLine
 10
409.6558798999951
 20
211.111109694943
 30
0.0
 11
409.6558798999951
 21
199.4693044824226
 31
0.0
  0
LINE
  5
1264
330
1261
100
AcDbEntity
  8
标注
370
    -2
100
AcDbLine
 10
379.4197199267703
 20
211.111109694943
 30
0.0
 11
379.4197199267703
 21
199.4693044824226
 31
0.0
  0
LINE
  5
1265
330
1261
100
AcDbEntity
  8
标注
370
    -2
100
AcDbLine
 10
409.0058798999952
 20
199.7893044824226
 30
0.0
 11
396.6336332467162
 21
199.7893044824226
 31
0.0
  0
LINE
  5
1266
330
1261
100
AcDbEntity
  8
标注
370
    -2
100
AcDbLine
 10
380.0697199267704
 20
199.7893044824226
 30
0.0
 11
392.4419665800494
 21
199.7893044824226
 31
0.0
  0
SOLID
  5
1267
330
1261
100
AcDbEntity
  8
标注
100
AcDbTrace
 10
409.0058798999952
 20
199.8976378157559
 30
0.0
 11
409.0058798999952
 21
199.6809711490893
 31
0.0
 12
409.6558798999951
 22
199.7893044824226
 32
0.0
 13
409.6558798999951
 23
199.7893044824226
 33
0.0
  0
SOLID
  5
1268
330
1261
100
AcDbEntity
  8
标注
100
AcDbTrace
 10
380.0697199267704
 20
199.8976378157559
 30
0.0
 11
380.0697199267704
 21
199.6809711490893
 31
0.0
 12
379.4197199267703
 22
199.7893044824226
 32
0.0
 13
379.4197199267703
 23
199.7893044824226
 33
0.0
  0
MTEXT
  5
1269
330
1261
100
AcDbEntity
  8
标注
100
AcDbMText
 10
394.5377999133827
 20
199.7893044824226
 30
0.0
 40
0.65
 41
0.0
 71
     5
 72
     1
  1
\A1;30 1/4"
 73
     1
 44
1.0
  0
POINT
  5
126A
330
1261
100
AcDbEntity
  8
Defpoints
 62
     0
100
AcDbPoint
 10
409.6558798999951
 20
211.991109694943
 30
0.0
  0
POINT
  5
126B
330
1261
100
AcDbEntity
  8
Defpoints
 62
     0
100
AcDbPoint
 10
379.4197199267703
 20
211.991109694943
 30
0.0
  0
POINT
  5
126C
330
1261
100
AcDbEntity
  8
Defpoints
 62
     0
100
AcDbPoint
 10
379.4197199267703
 20
199.7893044824226
 30
0.0
  0
ENDBLK
  5
126D
330
1261
100
AcDbEntity
  8
0
100
AcDbBlockEnd
  0
BLOCK
  5
126F
330
126E
100
AcDbEntity
  8
0
100
AcDbBlockBegin
  2
*D105
 70
     1
 10
0.0
 20
0.0
 30
0.0
  3
*D105
  1

  0
LINE
  5
1270
330
126E
100
AcDbEntity
  8
标注
370
    -2
100
AcDbLine
 10
389.0200944015717
 20
203.8216260741631
 30
0.0
 11
389.0200944015717
 21
204.7843114758431
 31
0.0
  0
LINE
  5
1271
330
126E
100
AcDbEntity
  8
标注
370
    -2
100
AcDbLine
 10
400.0436944015721
 20
203.8216260741631
 30
0.0
 11
400.0436944015721
 21
204.7843114758431
 31
0.0
  0
LINE
  5
1272
330
126E
100
AcDbEntity
  8
标注
370
    -2
100
AcDbLine
 10
389.6700944015717
 20
204.4643114758431
 30
0.0
 11
393.7902277349051
 21
204.4643114758431
 31
0.0
  0
LINE
  5
1273
330
126E
100
AcDbEntity
  8
标注
370
    -2
100
AcDbLine
 10
399.3936944015721
 20
204.4643114758431
 30
0.0
 11
395.2735610682386
 21
204.4643114758431
 31
0.0
  0
SOLID
  5
1274
330
126E
100
AcDbEntity
  8
标注
100
AcDbTrace
 10
389.6700944015717
 20
204.5726448091765
 30
0.0
 11
389.6700944015717
 21
204.3559781425098
 31
0.0
 12
389.0200944015717
 22
204.4643114758431
 32
0.0
 13
389.0200944015717
 23
204.4643114758431
 33
0.0
  0
SOLID
  5
1275
330
126E
100
AcDbEntity
  8
标注
100
AcDbTrace
 10
399.3936944015721
 20
204.5726448091765
 30
0.0
 11
399.3936944015721
 21
204.3559781425098
 31
0.0
 12
400.0436944015721
 22
204.4643114758431
 32
0.0
 13
400.0436944015721
 23
204.4643114758431
 33
0.0
  0
MTEXT
  5
1276
330
126E
100
AcDbEntity
  8
标注
100
AcDbMText
 10
394.5318944015719
 20
204.4643114758431
 30
0.0
 40
0.65
 41
0.0
 71
     5
 72
     1
  1
\A1;11"
 73
     1
 44
1.0
  0
POINT
  5
1277
330
126E
100
AcDbEntity
  8
Defpoints
 62
     0
100
AcDbPoint
 10
389.0200944015717
 20
202.9416260741631
 30
0.0
  0
POINT
  5
1278
330
126E
100
AcDbEntity
  8
Defpoints
 62
     0
100
AcDbPoint
 10
400.0436944015721
 20
202.9416260741631
 30
0.0
  0
POINT
  5
1279
330
126E
100
AcDbEntity
  8
Defpoints
 62
     0
100
AcDbPoint
 10
400.0436944015721
 20
204.4643114758431
 30
0.0
  0
ENDBLK
  5
127A
330
126E
100
AcDbEntity
  8
0
100
AcDbBlockEnd
  0
BLOCK
  5
12CC
330
12C1
100
AcDbEntity
  8
0
100
AcDbBlockBegin
  2
*D106
 70
     1
 10
0.0
 20
0.0
 30
0.0
  3
*D106
  1

  0
LINE
  5
12CE
330
12C1
100
AcDbEntity
  8
标注
370
    -2
100
AcDbLine
 10
410.2641635924855
 20
172.122599512934
 30
0.0
 11
410.2641635924855
 21
160.4807943004136
 31
0.0
  0
LINE
  5
12CF
330
12C1
100
AcDbEntity
  8
标注
370
    -2
100
AcDbLine
 10
380.0280036192607
 20
172.122599512934
 30
0.0
 11
380.0280036192607
 21
160.4807943004136
 31
0.0
  0
LINE
  5
12D0
330
12C1
100
AcDbEntity
  8
标注
370
    -2
100
AcDbLine
 10
409.6141635924855
 20
160.8007943004136
 30
0.0
 11
397.2419169392064
 21
160.8007943004136
 31
0.0
  0
LINE
  5
12D1
330
12C1
100
AcDbEntity
  8
标注
370
    -2
100
AcDbLine
 10
380.6780036192606
 20
160.8007943004136
 30
0.0
 11
393.0502502725397
 21
160.8007943004136
 31
0.0
  0
SOLID
  5
12D2
330
12C1
100
AcDbEntity
  8
标注
100
AcDbTrace
 10
409.6141635924855
 20
160.9091276337469
 30
0.0
 11
409.6141635924855
 21
160.6924609670802
 31
0.0
 12
410.2641635924855
 22
160.8007943004136
 32
0.0
 13
410.2641635924855
 23
160.8007943004136
 33
0.0
  0
SOLID
  5
12D3
330
12C1
100
AcDbEntity
  8
标注
100
AcDbTrace
 10
380.6780036192606
 20
160.9091276337469
 30
0.0
 11
380.6780036192606
 21
160.6924609670802
 31
0.0
 12
380.0280036192607
 22
160.8007943004136
 32
0.0
 13
380.0280036192607
 23
160.8007943004136
 33
0.0
  0
MTEXT
  5
12D4
330
12C1
100
AcDbEntity
  8
标注
100
AcDbMText
 10
395.1460836058731
 20
160.8007943004136
 30
0.0
 40
0.65
 41
0.0
 71
     5
 72
     1
  1
\A1;30 1/4"
 73
     1
 44
1.0
  0
POINT
  5
12D5
330
12C1
100
AcDbEntity
  8
Defpoints
 62
     0
100
AcDbPoint
 10
410.2641635924855
 20
173.002599512934
 30
0.0
  0
POINT
  5
12D6
330
12C1
100
AcDbEntity
  8
Defpoints
 62
     0
100
AcDbPoint
 10
380.0280036192607
 20
173.002599512934
 30
0.0
  0
POINT
  5
12D7
330
12C1
100
AcDbEntity
  8
Defpoints
 62
     0
100
AcDbPoint
 10
380.0280036192607
 20
160.8007943004136
 30
0.0
  0
ENDBLK
  5
12CD
330
12C1
100
AcDbEntity
  8
0
100
AcDbBlockEnd
  0
BLOCK
  5
12E3
330
12D8
100
AcDbEntity
  8
0
100
AcDbBlockBegin
  2
*D107
 70
     1
 10
0.0
 20
0.0
 30
0.0
  3
*D107
  1

  0
LINE
  5
12D9
330
12D8
100
AcDbEntity
  8
标注
370
    -2
100
AcDbLine
 10
389.628378094062
 20
164.8331158921541
 30
0.0
 11
389.628378094062
 21
165.7958012938341
 31
0.0
  0
LINE
  5
12DA
330
12D8
100
AcDbEntity
  8
标注
370
    -2
100
AcDbLine
 10
400.6519780940624
 20
164.8331158921541
 30
0.0
 11
400.6519780940624
 21
165.7958012938341
 31
0.0
  0
LINE
  5
12DB
330
12D8
100
AcDbEntity
  8
标注
370
    -2
100
AcDbLine
 10
390.278378094062
 20
165.4758012938341
 30
0.0
 11
394.3985114273955
 21
165.4758012938341
 31
0.0
  0
LINE
  5
12DC
330
12D8
100
AcDbEntity
  8
标注
370
    -2
100
AcDbLine
 10
400.0019780940623
 20
165.4758012938341
 30
0.0
 11
395.8818447607289
 21
165.4758012938341
 31
0.0
  0
SOLID
  5
12DD
330
12D8
100
AcDbEntity
  8
标注
100
AcDbTrace
 10
390.278378094062
 20
165.5841346271674
 30
0.0
 11
390.278378094062
 21
165.3674679605008
 31
0.0
 12
389.628378094062
 22
165.4758012938341
 32
0.0
 13
389.628378094062
 23
165.4758012938341
 33
0.0
  0
SOLID
  5
12DE
330
12D8
100
AcDbEntity
  8
标注
100
AcDbTrace
 10
400.0019780940623
 20
165.5841346271674
 30
0.0
 11
400.0019780940623
 21
165.3674679605008
 31
0.0
 12
400.6519780940624
 22
165.4758012938341
 32
0.0
 13
400.6519780940624
 23
165.4758012938341
 33
0.0
  0
MTEXT
  5
12DF
330
12D8
100
AcDbEntity
  8
标注
100
AcDbMText
 10
395.1401780940622
 20
165.4758012938341
 30
0.0
 40
0.65
 41
0.0
 71
     5
 72
     1
  1
\A1;11"
 73
     1
 44
1.0
  0
POINT
  5
12E0
330
12D8
100
AcDbEntity
  8
Defpoints
 62
     0
100
AcDbPoint
 10
389.628378094062
 20
163.953115892154
 30
0.0
  0
POINT
  5
12E1
330
12D8
100
AcDbEntity
  8
Defpoints
 62
     0
100
AcDbPoint
 10
400.6519780940624
 20
163.953115892154
 30
0.0
  0
POINT
  5
12E2
330
12D8
100
AcDbEntity
  8
Defpoints
 62
     0
100
AcDbPoint
 10
400.6519780940624
 20
165.4758012938341
 30
0.0
  0
ENDBLK
  5
12E4
330
12D8
100
AcDbEntity
  8
0
100
AcDbBlockEnd
  0
BLOCK
  5
1365
330
1364
100
AcDbEntity
  8
0
 48
5.0
100
AcDbBlockBegin
  2
*D108
 70
     1
 10
0.0
 20
0.0
 30
0.0
  3
*D108
  1

  0
LINE
  5
1366
330
1364
100
AcDbEntity
  8
标注
 48
5.0
370
    -2
100
AcDbLine
 10
25745.54208455838
 20
-99638.94843009018
 30
0.0
 11
25745.54208455838
 21
-99631.70607186039
 31
0.0
  0
LINE
  5
1367
330
1364
100
AcDbEntity
  8
标注
 48
5.0
370
    -2
100
AcDbLine
 10
25774.79596306626
 20
-99638.94843009018
 30
0.0
 11
25774.79596306626
 21
-99631.70607186039
 31
0.0
  0
LINE
  5
1368
330
1364
100
AcDbEntity
  8
标注
 48
5.0
370
    -2
100
AcDbLine
 10
25730.54208455838
 20
-99623.7060718604
 30
0.0
 11
25715.54208455838
 21
-99623.7060718604
 31
0.0
  0
LINE
  5
1369
330
1364
100
AcDbEntity
  8
标注
 48
5.0
370
    -2
100
AcDbLine
 10
25789.79596306626
 20
-99623.7060718604
 30
0.0
 11
25804.79596306626
 21
-99623.7060718604
 31
0.0
  0
LINE
  5
136A
330
1364
100
AcDbEntity
  8
标注
 48
5.0
370
    -2
100
AcDbLine
 10
25745.54208455838
 20
-99623.7060718604
 30
0.0
 11
25774.79596306626
 21
-99623.7060718604
 31
0.0
  0
SOLID
  5
136B
330
1364
100
AcDbEntity
  8
标注
 48
5.0
100
AcDbTrace
 10
25730.54208455838
 20
-99621.20607186038
 30
0.0
 11
25730.54208455838
 21
-99626.20607186039
 31
0.0
 12
25745.54208455838
 22
-99623.7060718604
 32
0.0
 13
25745.54208455838
 23
-99623.7060718604
 33
0.0
  0
SOLID
  5
136C
330
1364
100
AcDbEntity
  8
标注
 48
5.0
100
AcDbTrace
 10
25789.79596306626
 20
-99621.20607186038
 30
0.0
 11
25789.79596306626
 21
-99626.20607186039
 31
0.0
 12
25774.79596306626
 22
-99623.7060718604
 32
0.0
 13
25774.79596306626
 23
-99623.7060718604
 33
0.0
  0
MTEXT
  5
136D
330
1364
100
AcDbEntity
  8
标注
 48
5.0
100
AcDbMText
 10
25829.92096306626
 20
-99623.7060718604
 30
0.0
 40
15.0
 41
0.0
 71
     5
 72
     1
  1
\A1;29,3
 73
     1
 44
1.0
  0
POINT
  5
136E
330
1364
100
AcDbEntity
  8
Defpoints
 62
     0
 48
5.0
100
AcDbPoint
 10
25745.54208455838
 20
-99616.94843009018
 30
0.0
  0
POINT
  5
136F
330
1364
100
AcDbEntity
  8
Defpoints
 62
     0
 48
5.0
100
AcDbPoint
 10
25774.79596306626
 20
-99616.94843009018
 30
0.0
  0
POINT
  5
1370
330
1364
100
AcDbEntity
  8
Defpoints
 62
     0
 48
5.0
100
AcDbPoint
 10
25774.79596306626
 20
-99623.7060718604
 30
0.0
  0
ENDBLK
  5
1371
330
1364
100
AcDbEntity
  8
0
 48
5.0
100
AcDbBlockEnd
  0
BLOCK
  5
1373
330
1372
100
AcDbEntity
  8
0
 48
5.0
100
AcDbBlockBegin
  2
*D109
 70
     1
 10
0.0
 20
0.0
 30
0.0
  3
*D109
  1

  0
LINE
  5
1374
330
1372
100
AcDbEntity
  8
标注
 48
5.0
370
    -2
100
AcDbLine
 10
25771.78732564526
 20
-99621.52582134418
 30
0.0
 11
25759.33280985826
 21
-99613.16609428457
 31
0.0
  0
MTEXT
  5
1375
330
1372
100
AcDbEntity
  8
标注
 48
5.0
100
AcDbMText
 10
25792.8908107288
 20
-99635.69091441744
 30
0.0
 40
15.0
 41
0.0
 71
     5
 72
     1
  1
\A1;R7,9
 11
0.8303010524664586
 21
-0.5573151373084093
 31
0.0
 73
     1
 44
1.0
  0
SOLID
  5
1376
330
1372
100
AcDbEntity
  8
标注
 48
5.0
100
AcDbTrace
 10
25760.72609770152
 20
-99611.09034165339
 30
0.0
 11
25757.93952201498
 21
-99615.24184691572
 31
0.0
 12
25746.87829407126
 22
-99604.80636722493
 32
0.0
 13
25746.87829407126
 23
-99604.80636722493
 33
0.0
  0
POINT
  5
1377
330
1372
100
AcDbEntity
  8
Defpoints
 62
     0
 48
5.0
100
AcDbPoint
 10
25746.87829407126
 20
-99604.80636722493
 30
0.0
  0
POINT
  5
1378
330
1372
100
AcDbEntity
  8
Defpoints
 62
     0
 48
5.0
100
AcDbPoint
 10
25753.41608455839
 20
-99609.19466661607
 30
0.0
  0
ENDBLK
  5
1379
330
1372
100
AcDbEntity
  8
0
 48
5.0
100
AcDbBlockEnd
  0
BLOCK
  5
137B
330
137A
100
AcDbEntity
  8
0
 48
5.0
100
AcDbBlockBegin
  2
*D110
 70
     1
 10
0.0
 20
0.0
 30
0.0
  3
*D110
  1

  0
LINE
  5
137C
330
137A
100
AcDbEntity
  8
标注
 48
5.0
370
    -2
100
AcDbLine
 10
25774.79596306626
 20
-99638.94843009018
 30
0.0
 11
25774.79596306626
 21
-99631.70607186039
 31
0.0
  0
LINE
  5
137D
330
137A
100
AcDbEntity
  8
标注
 48
5.0
370
    -2
100
AcDbLine
 10
25775.91801031035
 20
-99638.94843009018
 30
0.0
 11
25775.91801031035
 21
-99631.70607186039
 31
0.0
  0
LINE
  5
137E
330
137A
100
AcDbEntity
  8
标注
 48
5.0
370
    -2
100
AcDbLine
 10
25759.79596306626
 20
-99623.7060718604
 30
0.0
 11
25744.79596306626
 21
-99623.7060718604
 31
0.0
  0
LINE
  5
137F
330
137A
100
AcDbEntity
  8
标注
 48
5.0
370
    -2
100
AcDbLine
 10
25790.91801031035
 20
-99623.7060718604
 30
0.0
 11
25805.91801031035
 21
-99623.7060718604
 31
0.0
  0
LINE
  5
1380
330
137A
100
AcDbEntity
  8
标注
 48
5.0
370
    -2
100
AcDbLine
 10
25774.79596306626
 20
-99623.7060718604
 30
0.0
 11
25775.91801031035
 21
-99623.7060718604
 31
0.0
  0
SOLID
  5
1381
330
137A
100
AcDbEntity
  8
标注
 48
5.0
100
AcDbTrace
 10
25759.79596306626
 20
-99621.20607186038
 30
0.0
 11
25759.79596306626
 21
-99626.20607186039
 31
0.0
 12
25774.79596306626
 22
-99623.7060718604
 32
0.0
 13
25774.79596306626
 23
-99623.7060718604
 33
0.0
  0
SOLID
  5
1382
330
137A
100
AcDbEntity
  8
标注
 48
5.0
100
AcDbTrace
 10
25790.91801031035
 20
-99621.20607186038
 30
0.0
 11
25790.91801031035
 21
-99626.20607186039
 31
0.0
 12
25775.91801031035
 22
-99623.7060718604
 32
0.0
 13
25775.91801031035
 23
-99623.7060718604
 33
0.0
  0
MTEXT
  5
1383
330
137A
100
AcDbEntity
  8
标注
 48
5.0
100
AcDbMText
 10
25824.62634364368
 20
-99623.7060718604
 30
0.0
 40
15.0
 41
0.0
 71
     5
 72
     1
  1
\A1;1,1
 73
     1
 44
1.0
  0
POINT
  5
1384
330
137A
100
AcDbEntity
  8
Defpoints
 62
     0
 48
5.0
100
AcDbPoint
 10
25774.79596306626
 20
-99616.94843009018
 30
0.0
  0
POINT
  5
1385
330
137A
100
AcDbEntity
  8
Defpoints
 62
     0
 48
5.0
100
AcDbPoint
 10
25775.91801031035
 20
-99616.94843009018
 30
0.0
  0
POINT
  5
1386
330
137A
100
AcDbEntity
  8
Defpoints
 62
     0
 48
5.0
100
AcDbPoint
 10
25775.91801031035
 20
-99623.7060718604
 30
0.0
  0
ENDBLK
  5
1387
330
137A
100
AcDbEntity
  8
0
 48
5.0
100
AcDbBlockEnd
  0
BLOCK
  5
1389
330
1388
100
AcDbEntity
  8
0
 48
5.0
100
AcDbBlockBegin
  2
*D111
 70
     1
 10
0.0
 20
0.0
 30
0.0
  3
*D111
  1

  0
LINE
  5
138A
330
1388
100
AcDbEntity
  8
标注
 48
5.0
370
    -2
100
AcDbLine
 10
25727.08538455839
 20
-99620.49173009015
 30
0.0
 11
25734.6619301782
 21
-99620.49173009015
 31
0.0
  0
LINE
  5
138B
330
1388
100
AcDbEntity
  8
标注
 48
5.0
370
    -2
100
AcDbLine
 10
25727.08538455839
 20
-99621.61377733428
 30
0.0
 11
25734.6619301782
 21
-99621.61377733428
 31
0.0
  0
LINE
  5
138C
330
1388
100
AcDbEntity
  8
标注
 48
5.0
370
    -2
100
AcDbLine
 10
25742.6619301782
 20
-99605.49173009015
 30
0.0
 11
25742.6619301782
 21
-99590.49173009017
 31
0.0
  0
LINE
  5
138D
330
1388
100
AcDbEntity
  8
标注
 48
5.0
370
    -2
100
AcDbLine
 10
25742.6619301782
 20
-99636.61377733428
 30
0.0
 11
25742.6619301782
 21
-99651.61377733428
 31
0.0
  0
LINE
  5
138E
330
1388
100
AcDbEntity
  8
标注
 48
5.0
370
    -2
100
AcDbLine
 10
25742.6619301782
 20
-99620.49173009015
 30
0.0
 11
25742.6619301782
 21
-99621.61377733428
 31
0.0
  0
SOLID
  5
138F
330
1388
100
AcDbEntity
  8
标注
 48
5.0
100
AcDbTrace
 10
25740.1619301782
 20
-99605.49173009015
 30
0.0
 11
25745.1619301782
 21
-99605.49173009015
 31
0.0
 12
25742.6619301782
 22
-99620.49173009015
 32
0.0
 13
25742.6619301782
 23
-99620.49173009015
 33
0.0
  0
SOLID
  5
1390
330
1388
100
AcDbEntity
  8
标注
 48
5.0
100
AcDbTrace
 10
25740.1619301782
 20
-99636.61377733428
 30
0.0
 11
25745.1619301782
 21
-99636.61377733428
 31
0.0
 12
25742.6619301782
 22
-99621.61377733428
 32
0.0
 13
25742.6619301782
 23
-99621.61377733428
 33
0.0
  0
MTEXT
  5
1391
330
1388
100
AcDbEntity
  8
标注
 48
5.0
100
AcDbMText
 10
25742.66193017821
 20
-99670.3221106676
 30
0.0
 40
15.0
 41
0.0
 71
     5
 72
     1
  1
\A1;1,1
 11
0.0000000000000001
 21
1.0
 31
0.0
 73
     1
 44
1.0
  0
POINT
  5
1392
330
1388
100
AcDbEntity
  8
Defpoints
 62
     0
 48
5.0
100
AcDbPoint
 10
25749.08538455838
 20
-99620.49173009015
 30
0.0
  0
POINT
  5
1393
330
1388
100
AcDbEntity
  8
Defpoints
 62
     0
 48
5.0
100
AcDbPoint
 10
25749.08538455838
 20
-99621.61377733428
 30
0.0
  0
POINT
  5
1394
330
1388
100
AcDbEntity
  8
Defpoints
 62
     0
 48
5.0
100
AcDbPoint
 10
25742.6619301782
 20
-99621.61377733428
 30
0.0
  0
ENDBLK
  5
1395
330
1388
100
AcDbEntity
  8
0
 48
5.0
100
AcDbBlockEnd
  0
BLOCK
  5
1397
330
1396
100
AcDbEntity
  8
0
 48
5.0
100
AcDbBlockBegin
  2
*D112
 70
     1
 10
0.0
 20
0.0
 30
0.0
  3
*D112
  1

  0
LINE
  5
1398
330
1396
100
AcDbEntity
  8
标注
 48
5.0
370
    -2
100
AcDbLine
 10
25774.1842297374
 20
-99585.93840112982
 30
0.0
 11
25761.53771250554
 21
-99585.93840112982
 31
0.0
  0
LINE
  5
1399
330
1396
100
AcDbEntity
  8
标注
 48
5.0
370
    -2
100
AcDbLine
 10
25775.41511607588
 20
-99594.93840112983
 30
0.0
 11
25761.53771250554
 21
-99594.93840112983
 31
0.0
  0
LINE
  5
139A
330
1396
100
AcDbEntity
  8
标注
 48
5.0
370
    -2
100
AcDbLine
 10
25753.53771250553
 20
-99570.93840112982
 30
0.0
 11
25753.53771250553
 21
-99555.93840112982
 31
0.0
  0
LINE
  5
139B
330
1396
100
AcDbEntity
  8
标注
 48
5.0
370
    -2
100
AcDbLine
 10
25753.53771250553
 20
-99609.93840112982
 30
0.0
 11
25753.53771250553
 21
-99624.93840112982
 31
0.0
  0
LINE
  5
139C
330
1396
100
AcDbEntity
  8
标注
 48
5.0
370
    -2
100
AcDbLine
 10
25753.53771250553
 20
-99585.93840112982
 30
0.0
 11
25753.53771250553
 21
-99594.93840112983
 31
0.0
  0
SOLID
  5
139D
330
1396
100
AcDbEntity
  8
标注
 48
5.0
100
AcDbTrace
 10
25751.03771250554
 20
-99570.93840112982
 30
0.0
 11
25756.03771250554
 21
-99570.93840112982
 31
0.0
 12
25753.53771250553
 22
-99585.93840112982
 32
0.0
 13
25753.53771250553
 23
-99585.93840112982
 33
0.0
  0
SOLID
  5
139E
330
1396
100
AcDbEntity
  8
标注
 48
5.0
100
AcDbTrace
 10
25751.03771250554
 20
-99609.93840112982
 30
0.0
 11
25756.03771250554
 21
-99609.93840112982
 31
0.0
 12
25753.53771250553
 22
-99594.93840112983
 32
0.0
 13
25753.53771250553
 23
-99594.93840112983
 33
0.0
  0
MTEXT
  5
139F
330
1396
100
AcDbEntity
  8
标注
 48
5.0
100
AcDbMText
 10
25753.53771250555
 20
-99634.23006779649
 30
0.0
 40
15.0
 41
0.0
 71
     5
 72
     1
  1
\A1;9
 11
0.0000000000000001
 21
1.0
 31
0.0
 73
     1
 44
1.0
  0
POINT
  5
13A0
330
1396
100
AcDbEntity
  8
Defpoints
 62
     0
 48
5.0
100
AcDbPoint
 10
25752.1842297374
 20
-99585.93840112982
 30
0.0
  0
POINT
  5
13A1
330
1396
100
AcDbEntity
  8
Defpoints
 62
     0
 48
5.0
100
AcDbPoint
 10
25753.41511607588
 20
-99594.93840112983
 30
0.0
  0
POINT
  5
13A2
330
1396
100
AcDbEntity
  8
Defpoints
 62
     0
 48
5.0
100
AcDbPoint
 10
25753.53771250553
 20
-99594.93840112983
 30
0.0
  0
ENDBLK
  5
13A3
330
1396
100
AcDbEntity
  8
0
 48
5.0
100
AcDbBlockEnd
  0
BLOCK
  5
13A5
330
13A4
100
AcDbEntity
  8
0
 48
5.0
100
AcDbBlockBegin
  2
*D113
 70
     1
 10
0.0
 20
0.0
 30
0.0
  3
*D113
  1

  0
LINE
  5
13A6
330
13A4
100
AcDbEntity
  8
标注
 48
5.0
370
    -2
100
AcDbLine
 10
25748.2586407426
 20
-99629.36521365088
 30
0.0
 11
25754.42408669923
 21
-99615.69088455744
 31
0.0
  0
MTEXT
  5
13A7
330
13A4
100
AcDbEntity
  8
标注
 48
5.0
100
AcDbMText
 10
25737.81163509387
 20
-99652.53560461476
 30
0.0
 40
15.0
 41
0.0
 71
     5
 72
     1
  1
\A1;R7,9
 11
0.411029730442446
 21
0.9116219395628926
 31
0.0
 73
     1
 44
1.0
  0
SOLID
  5
13A8
330
13A4
100
AcDbEntity
  8
标注
 48
5.0
100
AcDbTrace
 10
25752.14503185033
 20
-99614.66331023133
 30
0.0
 11
25756.70314154814
 21
-99616.71845888352
 31
0.0
 12
25760.58953265587
 22
-99602.016555464
 32
0.0
 13
25760.58953265587
 23
-99602.016555464
 33
0.0
  0
POINT
  5
13A9
330
13A4
100
AcDbEntity
  8
Defpoints
 62
     0
 48
5.0
100
AcDbPoint
 10
25760.58953265587
 20
-99602.016555464
 30
0.0
  0
POINT
  5
13AA
330
13A4
100
AcDbEntity
  8
Defpoints
 62
     0
 48
5.0
100
AcDbPoint
 10
25757.35308455837
 20
-99609.19466661607
 30
0.0
  0
ENDBLK
  5
13AB
330
13A4
100
AcDbEntity
  8
0
 48
5.0
100
AcDbBlockEnd
  0
BLOCK
  5
13AD
330
13AC
100
AcDbEntity
  8
0
 48
5.0
100
AcDbBlockBegin
  2
*D114
 70
     1
 10
0.0
 20
0.0
 30
0.0
  3
*D114
  1

  0
LINE
  5
13AE
330
13AC
100
AcDbEntity
  8
标注
 48
5.0
370
    -2
100
AcDbLine
 10
25793.25266306626
 20
-99604.74373009018
 30
0.0
 11
25785.6703538893
 21
-99604.74373009018
 31
0.0
  0
LINE
  5
13AF
330
13AC
100
AcDbEntity
  8
标注
 48
5.0
370
    -2
100
AcDbLine
 10
25793.25266306626
 20
-99620.49173009015
 30
0.0
 11
25785.6703538893
 21
-99620.49173009015
 31
0.0
  0
LINE
  5
13B0
330
13AC
100
AcDbEntity
  8
标注
 48
5.0
370
    -2
100
AcDbLine
 10
25777.6703538893
 20
-99589.74373009018
 30
0.0
 11
25777.6703538893
 21
-99574.74373009018
 31
0.0
  0
LINE
  5
13B1
330
13AC
100
AcDbEntity
  8
标注
 48
5.0
370
    -2
100
AcDbLine
 10
25777.6703538893
 20
-99635.49173009015
 30
0.0
 11
25777.6703538893
 21
-99650.49173009015
 31
0.0
  0
LINE
  5
13B2
330
13AC
100
AcDbEntity
  8
标注
 48
5.0
370
    -2
100
AcDbLine
 10
25777.6703538893
 20
-99604.74373009018
 30
0.0
 11
25777.6703538893
 21
-99620.49173009015
 31
0.0
  0
SOLID
  5
13B3
330
13AC
100
AcDbEntity
  8
标注
 48
5.0
100
AcDbTrace
 10
25775.17035388929
 20
-99589.74373009018
 30
0.0
 11
25780.1703538893
 21
-99589.74373009018
 31
0.0
 12
25777.6703538893
 22
-99604.74373009018
 32
0.0
 13
25777.6703538893
 23
-99604.74373009018
 33
0.0
  0
SOLID
  5
13B4
330
13AC
100
AcDbEntity
  8
标注
 48
5.0
100
AcDbTrace
 10
25775.17035388929
 20
-99635.49173009015
 30
0.0
 11
25780.1703538893
 21
-99635.49173009015
 31
0.0
 12
25777.6703538893
 22
-99620.49173009015
 32
0.0
 13
25777.6703538893
 23
-99620.49173009015
 33
0.0
  0
MTEXT
  5
13B5
330
13AC
100
AcDbEntity
  8
标注
 48
5.0
100
AcDbMText
 10
25777.67035388931
 20
-99674.99173009016
 30
0.0
 40
15.0
 41
0.0
 71
     5
 72
     1
  1
\A1;15,7
 11
0.0000000000000001
 21
1.0
 31
0.0
 73
     1
 44
1.0
  0
POINT
  5
13B6
330
13AC
100
AcDbEntity
  8
Defpoints
 62
     0
 48
5.0
100
AcDbPoint
 10
25771.25266306626
 20
-99604.74373009018
 30
0.0
  0
POINT
  5
13B7
330
13AC
100
AcDbEntity
  8
Defpoints
 62
     0
 48
5.0
100
AcDbPoint
 10
25771.25266306626
 20
-99620.49173009015
 30
0.0
  0
POINT
  5
13B8
330
13AC
100
AcDbEntity
  8
Defpoints
 62
     0
 48
5.0
100
AcDbPoint
 10
25777.6703538893
 20
-99620.49173009015
 30
0.0
  0
ENDBLK
  5
13B9
330
13AC
100
AcDbEntity
  8
0
 48
5.0
100
AcDbBlockEnd
  0
BLOCK
  5
13BB
330
13BA
100
AcDbEntity
  8
0
 48
5.0
100
AcDbBlockBegin
  2
*D115
 70
     1
 10
0.0
 20
0.0
 30
0.0
  3
*D115
  1

  0
LINE
  5
13BC
330
13BA
100
AcDbEntity
  8
标注
 48
5.0
370
    -2
100
AcDbLine
 10
25733.38458455839
 20
-99601.59373646893
 30
0.0
 11
25734.6619301782
 21
-99601.59373646893
 31
0.0
  0
LINE
  5
13BD
330
13BA
100
AcDbEntity
  8
标注
 48
5.0
370
    -2
100
AcDbLine
 10
25727.08538455839
 20
-99620.4917300902
 30
0.0
 11
25734.6619301782
 21
-99620.4917300902
 31
0.0
  0
LINE
  5
13BE
330
13BA
100
AcDbEntity
  8
标注
 48
5.0
370
    -2
100
AcDbLine
 10
25742.6619301782
 20
-99586.59373646893
 30
0.0
 11
25742.6619301782
 21
-99571.59373646893
 31
0.0
  0
LINE
  5
13BF
330
13BA
100
AcDbEntity
  8
标注
 48
5.0
370
    -2
100
AcDbLine
 10
25742.6619301782
 20
-99635.4917300902
 30
0.0
 11
25742.6619301782
 21
-99650.4917300902
 31
0.0
  0
LINE
  5
13C0
330
13BA
100
AcDbEntity
  8
标注
 48
5.0
370
    -2
100
AcDbLine
 10
25742.6619301782
 20
-99601.59373646893
 30
0.0
 11
25742.6619301782
 21
-99620.4917300902
 31
0.0
  0
SOLID
  5
13C1
330
13BA
100
AcDbEntity
  8
标注
 48
5.0
100
AcDbTrace
 10
25740.1619301782
 20
-99586.59373646893
 30
0.0
 11
25745.1619301782
 21
-99586.59373646893
 31
0.0
 12
25742.6619301782
 22
-99601.59373646893
 32
0.0
 13
25742.6619301782
 23
-99601.59373646893
 33
0.0
  0
SOLID
  5
13C2
330
13BA
100
AcDbEntity
  8
标注
 48
5.0
100
AcDbTrace
 10
25740.1619301782
 20
-99635.4917300902
 30
0.0
 11
25745.1619301782
 21
-99635.4917300902
 31
0.0
 12
25742.6619301782
 22
-99620.4917300902
 32
0.0
 13
25742.6619301782
 23
-99620.4917300902
 33
0.0
  0
MTEXT
  5
13C3
330
13BA
100
AcDbEntity
  8
标注
 48
5.0
100
AcDbMText
 10
25742.66193017822
 20
-99675.03339675683
 30
0.0
 40
15.0
 41
0.0
 71
     5
 72
     1
  1
\A1;18,9
 11
0.0000000000000001
 21
1.0
 31
0.0
 73
     1
 44
1.0
  0
POINT
  5
13C4
330
13BA
100
AcDbEntity
  8
Defpoints
 62
     0
 48
5.0
100
AcDbPoint
 10
25755.38458455838
 20
-99601.59373646893
 30
0.0
  0
POINT
  5
13C5
330
13BA
100
AcDbEntity
  8
Defpoints
 62
     0
 48
5.0
100
AcDbPoint
 10
25749.08538455839
 20
-99620.4917300902
 30
0.0
  0
POINT
  5
13C6
330
13BA
100
AcDbEntity
  8
Defpoints
 62
     0
 48
5.0
100
AcDbPoint
 10
25742.6619301782
 20
-99620.4917300902
 30
0.0
  0
ENDBLK
  5
13C7
330
13BA
100
AcDbEntity
  8
0
 48
5.0
100
AcDbBlockEnd
  0
BLOCK
  5
13C9
330
13C8
100
AcDbEntity
  8
0
 48
5.0
100
AcDbBlockBegin
  2
*D116
 70
     1
 10
0.0
 20
0.0
 30
0.0
  3
*D116
  1

  0
LINE
  5
13CA
330
13C8
100
AcDbEntity
  8
标注
 48
5.0
370
    -2
100
AcDbLine
 10
25750.82137022886
 20
-99600.14012119598
 30
0.0
 11
25762.40518047583
 21
-99609.66982948963
 31
0.0
  0
MTEXT
  5
13CB
330
13C8
100
AcDbEntity
  8
标注
 48
5.0
100
AcDbMText
 10
25731.25760181175
 20
-99584.04550274448
 30
0.0
 40
15.0
 41
0.0
 71
     5
 72
     1
  1
\A1;R3,5
 11
0.7722540164646948
 21
-0.6353138862437583
 31
0.0
 73
     1
 44
1.0
  0
SOLID
  5
13CC
330
13C8
100
AcDbEntity
  8
标注
 48
5.0
100
AcDbTrace
 10
25763.99346519144
 20
-99607.73919444847
 30
0.0
 11
25760.81689576022
 21
-99611.6004645308
 31
0.0
 12
25773.9889907228
 22
-99619.19953778329
 32
0.0
 13
25773.9889907228
 23
-99619.19953778329
 33
0.0
  0
POINT
  5
13CD
330
13C8
100
AcDbEntity
  8
Defpoints
 62
     0
 48
5.0
100
AcDbPoint
 10
25773.9889907228
 20
-99619.19953778329
 30
0.0
  0
POINT
  5
13CE
330
13C8
100
AcDbEntity
  8
Defpoints
 62
     0
 48
5.0
100
AcDbPoint
 10
25771.25266306626
 20
-99616.94843009018
 30
0.0
  0
ENDBLK
  5
13CF
330
13C8
100
AcDbEntity
  8
0
 48
5.0
100
AcDbBlockEnd
  0
BLOCK
  5
13D1
330
13D0
100
AcDbEntity
  8
0
 48
5.0
100
AcDbBlockBegin
  2
*D117
 70
     1
 10
0.0
 20
0.0
 30
0.0
  3
*D117
  1

  0
LINE
  5
13D2
330
13D0
100
AcDbEntity
  8
标注
 48
5.0
370
    -2
100
AcDbLine
 10
25754.26895648
 20
-99628.57275624141
 30
0.0
 11
25763.89810897424
 21
-99617.07147708461
 31
0.0
  0
MTEXT
  5
13D3
330
13D0
100
AcDbEntity
  8
标注
 48
5.0
100
AcDbMText
 10
25738.0063878231
 20
-99647.99713881737
 30
0.0
 40
15.0
 41
0.0
 71
     5
 72
     1
  1
\A1;R3,5
 11
0.6419434996148245
 21
0.7667519437877364
 31
0.0
 73
     1
 44
1.0
  0
SOLID
  5
13D4
330
13D0
100
AcDbEntity
  8
标注
 48
5.0
100
AcDbTrace
 10
25761.98122911476
 20
-99615.46661833557
 30
0.0
 11
25765.81498883371
 21
-99618.67633583359
 31
0.0
 12
25773.52726146845
 22
-99605.57019792775
 32
0.0
 13
25773.52726146845
 23
-99605.57019792775
 33
0.0
  0
POINT
  5
13D5
330
13D0
100
AcDbEntity
  8
Defpoints
 62
     0
 48
5.0
100
AcDbPoint
 10
25773.52726146845
 20
-99605.57019792775
 30
0.0
  0
POINT
  5
13D6
330
13D0
100
AcDbEntity
  8
Defpoints
 62
     0
 48
5.0
100
AcDbPoint
 10
25771.25266306627
 20
-99608.28703009015
 30
0.0
  0
ENDBLK
  5
13D7
330
13D0
100
AcDbEntity
  8
0
 48
5.0
100
AcDbBlockEnd
  0
BLOCK
  5
13D9
330
13D8
100
AcDbEntity
  8
0
 48
5.0
100
AcDbBlockBegin
  2
*D118
 70
     1
 10
0.0
 20
0.0
 30
0.0
  3
*D118
  1

  0
LINE
  5
13DA
330
13D8
100
AcDbEntity
  8
标注
 48
5.0
370
    -2
100
AcDbLine
 10
25765.70755495477
 20
-99596.36541704046
 30
0.0
 11
25756.2833805133
 21
-99608.03524720619
 31
0.0
  0
MTEXT
  5
13DB
330
13D8
100
AcDbEntity
  8
标注
 48
5.0
100
AcDbMText
 10
25781.62393845595
 20
-99576.65637053841
 30
0.0
 40
15.0
 41
0.0
 71
     5
 72
     1
  1
\A1;R3,5
 11
0.6282782960983494
 21
0.7779886777143707
 31
0.0
 73
     1
 44
1.0
  0
SOLID
  5
13DC
330
13D8
100
AcDbEntity
  8
标注
 48
5.0
100
AcDbTrace
 10
25754.33840881902
 20
-99606.46455146596
 30
0.0
 11
25758.22835220759
 21
-99609.60594294645
 31
0.0
 12
25746.85920607182
 22
-99619.70507737193
 32
0.0
 13
25746.85920607182
 23
-99619.70507737193
 33
0.0
  0
POINT
  5
13DD
330
13D8
100
AcDbEntity
  8
Defpoints
 62
     0
 48
5.0
100
AcDbPoint
 10
25746.85920607182
 20
-99619.70507737193
 30
0.0
  0
POINT
  5
13DE
330
13D8
100
AcDbEntity
  8
Defpoints
 62
     0
 48
5.0
100
AcDbPoint
 10
25749.08538455838
 20
-99616.94843009018
 30
0.0
  0
ENDBLK
  5
13DF
330
13D8
100
AcDbEntity
  8
0
 48
5.0
100
AcDbBlockEnd
  0
BLOCK
  5
13E1
330
13E0
100
AcDbEntity
  8
0
 48
5.0
100
AcDbBlockBegin
  2
*D119
 70
     1
 10
0.0
 20
0.0
 30
0.0
  3
*D119
  1

  0
LINE
  5
13E2
330
13E0
100
AcDbEntity
  8
标注
 48
5.0
370
    -2
100
AcDbLine
 10
25751.18533417129
 20
-99631.83330492402
 30
0.0
 11
25757.43859711494
 21
-99618.19891082093
 31
0.0
  0
MTEXT
  5
13E3
330
13E0
100
AcDbEntity
  8
标注
 48
5.0
100
AcDbMText
 10
25745.07103262637
 20
-99645.16471249144
 30
0.0
 40
15.0
 41
0.0
 71
     5
 72
     1
  1
\A1;R2
 11
0.4168841962434437
 21
0.9089596068706562
 31
0.0
 73
     1
 44
1.0
  0
LINE
  5
13E4
330
13E0
100
AcDbEntity
  8
标注
 48
5.0
370
    -2
100
AcDbLine
 10
25764.51249824018
 20
-99602.77522615315
 30
0.0
 11
25763.6918600586
 21
-99604.56451671788
 31
0.0
  0
SOLID
  5
13E5
330
13E0
100
AcDbEntity
  8
标注
 48
5.0
100
AcDbTrace
 10
25755.16619809777
 20
-99617.15670033033
 30
0.0
 11
25759.71099613212
 21
-99619.24112131155
 31
0.0
 12
25763.6918600586
 22
-99604.56451671788
 32
0.0
 13
25763.6918600586
 23
-99604.56451671788
 33
0.0
  0
POINT
  5
13E6
330
13E0
100
AcDbEntity
  8
Defpoints
 62
     0
 48
5.0
100
AcDbPoint
 10
25763.6918600586
 20
-99604.56451671788
 30
0.0
  0
POINT
  5
13E7
330
13E0
100
AcDbEntity
  8
Defpoints
 62
     0
 48
5.0
100
AcDbPoint
 10
25764.51249824018
 20
-99602.77522615315
 30
0.0
  0
ENDBLK
  5
13E8
330
13E0
100
AcDbEntity
  8
0
 48
5.0
100
AcDbBlockEnd
  0
BLOCK
  5
13EA
330
13E9
100
AcDbEntity
  8
0
 48
5.0
100
AcDbBlockBegin
  2
*D120
 70
     1
 10
0.0
 20
0.0
 30
0.0
  3
*D120
  1

  0
LINE
  5
13EB
330
13E9
100
AcDbEntity
  8
标注
 48
5.0
370
    -2
100
AcDbLine
 10
25793.25266306626
 20
-99603.62168284607
 30
0.0
 11
25787.35305073502
 21
-99603.62168284607
 31
0.0
  0
LINE
  5
13EC
330
13E9
100
AcDbEntity
  8
标注
 48
5.0
370
    -2
100
AcDbLine
 10
25793.25266306626
 20
-99621.61377733428
 30
0.0
 11
25787.35305073502
 21
-99621.61377733428
 31
0.0
  0
LINE
  5
13ED
330
13E9
100
AcDbEntity
  8
标注
 48
5.0
370
    -2
100
AcDbLine
 10
25779.35305073502
 20
-99588.62168284607
 30
0.0
 11
25779.35305073502
 21
-99573.62168284607
 31
0.0
  0
LINE
  5
13EE
330
13E9
100
AcDbEntity
  8
标注
 48
5.0
370
    -2
100
AcDbLine
 10
25779.35305073502
 20
-99636.61377733428
 30
0.0
 11
25779.35305073502
 21
-99651.61377733428
 31
0.0
  0
LINE
  5
13EF
330
13E9
100
AcDbEntity
  8
标注
 48
5.0
370
    -2
100
AcDbLine
 10
25779.35305073502
 20
-99603.62168284607
 30
0.0
 11
25779.35305073502
 21
-99621.61377733428
 31
0.0
  0
SOLID
  5
13F0
330
13E9
100
AcDbEntity
  8
标注
 48
5.0
100
AcDbTrace
 10
25776.85305073502
 20
-99588.62168284607
 30
0.0
 11
25781.85305073502
 21
-99588.62168284607
 31
0.0
 12
25779.35305073502
 22
-99603.62168284607
 32
0.0
 13
25779.35305073502
 23
-99603.62168284607
 33
0.0
  0
SOLID
  5
13F1
330
13E9
100
AcDbEntity
  8
标注
 48
5.0
100
AcDbTrace
 10
25776.85305073502
 20
-99636.61377733428
 30
0.0
 11
25781.85305073502
 21
-99636.61377733428
 31
0.0
 12
25779.35305073502
 22
-99621.61377733428
 32
0.0
 13
25779.35305073502
 23
-99621.61377733428
 33
0.0
  0
MTEXT
  5
13F2
330
13E9
100
AcDbEntity
  8
标注
 48
5.0
100
AcDbMText
 10
25779.35305073503
 20
-99665.44711066759
 30
0.0
 40
15.0
 41
0.0
 71
     5
 72
     1
  1
\A1;18
 11
0.0000000000000001
 21
1.0
 31
0.0
 73
     1
 44
1.0
  0
POINT
  5
13F3
330
13E9
100
AcDbEntity
  8
Defpoints
 62
     0
 48
5.0
100
AcDbPoint
 10
25771.25266306626
 20
-99603.62168284607
 30
0.0
  0
POINT
  5
13F4
330
13E9
100
AcDbEntity
  8
Defpoints
 62
     0
 48
5.0
100
AcDbPoint
 10
25771.25266306626
 20
-99621.61377733428
 30
0.0
  0
POINT
  5
13F5
330
13E9
100
AcDbEntity
  8
Defpoints
 62
     0
 48
5.0
100
AcDbPoint
 10
25779.35305073502
 20
-99621.61377733428
 30
0.0
  0
ENDBLK
  5
13F6
330
13E9
100
AcDbEntity
  8
0
 48
5.0
100
AcDbBlockEnd
  0
BLOCK
  5
13F8
330
13F7
100
AcDbEntity
  8
0
 48
5.0
100
AcDbBlockBegin
  2
*D121
 70
     1
 10
0.0
 20
0.0
 30
0.0
  3
*D121
  1

  0
LINE
  5
13F9
330
13F7
100
AcDbEntity
  8
标注
 48
5.0
370
    -2
100
AcDbLine
 10
25744.42003731429
 20
-99638.94843009018
 30
0.0
 11
25744.42003731429
 21
-99633.64640372859
 31
0.0
  0
LINE
  5
13FA
330
13F7
100
AcDbEntity
  8
标注
 48
5.0
370
    -2
100
AcDbLine
 10
25775.91801031035
 20
-99638.94843009018
 30
0.0
 11
25775.91801031035
 21
-99633.64640372859
 31
0.0
  0
LINE
  5
13FB
330
13F7
100
AcDbEntity
  8
标注
 48
5.0
370
    -2
100
AcDbLine
 10
25729.42003731429
 20
-99625.64640372859
 30
0.0
 11
25714.42003731429
 21
-99625.64640372859
 31
0.0
  0
LINE
  5
13FC
330
13F7
100
AcDbEntity
  8
标注
 48
5.0
370
    -2
100
AcDbLine
 10
25790.91801031035
 20
-99625.64640372859
 30
0.0
 11
25805.91801031035
 21
-99625.64640372859
 31
0.0
  0
LINE
  5
13FD
330
13F7
100
AcDbEntity
  8
标注
 48
5.0
370
    -2
100
AcDbLine
 10
25744.42003731429
 20
-99625.64640372859
 30
0.0
 11
25775.91801031035
 21
-99625.64640372859
 31
0.0
  0
SOLID
  5
13FE
330
13F7
100
AcDbEntity
  8
标注
 48
5.0
100
AcDbTrace
 10
25729.42003731429
 20
-99623.14640372859
 30
0.0
 11
25729.42003731429
 21
-99628.1464037286
 31
0.0
 12
25744.42003731429
 22
-99625.64640372859
 32
0.0
 13
25744.42003731429
 23
-99625.64640372859
 33
0.0
  0
SOLID
  5
13FF
330
13F7
100
AcDbEntity
  8
标注
 48
5.0
100
AcDbTrace
 10
25790.91801031035
 20
-99623.14640372859
 30
0.0
 11
25790.91801031035
 21
-99628.1464037286
 31
0.0
 12
25775.91801031035
 22
-99625.64640372859
 32
0.0
 13
25775.91801031035
 23
-99625.64640372859
 33
0.0
  0
MTEXT
  5
1400
330
13F7
100
AcDbEntity
  8
标注
 48
5.0
100
AcDbMText
 10
25830.95967697702
 20
-99625.64640372859
 30
0.0
 40
15.0
 41
0.0
 71
     5
 72
     1
  1
\A1;31,5
 73
     1
 44
1.0
  0
POINT
  5
1401
330
13F7
100
AcDbEntity
  8
Defpoints
 62
     0
 48
5.0
100
AcDbPoint
 10
25744.42003731429
 20
-99616.94843009018
 30
0.0
  0
POINT
  5
1402
330
13F7
100
AcDbEntity
  8
Defpoints
 62
     0
 48
5.0
100
AcDbPoint
 10
25775.91801031035
 20
-99616.94843009018
 30
0.0
  0
POINT
  5
1403
330
13F7
100
AcDbEntity
  8
Defpoints
 62
     0
 48
5.0
100
AcDbPoint
 10
25775.91801031035
 20
-99625.64640372859
 30
0.0
  0
ENDBLK
  5
1404
330
13F7
100
AcDbEntity
  8
0
 48
5.0
100
AcDbBlockEnd
  0
BLOCK
  5
1406
330
1405
100
AcDbEntity
  8
0
 48
5.0
100
AcDbBlockBegin
  2
*D122
 70
     1
 10
0.0
 20
0.0
 30
0.0
  3
*D122
  1

  0
LINE
  5
1407
330
1405
100
AcDbEntity
  8
标注
 48
5.0
370
    -2
100
AcDbLine
 10
25733.38458455839
 20
-99600.47168922482
 30
0.0
 11
25732.81067702369
 21
-99600.47168922482
 31
0.0
  0
LINE
  5
1408
330
1405
100
AcDbEntity
  8
标注
 48
5.0
370
    -2
100
AcDbLine
 10
25727.08538455839
 20
-99621.61377733428
 30
0.0
 11
25732.81067702369
 21
-99621.61377733428
 31
0.0
  0
LINE
  5
1409
330
1405
100
AcDbEntity
  8
标注
 48
5.0
370
    -2
100
AcDbLine
 10
25740.81067702369
 20
-99585.47168922482
 30
0.0
 11
25740.81067702369
 21
-99570.47168922482
 31
0.0
  0
LINE
  5
140A
330
1405
100
AcDbEntity
  8
标注
 48
5.0
370
    -2
100
AcDbLine
 10
25740.81067702369
 20
-99636.61377733428
 30
0.0
 11
25740.81067702369
 21
-99651.61377733428
 31
0.0
  0
LINE
  5
140B
330
1405
100
AcDbEntity
  8
标注
 48
5.0
370
    -2
100
AcDbLine
 10
25740.81067702369
 20
-99600.47168922482
 30
0.0
 11
25740.81067702369
 21
-99621.61377733428
 31
0.0
  0
SOLID
  5
140C
330
1405
100
AcDbEntity
  8
标注
 48
5.0
100
AcDbTrace
 10
25738.31067702368
 20
-99585.47168922482
 30
0.0
 11
25743.31067702368
 21
-99585.47168922482
 31
0.0
 12
25740.81067702369
 22
-99600.47168922482
 32
0.0
 13
25740.81067702369
 23
-99600.47168922482
 33
0.0
  0
SOLID
  5
140D
330
1405
100
AcDbEntity
  8
标注
 48
5.0
100
AcDbTrace
 10
25738.31067702368
 20
-99636.61377733428
 30
0.0
 11
25743.31067702368
 21
-99636.61377733428
 31
0.0
 12
25740.81067702369
 22
-99621.61377733428
 32
0.0
 13
25740.81067702369
 23
-99621.61377733428
 33
0.0
  0
MTEXT
  5
140E
330
1405
100
AcDbEntity
  8
标注
 48
5.0
100
AcDbMText
 10
25740.8106770237
 20
-99676.32211066758
 30
0.0
 40
15.0
 41
0.0
 71
     5
 72
     1
  1
\A1;21,1
 11
0.0000000000000001
 21
1.0
 31
0.0
 73
     1
 44
1.0
  0
POINT
  5
140F
330
1405
100
AcDbEntity
  8
Defpoints
 62
     0
 48
5.0
100
AcDbPoint
 10
25755.38458455838
 20
-99600.47168922482
 30
0.0
  0
POINT
  5
1410
330
1405
100
AcDbEntity
  8
Defpoints
 62
     0
 48
5.0
100
AcDbPoint
 10
25749.08538455839
 20
-99621.61377733428
 30
0.0
  0
POINT
  5
1411
330
1405
100
AcDbEntity
  8
Defpoints
 62
     0
 48
5.0
100
AcDbPoint
 10
25740.81067702369
 20
-99621.61377733428
 30
0.0
  0
ENDBLK
  5
1412
330
1405
100
AcDbEntity
  8
0
 48
5.0
100
AcDbBlockEnd
  0
BLOCK
  5
1414
330
1413
100
AcDbEntity
  8
0
 48
5.0
100
AcDbBlockBegin
  2
*D123
 70
     1
 10
0.0
 20
0.0
 30
0.0
  3
*D123
  1

  0
LINE
  5
1415
330
1413
100
AcDbEntity
  8
标注
 48
5.0
370
    -2
100
AcDbLine
 10
25754.88597622192
 20
-99631.60701216354
 30
0.0
 11
25754.08777717742
 21
-99616.62826460957
 31
0.0
  0
MTEXT
  5
1416
330
1413
100
AcDbEntity
  8
标注
 48
5.0
100
AcDbMText
 10
25756.53337036099
 20
-99662.52148280963
 30
0.0
 40
15.0
 41
0.0
 71
     5
 72
     1
  1
\A1;R39,4
 11
0.0532132696335381
 21
-0.9985831702642041
 31
0.0
 73
     1
 44
1.0
  0
SOLID
  5
1417
330
1413
100
AcDbEntity
  8
标注
 48
5.0
100
AcDbTrace
 10
25756.58423510308
 20
-99616.49523143552
 30
0.0
 11
25751.59131925176
 21
-99616.76129778368
 31
0.0
 12
25753.28957813292
 22
-99601.64951705561
 32
0.0
 13
25753.28957813292
 23
-99601.64951705561
 33
0.0
  0
POINT
  5
1418
330
1413
100
AcDbEntity
  8
Defpoints
 62
     0
 48
5.0
100
AcDbPoint
 10
25753.28957813292
 20
-99601.64951705561
 30
0.0
  0
POINT
  5
1419
330
1413
100
AcDbEntity
  8
Defpoints
 62
     0
 48
5.0
100
AcDbPoint
 10
25755.38458455839
 20
-99640.9637364689
 30
0.0
  0
ENDBLK
  5
141A
330
1413
100
AcDbEntity
  8
0
 48
5.0
100
AcDbBlockEnd
  0
BLOCK
  5
141C
330
141B
100
AcDbEntity
  8
0
 48
5.0
100
AcDbBlockBegin
  2
*D124
 70
     1
 10
0.0
 20
0.0
 30
0.0
  3
*D124
  1

  0
LINE
  5
141D
330
141B
100
AcDbEntity
  8
标注
 48
5.0
370
    -2
100
AcDbLine
 10
25729.13882217524
 20
-99625.86996152372
 30
0.0
 11
25741.65076203643
 21
-99617.59642776181
 31
0.0
  0
LINE
  5
141E
330
141B
100
AcDbEntity
  8
标注
 48
5.0
370
    -2
100
AcDbLine
 10
25769.63021810397
 20
-99599.0949821839
 30
0.0
 11
25782.14215796516
 21
-99590.82144842195
 31
0.0
  0
MTEXT
  5
141F
330
141B
100
AcDbEntity
  8
标注
 48
5.0
100
AcDbMText
 10
25707.90327979973
 20
-99639.91198688084
 30
0.0
 40
15.0
 41
0.0
 71
     5
 72
     1
  1
\A1;\U+22053,5
 11
0.8341293240790989
 21
0.5515689174630362
 31
0.0
 73
     1
 44
1.0
  0
LINE
  5
1420
330
141B
100
AcDbEntity
  8
标注
 48
5.0
370
    -2
100
AcDbLine
 10
25757.11827824278
 20
-99607.36851594583
 30
0.0
 11
25754.16270189761
 21
-99609.32289399986
 31
0.0
  0
SOLID
  5
1421
330
141B
100
AcDbEntity
  8
标注
 48
5.0
100
AcDbTrace
 10
25768.25129581032
 20
-99597.00965887373
 30
0.0
 11
25771.00914039764
 21
-99601.18030549407
 31
0.0
 12
25757.11827824278
 22
-99607.36851594583
 32
0.0
 13
25757.11827824278
 23
-99607.36851594583
 33
0.0
  0
SOLID
  5
1422
330
141B
100
AcDbEntity
  8
标注
 48
5.0
100
AcDbTrace
 10
25740.27183974278
 20
-99615.5111044516
 30
0.0
 11
25743.02968433009
 21
-99619.681751072
 31
0.0
 12
25754.16270189761
 22
-99609.32289399986
 32
0.0
 13
25754.16270189761
 23
-99609.32289399986
 33
0.0
  0
POINT
  5
1423
330
141B
100
AcDbEntity
  8
Defpoints
 62
     0
 48
5.0
100
AcDbPoint
 10
25754.16270189761
 20
-99609.32289399986
 30
0.0
  0
POINT
  5
1424
330
141B
100
AcDbEntity
  8
Defpoints
 62
     0
 48
5.0
100
AcDbPoint
 10
25757.11827824278
 20
-99607.36851594583
 30
0.0
  0
ENDBLK
  5
1425
330
141B
100
AcDbEntity
  8
0
 48
5.0
100
AcDbBlockEnd
  0
BLOCK
  5
1427
330
1426
100
AcDbEntity
  8
0
 48
5.0
100
AcDbBlockBegin
  2
*D125
 70
     1
 10
0.0
 20
0.0
 30
0.0
  3
*D125
  1

  0
LINE
  5
1428
330
1426
100
AcDbEntity
  8
标注
 48
5.0
370
    -2
100
AcDbLine
 10
25741.07752308567
 20
-99637.15789123233
 30
0.0
 11
25747.84397481872
 21
-99623.77076566543
 31
0.0
  0
LINE
  5
1429
330
1426
100
AcDbEntity
  8
标注
 48
5.0
370
    -2
100
AcDbLine
 10
25763.43700532167
 20
-99592.92064428025
 30
0.0
 11
25770.20345705473
 21
-99579.53351871337
 31
0.0
  0
MTEXT
  5
142A
330
1426
100
AcDbEntity
  8
标注
 48
5.0
100
AcDbMText
 10
25729.53696374097
 20
-99659.99037761593
 30
0.0
 40
15.0
 41
0.0
 71
     5
 72
     1
  1
\A1;\U+22054,6
 11
0.4510967822037341
 21
0.8924750377940199
 31
0.0
 73
     1
 44
1.0
  0
LINE
  5
142B
330
1426
100
AcDbEntity
  8
标注
 48
5.0
370
    -2
100
AcDbLine
 10
25756.67055358862
 20
-99606.30776984718
 30
0.0
 11
25754.61042655178
 21
-99610.38364009851
 31
0.0
  0
SOLID
  5
142C
330
1426
100
AcDbEntity
  8
标注
 48
5.0
100
AcDbTrace
 10
25761.20581772718
 20
-99591.79290232476
 30
0.0
 11
25765.66819291616
 21
-99594.04838623578
 31
0.0
 12
25756.67055358862
 22
-99606.30776984718
 32
0.0
 13
25756.67055358862
 23
-99606.30776984718
 33
0.0
  0
SOLID
  5
142D
330
1426
100
AcDbEntity
  8
标注
 48
5.0
100
AcDbTrace
 10
25745.61278722424
 20
-99622.64302370993
 30
0.0
 11
25750.07516241321
 21
-99624.89850762093
 31
0.0
 12
25754.61042655178
 22
-99610.38364009851
 32
0.0
 13
25754.61042655178
 23
-99610.38364009851
 33
0.0
  0
POINT
  5
142E
330
1426
100
AcDbEntity
  8
Defpoints
 62
     0
 48
5.0
100
AcDbPoint
 10
25754.61042655178
 20
-99610.38364009851
 30
0.0
  0
POINT
  5
142F
330
1426
100
AcDbEntity
  8
Defpoints
 62
     0
 48
5.0
100
AcDbPoint
 10
25756.67055358862
 20
-99606.30776984718
 30
0.0
  0
ENDBLK
  5
1430
330
1426
100
AcDbEntity
  8
0
 48
5.0
100
AcDbBlockEnd
  0
BLOCK
  5
1432
330
1431
100
AcDbEntity
  8
0
 48
5.0
100
AcDbBlockBegin
  2
*D126
 70
     1
 10
0.0
 20
0.0
 30
0.0
  3
*D126
  1

  0
LINE
  5
1433
330
1431
100
AcDbEntity
  8
标注
 48
5.0
370
    -2
100
AcDbLine
 10
25793.25266306626
 20
-99604.74373009018
 30
0.0
 11
25785.6703538893
 21
-99604.74373009018
 31
0.0
  0
LINE
  5
1434
330
1431
100
AcDbEntity
  8
标注
 48
5.0
370
    -2
100
AcDbLine
 10
25793.25266306626
 20
-99603.62168284607
 30
0.0
 11
25785.6703538893
 21
-99603.62168284607
 31
0.0
  0
LINE
  5
1435
330
1431
100
AcDbEntity
  8
标注
 48
5.0
370
    -2
100
AcDbLine
 10
25777.6703538893
 20
-99619.74373009018
 30
0.0
 11
25777.6703538893
 21
-99634.74373009018
 31
0.0
  0
LINE
  5
1436
330
1431
100
AcDbEntity
  8
标注
 48
5.0
370
    -2
100
AcDbLine
 10
25777.6703538893
 20
-99588.62168284607
 30
0.0
 11
25777.6703538893
 21
-99573.62168284607
 31
0.0
  0
LINE
  5
1437
330
1431
100
AcDbEntity
  8
标注
 48
5.0
370
    -2
100
AcDbLine
 10
25777.6703538893
 20
-99604.74373009018
 30
0.0
 11
25777.6703538893
 21
-99603.62168284607
 31
0.0
  0
SOLID
  5
1438
330
1431
100
AcDbEntity
  8
标注
 48
5.0
100
AcDbTrace
 10
25775.17035388929
 20
-99619.74373009018
 30
0.0
 11
25780.1703538893
 21
-99619.74373009018
 31
0.0
 12
25777.6703538893
 22
-99604.74373009018
 32
0.0
 13
25777.6703538893
 23
-99604.74373009018
 33
0.0
  0
SOLID
  5
1439
330
1431
100
AcDbEntity
  8
标注
 48
5.0
100
AcDbTrace
 10
25775.17035388929
 20
-99588.62168284607
 30
0.0
 11
25780.1703538893
 21
-99588.62168284607
 31
0.0
 12
25777.6703538893
 22
-99603.62168284607
 32
0.0
 13
25777.6703538893
 23
-99603.62168284607
 33
0.0
  0
MTEXT
  5
143A
330
1431
100
AcDbEntity
  8
标注
 48
5.0
100
AcDbMText
 10
25777.67035388931
 20
-99554.91334951275
 30
0.0
 40
15.0
 41
0.0
 71
     5
 72
     1
  1
\A1;1,1
 11
0.0000000000000001
 21
1.0
 31
0.0
 73
     1
 44
1.0
  0
POINT
  5
143B
330
1431
100
AcDbEntity
  8
Defpoints
 62
     0
 48
5.0
100
AcDbPoint
 10
25771.25266306626
 20
-99604.74373009018
 30
0.0
  0
POINT
  5
143C
330
1431
100
AcDbEntity
  8
Defpoints
 62
     0
 48
5.0
100
AcDbPoint
 10
25771.25266306626
 20
-99603.62168284607
 30
0.0
  0
POINT
  5
143D
330
1431
100
AcDbEntity
  8
Defpoints
 62
     0
 48
5.0
100
AcDbPoint
 10
25777.6703538893
 20
-99603.62168284607
 30
0.0
  0
ENDBLK
  5
143E
330
1431
100
AcDbEntity
  8
0
 48
5.0
100
AcDbBlockEnd
  0
BLOCK
  5
1440
330
143F
100
AcDbEntity
  8
0
 48
5.0
100
AcDbBlockBegin
  2
*D127
 70
     1
 10
0.0
 20
0.0
 30
0.0
  3
*D127
  1

  0
LINE
  5
1441
330
143F
100
AcDbEntity
  8
标注
 48
5.0
370
    -2
100
AcDbLine
 10
25755.64049007019
 20
-99634.32255094565
 30
0.0
 11
25755.64049007019
 21
-99622.84007139876
 31
0.0
  0
LINE
  5
1442
330
143F
100
AcDbEntity
  8
标注
 48
5.0
370
    -2
100
AcDbLine
 10
25744.42003731429
 20
-99635.23887118777
 30
0.0
 11
25744.42003731429
 21
-99622.84007139876
 31
0.0
  0
LINE
  5
1443
330
143F
100
AcDbEntity
  8
标注
 48
5.0
370
    -2
100
AcDbLine
 10
25770.64049007019
 20
-99614.84007139876
 30
0.0
 11
25785.64049007019
 21
-99614.84007139876
 31
0.0
  0
LINE
  5
1444
330
143F
100
AcDbEntity
  8
标注
 48
5.0
370
    -2
100
AcDbLine
 10
25729.42003731429
 20
-99614.84007139876
 30
0.0
 11
25714.42003731429
 21
-99614.84007139876
 31
0.0
  0
LINE
  5
1445
330
143F
100
AcDbEntity
  8
标注
 48
5.0
370
    -2
100
AcDbLine
 10
25755.64049007019
 20
-99614.84007139876
 30
0.0
 11
25744.42003731429
 21
-99614.84007139876
 31
0.0
  0
SOLID
  5
1446
330
143F
100
AcDbEntity
  8
标注
 48
5.0
100
AcDbTrace
 10
25770.64049007019
 20
-99612.3400713988
 30
0.0
 11
25770.64049007019
 21
-99617.34007139876
 31
0.0
 12
25755.64049007019
 22
-99614.84007139876
 32
0.0
 13
25755.64049007019
 23
-99614.84007139876
 33
0.0
  0
SOLID
  5
1447
330
143F
100
AcDbEntity
  8
标注
 48
5.0
100
AcDbTrace
 10
25729.42003731429
 20
-99612.3400713988
 30
0.0
 11
25729.42003731429
 21
-99617.34007139876
 31
0.0
 12
25744.42003731429
 22
-99614.84007139876
 32
0.0
 13
25744.42003731429
 23
-99614.84007139876
 33
0.0
  0
MTEXT
  5
1448
330
143F
100
AcDbEntity
  8
标注
 48
5.0
100
AcDbMText
 10
25689.96170398096
 20
-99614.84007139876
 30
0.0
 40
15.0
 41
0.0
 71
     5
 72
     1
  1
\A1;11,2
 73
     1
 44
1.0
  0
POINT
  5
1449
330
143F
100
AcDbEntity
  8
Defpoints
 62
     0
 48
5.0
100
AcDbPoint
 10
25755.64049007019
 20
-99612.32255094564
 30
0.0
  0
POINT
  5
144A
330
143F
100
AcDbEntity
  8
Defpoints
 62
     0
 48
5.0
100
AcDbPoint
 10
25744.42003731429
 20
-99613.23887118776
 30
0.0
  0
POINT
  5
144B
330
143F
100
AcDbEntity
  8
Defpoints
 62
     0
 48
5.0
100
AcDbPoint
 10
25744.42003731429
 20
-99614.84007139876
 30
0.0
  0
ENDBLK
  5
144C
330
143F
100
AcDbEntity
  8
0
 48
5.0
100
AcDbBlockEnd
  0
BLOCK
  5
144E
330
144D
100
AcDbEntity
  8
0
 48
5.0
100
AcDbBlockBegin
  2
*D128
 70
     1
 10
0.0
 20
0.0
 30
0.0
  3
*D128
  1

  0
LINE
  5
144F
330
144D
100
AcDbEntity
  8
标注
 48
5.0
370
    -2
100
AcDbLine
 10
25733.38458455838
 20
-99600.47168922482
 30
0.0
 11
25744.14249385096
 21
-99600.47168922482
 31
0.0
  0
LINE
  5
1450
330
144D
100
AcDbEntity
  8
标注
 48
5.0
370
    -2
100
AcDbLine
 10
25773.39040360216
 20
-99608.34570497288
 30
0.0
 11
25760.14249385097
 21
-99608.34570497288
 31
0.0
  0
LINE
  5
1451
330
144D
100
AcDbEntity
  8
标注
 48
5.0
370
    -2
100
AcDbLine
 10
25752.14249385097
 20
-99585.47168922482
 30
0.0
 11
25752.14249385097
 21
-99570.47168922482
 31
0.0
  0
LINE
  5
1452
330
144D
100
AcDbEntity
  8
标注
 48
5.0
370
    -2
100
AcDbLine
 10
25752.14249385097
 20
-99623.34570497288
 30
0.0
 11
25752.14249385097
 21
-99638.34570497288
 31
0.0
  0
LINE
  5
1453
330
144D
100
AcDbEntity
  8
标注
 48
5.0
370
    -2
100
AcDbLine
 10
25752.14249385097
 20
-99600.47168922482
 30
0.0
 11
25752.14249385097
 21
-99608.34570497288
 31
0.0
  0
SOLID
  5
1454
330
144D
100
AcDbEntity
  8
标注
 48
5.0
100
AcDbTrace
 10
25749.64249385097
 20
-99585.47168922482
 30
0.0
 11
25754.64249385097
 21
-99585.47168922482
 31
0.0
 12
25752.14249385097
 22
-99600.47168922482
 32
0.0
 13
25752.14249385097
 23
-99600.47168922482
 33
0.0
  0
SOLID
  5
1455
330
144D
100
AcDbEntity
  8
标注
 48
5.0
100
AcDbTrace
 10
25749.64249385097
 20
-99623.34570497288
 30
0.0
 11
25754.64249385097
 21
-99623.34570497288
 31
0.0
 12
25752.14249385097
 22
-99608.34570497288
 32
0.0
 13
25752.14249385097
 23
-99608.34570497288
 33
0.0
  0
MTEXT
  5
1456
330
144D
100
AcDbEntity
  8
标注
 48
5.0
100
AcDbMText
 10
25752.14249385099
 20
-99658.09570497288
 30
0.0
 40
15.0
 41
0.0
 71
     5
 72
     1
  1
\A1;7,9
 11
0.0000000000000001
 21
1.0
 31
0.0
 73
     1
 44
1.0
  0
POINT
  5
1457
330
144D
100
AcDbEntity
  8
Defpoints
 62
     0
 48
5.0
100
AcDbPoint
 10
25755.38458455838
 20
-99600.47168922482
 30
0.0
  0
POINT
  5
1458
330
144D
100
AcDbEntity
  8
Defpoints
 62
     0
 48
5.0
100
AcDbPoint
 10
25751.39040360217
 20
-99608.34570497288
 30
0.0
  0
POINT
  5
1459
330
144D
100
AcDbEntity
  8
Defpoints
 62
     0
 48
5.0
100
AcDbPoint
 10
25752.14249385097
 20
-99608.34570497288
 30
0.0
  0
ENDBLK
  5
145A
330
144D
100
AcDbEntity
  8
0
 48
5.0
100
AcDbBlockEnd
  0
BLOCK
  5
145C
330
145B
100
AcDbEntity
  8
0
 48
5.0
100
AcDbBlockBegin
  2
*D129
 70
     1
 10
0.0
 20
0.0
 30
0.0
  3
*D129
  1

  0
LINE
  5
145D
330
145B
100
AcDbEntity
  8
标注
 48
5.0
370
    -2
100
AcDbLine
 10
25769.56492362219
 20
-99575.15440133985
 30
0.0
 11
25757.96051031907
 21
-99584.65901032132
 31
0.0
  0
MTEXT
  5
145E
330
145B
100
AcDbEntity
  8
标注
 48
5.0
100
AcDbMText
 10
25780.91146107411
 20
-99565.86100589127
 30
0.0
 40
15.0
 41
0.0
 71
     5
 72
     1
  1
\A1;R2
 11
0.7736275535405081
 21
0.6336405987647323
 31
0.0
 73
     1
 44
1.0
  0
SOLID
  5
145F
330
145B
100
AcDbEntity
  8
标注
 48
5.0
100
AcDbTrace
 10
25756.37640882216
 20
-99582.72494143743
 30
0.0
 11
25759.54461181598
 21
-99586.59307920514
 31
0.0
 12
25746.35609701597
 22
-99594.16361930276
 32
0.0
 13
25746.35609701597
 23
-99594.16361930276
 33
0.0
  0
POINT
  5
1460
330
145B
100
AcDbEntity
  8
Defpoints
 62
     0
 48
5.0
100
AcDbPoint
 10
25746.35609701597
 20
-99594.16361930276
 30
0.0
  0
POINT
  5
1461
330
145B
100
AcDbEntity
  8
Defpoints
 62
     0
 48
5.0
100
AcDbPoint
 10
25747.87898590088
 20
-99592.91629528946
 30
0.0
  0
ENDBLK
  5
1462
330
145B
100
AcDbEntity
  8
0
 48
5.0
100
AcDbBlockEnd
  0
BLOCK
  5
1564
330
1558
100
AcDbEntity
  8
0
100
AcDbBlockBegin
  2
*D130
 70
     1
 10
0.0
 20
0.0
 30
0.0
  3
*D130
  1

  0
LINE
  5
1703
330
1558
100
AcDbEntity
  8
标注
370
    -2
100
AcDbLine
 10
508.7249577281919
 20
202.8850570645581
 30
0.0
 11
508.7249577281919
 21
196.687415294336
 31
0.0
  0
LINE
  5
1704
330
1558
100
AcDbEntity
  8
标注
370
    -2
100
AcDbLine
 10
509.8470049722865
 20
202.8850570645581
 30
0.0
 11
509.8470049722865
 21
196.687415294336
 31
0.0
  0
LINE
  5
1705
330
1558
100
AcDbEntity
  8
标注
370
    -2
100
AcDbLine
 10
508.074957728192
 20
197.007415294336
 30
0.0
 11
507.424957728192
 21
197.007415294336
 31
0.0
  0
LINE
  5
1706
330
1558
100
AcDbEntity
  8
标注
370
    -2
100
AcDbLine
 10
510.4970049722866
 20
197.007415294336
 30
0.0
 11
511.1470049722866
 21
197.007415294336
 31
0.0
  0
LINE
  5
1707
330
1558
100
AcDbEntity
  8
标注
370
    -2
100
AcDbLine
 10
508.7249577281919
 20
197.007415294336
 30
0.0
 11
509.8470049722865
 21
197.007415294336
 31
0.0
  0
SOLID
  5
1708
330
1558
100
AcDbEntity
  8
标注
100
AcDbTrace
 10
508.074957728192
 20
197.1157486276693
 30
0.0
 11
508.074957728192
 21
196.8990819610026
 31
0.0
 12
508.7249577281919
 22
197.007415294336
 32
0.0
 13
508.7249577281919
 23
197.007415294336
 33
0.0
  0
SOLID
  5
1709
330
1558
100
AcDbEntity
  8
标注
100
AcDbTrace
 10
510.4970049722866
 20
197.1157486276693
 30
0.0
 11
510.4970049722866
 21
196.8990819610026
 31
0.0
 12
509.8470049722865
 22
197.007415294336
 32
0.0
 13
509.8470049722865
 23
197.007415294336
 33
0.0
  0
MTEXT
  5
170A
330
1558
100
AcDbEntity
  8
标注
100
AcDbMText
 10
512.8636716389531
 20
197.007415294336
 30
0.0
 40
0.65
 41
0.0
 71
     5
 72
     1
  1
\A1;1 1/8"
 73
     1
 44
1.0
  0
POINT
  5
170B
330
1558
100
AcDbEntity
  8
Defpoints
 62
     0
100
AcDbPoint
 10
508.7249577281919
 20
203.7650570645581
 30
0.0
  0
POINT
  5
170C
330
1558
100
AcDbEntity
  8
Defpoints
 62
     0
100
AcDbPoint
 10
509.8470049722865
 20
203.7650570645581
 30
0.0
  0
POINT
  5
170D
330
1558
100
AcDbEntity
  8
Defpoints
 62
     0
100
AcDbPoint
 10
509.8470049722865
 20
197.007415294336
 30
0.0
  0
ENDBLK
  5
1565
330
1558
100
AcDbEntity
  8
0
100
AcDbBlockEnd
  0
BLOCK
  5
1572
330
1566
100
AcDbEntity
  8
0
100
AcDbBlockBegin
  2
*D131
 70
     1
 10
0.0
 20
0.0
 30
0.0
  3
*D131
  1

  0
LINE
  5
16ED
330
1566
100
AcDbEntity
  8
标注
370
    -2
100
AcDbLine
 10
482.1343792203209
 20
200.2217570645679
 30
0.0
 11
476.2709248401342
 21
200.2217570645679
 31
0.0
  0
LINE
  5
16EE
330
1566
100
AcDbEntity
  8
标注
370
    -2
100
AcDbLine
 10
482.1343792203209
 20
199.0997098204624
 30
0.0
 11
476.2709248401342
 21
199.0997098204624
 31
0.0
  0
LINE
  5
16EF
330
1566
100
AcDbEntity
  8
标注
370
    -2
100
AcDbLine
 10
476.5909248401341
 20
200.8717570645679
 30
0.0
 11
476.5909248401341
 21
201.5217570645679
 31
0.0
  0
LINE
  5
16F0
330
1566
100
AcDbEntity
  8
标注
370
    -2
100
AcDbLine
 10
476.5909248401341
 20
198.4497098204623
 30
0.0
 11
476.5909248401341
 21
197.7997098204624
 31
0.0
  0
LINE
  5
16F1
330
1566
100
AcDbEntity
  8
标注
370
    -2
100
AcDbLine
 10
476.5909248401341
 20
200.2217570645679
 30
0.0
 11
476.5909248401341
 21
199.0997098204624
 31
0.0
  0
SOLID
  5
16F2
330
1566
100
AcDbEntity
  8
标注
100
AcDbTrace
 10
476.4825915068008
 20
200.8717570645679
 30
0.0
 11
476.6992581734674
 21
200.8717570645679
 31
0.0
 12
476.5909248401341
 22
200.2217570645679
 32
0.0
 13
476.5909248401341
 23
200.2217570645679
 33
0.0
  0
SOLID
  5
16F3
330
1566
100
AcDbEntity
  8
标注
100
AcDbTrace
 10
476.4825915068008
 20
198.4497098204623
 30
0.0
 11
476.6992581734674
 21
198.4497098204623
 31
0.0
 12
476.5909248401341
 22
199.0997098204624
 32
0.0
 13
476.5909248401341
 23
199.0997098204624
 33
0.0
  0
MTEXT
  5
16F4
330
1566
100
AcDbEntity
  8
标注
100
AcDbMText
 10
476.5909248401341
 20
196.0830431537958
 30
0.0
 40
0.65
 41
0.0
 71
     5
 72
     1
  1
\A1;1 1/8"
 11
0.0000000000000001
 21
1.0
 31
0.0
 73
     1
 44
1.0
  0
POINT
  5
16F5
330
1566
100
AcDbEntity
  8
Defpoints
 62
     0
100
AcDbPoint
 10
483.0143792203209
 20
200.2217570645679
 30
0.0
  0
POINT
  5
16F6
330
1566
100
AcDbEntity
  8
Defpoints
 62
     0
100
AcDbPoint
 10
483.0143792203209
 20
199.0997098204624
 30
0.0
  0
POINT
  5
16F7
330
1566
100
AcDbEntity
  8
Defpoints
 62
     0
100
AcDbPoint
 10
476.5909248401341
 20
199.0997098204624
 30
0.0
  0
ENDBLK
  5
1573
330
1566
100
AcDbEntity
  8
0
100
AcDbBlockEnd
  0
BLOCK
  5
157F
330
1574
100
AcDbEntity
  8
0
100
AcDbBlockBegin
  2
*D132
 70
     1
 10
0.0
 20
0.0
 30
0.0
  3
*D132
  1

  0
LINE
  5
174A
330
1574
100
AcDbEntity
  8
标注
370
    -2
100
AcDbLine
 10
486.9932243993316
 20
237.8222569928903
 30
0.0
 11
487.7867071674713
 21
237.8222569928903
 31
0.0
  0
LINE
  5
174B
330
1574
100
AcDbEntity
  8
标注
370
    -2
100
AcDbLine
 10
488.2241107378141
 20
228.8222569928903
 30
0.0
 11
487.7867071674713
 21
228.8222569928903
 31
0.0
  0
LINE
  5
174C
330
1574
100
AcDbEntity
  8
标注
370
    -2
100
AcDbLine
 10
487.4667071674713
 20
237.1722569928903
 30
0.0
 11
487.4667071674713
 21
233.9555903262236
 31
0.0
  0
LINE
  5
174D
330
1574
100
AcDbEntity
  8
标注
370
    -2
100
AcDbLine
 10
487.4667071674713
 20
229.4722569928903
 30
0.0
 11
487.4667071674713
 21
232.688923659557
 31
0.0
  0
SOLID
  5
174E
330
1574
100
AcDbEntity
  8
标注
100
AcDbTrace
 10
487.358373834138
 20
237.1722569928903
 30
0.0
 11
487.5750405008046
 21
237.1722569928903
 31
0.0
 12
487.4667071674713
 22
237.8222569928903
 32
0.0
 13
487.4667071674713
 23
237.8222569928903
 33
0.0
  0
SOLID
  5
174F
330
1574
100
AcDbEntity
  8
标注
100
AcDbTrace
 10
487.358373834138
 20
229.4722569928903
 30
0.0
 11
487.5750405008046
 21
229.4722569928903
 31
0.0
 12
487.4667071674713
 22
228.8222569928903
 32
0.0
 13
487.4667071674713
 23
228.8222569928903
 33
0.0
  0
MTEXT
  5
1750
330
1574
100
AcDbEntity
  8
标注
100
AcDbMText
 10
487.4667071674713
 20
233.3222569928904
 30
0.0
 40
0.65
 41
0.0
 71
     5
 72
     1
  1
\A1;9"
 11
0.0000000000000001
 21
1.0
 31
0.0
 73
     1
 44
1.0
  0
POINT
  5
1751
330
1574
100
AcDbEntity
  8
Defpoints
 62
     0
100
AcDbPoint
 10
486.1132243993316
 20
237.8222569928903
 30
0.0
  0
POINT
  5
1752
330
1574
100
AcDbEntity
  8
Defpoints
 62
     0
100
AcDbPoint
 10
487.344110737814
 20
228.8222569928903
 30
0.0
  0
POINT
  5
1753
330
1574
100
AcDbEntity
  8
Defpoints
 62
     0
100
AcDbPoint
 10
487.4667071674713
 20
228.8222569928903
 30
0.0
  0
ENDBLK
  5
1580
330
1574
100
AcDbEntity
  8
0
100
AcDbBlockEnd
  0
BLOCK
  5
1587
330
1581
100
AcDbEntity
  8
0
100
AcDbBlockBegin
  2
*D133
 70
     1
 10
0.0
 20
0.0
 30
0.0
  3
*D133
  1

  0
LINE
  5
1604
330
1581
100
AcDbEntity
  8
标注
370
    -2
100
AcDbLine
 10
531.9128867282162
 20
189.8569751498227
 30
0.0
 11
553.4953728242388
 21
237.7247238263534
 31
0.0
  0
MTEXT
  5
1605
330
1581
100
AcDbEntity
  8
标注
100
AcDbMText
 10
530.9846445869651
 20
187.7982289363106
 30
0.0
 40
0.65
 41
0.0
 71
     5
 72
     1
  1
\A1;R7 7/8"
 11
0.4110297304432138
 21
0.9116219395625467
 31
0.0
 73
     1
 44
1.0
  0
SOLID
  5
1606
330
1581
100
AcDbEntity
  8
标注
100
AcDbTrace
 10
553.3966137807863
 20
237.7692520471514
 30
0.0
 11
553.5941318676915
 21
237.6801956055554
 31
0.0
 12
553.762542149027
 22
238.3172780870689
 32
0.0
 13
553.762542149027
 23
238.3172780870689
 33
0.0
  0
POINT
  5
1607
330
1581
100
AcDbEntity
  8
Defpoints
 62
     0
100
AcDbPoint
 10
553.762542149027
 20
238.3172780870689
 30
0.0
  0
POINT
  5
1608
330
1581
100
AcDbEntity
  8
Defpoints
 62
     0
100
AcDbPoint
 10
550.5260940515186
 20
231.1391669349568
 30
0.0
  0
ENDBLK
  5
1588
330
1581
100
AcDbEntity
  8
0
100
AcDbBlockEnd
  0
BLOCK
  5
1594
330
1589
100
AcDbEntity
  8
0
100
AcDbBlockBegin
  2
*D134
 70
     1
 10
0.0
 20
0.0
 30
0.0
  3
*D134
  1

  0
LINE
  5
1740
330
1589
100
AcDbEntity
  8
标注
370
    -2
100
AcDbLine
 10
479.4710792203196
 20
202.8850570645581
 30
0.0
 11
479.4710792203196
 21
196.687415294336
 31
0.0
  0
LINE
  5
1741
330
1589
100
AcDbEntity
  8
标注
370
    -2
100
AcDbLine
 10
508.7249577281919
 20
202.8850570645581
 30
0.0
 11
508.7249577281919
 21
196.687415294336
 31
0.0
  0
LINE
  5
1742
330
1589
100
AcDbEntity
  8
标注
370
    -2
100
AcDbLine
 10
480.1210792203196
 20
197.007415294336
 30
0.0
 11
491.9480184742559
 21
197.007415294336
 31
0.0
  0
LINE
  5
1743
330
1589
100
AcDbEntity
  8
标注
370
    -2
100
AcDbLine
 10
508.074957728192
 20
197.007415294336
 30
0.0
 11
496.2480184742559
 21
197.007415294336
 31
0.0
  0
SOLID
  5
1744
330
1589
100
AcDbEntity
  8
标注
100
AcDbTrace
 10
480.1210792203196
 20
197.1157486276693
 30
0.0
 11
480.1210792203196
 21
196.8990819610026
 31
0.0
 12
479.4710792203196
 22
197.007415294336
 32
0.0
 13
479.4710792203196
 23
197.007415294336
 33
0.0
  0
SOLID
  5
1745
330
1589
100
AcDbEntity
  8
标注
100
AcDbTrace
 10
508.074957728192
 20
197.1157486276693
 30
0.0
 11
508.074957728192
 21
196.8990819610026
 31
0.0
 12
508.7249577281919
 22
197.007415294336
 32
0.0
 13
508.7249577281919
 23
197.007415294336
 33
0.0
  0
MTEXT
  5
1746
330
1589
100
AcDbEntity
  8
标注
100
AcDbMText
 10
494.0980184742559
 20
197.007415294336
 30
0.0
 40
0.65
 41
0.0
 71
     5
 72
     1
  1
\A1;29 1/4"
 73
     1
 44
1.0
  0
POINT
  5
1747
330
1589
100
AcDbEntity
  8
Defpoints
 62
     0
100
AcDbPoint
 10
479.4710792203196
 20
203.7650570645581
 30
0.0
  0
POINT
  5
1748
330
1589
100
AcDbEntity
  8
Defpoints
 62
     0
100
AcDbPoint
 10
508.7249577281919
 20
203.7650570645581
 30
0.0
  0
POINT
  5
1749
330
1589
100
AcDbEntity
  8
Defpoints
 62
     0
100
AcDbPoint
 10
508.7249577281919
 20
197.007415294336
 30
0.0
  0
ENDBLK
  5
1595
330
1589
100
AcDbEntity
  8
0
100
AcDbBlockEnd
  0
BLOCK
  5
159C
330
1596
100
AcDbEntity
  8
0
100
AcDbBlockBegin
  2
*D135
 70
     1
 10
0.0
 20
0.0
 30
0.0
  3
*D135
  1

  0
LINE
  5
1645
330
1596
100
AcDbEntity
  8
标注
370
    -2
100
AcDbLine
 10
584.1887236784661
 20
205.9015224853744
 30
0.0
 11
540.5909992485182
 21
235.1652114868748
 31
0.0
  0
MTEXT
  5
1646
330
1596
100
AcDbEntity
  8
标注
100
AcDbMText
 10
586.0638202219529
 20
204.64291913362
 30
0.0
 40
0.65
 41
0.0
 71
     5
 72
     1
  1
\A1;R7 7/8"
 11
0.8303010524666021
 21
-0.5573151373081955
 31
0.0
 73
     1
 44
1.0
  0
SOLID
  5
1647
330
1596
100
AcDbEntity
  8
标注
100
AcDbTrace
 10
540.6513750550599
 20
235.2551607675587
 30
0.0
 11
540.5306234419764
 21
235.0752622061909
 31
0.0
 12
540.0513035644149
 22
235.5274663261252
 32
0.0
 13
540.0513035644149
 23
235.5274663261252
 33
0.0
  0
POINT
  5
1648
330
1596
100
AcDbEntity
  8
Defpoints
 62
     0
100
AcDbPoint
 10
540.0513035644149
 20
235.5274663261252
 30
0.0
  0
POINT
  5
1649
330
1596
100
AcDbEntity
  8
Defpoints
 62
     0
100
AcDbPoint
 10
546.5890940515422
 20
231.1391669349567
 30
0.0
  0
ENDBLK
  5
159D
330
1596
100
AcDbEntity
  8
0
100
AcDbBlockEnd
  0
BLOCK
  5
15A4
330
159E
100
AcDbEntity
  8
0
100
AcDbBlockBegin
  2
*D136
 70
     1
 10
0.0
 20
0.0
 30
0.0
  3
*D136
  1

  0
LINE
  5
169C
330
159E
100
AcDbEntity
  8
标注
370
    -2
100
AcDbLine
 10
549.568912240923
 20
180.3920239312507
 30
0.0
 11
546.4971762513272
 21
238.0352374347498
 31
0.0
  0
MTEXT
  5
169D
330
159E
100
AcDbEntity
  8
标注
100
AcDbMText
 10
549.7063798541431
 20
177.8123507414014
 30
0.0
 40
0.65
 41
0.0
 71
     5
 72
     1
  1
\A1;R39 3/8"
 11
0.0532132696335355
 21
-0.9985831702642041
 31
0.0
 73
     1
 44
1.0
  0
SOLID
  5
169E
330
159E
100
AcDbEntity
  8
标注
100
AcDbTrace
 10
546.6053560947726
 20
238.0410022056267
 30
0.0
 11
546.388996407882
 21
238.0294726638728
 31
0.0
 12
546.4625876260655
 22
238.6843164954215
 32
0.0
 13
546.4625876260655
 23
238.6843164954215
 33
0.0
  0
POINT
  5
169F
330
159E
100
AcDbEntity
  8
Defpoints
 62
     0
100
AcDbPoint
 10
546.4625876260655
 20
238.6843164954215
 30
0.0
  0
POINT
  5
16A0
330
159E
100
AcDbEntity
  8
Defpoints
 62
     0
100
AcDbPoint
 10
548.5575940515373
 20
199.3700970821253
 30
0.0
  0
ENDBLK
  5
15A5
330
159E
100
AcDbEntity
  8
0
100
AcDbBlockEnd
  0
BLOCK
  5
15AF
330
15A6
100
AcDbEntity
  8
0
100
AcDbBlockBegin
  2
*D137
 70
     1
 10
0.0
 20
0.0
 30
0.0
  3
*D137
  1

  0
LINE
  5
168A
330
15A6
100
AcDbEntity
  8
标注
370
    -2
100
AcDbLine
 10
546.2513432694654
 20
230.2938999584863
 30
0.0
 11
546.7935273301168
 21
230.6524197548375
 31
0.0
  0
LINE
  5
168B
330
15A6
100
AcDbEntity
  8
标注
370
    -2
100
AcDbLine
 10
550.8334717965912
 20
233.3238374015517
 30
0.0
 11
551.3756558572422
 21
233.6823571979029
 31
0.0
  0
MTEXT
  5
168C
330
15A6
100
AcDbEntity
  8
标注
100
AcDbMText
 10
544.4579652226962
 20
229.1080267859397
 30
0.0
 40
0.65
 41
0.0
 71
     5
 72
     1
  1
\A1;\U+22053 1/2"
 11
0.8341293240787958
 21
0.5515689174634949
 31
0.0
 73
     1
 44
1.0
  0
LINE
  5
168D
330
15A6
100
AcDbEntity
  8
标注
370
    -2
100
AcDbLine
 10
550.2912877359398
 20
232.9653176052004
 30
0.0
 11
547.3357113907679
 21
231.0109395511888
 31
0.0
  0
SOLID
  5
168E
330
15A6
100
AcDbEntity
  8
标注
100
AcDbTrace
 10
550.7737184971992
 20
233.4142014116602
 30
0.0
 11
550.8932250959831
 21
233.2334733914432
 31
0.0
 12
550.2912877359398
 22
232.9653176052004
 32
0.0
 13
550.2912877359398
 23
232.9653176052004
 33
0.0
  0
SOLID
  5
168F
330
15A6
100
AcDbEntity
  8
标注
100
AcDbTrace
 10
546.733774030725
 20
230.7427837649461
 30
0.0
 11
546.8532806295086
 21
230.562055744729
 31
0.0
 12
547.3357113907679
 22
231.0109395511888
 32
0.0
 13
547.3357113907679
 23
231.0109395511888
 33
0.0
  0
POINT
  5
1690
330
15A6
100
AcDbEntity
  8
Defpoints
 62
     0
100
AcDbPoint
 10
547.3357113907679
 20
231.0109395511888
 30
0.0
  0
POINT
  5
1691
330
15A6
100
AcDbEntity
  8
Defpoints
 62
     0
100
AcDbPoint
 10
550.2912877359398
 20
232.9653176052004
 30
0.0
  0
ENDBLK
  5
15B0
330
15A6
100
AcDbEntity
  8
0
100
AcDbBlockEnd
  0
BLOCK
  5
15BA
330
15B1
100
AcDbEntity
  8
0
100
AcDbBlockBegin
  2
*D138
 70
     1
 10
0.0
 20
0.0
 30
0.0
  3
*D138
  1

  0
LINE
  5
1682
330
15B1
100
AcDbEntity
  8
标注
370
    -2
100
AcDbLine
 10
547.1970102280656
 20
228.7899759033874
 30
0.0
 11
547.4902231364982
 21
229.3700846779536
 31
0.0
  0
LINE
  5
1683
330
15B1
100
AcDbEntity
  8
标注
370
    -2
100
AcDbLine
 10
550.1367759901979
 20
234.606172478427
 30
0.0
 11
550.4299888986305
 21
235.1862812529931
 31
0.0
  0
MTEXT
  5
1684
330
15B1
100
AcDbEntity
  8
标注
100
AcDbMText
 10
546.1782833282557
 20
226.7744697763694
 30
0.0
 40
0.65
 41
0.0
 71
     5
 72
     1
  1
\A1;\U+22054 5/8"
 11
0.4510967822037139
 21
0.8924750377940299
 31
0.0
 73
     1
 44
1.0
  0
LINE
  5
1685
330
15B1
100
AcDbEntity
  8
标注
370
    -2
100
AcDbLine
 10
549.8435630817656
 20
234.0260637038609
 30
0.0
 11
547.7834360449306
 21
229.9501934525197
 31
0.0
  0
SOLID
  5
1686
330
15B1
100
AcDbEntity
  8
标注
100
AcDbTrace
 10
550.040091194437
 20
234.6550412964991
 30
0.0
 11
550.2334607859591
 21
234.5573036603549
 31
0.0
 12
549.8435630817656
 22
234.0260637038609
 32
0.0
 13
549.8435630817656
 23
234.0260637038609
 33
0.0
  0
SOLID
  5
1687
330
15B1
100
AcDbEntity
  8
标注
100
AcDbTrace
 10
547.3935383407371
 20
229.4189534960257
 30
0.0
 11
547.5869079322592
 21
229.3212158598815
 31
0.0
 12
547.7834360449306
 22
229.9501934525197
 32
0.0
 13
547.7834360449306
 23
229.9501934525197
 33
0.0
  0
POINT
  5
1688
330
15B1
100
AcDbEntity
  8
Defpoints
 62
     0
100
AcDbPoint
 10
547.7834360449306
 20
229.9501934525197
 30
0.0
  0
POINT
  5
1689
330
15B1
100
AcDbEntity
  8
Defpoints
 62
     0
100
AcDbPoint
 10
549.8435630817656
 20
234.0260637038609
 30
0.0
  0
ENDBLK
  5
15BB
330
15B1
100
AcDbEntity
  8
0
100
AcDbBlockEnd
  0
BLOCK
  5
15D3
330
15C7
100
AcDbEntity
  8
0
100
AcDbBlockBegin
  2
*D139
 70
     1
 10
0.0
 20
0.0
 30
0.0
  3
*D139
  1

  0
LINE
  5
16F8
330
15C7
100
AcDbEntity
  8
标注
370
    -2
100
AcDbLine
 10
506.0616577281945
 20
215.9697570645602
 30
0.0
 11
511.919348551231
 21
215.9697570645602
 31
0.0
  0
LINE
  5
16F9
330
15C7
100
AcDbEntity
  8
标注
370
    -2
100
AcDbLine
 10
506.0616577281945
 20
217.0918043086511
 30
0.0
 11
511.919348551231
 21
217.0918043086511
 31
0.0
  0
LINE
  5
16FA
330
15C7
100
AcDbEntity
  8
标注
370
    -2
100
AcDbLine
 10
511.5993485512309
 20
215.3197570645602
 30
0.0
 11
511.5993485512309
 21
214.6697570645602
 31
0.0
  0
LINE
  5
16FB
330
15C7
100
AcDbEntity
  8
标注
370
    -2
100
AcDbLine
 10
511.5993485512309
 20
217.7418043086511
 30
0.0
 11
511.5993485512309
 21
218.3918043086511
 31
0.0
  0
LINE
  5
16FC
330
15C7
100
AcDbEntity
  8
标注
370
    -2
100
AcDbLine
 10
511.5993485512309
 20
215.9697570645602
 30
0.0
 11
511.5993485512309
 21
217.0918043086511
 31
0.0
  0
SOLID
  5
16FD
330
15C7
100
AcDbEntity
  8
标注
100
AcDbTrace
 10
511.4910152178977
 20
215.3197570645602
 30
0.0
 11
511.7076818845643
 21
215.3197570645602
 31
0.0
 12
511.5993485512309
 22
215.9697570645602
 32
0.0
 13
511.5993485512309
 23
215.9697570645602
 33
0.0
  0
SOLID
  5
16FE
330
15C7
100
AcDbEntity
  8
标注
100
AcDbTrace
 10
511.4910152178977
 20
217.7418043086511
 30
0.0
 11
511.7076818845643
 21
217.7418043086511
 31
0.0
 12
511.5993485512309
 22
217.0918043086511
 32
0.0
 13
511.5993485512309
 23
217.0918043086511
 33
0.0
  0
MTEXT
  5
16FF
330
15C7
100
AcDbEntity
  8
标注
100
AcDbMText
 10
511.5993485512308
 20
220.1084709753179
 30
0.0
 40
0.65
 41
0.0
 71
     5
 72
     1
  1
\A1;1 1/8"
 11
0.0000000000000001
 21
1.0
 31
0.0
 73
     1
 44
1.0
  0
POINT
  5
1700
330
15C7
100
AcDbEntity
  8
Defpoints
 62
     0
100
AcDbPoint
 10
505.1816577281945
 20
215.9697570645602
 30
0.0
  0
POINT
  5
1701
330
15C7
100
AcDbEntity
  8
Defpoints
 62
     0
100
AcDbPoint
 10
505.1816577281945
 20
217.0918043086511
 30
0.0
  0
POINT
  5
1702
330
15C7
100
AcDbEntity
  8
Defpoints
 62
     0
100
AcDbPoint
 10
511.5993485512309
 20
217.0918043086511
 30
0.0
  0
ENDBLK
  5
15D4
330
15C7
100
AcDbEntity
  8
0
100
AcDbBlockEnd
  0
BLOCK
  5
15EB
330
15E0
100
AcDbEntity
  8
0
100
AcDbBlockBegin
  2
*D140
 70
     1
 10
0.0
 20
0.0
 30
0.0
  3
*D140
  1

  0
LINE
  5
1692
330
15E0
100
AcDbEntity
  8
标注
370
    -2
100
AcDbLine
 10
548.8134995633449
 20
227.1312826054127
 30
0.0
 11
548.8134995633449
 21
225.1737621522575
 31
0.0
  0
LINE
  5
1693
330
15E0
100
AcDbEntity
  8
标注
370
    -2
100
AcDbLine
 10
537.5930468074407
 20
226.2149623632649
 30
0.0
 11
537.5930468074407
 21
225.1737621522575
 31
0.0
  0
LINE
  5
1694
330
15E0
100
AcDbEntity
  8
标注
370
    -2
100
AcDbLine
 10
548.163499563345
 20
225.4937621522576
 30
0.0
 11
545.1366065187261
 21
225.4937621522576
 31
0.0
  0
LINE
  5
1695
330
15E0
100
AcDbEntity
  8
标注
370
    -2
100
AcDbLine
 10
538.2430468074407
 20
225.4937621522576
 30
0.0
 11
541.2699398520596
 21
225.4937621522576
 31
0.0
  0
SOLID
  5
1696
330
15E0
100
AcDbEntity
  8
标注
100
AcDbTrace
 10
548.163499563345
 20
225.6020954855909
 30
0.0
 11
548.163499563345
 21
225.3854288189242
 31
0.0
 12
548.8134995633449
 22
225.4937621522576
 32
0.0
 13
548.8134995633449
 23
225.4937621522576
 33
0.0
  0
SOLID
  5
1697
330
15E0
100
AcDbEntity
  8
标注
100
AcDbTrace
 10
538.2430468074407
 20
225.6020954855909
 30
0.0
 11
538.2430468074407
 21
225.3854288189242
 31
0.0
 12
537.5930468074407
 22
225.4937621522576
 32
0.0
 13
537.5930468074407
 23
225.4937621522576
 33
0.0
  0
MTEXT
  5
1698
330
15E0
100
AcDbEntity
  8
标注
100
AcDbMText
 10
543.2032731853928
 20
225.4937621522576
 30
0.0
 40
0.65
 41
0.0
 71
     5
 72
     1
  1
\A1;11 1/4"
 73
     1
 44
1.0
  0
POINT
  5
1699
330
15E0
100
AcDbEntity
  8
Defpoints
 62
     0
100
AcDbPoint
 10
548.8134995633449
 20
228.0112826054127
 30
0.0
  0
POINT
  5
169A
330
15E0
100
AcDbEntity
  8
Defpoints
 62
     0
100
AcDbPoint
 10
537.5930468074407
 20
227.0949623632649
 30
0.0
  0
POINT
  5
169B
330
15E0
100
AcDbEntity
  8
Defpoints
 62
     0
100
AcDbPoint
 10
537.5930468074407
 20
225.4937621522576
 30
0.0
  0
ENDBLK
  5
15EC
330
15E0
100
AcDbEntity
  8
0
100
AcDbBlockEnd
  0
BLOCK
  5
1602
330
15F7
100
AcDbEntity
  8
0
100
AcDbBlockBegin
  2
*D141
 70
     1
 10
0.0
 20
0.0
 30
0.0
  3
*D141
  1

  0
LINE
  5
15F8
330
15F7
100
AcDbEntity
  8
标注
370
    -2
100
AcDbLine
 10
547.6775940515341
 20
239.8621443262263
 30
0.0
 11
544.9955033441219
 21
239.8621443262263
 31
0.0
  0
LINE
  5
15F9
330
15F7
100
AcDbEntity
  8
标注
370
    -2
100
AcDbLine
 10
545.4434130953153
 20
231.9881285781911
 30
0.0
 11
545.6355033441221
 21
231.9881285781911
 31
0.0
  0
LINE
  5
15FA
330
15F7
100
AcDbEntity
  8
标注
370
    -2
100
AcDbLine
 10
545.3155033441221
 20
239.2121443262262
 30
0.0
 11
545.3155033441221
 21
237.858469785542
 31
0.0
  0
LINE
  5
15FB
330
15F7
100
AcDbEntity
  8
标注
370
    -2
100
AcDbLine
 10
545.3155033441221
 20
232.6381285781911
 30
0.0
 11
545.3155033441221
 21
233.9918031188753
 31
0.0
  0
SOLID
  5
15FC
330
15F7
100
AcDbEntity
  8
标注
100
AcDbTrace
 10
545.2071700107888
 20
239.2121443262262
 30
0.0
 11
545.4238366774553
 21
239.2121443262262
 31
0.0
 12
545.3155033441221
 22
239.8621443262263
 32
0.0
 13
545.3155033441221
 23
239.8621443262263
 33
0.0
  0
SOLID
  5
15FD
330
15F7
100
AcDbEntity
  8
标注
100
AcDbTrace
 10
545.2071700107888
 20
232.6381285781911
 30
0.0
 11
545.4238366774553
 21
232.6381285781911
 31
0.0
 12
545.3155033441221
 22
231.9881285781911
 32
0.0
 13
545.3155033441221
 23
231.9881285781911
 33
0.0
  0
MTEXT
  5
15FE
330
15F7
100
AcDbEntity
  8
标注
100
AcDbMText
 10
545.3155033441221
 20
235.9251364522088
 30
0.0
 40
0.65
 41
0.0
 71
     5
 72
     1
  1
\A1;7 7/8"
 11
0.0000000000000001
 21
1.0
 31
0.0
 73
     1
 44
1.0
  0
POINT
  5
15FF
330
15F7
100
AcDbEntity
  8
Defpoints
 62
     0
100
AcDbPoint
 10
548.5575940515341
 20
239.8621443262263
 30
0.0
  0
POINT
  5
1600
330
15F7
100
AcDbEntity
  8
Defpoints
 62
     0
100
AcDbPoint
 10
544.5634130953153
 20
231.9881285781911
 30
0.0
  0
POINT
  5
1601
330
15F7
100
AcDbEntity
  8
Defpoints
 62
     0
100
AcDbPoint
 10
545.3155033441221
 20
231.9881285781911
 30
0.0
  0
ENDBLK
  5
1603
330
15F7
100
AcDbEntity
  8
0
100
AcDbBlockEnd
  0
BLOCK
  5
160F
330
1609
100
AcDbEntity
  8
0
100
AcDbBlockBegin
  2
*D142
 70
     1
 10
0.0
 20
0.0
 30
0.0
  3
*D142
  1

  0
LINE
  5
16A1
330
1609
100
AcDbEntity
  8
标注
370
    -2
100
AcDbLine
 10
573.3430774950496
 20
273.8655887526921
 30
0.0
 11
540.0319644189159
 21
246.582080637469
 31
0.0
  0
MTEXT
  5
16A2
330
1609
100
AcDbEntity
  8
标注
100
AcDbMText
 10
574.0844705671912
 20
274.4728276598434
 30
0.0
 40
0.65
 41
0.0
 71
     5
 72
     1
  1
\A1;R2"
 11
0.773627553539015
 21
0.6336405987665553
 31
0.0
 73
     1
 44
1.0
  0
SOLID
  5
16A3
330
1609
100
AcDbEntity
  8
标注
100
AcDbTrace
 10
539.963320020716
 20
246.6658902891024
 30
0.0
 11
540.1006088171156
 21
246.4982709858357
 31
0.0
 12
539.5291065091155
 22
246.1702142482709
 32
0.0
 13
539.5291065091155
 23
246.1702142482709
 33
0.0
  0
POINT
  5
16A4
330
1609
100
AcDbEntity
  8
Defpoints
 62
     0
100
AcDbPoint
 10
539.5291065091155
 20
246.1702142482709
 30
0.0
  0
POINT
  5
16A5
330
1609
100
AcDbEntity
  8
Defpoints
 62
     0
100
AcDbPoint
 10
541.0519953940243
 20
247.4175382615821
 30
0.0
  0
ENDBLK
  5
1610
330
1609
100
AcDbEntity
  8
0
100
AcDbBlockEnd
  0
BLOCK
  5
1626
330
161B
100
AcDbEntity
  8
0
100
AcDbBlockBegin
  2
*D143
 70
     1
 10
0.0
 20
0.0
 30
0.0
  3
*D143
  1

  0
LINE
  5
1736
330
161B
100
AcDbEntity
  8
标注
370
    -2
100
AcDbLine
 10
506.0616577281945
 20
215.9697570645602
 30
0.0
 11
511.919348551231
 21
215.9697570645602
 31
0.0
  0
LINE
  5
1737
330
161B
100
AcDbEntity
  8
标注
370
    -2
100
AcDbLine
 10
506.0616577281945
 20
200.2217570645679
 30
0.0
 11
511.919348551231
 21
200.2217570645679
 31
0.0
  0
LINE
  5
1738
330
161B
100
AcDbEntity
  8
标注
370
    -2
100
AcDbLine
 10
511.5993485512309
 20
215.3197570645602
 30
0.0
 11
511.5993485512309
 21
210.245757064564
 31
0.0
  0
LINE
  5
1739
330
161B
100
AcDbEntity
  8
标注
370
    -2
100
AcDbLine
 10
511.5993485512309
 20
200.8717570645679
 30
0.0
 11
511.5993485512309
 21
205.945757064564
 31
0.0
  0
SOLID
  5
173A
330
161B
100
AcDbEntity
  8
标注
100
AcDbTrace
 10
511.4910152178977
 20
215.3197570645602
 30
0.0
 11
511.7076818845643
 21
215.3197570645602
 31
0.0
 12
511.5993485512309
 22
215.9697570645602
 32
0.0
 13
511.5993485512309
 23
215.9697570645602
 33
0.0
  0
SOLID
  5
173B
330
161B
100
AcDbEntity
  8
标注
100
AcDbTrace
 10
511.4910152178977
 20
200.8717570645679
 30
0.0
 11
511.7076818845643
 21
200.8717570645679
 31
0.0
 12
511.5993485512309
 22
200.2217570645679
 32
0.0
 13
511.5993485512309
 23
200.2217570645679
 33
0.0
  0
MTEXT
  5
173C
330
161B
100
AcDbEntity
  8
标注
100
AcDbMText
 10
511.5993485512308
 20
208.0957570645641
 30
0.0
 40
0.65
 41
0.0
 71
     5
 72
     1
  1
\A1;15 3/4"
 11
0.0000000000000001
 21
1.0
 31
0.0
 73
     1
 44
1.0
  0
POINT
  5
173D
330
161B
100
AcDbEntity
  8
Defpoints
 62
     0
100
AcDbPoint
 10
505.1816577281945
 20
215.9697570645602
 30
0.0
  0
POINT
  5
173E
330
161B
100
AcDbEntity
  8
Defpoints
 62
     0
100
AcDbPoint
 10
505.1816577281945
 20
200.2217570645679
 30
0.0
  0
POINT
  5
173F
330
161B
100
AcDbEntity
  8
Defpoints
 62
     0
100
AcDbPoint
 10
511.5993485512309
 20
200.2217570645679
 30
0.0
  0
ENDBLK
  5
1627
330
161B
100
AcDbEntity
  8
0
100
AcDbBlockEnd
  0
BLOCK
  5
1633
330
1628
100
AcDbEntity
  8
0
100
AcDbBlockBegin
  2
*D144
 70
     1
 10
0.0
 20
0.0
 30
0.0
  3
*D144
  1

  0
LINE
  5
172C
330
1628
100
AcDbEntity
  8
标注
370
    -2
100
AcDbLine
 10
488.4335792203223
 20
219.1197506858143
 30
0.0
 11
476.2709248401377
 21
219.1197506858143
 31
0.0
  0
LINE
  5
172D
330
1628
100
AcDbEntity
  8
标注
370
    -2
100
AcDbLine
 10
482.1343792203244
 20
200.221757064558
 30
0.0
 11
476.2709248401377
 21
200.221757064558
 31
0.0
  0
LINE
  5
172E
330
1628
100
AcDbEntity
  8
标注
370
    -2
100
AcDbLine
 10
476.5909248401378
 20
218.4697506858143
 30
0.0
 11
476.5909248401378
 21
211.8207538751861
 31
0.0
  0
LINE
  5
172F
330
1628
100
AcDbEntity
  8
标注
370
    -2
100
AcDbLine
 10
476.5909248401378
 20
200.871757064558
 30
0.0
 11
476.5909248401378
 21
207.5207538751861
 31
0.0
  0
SOLID
  5
1730
330
1628
100
AcDbEntity
  8
标注
100
AcDbTrace
 10
476.4825915068045
 20
218.4697506858143
 30
0.0
 11
476.6992581734712
 21
218.4697506858143
 31
0.0
 12
476.5909248401378
 22
219.1197506858143
 32
0.0
 13
476.5909248401378
 23
219.1197506858143
 33
0.0
  0
SOLID
  5
1731
330
1628
100
AcDbEntity
  8
标注
100
AcDbTrace
 10
476.4825915068045
 20
200.871757064558
 30
0.0
 11
476.6992581734712
 21
200.871757064558
 31
0.0
 12
476.5909248401378
 22
200.221757064558
 32
0.0
 13
476.5909248401378
 23
200.221757064558
 33
0.0
  0
MTEXT
  5
1732
330
1628
100
AcDbEntity
  8
标注
100
AcDbMText
 10
476.5909248401378
 20
209.6707538751862
 30
0.0
 40
0.65
 41
0.0
 71
     5
 72
     1
  1
\A1;18 7/8"
 11
0.0000000000000001
 21
1.0
 31
0.0
 73
     1
 44
1.0
  0
POINT
  5
1733
330
1628
100
AcDbEntity
  8
Defpoints
 62
     0
100
AcDbPoint
 10
489.3135792203223
 20
219.1197506858143
 30
0.0
  0
POINT
  5
1734
330
1628
100
AcDbEntity
  8
Defpoints
 62
     0
100
AcDbPoint
 10
483.0143792203244
 20
200.221757064558
 30
0.0
  0
POINT
  5
1735
330
1628
100
AcDbEntity
  8
Defpoints
 62
     0
100
AcDbPoint
 10
476.5909248401378
 20
200.221757064558
 30
0.0
  0
ENDBLK
  5
1634
330
1628
100
AcDbEntity
  8
0
100
AcDbBlockEnd
  0
BLOCK
  5
163B
330
1635
100
AcDbEntity
  8
0
100
AcDbBlockBegin
  2
*D145
 70
     1
 10
0.0
 20
0.0
 30
0.0
  3
*D145
  1

  0
LINE
  5
16B5
330
1635
100
AcDbEntity
  8
标注
370
    -2
100
AcDbLine
 10
526.0909574402997
 20
254.9224059511406
 30
0.0
 11
566.6600351052453
 21
221.5472497938018
 31
0.0
  0
MTEXT
  5
16B6
330
1635
100
AcDbEntity
  8
标注
100
AcDbMText
 10
524.4306113049004
 20
256.2883308065647
 30
0.0
 40
0.65
 41
0.0
 71
     5
 72
     1
  1
\A1;R3 1/2"
 11
0.7722540164646982
 21
-0.6353138862437541
 31
0.0
 73
     1
 44
1.0
  0
SOLID
  5
16B7
330
1635
100
AcDbEntity
  8
标注
100
AcDbTrace
 10
566.7288607762552
 20
221.6309106455855
 30
0.0
 11
566.5912094342355
 21
221.4635889420181
 31
0.0
 12
567.1620002159475
 22
221.1342957677433
 32
0.0
 13
567.1620002159475
 23
221.1342957677433
 33
0.0
  0
POINT
  5
16B8
330
1635
100
AcDbEntity
  8
Defpoints
 62
     0
100
AcDbPoint
 10
567.1620002159475
 20
221.1342957677433
 30
0.0
  0
POINT
  5
16B9
330
1635
100
AcDbEntity
  8
Defpoints
 62
     0
100
AcDbPoint
 10
564.4256725594098
 20
223.3854034608692
 30
0.0
  0
ENDBLK
  5
163C
330
1635
100
AcDbEntity
  8
0
100
AcDbBlockEnd
  0
BLOCK
  5
1643
330
163D
100
AcDbEntity
  8
0
100
AcDbBlockBegin
  2
*D146
 70
     1
 10
0.0
 20
0.0
 30
0.0
  3
*D146
  1

  0
LINE
  5
16BA
330
163D
100
AcDbEntity
  8
标注
370
    -2
100
AcDbLine
 10
532.5595758402994
 20
193.9852114129126
 30
0.0
 11
566.2830076868413
 21
234.2652468598105
 31
0.0
  0
MTEXT
  5
16BB
330
163D
100
AcDbEntity
  8
标注
100
AcDbMText
 10
531.1793973161232
 20
192.3366947337728
 30
0.0
 40
0.65
 41
0.0
 71
     5
 72
     1
  1
\A1;R3 1/2"
 11
0.6419434996168456
 21
0.7667519437860442
 31
0.0
 73
     1
 44
1.0
  0
SOLID
  5
16BC
330
163D
100
AcDbEntity
  8
标注
100
AcDbTrace
 10
566.1999428929309
 20
234.3347907389357
 30
0.0
 11
566.3660724807512
 21
234.1957029806853
 31
0.0
 12
566.700270961592
 22
234.7636356232714
 32
0.0
 13
566.700270961592
 23
234.7636356232714
 33
0.0
  0
POINT
  5
16BD
330
163D
100
AcDbEntity
  8
Defpoints
 62
     0
100
AcDbPoint
 10
566.700270961592
 20
234.7636356232714
 30
0.0
  0
POINT
  5
16BE
330
163D
100
AcDbEntity
  8
Defpoints
 62
     0
100
AcDbPoint
 10
564.4256725594098
 20
232.0468034608666
 30
0.0
  0
ENDBLK
  5
1644
330
163D
100
AcDbEntity
  8
0
100
AcDbBlockEnd
  0
BLOCK
  5
1650
330
164A
100
AcDbEntity
  8
0
100
AcDbBlockBegin
  2
*D147
 70
     1
 10
0.0
 20
0.0
 30
0.0
  3
*D147
  1

  0
LINE
  5
16B0
330
164A
100
AcDbEntity
  8
标注
370
    -2
100
AcDbLine
 10
573.4461496125799
 20
262.0047873555007
 30
0.0
 11
540.4405964574393
 21
221.1344488196555
 31
0.0
  0
MTEXT
  5
16B1
330
164A
100
AcDbEntity
  8
标注
100
AcDbMText
 10
574.7969479491957
 20
263.6774630125832
 30
0.0
 40
0.65
 41
0.0
 71
     5
 72
     1
  1
\A1;R3 1/2"
 11
0.6282782961003575
 21
0.7779886777127489
 31
0.0
 73
     1
 44
1.0
  0
SOLID
  5
16B2
330
164A
100
AcDbEntity
  8
标注
100
AcDbTrace
 10
540.356314350687
 20
221.202512301733
 30
0.0
 11
540.5248785641917
 21
221.066385337578
 31
0.0
 12
540.0322155649742
 22
220.6287561791422
 32
0.0
 13
540.0322155649742
 23
220.6287561791422
 33
0.0
  0
POINT
  5
16B3
330
164A
100
AcDbEntity
  8
Defpoints
 62
     0
100
AcDbPoint
 10
540.0322155649742
 20
220.6287561791422
 30
0.0
  0
POINT
  5
16B4
330
164A
100
AcDbEntity
  8
Defpoints
 62
     0
100
AcDbPoint
 10
542.2583940515363
 20
223.3854034608693
 30
0.0
  0
ENDBLK
  5
1651
330
164A
100
AcDbEntity
  8
0
100
AcDbBlockEnd
  0
BLOCK
  5
1659
330
1652
100
AcDbEntity
  8
0
100
AcDbBlockBegin
  2
*D148
 70
     1
 10
0.0
 20
0.0
 30
0.0
  3
*D148
  1

  0
LINE
  5
16BF
330
1652
100
AcDbEntity
  8
标注
370
    -2
100
AcDbLine
 10
556.3229200966368
 20
234.5876693442308
 30
0.0
 11
556.5938948241941
 21
235.1784930886971
 31
0.0
  0
MTEXT
  5
16C0
330
1652
100
AcDbEntity
  8
标注
100
AcDbMText
 10
555.923406075238
 20
233.7165830543125
 30
0.0
 40
0.65
 41
0.0
 71
     5
 72
     1
  1
\A1;R2"
 11
0.416884196242224
 21
0.9089596068712157
 31
0.0
 73
     1
 44
1.0
  0
LINE
  5
16C1
330
1652
100
AcDbEntity
  8
标注
370
    -2
100
AcDbLine
 10
557.6855077333354
 20
237.5586073978801
 30
0.0
 11
556.8648695517516
 21
235.7693168331634
 31
0.0
  0
SOLID
  5
16C2
330
1652
100
AcDbEntity
  8
标注
100
AcDbTrace
 10
556.4954242001165
 20
235.22365554329
 30
0.0
 11
556.6923654482719
 21
235.1333306341042
 31
0.0
 12
556.8648695517516
 22
235.7693168331634
 32
0.0
 13
556.8648695517516
 23
235.7693168331634
 33
0.0
  0
POINT
  5
16C3
330
1652
100
AcDbEntity
  8
Defpoints
 62
     0
100
AcDbPoint
 10
556.8648695517516
 20
235.7693168331634
 30
0.0
  0
POINT
  5
16C4
330
1652
100
AcDbEntity
  8
Defpoints
 62
     0
100
AcDbPoint
 10
557.6855077333354
 20
237.5586073978801
 30
0.0
  0
ENDBLK
  5
165A
330
1652
100
AcDbEntity
  8
0
100
AcDbBlockEnd
  0
BLOCK
  5
1666
330
165B
100
AcDbEntity
  8
0
100
AcDbBlockBegin
  2
*D149
 70
     1
 10
0.0
 20
0.0
 30
0.0
  3
*D149
  1

  0
LINE
  5
1722
330
165B
100
AcDbEntity
  8
标注
370
    -2
100
AcDbLine
 10
506.0616577281945
 20
217.0918043086498
 30
0.0
 11
513.6020453969555
 21
217.0918043086498
 31
0.0
  0
LINE
  5
1723
330
165B
100
AcDbEntity
  8
标注
370
    -2
100
AcDbLine
 10
506.0616577281945
 20
199.099709820461
 30
0.0
 11
513.6020453969555
 21
199.099709820461
 31
0.0
  0
LINE
  5
1724
330
165B
100
AcDbEntity
  8
标注
370
    -2
100
AcDbLine
 10
513.2820453969554
 20
216.4418043086498
 30
0.0
 11
513.2820453969554
 21
208.9457570645555
 31
0.0
  0
LINE
  5
1725
330
165B
100
AcDbEntity
  8
标注
370
    -2
100
AcDbLine
 10
513.2820453969554
 20
199.749709820461
 30
0.0
 11
513.2820453969554
 21
207.2457570645555
 31
0.0
  0
SOLID
  5
1726
330
165B
100
AcDbEntity
  8
标注
100
AcDbTrace
 10
513.1737120636221
 20
216.4418043086498
 30
0.0
 11
513.3903787302888
 21
216.4418043086498
 31
0.0
 12
513.2820453969554
 22
217.0918043086498
 32
0.0
 13
513.2820453969554
 23
217.0918043086498
 33
0.0
  0
SOLID
  5
1727
330
165B
100
AcDbEntity
  8
标注
100
AcDbTrace
 10
513.1737120636221
 20
199.749709820461
 30
0.0
 11
513.3903787302888
 21
199.749709820461
 31
0.0
 12
513.2820453969554
 22
199.099709820461
 32
0.0
 13
513.2820453969554
 23
199.099709820461
 33
0.0
  0
MTEXT
  5
1728
330
165B
100
AcDbEntity
  8
标注
100
AcDbMText
 10
513.2820453969554
 20
208.0957570645555
 30
0.0
 40
0.65
 41
0.0
 71
     5
 72
     1
  1
\A1;18"
 11
0.0000000000000001
 21
1.0
 31
0.0
 73
     1
 44
1.0
  0
POINT
  5
1729
330
165B
100
AcDbEntity
  8
Defpoints
 62
     0
100
AcDbPoint
 10
505.1816577281945
 20
217.0918043086498
 30
0.0
  0
POINT
  5
172A
330
165B
100
AcDbEntity
  8
Defpoints
 62
     0
100
AcDbPoint
 10
505.1816577281945
 20
199.099709820461
 30
0.0
  0
POINT
  5
172B
330
165B
100
AcDbEntity
  8
Defpoints
 62
     0
100
AcDbPoint
 10
513.2820453969554
 20
199.099709820461
 30
0.0
  0
ENDBLK
  5
1667
330
165B
100
AcDbEntity
  8
0
100
AcDbBlockEnd
  0
BLOCK
  5
1673
330
1668
100
AcDbEntity
  8
0
100
AcDbBlockBegin
  2
*D150
 70
     1
 10
0.0
 20
0.0
 30
0.0
  3
*D150
  1

  0
LINE
  5
1718
330
1668
100
AcDbEntity
  8
标注
370
    -2
100
AcDbLine
 10
478.3490319762263
 20
202.8850570645581
 30
0.0
 11
478.3490319762263
 21
194.7470834261344
 31
0.0
  0
LINE
  5
1719
330
1668
100
AcDbEntity
  8
标注
370
    -2
100
AcDbLine
 10
509.8470049722878
 20
202.8850570645581
 30
0.0
 11
509.8470049722878
 21
194.7470834261344
 31
0.0
  0
LINE
  5
171A
330
1668
100
AcDbEntity
  8
标注
370
    -2
100
AcDbLine
 10
478.9990319762264
 20
195.0670834261344
 30
0.0
 11
492.0563518075905
 21
195.0670834261344
 31
0.0
  0
LINE
  5
171B
330
1668
100
AcDbEntity
  8
标注
370
    -2
100
AcDbLine
 10
509.1970049722879
 20
195.0670834261344
 30
0.0
 11
496.1396851409238
 21
195.0670834261344
 31
0.0
  0
SOLID
  5
171C
330
1668
100
AcDbEntity
  8
标注
100
AcDbTrace
 10
478.9990319762264
 20
195.1754167594677
 30
0.0
 11
478.9990319762264
 21
194.9587500928011
 31
0.0
 12
478.3490319762263
 22
195.0670834261344
 32
0.0
 13
478.3490319762263
 23
195.0670834261344
 33
0.0
  0
SOLID
  5
171D
330
1668
100
AcDbEntity
  8
标注
100
AcDbTrace
 10
509.1970049722879
 20
195.1754167594677
 30
0.0
 11
509.1970049722879
 21
194.9587500928011
 31
0.0
 12
509.8470049722878
 22
195.0670834261344
 32
0.0
 13
509.8470049722878
 23
195.0670834261344
 33
0.0
  0
MTEXT
  5
171E
330
1668
100
AcDbEntity
  8
标注
100
AcDbMText
 10
494.0980184742572
 20
195.0670834261344
 30
0.0
 40
0.65
 41
0.0
 71
     5
 72
     1
  1
\A1;31 1/2"
 73
     1
 44
1.0
  0
POINT
  5
171F
330
1668
100
AcDbEntity
  8
Defpoints
 62
     0
100
AcDbPoint
 10
478.3490319762263
 20
203.7650570645581
 30
0.0
  0
POINT
  5
1720
330
1668
100
AcDbEntity
  8
Defpoints
 62
     0
100
AcDbPoint
 10
509.8470049722878
 20
203.7650570645581
 30
0.0
  0
POINT
  5
1721
330
1668
100
AcDbEntity
  8
Defpoints
 62
     0
100
AcDbPoint
 10
509.8470049722878
 20
195.0670834261344
 30
0.0
  0
ENDBLK
  5
1674
330
1668
100
AcDbEntity
  8
0
100
AcDbBlockEnd
  0
BLOCK
  5
1680
330
1675
100
AcDbEntity
  8
0
100
AcDbBlockBegin
  2
*D151
 70
     1
 10
0.0
 20
0.0
 30
0.0
  3
*D151
  1

  0
LINE
  5
170E
330
1675
100
AcDbEntity
  8
标注
370
    -2
100
AcDbLine
 10
488.4335792203223
 20
220.2417979299089
 30
0.0
 11
474.4196716856213
 21
220.2417979299089
 31
0.0
  0
LINE
  5
170F
330
1675
100
AcDbEntity
  8
标注
370
    -2
100
AcDbLine
 10
482.1343792203244
 20
199.099709820456
 30
0.0
 11
474.4196716856213
 21
199.099709820456
 31
0.0
  0
LINE
  5
1710
330
1675
100
AcDbEntity
  8
标注
370
    -2
100
AcDbLine
 10
474.7396716856211
 20
219.5917979299089
 30
0.0
 11
474.7396716856211
 21
211.7124205418491
 31
0.0
  0
LINE
  5
1711
330
1675
100
AcDbEntity
  8
标注
370
    -2
100
AcDbLine
 10
474.7396716856211
 20
199.749709820456
 30
0.0
 11
474.7396716856211
 21
207.6290872085158
 31
0.0
  0
SOLID
  5
1712
330
1675
100
AcDbEntity
  8
标注
100
AcDbTrace
 10
474.6313383522879
 20
219.5917979299089
 30
0.0
 11
474.8480050189546
 21
219.5917979299089
 31
0.0
 12
474.7396716856211
 22
220.2417979299089
 32
0.0
 13
474.7396716856211
 23
220.2417979299089
 33
0.0
  0
SOLID
  5
1713
330
1675
100
AcDbEntity
  8
标注
100
AcDbTrace
 10
474.6313383522879
 20
199.749709820456
 30
0.0
 11
474.8480050189546
 21
199.749709820456
 31
0.0
 12
474.7396716856211
 22
199.099709820456
 32
0.0
 13
474.7396716856211
 23
199.099709820456
 33
0.0
  0
MTEXT
  5
1714
330
1675
100
AcDbEntity
  8
标注
100
AcDbMText
 10
474.7396716856211
 20
209.6707538751825
 30
0.0
 40
0.65
 41
0.0
 71
     5
 72
     1
  1
\A1;21 1/8"
 11
0.0000000000000001
 21
1.0
 31
0.0
 73
     1
 44
1.0
  0
POINT
  5
1715
330
1675
100
AcDbEntity
  8
Defpoints
 62
     0
100
AcDbPoint
 10
489.3135792203223
 20
220.2417979299089
 30
0.0
  0
POINT
  5
1716
330
1675
100
AcDbEntity
  8
Defpoints
 62
     0
100
AcDbPoint
 10
483.0143792203244
 20
199.099709820456
 30
0.0
  0
POINT
  5
1717
330
1675
100
AcDbEntity
  8
Defpoints
 62
     0
100
AcDbPoint
 10
474.7396716856211
 20
199.099709820456
 30
0.0
  0
ENDBLK
  5
1681
330
1675
100
AcDbEntity
  8
0
100
AcDbBlockEnd
  0
ENDSEC
  0
SECTION
  2
ENTITIES
  0
ARC
  5
108D
330
21
100
AcDbEntity
  8
0
 48
2.0
100
AcDbCircle
 10
389.9708798999975
 20
211.991109694943
 30
0.0
 40
19.68499999999998
100
AcDbArc
 50
339.1243828508851
 51
0.3777770484303673
  0
ARC
  5
108E
330
21
100
AcDbEntity
  8
0
 48
2.0
100
AcDbCircle
 10
400.0436944015721
 20
321.0516260741637
 30
0.0
 40
118.11
100
AcDbArc
 50
270.0
 51
272.7679485588924
  0
ARC
  5
108F
330
21
100
AcDbEntity
  8
0
 48
2.0
100
AcDbCircle
 10
399.1047199267681
 20
211.991109694943
 30
0.0
 40
19.68499999999998
100
AcDbArc
 50
179.6081327397102
 51
200.8777468716655
  0
ARC
  5
1090
330
21
100
AcDbEntity
  8
0
 48
2.0
100
AcDbCircle
 10
394.5318944015719
 20
179.9121447552674
 30
0.0
 40
39.37000000000001
100
AcDbArc
 50
74.01048859968182
 51
90.0
  0
LINE
  5
1091
102
{ACAD_REACTORS
330
1097
102
}
330
21
100
AcDbEntity
  8
0
 48
2.0
100
AcDbLine
 10
400.0436944015721
 20
202.9416260741631
 30
0.0
 11
394.5318944015719
 21
202.9416260741631
 31
0.0
  0
ARC
  5
1092
102
{ACAD_REACTORS
330
1097
102
}
330
21
100
AcDbEntity
  8
0
 48
2.0
100
AcDbCircle
 10
394.5318944015719
 20
179.9121447552674
 30
0.0
 40
39.37000000000001
100
AcDbArc
 50
90.0
 51
105.9684360525223
  0
ARC
  5
1093
330
21
100
AcDbEntity
  8
0
 48
2.0
100
AcDbCircle
 10
389.0200944015717
 20
321.0516260741637
 30
0.0
 40
118.11
100
AcDbArc
 50
267.2380451951387
 51
270.0
  0
LINE
  5
1094
102
{ACAD_REACTORS
330
109A
102
}
330
21
100
AcDbEntity
  8
0
 48
2.0
100
AcDbLine
 10
389.0200944015717
 20
202.9416260741631
 30
0.0
 11
394.5318944015719
 21
202.9416260741631
 31
0.0
  0
DIMENSION
  5
1095
102
{ACAD_XDICTIONARY
360
1096
102
}
102
{ACAD_REACTORS
330
1097
102
}
330
21
100
AcDbEntity
  8
标注
 48
5.0
100
AcDbDimension
  2
*D95
 10
412.6564410356778
 20
202.9416260741677
 30
0.0
 11
412.6564410356778
 21
211.1118854147176
 31
0.0
 70
    32
 71
     5
 42
16.34051868109964
  3
副本Standard
100
AcDbAlignedDimension
 13
394.5318944015719
 23
219.2821447552674
 33
0.0
 14
400.0436944015721
 24
202.9416260741677
 34
0.0
 50
90.0
100
AcDbRotatedDimension
  0
DIMENSION
  5
1098
102
{ACAD_XDICTIONARY
360
1099
102
}
102
{ACAD_REACTORS
330
109A
102
}
330
21
100
AcDbEntity
  8
标注
 48
5.0
100
AcDbDimension
  2
*D96
 10
400.0436944015721
 20
204.4643114758431
 30
0.0
 11
394.5318944015719
 21
204.4643114758431
 31
0.0
 70
    33
 71
     5
 42
11.02360000000044
  3
副本Standard
100
AcDbAlignedDimension
 13
389.0200944015717
 23
202.9416260741631
 33
0.0
 14
400.0436944015721
 24
202.9416260741631
 34
0.0
  0
DIMENSION
  5
109C
330
21
100
AcDbEntity
  8
标注
 48
5.0
100
AcDbDimension
  2
*D88
 10
379.4197199267703
 20
199.7893044824226
 30
0.0
 11
394.5377999133827
 21
199.7893044824226
 31
0.0
 70
    32
 71
     5
 42
30.23615997322486
  3
副本Standard
100
AcDbAlignedDimension
 13
409.6558798999951
 23
211.991109694943
 33
0.0
 14
379.4197199267703
 24
211.991109694943
 34
0.0
100
AcDbRotatedDimension
1001
ACAD
1000
DSTYLE
1002
{
1070
   271
1070
     2
1002
}
  0
ARC
  5
109D
330
21
100
AcDbEntity
  8
0
 48
2.0
100
AcDbCircle
 10
385.3255540183429
 20
212.0853520324084
 30
0.0
 40
5.905511811023621
100
AcDbArc
 50
105.9684360525223
 51
179.6081327397102
  0
ARC
  5
109E
330
21
100
AcDbEntity
  8
0
 48
2.0
100
AcDbCircle
 10
403.7500685678943
 20
212.0819634490248
 30
0.0
 40
5.905511811023621
100
AcDbArc
 50
0.3777770484303673
 51
74.01048859968182
  0
ARC
  5
109F
330
21
100
AcDbEntity
  8
0
 48
2.0
100
AcDbCircle
 10
405.6047559683404
 20
206.0287350407228
 30
0.0
 40
2.95275590551181
100
AcDbArc
 50
272.7679485588924
 51
339.1243828508851
  0
ARC
  5
10A0
330
21
100
AcDbEntity
  8
0
 48
2.0
100
AcDbCircle
 10
383.4710654946296
 20
206.0281539233468
 30
0.0
 40
2.95275590551181
100
AcDbArc
 50
200.8777468716655
 51
267.2380451951387
  0
ARC
  5
10A1
330
21
100
AcDbEntity
  8
0
 48
2.0
100
AcDbCircle
 10
403.7500685678943
 20
212.0819634490248
 30
0.0
 40
7.02755905511811
100
AcDbArc
 50
0.3777770484303673
 51
74.01048859968182
  0
ARC
  5
10A2
330
21
100
AcDbEntity
  8
0
 48
2.0
100
AcDbCircle
 10
394.5318944015719
 20
179.9121447552674
 30
0.0
 40
40.4920472440945
100
AcDbArc
 50
74.01048859968182
 51
90.0
  0
ARC
  5
10A3
102
{ACAD_REACTORS
330
10AF
102
}
330
21
100
AcDbEntity
  8
0
 48
2.0
100
AcDbCircle
 10
394.5318944015719
 20
179.9121447552674
 30
0.0
 40
40.4920472440945
100
AcDbArc
 50
90.0
 51
105.9684360525223
  0
ARC
  5
10A4
330
21
100
AcDbEntity
  8
0
 48
2.0
100
AcDbCircle
 10
385.3255540183429
 20
212.0853520324084
 30
0.0
 40
7.02755905511811
100
AcDbArc
 50
105.9684360525223
 51
179.6081327397102
  0
ARC
  5
10A5
102
{ACAD_REACTORS
330
10B2
102
}
330
21
100
AcDbEntity
  8
0
 48
2.0
100
AcDbCircle
 10
399.1047199267681
 20
211.991109694943
 30
0.0
 40
20.80704724409448
100
AcDbArc
 50
179.6081327397102
 51
200.8777468716655
  0
ARC
  5
10A6
330
21
100
AcDbEntity
  8
0
 48
2.0
100
AcDbCircle
 10
383.4710654946296
 20
206.0281539233468
 30
0.0
 40
4.074803149606299
100
AcDbArc
 50
200.8777468716655
 51
267.2380451951387
  0
ARC
  5
10A7
330
21
100
AcDbEntity
  8
0
 48
2.0
100
AcDbCircle
 10
389.0200944015717
 20
321.0516260741637
 30
0.0
 40
119.2320472440945
100
AcDbArc
 50
267.2380451951387
 51
270.0
  0
LINE
  5
10A8
102
{ACAD_REACTORS
330
109A
102
}
330
21
100
AcDbEntity
  8
0
 48
2.0
100
AcDbLine
 10
389.0200944015717
 20
201.8195788300576
 30
0.0
 11
394.5318944015719
 21
201.8195788300576
 31
0.0
  0
LINE
  5
10A9
102
{ACAD_REACTORS
330
1097
102
}
330
21
100
AcDbEntity
  8
0
 48
2.0
100
AcDbLine
 10
400.0436944015721
 20
201.8195788300576
 30
0.0
 11
394.5318944015719
 21
201.8195788300576
 31
0.0
  0
ARC
  5
10AA
102
{ACAD_REACTORS
330
10AF
102
}
330
21
100
AcDbEntity
  8
0
 48
2.0
100
AcDbCircle
 10
400.0436944015721
 20
321.0516260741637
 30
0.0
 40
119.2320472440945
100
AcDbArc
 50
270.0
 51
272.7679485588924
  0
ARC
  5
10AB
330
21
100
AcDbEntity
  8
0
 48
2.0
100
AcDbCircle
 10
405.6047559683404
 20
206.0287350407228
 30
0.0
 40
4.074803149606299
100
AcDbArc
 50
272.7679485588924
 51
339.1243828508851
  0
ARC
  5
10AC
102
{ACAD_REACTORS
330
10B2
102
}
330
21
100
AcDbEntity
  8
0
 48
2.0
100
AcDbCircle
 10
389.9708798999975
 20
211.991109694943
 30
0.0
 40
20.80704724409448
100
AcDbArc
 50
339.1243828508851
 51
0.3777770484303673
  0
DIMENSION
  5
10AD
102
{ACAD_XDICTIONARY
360
10AE
102
}
102
{ACAD_REACTORS
330
10AF
102
}
330
21
100
AcDbEntity
  8
标注
 48
5.0
100
AcDbDimension
  2
*D97
 10
414.3037292412093
 20
201.8195788300658
 30
0.0
 11
414.3037292412093
 21
211.1118854147139
 31
0.0
 70
    32
 71
     5
 42
18.58461316929606
  3
副本Standard
100
AcDbAlignedDimension
 13
394.5318944015719
 23
220.4041919993619
 33
0.0
 14
400.0436944015721
 24
201.8195788300658
 34
0.0
 50
90.0
100
AcDbRotatedDimension
  0
DIMENSION
  5
10B0
102
{ACAD_XDICTIONARY
360
10B1
102
}
102
{ACAD_REACTORS
330
10B2
102
}
330
21
100
AcDbEntity
  8
标注
 48
5.0
100
AcDbDimension
  2
*D98
 10
378.2976726826707
 20
197.8126704059754
 30
0.0
 11
394.5377999133813
 21
197.8126704059754
 31
0.0
 70
    32
 71
     5
 42
32.48025446142128
  3
副本Standard
100
AcDbAlignedDimension
 13
410.7779271440918
 23
211.991109694943
 33
0.0
 14
378.2976726826707
 24
211.991109694943
 34
0.0
100
AcDbRotatedDimension
  0
DIMENSION
  5
10B3
330
21
100
AcDbEntity
  8
标注
 48
5.0
100
AcDbDimension
  2
*D89
 10
412.6564410356778
 20
220.4041919993682
 30
0.0
 11
412.6564410356778
 21
223.4208586660349
 31
0.0
 70
    32
 71
     5
 42
1.122047244105488
  3
副本Standard
100
AcDbAlignedDimension
 13
394.5318944015719
 23
219.2821447552627
 33
0.0
 14
394.5318944015719
 24
220.4041919993682
 34
0.0
 50
90.0
100
AcDbRotatedDimension
  0
DIMENSION
  5
10B4
330
21
100
AcDbEntity
  8
标注
 48
5.0
100
AcDbDimension
  2
*D90
 10
410.7779271440933
 20
199.7893044824226
 30
0.0
 11
413.79459381076
 21
199.7893044824226
 31
0.0
 70
    32
 71
     5
 42
1.122047244098211
  3
副本Standard
100
AcDbAlignedDimension
 13
409.6558798999951
 23
211.991109694943
 33
0.0
 14
410.7779271440933
 24
211.991109694943
 34
0.0
100
AcDbRotatedDimension
  0
LINE
  5
10B5
330
21
100
AcDbEntity
  8
中心线
 48
0.1
100
AcDbLine
 10
390.2818079335387
 20
212.1955305820369
 30
0.0
 11
398.9954842868804
 21
212.1955305820369
 31
0.0
  0
CIRCLE
  5
10B6
330
21
100
AcDbEntity
  8
0
100
AcDbCircle
 10
394.5318944015719
 20
212.1955305820369
 30
0.0
 40
2.283464566929133
  0
CIRCLE
  5
10B7
330
21
100
AcDbEntity
  8
0
100
AcDbCircle
 10
394.5318944015719
 20
212.1955305820369
 30
0.0
 40
2.16535433070866
  0
CIRCLE
  5
10B8
330
21
100
AcDbEntity
  8
0
100
AcDbCircle
 10
394.5318944015719
 20
212.1955305820369
 30
0.0
 40
1.771653543307085
  0
LINE
  5
10B9
330
21
100
AcDbEntity
  8
中心线
 48
0.1
100
AcDbLine
 10
394.5318944015719
 20
216.5679779462147
 30
0.0
 11
394.5318944015719
 21
208.218684609244
 31
0.0
  0
LINE
  5
10C0
330
21
100
AcDbEntity
  8
中心线
 48
0.1
100
AcDbLine
 10
394.5318944016228
 20
227.0879361789385
 30
0.0
 11
394.5318944016228
 21
237.2466662635098
 31
0.0
  0
LINE
  5
10C1
330
21
100
AcDbEntity
  8
0
 48
5.0
100
AcDbLine
 10
396.8153589684708
 20
227.7654897984004
 30
0.0
 11
392.2484298346656
 21
227.7654897984004
 31
0.0
  0
LINE
  5
10C2
330
21
100
AcDbEntity
  8
剖面线
100
AcDbLine
 10
396.6991778232743
 20
227.6064704110878
 30
0.0
 11
396.8153589685
 21
227.7654897984004
 31
0.0
  0
LINE
  5
10C3
330
21
100
AcDbEntity
  8
剖面线
100
AcDbLine
 10
378.2976726826721
 20
236.7654897984149
 30
0.0
 11
379.2329158782061
 21
236.7654897984149
 31
0.0
  0
LINE
  5
10C4
330
21
100
AcDbEntity
  8
剖面线
100
AcDbLine
 10
378.2976726826721
 20
236.7261197196759
 30
0.0
 11
379.2329158782061
 21
236.7261197196759
 31
0.0
  0
LINE
  5
10C5
330
21
100
AcDbEntity
  8
剖面线
100
AcDbLine
 10
379.7557897531635
 20
230.3528955044286
 30
0.0
 11
379.4294964952835
 21
236.5789417582974
 31
0.0
  0
ARC
  5
10C6
330
21
100
AcDbEntity
  8
剖面线
100
AcDbCircle
 10
379.2329158782061
 20
236.5686394047199
 30
0.0
 40
0.1968503937007874
100
AcDbArc
 50
2.999999999587278
 51
90.0
  0
ARC
  5
10C7
330
21
100
AcDbEntity
  8
剖面线
100
AcDbCircle
 10
379.2329158782061
 20
236.5686394047199
 30
0.0
 40
0.1574803149606299
100
AcDbArc
 50
2.999999999587278
 51
90.0
  0
LINE
  5
10C8
330
21
100
AcDbEntity
  8
剖面线
100
AcDbLine
 10
379.7176316742528
 20
230.3287382281097
 30
0.0
 11
379.3901803718666
 21
236.5768812875877
 31
0.0
  0
LINE
  5
10C9
330
21
100
AcDbEntity
  8
剖面线
100
AcDbLine
 10
378.2976726826721
 20
236.7654897984149
 30
0.0
 11
378.2976726826721
 21
236.7261197196759
 31
0.0
  0
LINE
  5
10CA
330
21
100
AcDbEntity
  8
剖面线
100
AcDbLine
 10
410.7779271440933
 20
236.7654897984149
 30
0.0
 11
409.8426839485666
 21
236.7654897984149
 31
0.0
  0
LINE
  5
10CB
330
21
100
AcDbEntity
  8
剖面线
100
AcDbLine
 10
410.7779271440933
 20
236.7261197196759
 30
0.0
 11
409.8426839485666
 21
236.7261197196759
 31
0.0
  0
LINE
  5
10CC
330
21
100
AcDbEntity
  8
剖面线
100
AcDbLine
 10
409.3049340543632
 20
230.0690441478338
 30
0.0
 11
409.6461033314819
 21
236.5789417582974
 31
0.0
  0
ARC
  5
10CD
330
21
100
AcDbEntity
  8
剖面线
100
AcDbCircle
 10
409.8426839485666
 20
236.5686394047199
 30
0.0
 40
0.1968503937007874
100
AcDbArc
 50
90.0
 51
177.0000000004127
  0
ARC
  5
10CE
330
21
100
AcDbEntity
  8
剖面线
100
AcDbCircle
 10
409.8426839485666
 20
236.5686394047199
 30
0.0
 40
0.1574803149606299
100
AcDbArc
 50
90.0
 51
177.0000000004127
  0
LINE
  5
10CF
330
21
100
AcDbEntity
  8
剖面线
100
AcDbLine
 10
409.3420310236153
 20
230.0246396931881
 30
0.0
 11
409.6854194548988
 21
236.5768812875877
 31
0.0
  0
LINE
  5
10D0
330
21
100
AcDbEntity
  8
剖面线
100
AcDbLine
 10
410.7779271440933
 20
236.7654897984149
 30
0.0
 11
410.7779271440933
 21
236.7261197196759
 31
0.0
  0
LINE
  5
10D1
330
21
100
AcDbEntity
  8
0
100
AcDbLine
 10
379.2329158782061
 20
236.7654897984149
 30
0.0
 11
409.8426839485666
 21
236.7654897984149
 31
0.0
  0
LINE
  5
10D5
330
21
100
AcDbEntity
  8
剖面线
100
AcDbLine
 10
396.6991778232743
 20
227.6064704110878
 30
0.0
 11
396.8153589685
 21
227.7654897984004
 31
0.0
  0
LINE
  5
10D6
330
21
100
AcDbEntity
  8
剖面线
100
AcDbLine
 10
396.3429180236174
 20
227.5292693259663
 30
0.0
 11
396.6991778232743
 21
227.6064704110878
 31
0.0
  0
LINE
  5
10D7
330
21
100
AcDbEntity
  8
剖面线
100
AcDbLine
 10
396.7175474277731
 20
227.5782240013333
 30
0.0
 11
396.8198577198903
 21
227.7182580829223
 31
0.0
  0
LINE
  5
10D8
330
21
100
AcDbEntity
  8
剖面线
100
AcDbLine
 10
396.3429180236174
 20
227.4970422442249
 30
0.0
 11
396.3429180236174
 21
227.5292693259663
 31
0.0
  0
LINE
  5
10D9
330
21
100
AcDbEntity
  8
0
 48
5.0
370
     0
100
AcDbLine
 10
396.3429180236174
 20
227.5292693259663
 30
0.0
 11
392.7208707795264
 21
227.5292693259663
 31
0.0
  0
LINE
  5
10DA
330
21
100
AcDbEntity
  8
剖面线
100
AcDbLine
 10
396.3429180236174
 20
227.4970422442249
 30
0.0
 11
396.7175474277731
 21
227.5782240013333
 31
0.0
  0
LINE
  5
10DB
330
21
100
AcDbEntity
  8
0
 48
5.0
370
     0
100
AcDbLine
 10
396.3429180236174
 20
227.4970422442249
 30
0.0
 11
392.7208707795264
 21
227.4970422442249
 31
0.0
  0
LINE
  5
10DC
330
21
100
AcDbEntity
  8
剖面线
100
AcDbLine
 10
392.3646109798694
 20
227.6064704110878
 30
0.0
 11
392.2484298346437
 21
227.7654897984004
 31
0.0
  0
LINE
  5
10DD
330
21
100
AcDbEntity
  8
剖面线
100
AcDbLine
 10
392.7208707795264
 20
227.5292693259663
 30
0.0
 11
392.3646109798694
 21
227.6064704110878
 31
0.0
  0
LINE
  5
10DE
330
21
100
AcDbEntity
  8
剖面线
100
AcDbLine
 10
392.3462413753707
 20
227.5782240013333
 30
0.0
 11
392.2319169654777
 21
227.7347020389835
 31
0.0
  0
LINE
  5
10DF
330
21
100
AcDbEntity
  8
剖面线
100
AcDbLine
 10
392.7208707795264
 20
227.4970422442249
 30
0.0
 11
392.7208707795264
 21
227.5292693259663
 31
0.0
  0
LINE
  5
10E0
330
21
100
AcDbEntity
  8
剖面线
100
AcDbLine
 10
392.7208707795264
 20
227.4970422442249
 30
0.0
 11
392.3462413753707
 21
227.5782240013333
 31
0.0
  0
ARC
  5
10E1
330
21
100
AcDbEntity
  8
剖面线
100
AcDbCircle
 10
392.4427299388165
 20
309.484184896891
 30
0.0
 40
81.74975467636128
100
AcDbArc
 50
262.2494809018458
 51
269.8522477888123
  0
ARC
  5
10E2
330
21
100
AcDbEntity
  8
剖面线
100
AcDbCircle
 10
392.4772802233903
 20
310.1819282444314
 30
0.0
 40
82.41675617633038
100
AcDbArc
 50
262.3167236162371
 51
269.8409039753502
  0
ARC
  5
10E3
330
21
100
AcDbEntity
  8
剖面线
100
AcDbCircle
 10
396.4327599482833
 20
365.5517935237414
 30
0.0
 40
137.7868349164877
100
AcDbArc
 50
270.1590960217317
 51
274.6058759522377
  0
ARC
  5
10E4
330
21
100
AcDbEntity
  8
剖面线
100
AcDbCircle
 10
396.4327599482833
 20
365.5517935237414
 30
0.0
 40
137.834079010976
100
AcDbArc
 50
270.1609115676309
 51
274.6199658686521
  0
DIMENSION
  5
10E5
330
21
100
AcDbEntity
  8
标注
 48
5.0
100
AcDbDimension
  2
*D91
 10
392.4291168369066
 20
227.7654897984149
 30
0.0
 11
392.4291168369066
 21
232.265489798415
 31
0.0
 70
    32
 71
     5
 42
9.0
  3
副本Standard
100
AcDbAlignedDimension
 13
391.0756340687706
 23
236.7654897984149
 33
0.0
 14
392.3065204072529
 24
227.7654897984149
 34
0.0
 50
90.0
100
AcDbRotatedDimension
  0
ARC
  5
10E6
330
21
100
AcDbEntity
  8
剖面线
100
AcDbCircle
 10
381.7215959239377
 20
230.4559190403353
 30
0.0
 40
1.968503937007873
100
AcDbArc
 50
183.0000000004198
 51
262.3167236162371
  0
ARC
  5
10E7
330
21
100
AcDbEntity
  8
剖面线
100
AcDbCircle
 10
381.6834378450342
 20
230.431761764031
 30
0.0
 40
1.968503937007873
100
AcDbArc
 50
183.0000000004198
 51
262.2494809018458
  0
ARC
  5
10E8
330
21
100
AcDbEntity
  8
剖面线
100
AcDbCircle
 10
407.339127883589
 20
230.172067683755
 30
0.0
 40
1.968503937007873
100
AcDbArc
 50
274.6058759522377
 51
357.0000000004128
  0
ARC
  5
10E9
330
21
100
AcDbEntity
  8
剖面线
100
AcDbCircle
 10
407.3762248528338
 20
230.1276632290948
 30
0.0
 40
1.968503937007873
100
AcDbArc
 50
274.6199658686521
 51
357.0000000004128
  0
MTEXT
  5
1235
330
21
100
AcDbEntity
  8
标注
 48
5.0
100
AcDbMText
 10
390.9152311144405
 20
225.4559667786444
 30
0.0
 40
0.7874015748031497
 41
15.1555422233215
 71
     1
 72
     5
  1
{\fArial|b0|i0|c0|p32;FRONT VIEW }
 73
     1
 44
1.0
  0
MTEXT
  5
1236
330
21
100
AcDbEntity
  8
标注
 48
5.0
100
AcDbMText
 10
390.6807729672123
 20
194.5709901646211
 30
0.0
 40
0.7874015748031497
 41
15.1555422233215
 71
     1
 72
     5
  1
{\fArial|b0|i0|c0|p32;OVERHEAD VIEW}
 73
     1
 44
1.0
  0
LINE
  5
1237
330
21
100
AcDbEntity
  8
虚线
 62
     3
 48
0.3
370
    35
100
AcDbLine
 10
385.8152741640872
 20
164.4430512049882
 30
0.0
 11
392.0320791681712
 21
164.4430512049882
 31
0.0
  0
LINE
  5
1238
330
21
100
AcDbEntity
  8
截面层
 62
     1
 48
0.2
370
    35
100
AcDbLine
 10
385.8152741640872
 20
162.4745472679803
 30
0.0
 11
392.0320791681712
 21
162.4745472679803
 31
0.0
  0
LINE
  5
1239
330
21
100
AcDbEntity
  8
虚线
 62
    11
 48
0.15
370
    35
100
AcDbLine
 10
385.8152741640872
 20
160.5060433309724
 30
0.0
 11
392.0320791681712
 21
160.5060433309724
 31
0.0
  0
MTEXT
  5
123A
330
21
100
AcDbEntity
  8
标注
 48
5.0
100
AcDbMText
 10
393.4806802446542
 20
164.9912161425991
 30
0.0
 40
0.7874015748031497
 41
15.1555422233215
 71
     1
 72
     5
  1
1/4" {\fArial|b0|i0|c0|p32;REVEAL CUTOUT}
 73
     1
 44
1.0
  0
MTEXT
  5
123B
330
21
100
AcDbEntity
  8
标注
 48
5.0
100
AcDbMText
 10
393.4806802446538
 20
163.0227122055911
 30
0.0
 40
0.7874015748031497
 41
15.1555422233215
 71
     1
 72
     5
  1
{\fArial|b0|i0|c0|p32;FLUSH CUTOUT}
 73
     1
 44
1.0
  0
MTEXT
  5
123C
330
21
100
AcDbEntity
  8
标注
 48
5.0
100
AcDbMText
 10
393.4806802446542
 20
161.0542082685832
 30
0.0
 40
0.7874015748031497
 41
15.1555422233215
 71
     1
 72
     5
  1
1/4" {\fArial|b0|i0|c0|p32;OVERHANG CUTOUT}
 73
     1
 44
1.0
  0
MTEXT
  5
123D
330
21
100
AcDbEntity
  8
标注
 48
5.0
100
AcDbMText
 10
389.4107381035033
 20
132.0513546622387
 30
0.0
 40
0.7874015748031497
 41
15.1555422233215
 71
     1
 72
     5
  1
1/4" {\fArial|b0|i0|c0|p32;REVEAL CUTOUT}
 73
     1
 44
1.0
  0
MTEXT
  5
123E
330
21
100
AcDbEntity
  8
标注
 48
5.0
100
AcDbMText
 10
391.6192975540121
 20
103.8047243616165
 30
0.0
 40
0.7874015748031497
 41
15.1555422233215
 71
     1
 72
     5
  1
{\fArial|b0|i0|c0|p32;FLUSH CUTOUT}
 73
     1
 44
1.0
  0
MTEXT
  5
123F
330
21
100
AcDbEntity
  8
标注
 48
5.0
100
AcDbMText
 10
389.3986841956053
 20
77.82182334235398
 30
0.0
 40
0.7874015748031497
 41
15.1555422233215
 71
     1
 72
     5
  1
1/4" {\fArial|b0|i0|c0|p32;OVERHANG CUTOUT}
 73
     1
 44
1.0
  0
LINE
  5
12A0
330
21
100
AcDbEntity
  8
中心线
 48
0.1
100
AcDbLine
 10
395.1401780940622
 20
182.8455963623828
 30
0.0
 11
395.1401780940622
 21
174.4963030254119
 31
0.0
  0
CIRCLE
  5
12A1
330
21
100
AcDbEntity
  8
0
100
AcDbCircle
 10
395.1401780940622
 20
178.473148998205
 30
0.0
 40
1.771653543307085
  0
CIRCLE
  5
12A2
330
21
100
AcDbEntity
  8
0
100
AcDbCircle
 10
395.1401780940622
 20
178.473148998205
 30
0.0
 40
2.16535433070866
  0
CIRCLE
  5
12A3
330
21
100
AcDbEntity
  8
0
100
AcDbCircle
 10
395.1401780940622
 20
178.473148998205
 30
0.0
 40
2.283464566929133
  0
LINE
  5
12A4
330
21
100
AcDbEntity
  8
中心线
 48
0.1
100
AcDbLine
 10
390.8900916260289
 20
178.473148998205
 30
0.0
 11
399.6037679793707
 21
178.473148998205
 31
0.0
  0
ARC
  5
12A5
330
21
100
AcDbEntity
  8
0
 48
2.0
100
AcDbCircle
 10
390.5791635924878
 20
178.2687281111111
 30
0.0
 40
20.80704724409448
100
AcDbArc
 50
339.1243828508859
 51
0.3777770484303673
  0
ARC
  5
12A6
330
21
100
AcDbEntity
  8
0
 48
2.0
100
AcDbCircle
 10
406.2130396608306
 20
172.3063534568909
 30
0.0
 40
4.074803149606299
100
AcDbArc
 50
272.7679485588924
 51
339.1243828508859
  0
ARC
  5
12A7
330
21
100
AcDbEntity
  8
0
 48
2.0
100
AcDbCircle
 10
400.6519780940624
 20
287.3292444903318
 30
0.0
 40
119.2320472440945
100
AcDbArc
 50
270.0
 51
272.7679485588924
  0
LINE
  5
12A8
330
21
100
AcDbEntity
  8
0
 48
2.0
100
AcDbLine
 10
400.6519780940624
 20
168.0971972462256
 30
0.0
 11
395.1401780940622
 21
168.0971972462256
 31
0.0
  0
LINE
  5
12A9
330
21
100
AcDbEntity
  8
0
 48
2.0
100
AcDbLine
 10
389.628378094062
 20
168.0971972462256
 30
0.0
 11
395.1401780940622
 21
168.0971972462256
 31
0.0
  0
ARC
  5
12AA
330
21
100
AcDbEntity
  8
0
 48
2.0
100
AcDbCircle
 10
389.628378094062
 20
287.3292444903318
 30
0.0
 40
119.2320472440945
100
AcDbArc
 50
267.2380451951387
 51
270.0
  0
ARC
  5
12AB
330
21
100
AcDbEntity
  8
0
 48
2.0
100
AcDbCircle
 10
384.0793491871199
 20
172.3057723395149
 30
0.0
 40
4.074803149606299
100
AcDbArc
 50
200.8777468716662
 51
267.2380451951387
  0
ARC
  5
12AC
330
21
100
AcDbEntity
  8
0
 48
2.0
100
AcDbCircle
 10
399.7130036192584
 20
178.2687281111111
 30
0.0
 40
20.80704724409448
100
AcDbArc
 50
179.6081327397102
 51
200.8777468716662
  0
ARC
  5
12AD
330
21
100
AcDbEntity
  8
0
 48
2.0
100
AcDbCircle
 10
385.9338377108333
 20
178.3629704485765
 30
0.0
 40
7.02755905511811
100
AcDbArc
 50
105.9684360525226
 51
179.6081327397102
  0
ARC
  5
12AE
330
21
100
AcDbEntity
  8
0
 48
2.0
100
AcDbCircle
 10
395.1401780940622
 20
146.1897631714355
 30
0.0
 40
40.4920472440945
100
AcDbArc
 50
90.0
 51
105.9684360525226
  0
ARC
  5
12AF
330
21
100
AcDbEntity
  8
0
 48
2.0
100
AcDbCircle
 10
395.1401780940622
 20
146.1897631714355
 30
0.0
 40
40.4920472440945
100
AcDbArc
 50
74.01048859968182
 51
90.0
  0
ARC
  5
12B0
330
21
100
AcDbEntity
  8
0
 48
2.0
100
AcDbCircle
 10
404.3583522603848
 20
178.3595818651929
 30
0.0
 40
7.02755905511811
100
AcDbArc
 50
0.3777770484303673
 51
74.01048859968182
  0
ARC
  5
12B1
330
21
100
AcDbEntity
  8
截面层
 62
     1
 48
0.2
370
    35
100
AcDbCircle
 10
384.0793491871199
 20
172.3057723395149
 30
0.0
 40
2.95275590551181
100
AcDbArc
 50
200.8777468716662
 51
267.2380451951387
  0
ARC
  5
12B2
330
21
100
AcDbEntity
  8
截面层
 62
     1
 48
0.2
370
    35
100
AcDbCircle
 10
406.2130396608306
 20
172.3063534568909
 30
0.0
 40
2.95275590551181
100
AcDbArc
 50
272.7679485588924
 51
339.1243828508859
  0
ARC
  5
12B3
330
21
100
AcDbEntity
  8
截面层
 62
     1
 48
0.2
370
    35
100
AcDbCircle
 10
404.3583522603848
 20
178.3595818651929
 30
0.0
 40
5.905511811023621
100
AcDbArc
 50
0.3777770484303673
 51
74.01048859968182
  0
ARC
  5
12B4
330
21
100
AcDbEntity
  8
截面层
 62
     1
 48
0.2
370
    35
100
AcDbCircle
 10
385.9338377108333
 20
178.3629704485765
 30
0.0
 40
5.905511811023621
100
AcDbArc
 50
105.9684360525226
 51
179.6081327397102
  0
LINE
  5
12B9
330
21
100
AcDbEntity
  8
截面层
 62
     1
 48
0.2
370
    35
100
AcDbLine
 10
389.628378094062
 20
169.2192444903312
 30
0.0
 11
395.1401780940622
 21
169.2192444903312
 31
0.0
  0
ARC
  5
12BA
330
21
100
AcDbEntity
  8
截面层
 62
     1
 48
0.2
370
    35
100
AcDbCircle
 10
389.628378094062
 20
287.3292444903318
 30
0.0
 40
118.11
100
AcDbArc
 50
267.2380451951387
 51
270.0
  0
ARC
  5
12BB
330
21
100
AcDbEntity
  8
截面层
 62
     1
 48
0.2
370
    35
100
AcDbCircle
 10
395.1401780940622
 20
146.1897631714355
 30
0.0
 40
39.37000000000001
100
AcDbArc
 50
90.0
 51
105.9684360525226
  0
LINE
  5
12BC
330
21
100
AcDbEntity
  8
截面层
 62
     1
 48
0.2
370
    35
100
AcDbLine
 10
400.6519780940624
 20
169.2192444903312
 30
0.0
 11
395.1401780940622
 21
169.2192444903312
 31
0.0
  0
ARC
  5
12BD
330
21
100
AcDbEntity
  8
截面层
 62
     1
 48
0.2
370
    35
100
AcDbCircle
 10
395.1401780940622
 20
146.1897631714355
 30
0.0
 40
39.37000000000001
100
AcDbArc
 50
74.01048859968182
 51
90.0
  0
ARC
  5
12BE
330
21
100
AcDbEntity
  8
截面层
 62
     1
 48
0.2
370
    35
100
AcDbCircle
 10
399.7130036192584
 20
178.2687281111111
 30
0.0
 40
19.68499999999998
100
AcDbArc
 50
179.6081327397102
 51
200.8777468716662
  0
ARC
  5
12BF
330
21
100
AcDbEntity
  8
截面层
 62
     1
 48
0.2
370
    35
100
AcDbCircle
 10
400.6519780940624
 20
287.3292444903318
 30
0.0
 40
118.11
100
AcDbArc
 50
270.0
 51
272.7679485588924
  0
ARC
  5
12C0
330
21
100
AcDbEntity
  8
截面层
 62
     1
 48
0.2
370
    35
100
AcDbCircle
 10
390.5791635924878
 20
178.2687281111111
 30
0.0
 40
19.68499999999998
100
AcDbArc
 50
339.1243828508859
 51
0.3777770484303673
  0
ARC
  5
12E5
330
21
100
AcDbEntity
  8
虚线
 62
    11
 48
0.15
370
    35
100
AcDbCircle
 10
385.9338377108333
 20
178.3629704485765
 30
0.0
 40
5.655511811023621
100
AcDbArc
 50
105.9684360525226
 51
179.6081327397102
  0
ARC
  5
12E6
330
21
100
AcDbEntity
  8
虚线
 62
     3
 48
0.3
370
    35
100
AcDbCircle
 10
385.9338377108333
 20
178.3629704485765
 30
0.0
 40
6.155511811023621
100
AcDbArc
 50
105.9684360525226
 51
179.6081327397102
  0
ARC
  5
12E7
330
21
100
AcDbEntity
  8
虚线
 62
    11
 48
0.15
370
    35
100
AcDbCircle
 10
395.1401780940622
 20
146.1897631714355
 30
0.0
 40
39.12000000000001
100
AcDbArc
 50
90.0
 51
105.9684360525226
  0
ARC
  5
12E8
330
21
100
AcDbEntity
  8
虚线
 62
     3
 48
0.3
370
    35
100
AcDbCircle
 10
395.1401780940622
 20
146.1897631714355
 30
0.0
 40
39.62000000000001
100
AcDbArc
 50
90.0
 51
105.9684360525226
  0
ARC
  5
12E9
330
21
100
AcDbEntity
  8
虚线
 62
     3
 48
0.3
370
    35
100
AcDbCircle
 10
399.7130036192584
 20
178.2687281111111
 30
0.0
 40
19.93499999999999
100
AcDbArc
 50
179.6081327397102
 51
200.8777468716662
  0
ARC
  5
12EA
330
21
100
AcDbEntity
  8
虚线
 62
    11
 48
0.15
370
    35
100
AcDbCircle
 10
399.7130036192584
 20
178.2687281111111
 30
0.0
 40
19.43499999999999
100
AcDbArc
 50
179.6081327397102
 51
200.8777468716662
  0
ARC
  5
12EB
330
21
100
AcDbEntity
  8
虚线
 62
     3
 48
0.3
370
    35
100
AcDbCircle
 10
384.0793491871199
 20
172.3057723395149
 30
0.0
 40
3.20275590551181
100
AcDbArc
 50
200.8777468716662
 51
267.2380451951387
  0
ARC
  5
12EC
330
21
100
AcDbEntity
  8
虚线
 62
    11
 48
0.15
370
    35
100
AcDbCircle
 10
384.0793491871199
 20
172.3057723395149
 30
0.0
 40
2.70275590551181
100
AcDbArc
 50
200.8777468716662
 51
267.2380451951387
  0
ARC
  5
12ED
330
21
100
AcDbEntity
  8
虚线
 62
     3
 48
0.3
370
    35
100
AcDbCircle
 10
389.628378094062
 20
287.3292444903318
 30
0.0
 40
118.36
100
AcDbArc
 50
267.2380451951387
 51
270.0
  0
ARC
  5
12EE
330
21
100
AcDbEntity
  8
虚线
 62
    11
 48
0.15
370
    35
100
AcDbCircle
 10
389.628378094062
 20
287.3292444903318
 30
0.0
 40
117.86
100
AcDbArc
 50
267.2380451951387
 51
270.0
  0
LINE
  5
12EF
330
21
100
AcDbEntity
  8
虚线
 62
    11
 48
0.15
370
    35
100
AcDbLine
 10
389.628378094062
 20
169.4692444903312
 30
0.0
 11
395.1401780940622
 21
169.4692444903312
 31
0.0
  0
LINE
  5
12F0
330
21
100
AcDbEntity
  8
虚线
 62
     3
 48
0.3
370
    35
100
AcDbLine
 10
389.628378094062
 20
168.9692444903312
 30
0.0
 11
395.1401780940622
 21
168.9692444903312
 31
0.0
  0
LINE
  5
12F1
330
21
100
AcDbEntity
  8
虚线
 62
    11
 48
0.15
370
    35
100
AcDbLine
 10
400.6519780940624
 20
169.4692444903312
 30
0.0
 11
395.1401780940622
 21
169.4692444903312
 31
0.0
  0
LINE
  5
12F2
330
21
100
AcDbEntity
  8
虚线
 62
     3
 48
0.3
370
    35
100
AcDbLine
 10
400.6519780940624
 20
168.9692444903312
 30
0.0
 11
395.1401780940622
 21
168.9692444903312
 31
0.0
  0
ARC
  5
12F3
330
21
100
AcDbEntity
  8
虚线
 62
    11
 48
0.15
370
    35
100
AcDbCircle
 10
400.6519780940624
 20
287.3292444903318
 30
0.0
 40
117.86
100
AcDbArc
 50
270.0
 51
272.7679485588924
  0
ARC
  5
12F4
330
21
100
AcDbEntity
  8
虚线
 62
     3
 48
0.3
370
    35
100
AcDbCircle
 10
400.6519780940624
 20
287.3292444903318
 30
0.0
 40
118.36
100
AcDbArc
 50
270.0
 51
272.7679485588924
  0
ARC
  5
12F5
330
21
100
AcDbEntity
  8
虚线
 62
    11
 48
0.15
370
    35
100
AcDbCircle
 10
406.2130396608306
 20
172.3063534568909
 30
0.0
 40
2.70275590551181
100
AcDbArc
 50
272.7679485588924
 51
339.1243828508859
  0
ARC
  5
12F6
330
21
100
AcDbEntity
  8
虚线
 62
     3
 48
0.3
370
    35
100
AcDbCircle
 10
406.2130396608306
 20
172.3063534568909
 30
0.0
 40
3.20275590551181
100
AcDbArc
 50
272.7679485588924
 51
339.1243828508859
  0
ARC
  5
12F7
330
21
100
AcDbEntity
  8
虚线
 62
    11
 48
0.15
370
    35
100
AcDbCircle
 10
390.5791635924878
 20
178.2687281111111
 30
0.0
 40
19.43499999999999
100
AcDbArc
 50
339.1243828508859
 51
0.3777770484303673
  0
ARC
  5
12F8
330
21
100
AcDbEntity
  8
虚线
 62
     3
 48
0.3
370
    35
100
AcDbCircle
 10
390.5791635924878
 20
178.2687281111111
 30
0.0
 40
19.93499999999999
100
AcDbArc
 50
339.1243828508859
 51
0.3777770484303673
  0
ARC
  5
12F9
330
21
100
AcDbEntity
  8
虚线
 62
    11
 48
0.15
370
    35
100
AcDbCircle
 10
404.3583522603848
 20
178.3595818651929
 30
0.0
 40
5.655511811023621
100
AcDbArc
 50
0.3777770484303673
 51
74.01048859968182
  0
ARC
  5
12FA
330
21
100
AcDbEntity
  8
虚线
 62
     3
 48
0.3
370
    35
100
AcDbCircle
 10
404.3583522603848
 20
178.3595818651929
 30
0.0
 40
6.155511811023621
100
AcDbArc
 50
0.3777770484303673
 51
74.01048859968182
  0
ARC
  5
12FB
330
21
100
AcDbEntity
  8
虚线
 62
     3
 48
0.3
370
    35
100
AcDbCircle
 10
395.1401780940622
 20
146.1897631714355
 30
0.0
 40
39.62000000000001
100
AcDbArc
 50
74.01048859968182
 51
90.0
  0
ARC
  5
12FC
330
21
100
AcDbEntity
  8
虚线
 62
    11
 48
0.15
370
    35
100
AcDbCircle
 10
395.1401780940622
 20
146.1897631714355
 30
0.0
 40
39.12000000000001
100
AcDbArc
 50
74.01048859968182
 51
90.0
  0
ARC
  5
131A
330
21
100
AcDbEntity
  8
虚线
 62
     3
 48
0.3
370
    35
100
AcDbCircle
 10
385.9451409965236
 20
144.5635260483437
 30
0.0
 40
6.155511811023621
100
AcDbArc
 50
105.9684360525226
 51
179.6081327397102
  0
ARC
  5
131B
330
21
100
AcDbEntity
  8
虚线
 62
     3
 48
0.3
370
    35
100
AcDbCircle
 10
395.1514813797527
 20
112.3903187712027
 30
0.0
 40
39.62000000000001
100
AcDbArc
 50
90.0
 51
105.9684360525226
  0
ARC
  5
131C
330
21
100
AcDbEntity
  8
虚线
 62
     3
 48
0.3
370
    35
100
AcDbCircle
 10
395.1514813797527
 20
112.3903187712027
 30
0.0
 40
39.62000000000001
100
AcDbArc
 50
74.01048859968182
 51
90.0
  0
ARC
  5
131D
330
21
100
AcDbEntity
  8
虚线
 62
     3
 48
0.3
370
    35
100
AcDbCircle
 10
404.3696555460751
 20
144.5601374649601
 30
0.0
 40
6.155511811023621
100
AcDbArc
 50
0.3777770484303673
 51
74.01048859968182
  0
ARC
  5
131E
330
21
100
AcDbEntity
  8
虚线
 62
     3
 48
0.3
370
    35
100
AcDbCircle
 10
390.5904668781782
 20
144.4692837108783
 30
0.0
 40
19.93499999999999
100
AcDbArc
 50
339.1243828508859
 51
0.3777770484303673
  0
ARC
  5
131F
330
21
100
AcDbEntity
  8
虚线
 62
     3
 48
0.3
370
    35
100
AcDbCircle
 10
406.2243429465211
 20
138.5069090566581
 30
0.0
 40
3.20275590551181
100
AcDbArc
 50
272.7679485588924
 51
339.1243828508859
  0
ARC
  5
1320
330
21
100
AcDbEntity
  8
虚线
 62
     3
 48
0.3
370
    35
100
AcDbCircle
 10
400.6632813797526
 20
253.529800090099
 30
0.0
 40
118.36
100
AcDbArc
 50
270.0
 51
272.7679485588924
  0
LINE
  5
1321
330
21
100
AcDbEntity
  8
虚线
 62
     3
 48
0.3
370
    35
100
AcDbLine
 10
400.6632813797526
 20
135.1698000900984
 30
0.0
 11
395.1514813797527
 21
135.1698000900984
 31
0.0
  0
LINE
  5
1322
330
21
100
AcDbEntity
  8
虚线
 62
     3
 48
0.3
370
    35
100
AcDbLine
 10
389.6396813797523
 20
135.1698000900984
 30
0.0
 11
395.1514813797527
 21
135.1698000900984
 31
0.0
  0
ARC
  5
1323
330
21
100
AcDbEntity
  8
虚线
 62
     3
 48
0.3
370
    35
100
AcDbCircle
 10
389.6396813797523
 20
253.529800090099
 30
0.0
 40
118.36
100
AcDbArc
 50
267.2380451951387
 51
270.0
  0
ARC
  5
1324
330
21
100
AcDbEntity
  8
虚线
 62
     3
 48
0.3
370
    35
100
AcDbCircle
 10
384.0906524728102
 20
138.5063279392822
 30
0.0
 40
3.20275590551181
100
AcDbArc
 50
200.8777468716662
 51
267.2380451951387
  0
ARC
  5
1325
330
21
100
AcDbEntity
  8
虚线
 62
     3
 48
0.3
370
    35
100
AcDbCircle
 10
399.7243069049487
 20
144.4692837108783
 30
0.0
 40
19.93499999999999
100
AcDbArc
 50
179.6081327397102
 51
200.8777468716662
  0
ARC
  5
1338
330
21
100
AcDbEntity
  8
截面层
 62
     1
 48
0.2
370
    35
100
AcDbCircle
 10
385.9168110463696
 20
115.2017262993666
 30
0.0
 40
5.905511811023621
100
AcDbArc
 50
105.9684360525223
 51
179.6081327397102
  0
ARC
  5
1339
330
21
100
AcDbEntity
  8
截面层
 62
     1
 48
0.2
370
    35
100
AcDbCircle
 10
395.1231514295987
 20
83.02851902222561
 30
0.0
 40
39.37000000000001
100
AcDbArc
 50
90.0
 51
105.9684360525223
  0
ARC
  5
133A
330
21
100
AcDbEntity
  8
截面层
 62
     1
 48
0.2
370
    35
100
AcDbCircle
 10
395.1231514295987
 20
83.02851902222561
 30
0.0
 40
39.37000000000001
100
AcDbArc
 50
74.01048859968158
 51
90.0
  0
ARC
  5
133B
330
21
100
AcDbEntity
  8
截面层
 62
     1
 48
0.2
370
    35
100
AcDbCircle
 10
404.3413255959211
 20
115.198337715983
 30
0.0
 40
5.905511811023621
100
AcDbArc
 50
0.3777770484303673
 51
74.01048859968158
  0
ARC
  5
133C
330
21
100
AcDbEntity
  8
截面层
 62
     1
 48
0.2
370
    35
100
AcDbCircle
 10
390.5621369280242
 20
115.1074839619012
 30
0.0
 40
19.68499999999998
100
AcDbArc
 50
339.1243828508859
 51
0.3777770484303673
  0
ARC
  5
133D
330
21
100
AcDbEntity
  8
截面层
 62
     1
 48
0.2
370
    35
100
AcDbCircle
 10
406.196012996367
 20
109.1451093076811
 30
0.0
 40
2.95275590551181
100
AcDbArc
 50
272.7679485588924
 51
339.1243828508859
  0
ARC
  5
133E
330
21
100
AcDbEntity
  8
截面层
 62
     1
 48
0.2
370
    35
100
AcDbCircle
 10
400.6349514295989
 20
224.1680003411219
 30
0.0
 40
118.11
100
AcDbArc
 50
270.0
 51
272.7679485588924
  0
LINE
  5
133F
330
21
100
AcDbEntity
  8
截面层
 62
     1
 48
0.2
370
    35
100
AcDbLine
 10
400.6349514295989
 20
106.0580003411213
 30
0.0
 11
395.1231514295987
 21
106.0580003411213
 31
0.0
  0
LINE
  5
1340
330
21
100
AcDbEntity
  8
截面层
 62
     1
 48
0.2
370
    35
100
AcDbLine
 10
389.6113514295984
 20
106.0580003411213
 30
0.0
 11
395.1231514295987
 21
106.0580003411213
 31
0.0
  0
ARC
  5
1341
330
21
100
AcDbEntity
  8
截面层
 62
     1
 48
0.2
370
    35
100
AcDbCircle
 10
389.6113514295984
 20
224.1680003411219
 30
0.0
 40
118.11
100
AcDbArc
 50
267.2380451951387
 51
270.0
  0
ARC
  5
1342
330
21
100
AcDbEntity
  8
截面层
 62
     1
 48
0.2
370
    35
100
AcDbCircle
 10
384.0623225226563
 20
109.1445281903051
 30
0.0
 40
2.95275590551181
100
AcDbArc
 50
200.8777468716662
 51
267.2380451951387
  0
ARC
  5
1343
330
21
100
AcDbEntity
  8
截面层
 62
     1
 48
0.2
370
    35
100
AcDbCircle
 10
399.6959769547947
 20
115.1074839619012
 30
0.0
 40
19.68499999999998
100
AcDbArc
 50
179.6081327397102
 51
200.8777468716662
  0
ARC
  5
1356
330
21
100
AcDbEntity
  8
虚线
 62
    11
 48
0.15
370
    35
100
AcDbCircle
 10
386.0297761093652
 20
89.70197771752578
 30
0.0
 40
5.655511811023621
100
AcDbArc
 50
105.9684360525223
 51
179.6081327397102
  0
ARC
  5
1357
330
21
100
AcDbEntity
  8
虚线
 62
    11
 48
0.15
370
    35
100
AcDbCircle
 10
395.2361164925942
 20
57.52877044038473
 30
0.0
 40
39.12000000000001
100
AcDbArc
 50
90.0
 51
105.9684360525223
  0
ARC
  5
1358
330
21
100
AcDbEntity
  8
虚线
 62
    11
 48
0.15
370
    35
100
AcDbCircle
 10
399.8089420177903
 20
89.60773538006035
 30
0.0
 40
19.43499999999999
100
AcDbArc
 50
179.6081327397102
 51
200.8777468716662
  0
ARC
  5
1359
330
21
100
AcDbEntity
  8
虚线
 62
    11
 48
0.15
370
    35
100
AcDbCircle
 10
384.1752875856519
 20
83.6447796084642
 30
0.0
 40
2.70275590551181
100
AcDbArc
 50
200.8777468716662
 51
267.2380451951387
  0
ARC
  5
135A
330
21
100
AcDbEntity
  8
虚线
 62
    11
 48
0.15
370
    35
100
AcDbCircle
 10
389.724316492594
 20
198.668251759281
 30
0.0
 40
117.86
100
AcDbArc
 50
267.2380451951387
 51
270.0
  0
LINE
  5
135B
330
21
100
AcDbEntity
  8
虚线
 62
    11
 48
0.15
370
    35
100
AcDbLine
 10
389.724316492594
 20
80.80825175928044
 30
0.0
 11
395.2361164925942
 21
80.80825175928044
 31
0.0
  0
LINE
  5
135C
330
21
100
AcDbEntity
  8
虚线
 62
    11
 48
0.15
370
    35
100
AcDbLine
 10
400.7479164925944
 20
80.80825175928044
 30
0.0
 11
395.2361164925942
 21
80.80825175928044
 31
0.0
  0
ARC
  5
135D
330
21
100
AcDbEntity
  8
虚线
 62
    11
 48
0.15
370
    35
100
AcDbCircle
 10
400.7479164925944
 20
198.668251759281
 30
0.0
 40
117.86
100
AcDbArc
 50
270.0
 51
272.7679485588924
  0
ARC
  5
135E
330
21
100
AcDbEntity
  8
虚线
 62
    11
 48
0.15
370
    35
100
AcDbCircle
 10
406.3089780593627
 20
83.64536072584019
 30
0.0
 40
2.70275590551181
100
AcDbArc
 50
272.7679485588924
 51
339.1243828508859
  0
ARC
  5
135F
330
21
100
AcDbEntity
  8
虚线
 62
    11
 48
0.15
370
    35
100
AcDbCircle
 10
390.6751019910198
 20
89.60773538006035
 30
0.0
 40
19.43499999999999
100
AcDbArc
 50
339.1243828508859
 51
0.3777770484303673
  0
ARC
  5
1360
330
21
100
AcDbEntity
  8
虚线
 62
    11
 48
0.15
370
    35
100
AcDbCircle
 10
404.4542906589168
 20
89.69858913414212
 30
0.0
 40
5.655511811023621
100
AcDbArc
 50
0.3777770484303673
 51
74.01048859968158
  0
ARC
  5
1361
330
21
100
AcDbEntity
  8
虚线
 62
    11
 48
0.15
370
    35
100
AcDbCircle
 10
395.2361164925942
 20
57.52877044038473
 30
0.0
 40
39.12000000000001
100
AcDbArc
 50
74.01048859968158
 51
90.0
  0
ENDSEC
  0
SECTION
  2
OBJECTS
  0
DICTIONARY
  5
C
330
0
100
AcDbDictionary
281
     1
  3
ACAD_COLOR
350
1C
  3
ACAD_GROUP
350
D
  3
ACAD_LAYOUT
350
1A
  3
ACAD_MATERIAL
350
1B
  3
ACAD_MLINESTYLE
350
17
  3
ACAD_PLOTSETTINGS
350
19
  3
ACAD_PLOTSTYLENAME
350
E
  0
DICTIONARY
  5
F7
330
2
100
AcDbDictionary
280
     1
281
     1
  3
ACAD_LAYERFILTERS
360
181C
  3
ACAD_LAYERSTATES
360
F8
  0
DICTIONARY
  5
1096
330
1095
100
AcDbDictionary
280
     1
281
     1
  3
ACAD_DIMASSOC
360
1097
  0
DICTIONARY
  5
1099
330
1098
100
AcDbDictionary
280
     1
281
     1
  3
ACAD_DIMASSOC
360
109A
  0
DICTIONARY
  5
10AE
330
10AD
100
AcDbDictionary
280
     1
281
     1
  3
ACAD_DIMASSOC
360
10AF
  0
DICTIONARY
  5
10B1
330
10B0
100
AcDbDictionary
280
     1
281
     1
  3
ACAD_DIMASSOC
360
10B2
  0
DICTIONARY
  5
1C
102
{ACAD_REACTORS
330
C
102
}
330
C
100
AcDbDictionary
281
     1
  0
DICTIONARY
  5
D
102
{ACAD_REACTORS
330
C
102
}
330
C
100
AcDbDictionary
281
     1
  0
DICTIONARY
  5
1A
102
{ACAD_REACTORS
330
C
102
}
330
C
100
AcDbDictionary
281
     1
  3
Model
350
24
  3
布局1
350
20
  3
布局2
350
28
  0
DICTIONARY
  5
1B
102
{ACAD_REACTORS
330
C
102
}
330
C
100
AcDbDictionary
281
     1
  0
DICTIONARY
  5
17
102
{ACAD_REACTORS
330
C
102
}
330
C
100
AcDbDictionary
281
     1
  3
Standard
350
18
  0
DICTIONARY
  5
19
102
{ACAD_REACTORS
330
C
102
}
330
C
100
AcDbDictionary
281
     1
  0
ACDBDICTIONARYWDFLT
  5
E
102
{ACAD_REACTORS
330
C
102
}
330
C
100
AcDbDictionary
281
     1
  3
Normal
350
F
100
AcDbDictionaryWithDefault
340
F
  0
DICTIONARY
  5
181C
102
{ACAD_REACTORS
330
F7
102
}
330
F7
100
AcDbDictionary
281
     1
  0
DICTIONARY
  5
F8
102
{ACAD_REACTORS
330
F7
102
}
330
F7
100
AcDbDictionary
281
     1
  0
DIMASSOC
  5
1097
102
{ACAD_REACTORS
330
1096
102
}
330
1096
100
AcDbDimAssoc
330
1095
 90
        3
 70
     0
 71
     0
  1
AcDbOsnapPointRef
 72
    13
331
1092
 73
     2
 91
        0
 40
1.570796326794896
 10
0.0
 20
0.0
 30
2.000000000000000E+50
 75
     0
  1
AcDbOsnapPointRef
 72
    13
331
1091
 73
     2
 91
        0
 40
0.0
 10
0.0
 20
0.0
 30
2.000000000000000E+50
 75
     0
  0
DIMASSOC
  5
109A
102
{ACAD_REACTORS
330
1099
102
}
330
1099
100
AcDbDimAssoc
330
1098
 90
        1
 70
     0
 71
     0
  1
AcDbOsnapPointRef
 72
    13
331
1094
 73
     2
 91
        0
 40
0.0
 10
0.0
 20
0.0
 30
2.000000000000000E+50
 75
     0
  0
DIMASSOC
  5
10AF
102
{ACAD_REACTORS
330
10AE
102
}
330
10AE
100
AcDbDimAssoc
330
10AD
 90
        3
 70
     0
 71
     0
  1
AcDbOsnapPointRef
 72
    13
331
10A3
 73
     2
 91
        0
 40
1.570796326794896
 10
0.0
 20
0.0
 30
2.000000000000000E+50
 75
     0
  1
AcDbOsnapPointRef
 72
    13
331
10AA
 73
     2
 91
        0
 40
4.712388980384688
 10
0.0
 20
0.0
 30
2.000000000000000E+50
 75
     0
  0
DIMASSOC
  5
10B2
102
{ACAD_REACTORS
330
10B1
102
}
330
10B1
100
AcDbDimAssoc
330
10B0
 90
        3
 70
     0
 71
     0
  1
AcDbOsnapPointRef
 72
     5
331
10AC
 73
     2
 91
        0
 40
6.283185307179585
 10
0.0
 20
0.0
 30
0.0
 75
     0
  1
AcDbOsnapPointRef
 72
     5
331
10A5
 73
     2
 91
        0
 40
3.141592653589792
 10
0.0
 20
0.0
 30
0.0
 75
     0
  0
LAYOUT
  5
24
102
{ACAD_REACTORS
330
1A
102
}
330
1A
100
AcDbPlotSettings
  1

  2
Adobe PDF
  4
A4
  6

 40
3.174999952316284
 41
3.174999952316284
 42
3.175003051757812
 43
3.17498779296875
 44
209.9733276367187
 45
297.0318298339844
 46
56.2
 47
0.0
 48
369.6064945703233
 49
73.94623796503651
140
422.3394613204288
141
241.9617965434861
142
1.0
143
0.5780050015204629
 70
 11956
 72
     1
 73
     0
 74
     4
  7
acad.ctb
 75
     0
147
1.730088835510876
 76
     0
 77
     2
 78
   300
148
-369.6064945703233
149
-73.94623796503651
100
AcDbLayout
  1
Model
 70
     1
 71
     0
 10
0.0
 20
0.0
 11
12.0
 21
9.0
 12
0.0
 22
0.0
 32
0.0
 14
0.0
 24
0.0
 34
0.0
 15
0.0
 25
0.0
 35
0.0
146
0.0
 13
0.0
 23
0.0
 33
0.0
 16
1.0
 26
0.0
 36
0.0
 17
0.0
 27
1.0
 37
0.0
 76
     0
330
21
  0
LAYOUT
  5
20
102
{ACAD_REACTORS
330
1A
102
}
330
1A
100
AcDbPlotSettings
  1

  2
FX DocuPrint 255-AP
  4

  6

 40
0.0
 41
0.0
 42
0.0
 43
0.0
 44
0.0
 45
0.0
 46
0.0
 47
0.0
 48
0.0
 49
0.0
140
0.0
141
0.0
142
1.0
143
1.0
 70
   688
 72
     0
 73
     0
 74
     5
  7

 75
    16
147
1.0
 76
     0
 77
     2
 78
   300
148
0.0
149
0.0
100
AcDbLayout
  1
布局1
 70
     1
 71
     1
 10
0.0
 20
0.0
 11
420.0
 21
297.0
 12
0.0
 22
0.0
 32
0.0
 14
1.000000000000000E+20
 24
1.000000000000000E+20
 34
1.000000000000000E+20
 15
-1.000000000000000E+20
 25
-1.000000000000000E+20
 35
-1.000000000000000E+20
146
0.0
 13
0.0
 23
0.0
 33
0.0
 16
1.0
 26
0.0
 36
0.0
 17
0.0
 27
1.0
 37
0.0
 76
     0
330
1D
  0
LAYOUT
  5
28
102
{ACAD_REACTORS
330
1A
102
}
330
1A
100
AcDbPlotSettings
  1

  2
FX DocuPrint 255-AP
  4

  6

 40
0.0
 41
0.0
 42
0.0
 43
0.0
 44
0.0
 45
0.0
 46
0.0
 47
0.0
 48
0.0
 49
0.0
140
0.0
141
0.0
142
1.0
143
1.0
 70
   688
 72
     0
 73
     0
 74
     5
  7

 75
    16
147
1.0
 76
     0
 77
     2
 78
   300
148
0.0
149
0.0
100
AcDbLayout
  1
布局2
 70
     1
 71
     2
 10
0.0
 20
0.0
 11
12.0
 21
9.0
 12
0.0
 22
0.0
 32
0.0
 14
0.0
 24
0.0
 34
0.0
 15
0.0
 25
0.0
 35
0.0
146
0.0
 13
0.0
 23
0.0
 33
0.0
 16
1.0
 26
0.0
 36
0.0
 17
0.0
 27
1.0
 37
0.0
 76
     0
330
25
  0
MLINESTYLE
  5
18
102
{ACAD_REACTORS
330
17
102
}
330
17
100
AcDbMlineStyle
  2
STANDARD
 70
     0
  3

 62
   256
 51
90.0
 52
90.0
 71
     2
 49
0.5
 62
   256
  6
BYLAYER
 49
-0.5
 62
   256
  6
BYLAYER
  0
ACDBPLACEHOLDER
  5
F
102
{ACAD_REACTORS
330
E
102
}
330
E
  0
ENDSEC
  0
EOF
