  0
SECTION
  2
HEADER
  9
$ACADVER
  1
AC1018
  9
$ACADMAINTVER
 70
     0
  9
$DWGCODEPAGE
  3
ANSI_936
  9
$INSBASE
 10
0.0
 20
0.0
 30
0.0
  9
$EXTMIN
 10
146.0151646100357
 20
48.56346288901659
 30
-0.0015258207003583
  9
$EXTMAX
 10
176.7419924033511
 20
228.5945460506409
 30
0.0000000349246037
  9
$LIMMIN
 10
0.0
 20
0.0
  9
$LIMMAX
 10
420.0
 20
297.0
  9
$ORTHOMODE
 70
     1
  9
$REGENMODE
 70
     1
  9
$FILLMODE
 70
     1
  9
$QTEXTMODE
 70
     0
  9
$MIRRTEXT
 70
     0
  9
$LTSCALE
 40
1.0
  9
$ATTMODE
 70
     1
  9
$TEXTSIZE
 40
2.5
  9
$TRACEWID
 40
1.0
  9
$TEXTSTYLE
  7
Standard
  9
$CLAYER
  8
标注
  9
$CELTYPE
  6
ByLayer
  9
$CECOLOR
 62
   256
  9
$CELTSCALE
 40
1.0
  9
$DISPSILH
 70
     0
  9
$DIMSCALE
 40
1.0
  9
$DIMASZ
 40
0.65
  9
$DIMEXO
 40
0.88
  9
$DIMDLI
 40
0.015
  9
$DIMRND
 40
0.0
  9
$DIMDLE
 40
0.0
  9
$DIMEXE
 40
0.32
  9
$DIMTP
 40
0.0
  9
$DIMTM
 40
0.0
  9
$DIMTXT
 40
0.65
  9
$DIMCEN
 40
0.09
  9
$DIMTSZ
 40
0.0
  9
$DIMTOL
 70
     0
  9
$DIMLIM
 70
     0
  9
$DIMTIH
 70
     0
  9
$DIMTOH
 70
     0
  9
$DIMSE1
 70
     0
  9
$DIMSE2
 70
     0
  9
$DIMTAD
 70
     0
  9
$DIMZIN
 70
     8
  9
$DIMBLK
  1

  9
$DIMASO
 70
     1
  9
$DIMSHO
 70
     1
  9
$DIMPOST
  1
"
  9
$DIMAPOST
  1
"
  9
$DIMALT
 70
     0
  9
$DIMALTD
 70
     1
  9
$DIMALTF
 40
0.03937
  9
$DIMLFAC
 40
1.0
  9
$DIMTOFL
 70
     1
  9
$DIMTVP
 40
0.0
  9
$DIMTIX
 70
     0
  9
$DIMSOXD
 70
     0
  9
$DIMSAH
 70
     0
  9
$DIMBLK1
  1

  9
$DIMBLK2
  1

  9
$DIMSTYLE
  2
副本Standard
  9
$DIMCLRD
 70
   256
  9
$DIMCLRE
 70
   256
  9
$DIMCLRT
 70
   256
  9
$DIMTFAC
 40
1.0
  9
$DIMGAP
 40
0.2
  9
$DIMJUST
 70
     0
  9
$DIMSD1
 70
     0
  9
$DIMSD2
 70
     0
  9
$DIMTOLJ
 70
     1
  9
$DIMTZIN
 70
     0
  9
$DIMALTZ
 70
     0
  9
$DIMALTTZ
 70
     0
  9
$DIMUPT
 70
     0
  9
$DIMDEC
 70
     3
  9
$DIMTDEC
 70
     3
  9
$DIMALTU
 70
     2
  9
$DIMALTTD
 70
     1
  9
$DIMTXSTY
  7
Standard
  9
$DIMAUNIT
 70
     0
  9
$DIMADEC
 70
     1
  9
$DIMALTRND
 40
0.0
  9
$DIMAZIN
 70
     2
  9
$DIMDSEP
 70
    44
  9
$DIMATFIT
 70
     3
  9
$DIMFRAC
 70
     2
  9
$DIMLDRBLK
  1

  9
$DIMLUNIT
 70
     5
  9
$DIMLWD
 70
    -2
  9
$DIMLWE
 70
    -2
  9
$DIMTMOVE
 70
     0
  9
$LUNITS
 70
     2
  9
$LUPREC
 70
     4
  9
$SKETCHINC
 40
1.0
  9
$FILLETRAD
 40
2.0
  9
$AUNITS
 70
     0
  9
$AUPREC
 70
     0
  9
$MENU
  1
.
  9
$ELEVATION
 40
0.0
  9
$PELEVATION
 40
0.0
  9
$THICKNESS
 40
0.0
  9
$LIMCHECK
 70
     0
  9
$CHAMFERA
 40
0.0
  9
$CHAMFERB
 40
0.0
  9
$CHAMFERC
 40
0.0
  9
$CHAMFERD
 40
0.0
  9
$SKPOLY
 70
     0
  9
$TDCREATE
 40
2455855.628782743
  9
$TDUCREATE
 40
2455855.295449410
  9
$TDUPDATE
 40
2455961.422800555
  9
$TDUUPDATE
 40
2455961.089467222
  9
$TDINDWG
 40
0.1132195718
  9
$TDUSRTIMER
 40
0.1132190278
  9
$USRTIMER
 70
     1
  9
$ANGBASE
 50
0.0
  9
$ANGDIR
 70
     0
  9
$PDMODE
 70
     0
  9
$PDSIZE
 40
0.0
  9
$PLINEWID
 40
0.0
  9
$SPLFRAME
 70
     0
  9
$SPLINETYPE
 70
     6
  9
$SPLINESEGS
 70
     8
  9
$HANDSEED
  5
1841
  9
$SURFTAB1
 70
     6
  9
$SURFTAB2
 70
     6
  9
$SURFTYPE
 70
     6
  9
$SURFU
 70
     6
  9
$SURFV
 70
     6
  9
$UCSBASE
  2

  9
$UCSNAME
  2

  9
$UCSORG
 10
0.0
 20
0.0
 30
0.0
  9
$UCSXDIR
 10
1.0
 20
0.0
 30
0.0
  9
$UCSYDIR
 10
0.0
 20
1.0
 30
0.0
  9
$UCSORTHOREF
  2

  9
$UCSORTHOVIEW
 70
     0
  9
$UCSORGTOP
 10
0.0
 20
0.0
 30
0.0
  9
$UCSORGBOTTOM
 10
0.0
 20
0.0
 30
0.0
  9
$UCSORGLEFT
 10
0.0
 20
0.0
 30
0.0
  9
$UCSORGRIGHT
 10
0.0
 20
0.0
 30
0.0
  9
$UCSORGFRONT
 10
0.0
 20
0.0
 30
0.0
  9
$UCSORGBACK
 10
0.0
 20
0.0
 30
0.0
  9
$PUCSBASE
  2

  9
$PUCSNAME
  2

  9
$PUCSORG
 10
0.0
 20
0.0
 30
0.0
  9
$PUCSXDIR
 10
1.0
 20
0.0
 30
0.0
  9
$PUCSYDIR
 10
0.0
 20
1.0
 30
0.0
  9
$PUCSORTHOREF
  2

  9
$PUCSORTHOVIEW
 70
     0
  9
$PUCSORGTOP
 10
0.0
 20
0.0
 30
0.0
  9
$PUCSORGBOTTOM
 10
0.0
 20
0.0
 30
0.0
  9
$PUCSORGLEFT
 10
0.0
 20
0.0
 30
0.0
  9
$PUCSORGRIGHT
 10
0.0
 20
0.0
 30
0.0
  9
$PUCSORGFRONT
 10
0.0
 20
0.0
 30
0.0
  9
$PUCSORGBACK
 10
0.0
 20
0.0
 30
0.0
  9
$USERI1
 70
     0
  9
$USERI2
 70
     0
  9
$USERI3
 70
     0
  9
$USERI4
 70
     0
  9
$USERI5
 70
     0
  9
$USERR1
 40
0.0
  9
$USERR2
 40
0.0
  9
$USERR3
 40
0.0
  9
$USERR4
 40
0.0
  9
$USERR5
 40
0.0
  9
$WORLDVIEW
 70
     1
  9
$SHADEDGE
 70
     3
  9
$SHADEDIF
 70
    70
  9
$TILEMODE
 70
     1
  9
$MAXACTVP
 70
    64
  9
$PINSBASE
 10
0.0
 20
0.0
 30
0.0
  9
$PLIMCHECK
 70
     0
  9
$PEXTMIN
 10
1.000000000000000E+20
 20
1.000000000000000E+20
 30
1.000000000000000E+20
  9
$PEXTMAX
 10
-1.000000000000000E+20
 20
-1.000000000000000E+20
 30
-1.000000000000000E+20
  9
$PLIMMIN
 10
0.0
 20
0.0
  9
$PLIMMAX
 10
420.0
 20
297.0
  9
$UNITMODE
 70
     0
  9
$VISRETAIN
 70
     1
  9
$PLINEGEN
 70
     0
  9
$PSLTSCALE
 70
     1
  9
$TREEDEPTH
 70
  3020
  9
$CMLSTYLE
  2
Standard
  9
$CMLJUST
 70
     0
  9
$CMLSCALE
 40
20.0
  9
$PROXYGRAPHICS
 70
     1
  9
$MEASUREMENT
 70
     1
  9
$CELWEIGHT
370
    -1
  9
$ENDCAPS
280
     0
  9
$JOINSTYLE
280
     0
  9
$LWDISPLAY
290
     0
  9
$INSUNITS
 70
     4
  9
$HYPERLINKBASE
  1

  9
$STYLESHEET
  1
acad.ctb
  9
$XEDIT
290
     1
  9
$CEPSNTYPE
380
     0
  9
$PSTYLEMODE
290
     1
  9
$FINGERPRINTGUID
  2
{B48F46D2-D0EA-4C00-A4A8-23CB7417C210}
  9
$VERSIONGUID
  2
{6D75F193-7E77-43C0-BA97-7511228B4818}
  9
$EXTNAMES
290
     1
  9
$PSVPSCALE
 40
0.0
  9
$OLESTARTUP
290
     0
  9
$SORTENTS
280
   127
  9
$INDEXCTL
280
     0
  9
$HIDETEXT
280
     1
  9
$XCLIPFRAME
290
     0
  9
$HALOGAP
280
     0
  9
$OBSCOLOR
 70
   257
  9
$OBSLTYPE
280
     0
  9
$INTERSECTIONDISPLAY
280
     0
  9
$INTERSECTIONCOLOR
 70
   257
  9
$DIMASSOC
280
     2
  9
$PROJECTNAME
  1

  0
ENDSEC
  0
SECTION
  2
CLASSES
  0
CLASS
  1
ACDBDICTIONARYWDFLT
  2
AcDbDictionaryWithDefault
  3
ObjectDBX Classes
 90
        0
 91
        1
280
     0
281
     0
  0
CLASS
  1
DIMASSOC
  2
AcDbDimAssoc
  3
"AcDbDimAssoc|Product Desc:     AcDim ARX App For Dimension|Company:          Autodesk, Inc.|WEB Address:      www.autodesk.com"
 90
        0
 91
        5
280
     0
281
     0
  0
CLASS
  1
SORTENTSTABLE
  2
AcDbSortentsTable
  3
ObjectDBX Classes
 90
        0
 91
        0
280
     0
281
     0
  0
ENDSEC
  0
SECTION
  2
TABLES
  0
TABLE
  2
VPORT
  5
8
330
0
100
AcDbSymbolTable
 70
     3
  0
VPORT
  5
1840
330
8
100
AcDbSymbolTableRecord
100
AcDbViewportTableRecord
  2
*Active
 70
     0
 10
0.0
 20
0.0
 11
1.0
 21
1.0
 12
165.0072705452005
 22
135.3858975431203
 13
0.0
 23
0.0
 14
10.0
 24
10.0
 15
10.0
 25
10.0
 16
0.0
 26
0.0
 36
1.0
 17
0.0
 27
0.0
 37
0.0
 40
239.5677462732511
 41
1.49746192893401
 42
50.0
 43
0.0
 44
0.0
 50
0.0
 51
0.0
 71
     0
 72
  1000
 73
     1
 74
     3
 75
     0
 76
     0
 77
     0
 78
     0
281
     0
 65
     1
110
0.0
120
0.0
130
0.0
111
1.0
121
0.0
131
0.0
112
0.0
122
1.0
132
0.0
 79
     0
146
0.0
  0
ENDTAB
  0
TABLE
  2
LTYPE
  5
5
330
0
100
AcDbSymbolTable
 70
     4
  0
LTYPE
  5
14
330
5
100
AcDbSymbolTableRecord
100
AcDbLinetypeTableRecord
  2
ByBlock
 70
     0
  3

 72
    65
 73
     0
 40
0.0
  0
LTYPE
  5
15
330
5
100
AcDbSymbolTableRecord
100
AcDbLinetypeTableRecord
  2
ByLayer
 70
     0
  3

 72
    65
 73
     0
 40
0.0
  0
LTYPE
  5
16
330
5
100
AcDbSymbolTableRecord
100
AcDbLinetypeTableRecord
  2
Continuous
 70
     0
  3
Solid line
 72
    65
 73
     0
 40
0.0
  0
LTYPE
  5
ED
330
5
100
AcDbSymbolTableRecord
100
AcDbLinetypeTableRecord
  2
CENTER2
 70
     0
  3
Center (.5x) ___ _ ___ _ ___ _ ___ _ ___ _ ___
 72
    65
 73
     4
 40
28.575
 49
19.05
 74
     0
 49
-3.174999999999998
 74
     0
 49
3.174999999999998
 74
     0
 49
-3.174999999999998
 74
     0
  0
LTYPE
  5
EE
330
5
100
AcDbSymbolTableRecord
100
AcDbLinetypeTableRecord
  2
HIDDEN2
 70
     0
  3
Hidden (.5x) _ _ _ _ _ _ _ _ _ _ _ _ _ _ _ _ _
 72
    65
 73
     2
 40
4.762499999999998
 49
3.174999999999998
 74
     0
 49
-1.587499999999999
 74
     0
  0
LTYPE
  5
1030
330
5
100
AcDbSymbolTableRecord
100
AcDbLinetypeTableRecord
  2
CENTERX2
 70
     0
  3
Center (2x) ________  __  ________  __  _____
 72
    65
 73
     4
 40
101.6
 49
63.5
 74
     0
 49
-12.7
 74
     0
 49
12.7
 74
     0
 49
-12.7
 74
     0
  0
ENDTAB
  0
TABLE
  2
LAYER
  5
2
102
{ACAD_XDICTIONARY
360
F7
102
}
330
0
100
AcDbSymbolTable
 70
     6
  0
LAYER
  5
10
330
2
100
AcDbSymbolTableRecord
100
AcDbLayerTableRecord
  2
0
 70
     0
 62
     7
  6
Continuous
370
    -3
390
F
  0
LAYER
  5
EF
330
2
100
AcDbSymbolTableRecord
100
AcDbLayerTableRecord
  2
中心线
 70
     0
 62
     1
  6
CENTER2
370
    -3
390
F
  0
LAYER
  5
F0
330
2
100
AcDbSymbolTableRecord
100
AcDbLayerTableRecord
  2
虚线
 70
     0
 62
     4
  6
HIDDEN2
370
    -3
390
F
  0
LAYER
  5
F1
330
2
100
AcDbSymbolTableRecord
100
AcDbLayerTableRecord
  2
Defpoints
 70
     0
 62
     7
  6
Continuous
290
     0
370
    -3
390
F
  0
LAYER
  5
F2
330
2
100
AcDbSymbolTableRecord
100
AcDbLayerTableRecord
  2
标注
 70
     0
 62
    80
  6
Continuous
370
     5
390
F
1001
AcAecLayerStandard
1000

1000

  0
LAYER
  5
F3
330
2
100
AcDbSymbolTableRecord
100
AcDbLayerTableRecord
  2
截面层
 70
     0
 62
     6
  6
Continuous
370
    50
390
F
  0
ENDTAB
  0
TABLE
  2
STYLE
  5
3
330
0
100
AcDbSymbolTable
 70
     1
  0
STYLE
  5
11
330
3
100
AcDbSymbolTableRecord
100
AcDbTextStyleTableRecord
  2
Standard
 70
     0
 40
0.0
 41
1.0
 50
0.0
 71
     0
 42
2.5
  3
txt
  4

  0
ENDTAB
  0
TABLE
  2
VIEW
  5
6
330
0
100
AcDbSymbolTable
 70
     0
  0
ENDTAB
  0
TABLE
  2
UCS
  5
7
330
0
100
AcDbSymbolTable
 70
     0
  0
ENDTAB
  0
TABLE
  2
APPID
  5
9
330
0
100
AcDbSymbolTable
 70
     6
  0
APPID
  5
12
330
9
100
AcDbSymbolTableRecord
100
AcDbRegAppTableRecord
  2
ACAD
 70
     0
  0
APPID
  5
F6
330
9
100
AcDbSymbolTableRecord
100
AcDbRegAppTableRecord
  2
AcAecLayerStandard
 70
     0
  0
APPID
  5
453
330
9
100
AcDbSymbolTableRecord
100
AcDbRegAppTableRecord
  2
ACAD_DSTYLE_DIMEXT_LENGTH
 70
     0
  0
APPID
  5
454
330
9
100
AcDbSymbolTableRecord
100
AcDbRegAppTableRecord
  2
ACAD_DSTYLE_DIMEXT_ENABLED
 70
     0
  0
APPID
  5
455
330
9
100
AcDbSymbolTableRecord
100
AcDbRegAppTableRecord
  2
ACAD_DSTYLE_DIMJOGGED_JOGANGLE_SYMBOL
 70
     0
  0
APPID
  5
456
330
9
100
AcDbSymbolTableRecord
100
AcDbRegAppTableRecord
  2
ACAD_DSTYLE_DIMARC_LENGTH_SYMBOL
 70
     0
  0
ENDTAB
  0
TABLE
  2
DIMSTYLE
  5
A
330
0
100
AcDbSymbolTable
 70
     6
100
AcDbDimStyleTable
 71
     2
340
F5
340
29
  0
DIMSTYLE
105
29
330
A
100
AcDbSymbolTableRecord
100
AcDbDimStyleTableRecord
  2
ISO-25
 70
     0
 41
2.5
 42
0.625
 43
3.75
 44
1.25
 73
     0
 74
     0
 77
     1
 78
     8
140
2.5
141
2.5
143
0.03937007874016
147
0.625
171
     3
172
     1
271
     2
272
     2
274
     3
283
     0
284
     8
340
11
  0
DIMSTYLE
105
F4
330
A
100
AcDbSymbolTableRecord
100
AcDbDimStyleTableRecord
  2
Standard
 70
     0
340
11
  0
DIMSTYLE
105
F5
102
{ACAD_REACTORS
330
1060
330
14DA
330
14DD
330
14DE
330
14DF
330
14E0
330
14E3
330
16E8
102
}
330
A
100
AcDbSymbolTableRecord
100
AcDbDimStyleTableRecord
  2
副本Standard
 70
     0
  3
"
  4
"
 41
0.65
 42
0.88
 43
0.015
 44
0.32
 73
     0
 74
     0
 78
     8
 79
     2
140
0.65
143
0.03937
147
0.2
171
     1
172
     1
176
   256
177
   256
178
   256
179
     1
271
     3
272
     3
274
     1
276
     2
277
     5
278
    44
340
11
  0
DIMSTYLE
105
149E
330
A
100
AcDbSymbolTableRecord
100
AcDbDimStyleTableRecord
  2
XIAO
 70
     0
 41
3.5
 42
3.0
 43
1.0
 44
1.0
 73
     0
 74
     0
 77
     1
 78
     8
140
4.0
141
1.5
143
0.03937007874016
147
1.0
171
     3
172
     1
179
     1
271
     1
272
     1
274
     3
278
    44
283
     0
284
     8
340
11
  0
DIMSTYLE
105
149F
330
A
100
AcDbSymbolTableRecord
100
AcDbDimStyleTableRecord
  2
副本 (100818)Standard
 70
     0
  4
"
 41
16.0
 42
0.0
 44
7.0
 78
     8
 79
     2
140
20.0
143
0.03937
147
5.0
171
     3
172
     1
176
   256
177
   256
178
   256
179
     1
271
     1
272
     1
273
     7
274
     3
278
    44
340
11
341
1422
  0
DIMSTYLE
105
14A0
330
A
100
AcDbSymbolTableRecord
100
AcDbDimStyleTableRecord
  2
副本 (2) (100818)Standard
 70
     0
  4
"
 41
16.0
 42
20.0
 44
7.0
 78
     8
 79
     2
140
20.0
143
0.03937
147
5.0
171
     3
172
     1
176
   256
177
   256
178
   256
179
     1
271
     1
272
     1
273
     7
274
     3
278
    44
340
11
341
1422
  0
ENDTAB
  0
TABLE
  2
BLOCK_RECORD
  5
1
330
0
100
AcDbSymbolTable
 70
   170
  0
BLOCK_RECORD
  5
21
330
1
100
AcDbSymbolTableRecord
100
AcDbBlockTableRecord
  2
*Model_Space
340
24
  0
BLOCK_RECORD
  5
1D
330
1
100
AcDbSymbolTableRecord
100
AcDbBlockTableRecord
  2
*Paper_Space
340
20
  0
BLOCK_RECORD
  5
25
330
1
100
AcDbSymbolTableRecord
100
AcDbBlockTableRecord
  2
*Paper_Space0
340
28
  0
BLOCK_RECORD
  5
10F1
330
1
100
AcDbSymbolTableRecord
100
AcDbBlockTableRecord
  2
*D132
340
0
  0
BLOCK_RECORD
  5
1422
330
1
100
AcDbSymbolTableRecord
100
AcDbBlockTableRecord
  2
_Oblique
340
0
  0
BLOCK_RECORD
  5
1501
330
1
100
AcDbSymbolTableRecord
100
AcDbBlockTableRecord
  2
*D158
340
0
  0
BLOCK_RECORD
  5
150E
330
1
100
AcDbSymbolTableRecord
100
AcDbBlockTableRecord
  2
*D159
340
0
  0
BLOCK_RECORD
  5
151B
330
1
100
AcDbSymbolTableRecord
100
AcDbBlockTableRecord
  2
*D160
340
0
  0
BLOCK_RECORD
  5
1528
330
1
100
AcDbSymbolTableRecord
100
AcDbBlockTableRecord
  2
*D161
340
0
  0
BLOCK_RECORD
  5
1553
330
1
100
AcDbSymbolTableRecord
100
AcDbBlockTableRecord
  2
*D162
340
0
  0
BLOCK_RECORD
  5
1560
330
1
100
AcDbSymbolTableRecord
100
AcDbBlockTableRecord
  2
*D163
340
0
  0
BLOCK_RECORD
  5
16E9
330
1
100
AcDbSymbolTableRecord
100
AcDbBlockTableRecord
  2
*D169
340
0
  0
ENDTAB
  0
ENDSEC
  0
SECTION
  2
BLOCKS
  0
BLOCK
  5
22
330
21
100
AcDbEntity
  8
0
100
AcDbBlockBegin
  2
*Model_Space
 70
     0
 10
0.0
 20
0.0
 30
0.0
  3
*Model_Space
  1

  0
ENDBLK
  5
23
330
21
100
AcDbEntity
  8
0
100
AcDbBlockEnd
  0
BLOCK
  5
1E
330
1D
100
AcDbEntity
 67
     1
  8
0
100
AcDbBlockBegin
  2
*Paper_Space
 70
     0
 10
0.0
 20
0.0
 30
0.0
  3
*Paper_Space
  1

  0
ENDBLK
  5
1F
330
1D
100
AcDbEntity
 67
     1
  8
0
100
AcDbBlockEnd
  0
BLOCK
  5
26
330
25
100
AcDbEntity
  8
0
100
AcDbBlockBegin
  2
*Paper_Space0
 70
     0
 10
0.0
 20
0.0
 30
0.0
  3
*Paper_Space0
  1

  0
ENDBLK
  5
27
330
25
100
AcDbEntity
  8
0
100
AcDbBlockEnd
  0
BLOCK
  5
10FC
330
10F1
100
AcDbEntity
  8
0
100
AcDbBlockBegin
  2
*D132
 70
     1
 10
0.0
 20
0.0
 30
0.0
  3
*D132
  1

  0
LINE
  5
1279
330
10F1
100
AcDbEntity
  8
标注
370
    -2
100
AcDbLine
 10
172.4980848921357
 20
227.9662099990851
 30
0.0
 11
174.3897763074026
 21
227.9662099990851
 31
0.0
  0
LINE
  5
127A
330
10F1
100
AcDbEntity
  8
标注
370
    -2
100
AcDbLine
 10
163.0689510338679
 20
218.9898320463292
 30
0.0
 11
174.3897763074026
 21
218.9898320463292
 31
0.0
  0
LINE
  5
127B
330
10F1
100
AcDbEntity
  8
标注
370
    -2
100
AcDbLine
 10
174.0697763074026
 20
227.3162099990851
 30
0.0
 11
174.0697763074026
 21
224.1113543560405
 31
0.0
  0
LINE
  5
127C
330
10F1
100
AcDbEntity
  8
标注
370
    -2
100
AcDbLine
 10
174.0697763074026
 20
219.6398320463292
 30
0.0
 11
174.0697763074026
 21
222.8446876893738
 31
0.0
  0
SOLID
  5
127D
330
10F1
100
AcDbEntity
  8
标注
100
AcDbTrace
 10
173.9614429740693
 20
227.3162099990851
 30
0.0
 11
174.178109640736
 21
227.3162099990851
 31
0.0
 12
174.0697763074026
 22
227.9662099990851
 32
0.0
 13
174.0697763074026
 23
227.9662099990851
 33
0.0
  0
SOLID
  5
127E
330
10F1
100
AcDbEntity
  8
标注
100
AcDbTrace
 10
173.9614429740693
 20
219.6398320463292
 30
0.0
 11
174.178109640736
 21
219.6398320463292
 31
0.0
 12
174.0697763074026
 22
218.9898320463292
 32
0.0
 13
174.0697763074026
 23
218.9898320463292
 33
0.0
  0
MTEXT
  5
127F
330
10F1
100
AcDbEntity
  8
标注
100
AcDbMText
 10
174.0697763074026
 20
223.4780210227071
 30
0.0
 40
0.65
 41
0.0
 71
     5
 72
     1
  1
\A1;9"
 11
0.0000000000000001
 21
1.0
 31
0.0
 73
     1
 44
1.0
  0
POINT
  5
1280
330
10F1
100
AcDbEntity
  8
Defpoints
 62
     0
100
AcDbPoint
 10
171.6180848921357
 20
227.9662099990851
 30
0.0
  0
POINT
  5
1281
330
10F1
100
AcDbEntity
  8
Defpoints
 62
     0
100
AcDbPoint
 10
162.1889510338679
 20
218.9898320463292
 30
0.0
  0
POINT
  5
1282
330
10F1
100
AcDbEntity
  8
Defpoints
 62
     0
100
AcDbPoint
 10
174.0697763074026
 20
218.9898320463292
 30
0.0
  0
ENDBLK
  5
10FD
330
10F1
100
AcDbEntity
  8
0
100
AcDbBlockEnd
  0
BLOCK
  5
1423
330
1422
100
AcDbEntity
  8
0
 48
5.0
100
AcDbBlockBegin
  2
_Oblique
 70
     0
 10
0.0
 20
0.0
 30
0.0
  3
_Oblique
  1

  0
LINE
  5
1424
330
1422
100
AcDbEntity
  8
0
  6
ByBlock
 62
     0
370
    -2
100
AcDbLine
 10
-0.5
 20
-0.5
 30
0.0
 11
0.5
 21
0.5
 31
0.0
  0
ENDBLK
  5
1425
330
1422
100
AcDbEntity
  8
0
 48
5.0
100
AcDbBlockEnd
  0
BLOCK
  5
150C
330
1501
100
AcDbEntity
  8
0
100
AcDbBlockBegin
  2
*D158
 70
     1
 10
0.0
 20
0.0
 30
0.0
  3
*D158
  1

  0
LINE
  5
1732
330
1501
100
AcDbEntity
  8
标注
370
    -2
100
AcDbLine
 10
160.7854864669387
 20
205.8516452106307
 30
0.0
 11
174.5103666906396
 21
205.8516452106307
 31
0.0
  0
LINE
  5
1733
330
1501
100
AcDbEntity
  8
标注
370
    -2
100
AcDbLine
 10
160.7854864669389
 20
189.9067633208669
 30
0.0
 11
174.5103666906396
 21
189.9067633208669
 31
0.0
  0
LINE
  5
1734
330
1501
100
AcDbEntity
  8
标注
370
    -2
100
AcDbLine
 10
174.1903666906396
 20
205.2016452106307
 30
0.0
 11
174.1903666906396
 21
198.7292042657488
 31
0.0
  0
LINE
  5
1735
330
1501
100
AcDbEntity
  8
标注
370
    -2
100
AcDbLine
 10
174.1903666906396
 20
190.5567633208669
 30
0.0
 11
174.1903666906396
 21
197.0292042657488
 31
0.0
  0
SOLID
  5
1736
330
1501
100
AcDbEntity
  8
标注
100
AcDbTrace
 10
174.0820333573063
 20
205.2016452106307
 30
0.0
 11
174.2987000239729
 21
205.2016452106307
 31
0.0
 12
174.1903666906396
 22
205.8516452106307
 32
0.0
 13
174.1903666906396
 23
205.8516452106307
 33
0.0
  0
SOLID
  5
1737
330
1501
100
AcDbEntity
  8
标注
100
AcDbTrace
 10
174.0820333573062
 20
190.5567633208669
 30
0.0
 11
174.2987000239729
 21
190.5567633208669
 31
0.0
 12
174.1903666906396
 22
189.9067633208669
 32
0.0
 13
174.1903666906396
 23
189.9067633208669
 33
0.0
  0
MTEXT
  5
1738
330
1501
100
AcDbEntity
  8
标注
100
AcDbMText
 10
174.1903666906395
 20
197.8792042657488
 30
0.0
 40
0.65
 41
0.0
 71
     5
 72
     1
  1
\A1;16"
 11
0.0000000000000001
 21
1.0
 31
0.0
 73
     1
 44
1.0
  0
POINT
  5
1739
330
1501
100
AcDbEntity
  8
Defpoints
 62
     0
100
AcDbPoint
 10
159.9054864669387
 20
205.8516452106307
 30
0.0
  0
POINT
  5
173A
330
1501
100
AcDbEntity
  8
Defpoints
 62
     0
100
AcDbPoint
 10
159.905486466939
 20
189.9067633208669
 30
0.0
  0
POINT
  5
173B
330
1501
100
AcDbEntity
  8
Defpoints
 62
     0
100
AcDbPoint
 10
174.1903666906396
 20
189.9067633208669
 30
0.0
  0
ENDBLK
  5
150D
330
1501
100
AcDbEntity
  8
0
100
AcDbBlockEnd
  0
BLOCK
  5
1519
330
150E
100
AcDbEntity
  8
0
100
AcDbBlockBegin
  2
*D159
 70
     1
 10
0.0
 20
0.0
 30
0.0
  3
*D159
  1

  0
LINE
  5
1728
330
150E
100
AcDbEntity
  8
标注
370
    -2
100
AcDbLine
 10
160.7854864669393
 20
206.7374719822831
 30
0.0
 11
176.6739880210954
 21
206.7374719822831
 31
0.0
  0
LINE
  5
1729
330
150E
100
AcDbEntity
  8
标注
370
    -2
100
AcDbLine
 10
160.7854864669393
 20
189.0209365492134
 30
0.0
 11
176.6739880210954
 21
189.0209365492134
 31
0.0
  0
LINE
  5
172A
330
150E
100
AcDbEntity
  8
标注
370
    -2
100
AcDbLine
 10
176.3539880210954
 20
206.0874719822831
 30
0.0
 11
176.3539880210954
 21
200.0292042657483
 31
0.0
  0
LINE
  5
172B
330
150E
100
AcDbEntity
  8
标注
370
    -2
100
AcDbLine
 10
176.3539880210954
 20
189.6709365492134
 30
0.0
 11
176.3539880210954
 21
195.7292042657482
 31
0.0
  0
SOLID
  5
172C
330
150E
100
AcDbEntity
  8
标注
100
AcDbTrace
 10
176.2456546877621
 20
206.0874719822831
 30
0.0
 11
176.4623213544288
 21
206.0874719822831
 31
0.0
 12
176.3539880210954
 22
206.7374719822831
 32
0.0
 13
176.3539880210954
 23
206.7374719822831
 33
0.0
  0
SOLID
  5
172D
330
150E
100
AcDbEntity
  8
标注
100
AcDbTrace
 10
176.2456546877621
 20
189.6709365492134
 30
0.0
 11
176.4623213544287
 21
189.6709365492134
 31
0.0
 12
176.3539880210954
 22
189.0209365492134
 32
0.0
 13
176.3539880210954
 23
189.0209365492134
 33
0.0
  0
MTEXT
  5
172E
330
150E
100
AcDbEntity
  8
标注
100
AcDbMText
 10
176.3539880210954
 20
197.8792042657483
 30
0.0
 40
0.65
 41
0.0
 71
     5
 72
     1
  1
\A1;17 3/4"
 11
0.0000000000000001
 21
1.0
 31
0.0
 73
     1
 44
1.0
  0
POINT
  5
172F
330
150E
100
AcDbEntity
  8
Defpoints
 62
     0
100
AcDbPoint
 10
159.9054864669393
 20
206.7374719822831
 30
0.0
  0
POINT
  5
1730
330
150E
100
AcDbEntity
  8
Defpoints
 62
     0
100
AcDbPoint
 10
159.9054864669393
 20
189.0209365492134
 30
0.0
  0
POINT
  5
1731
330
150E
100
AcDbEntity
  8
Defpoints
 62
     0
100
AcDbPoint
 10
176.3539880210954
 20
189.0209365492134
 30
0.0
  0
ENDBLK
  5
151A
330
150E
100
AcDbEntity
  8
0
100
AcDbBlockEnd
  0
BLOCK
  5
1526
330
151B
100
AcDbEntity
  8
0
100
AcDbBlockBegin
  2
*D160
 70
     1
 10
0.0
 20
0.0
 30
0.0
  3
*D160
  1

  0
LINE
  5
171E
330
151B
100
AcDbEntity
  8
标注
370
    -2
100
AcDbLine
 10
171.6180848921361
 20
196.9992042657488
 30
0.0
 11
171.6180848921361
 21
184.2376694731857
 31
0.0
  0
LINE
  5
171F
330
151B
100
AcDbEntity
  8
标注
370
    -2
100
AcDbLine
 10
148.1928880417421
 20
196.9992042657499
 30
0.0
 11
148.1928880417421
 21
184.2376694731857
 31
0.0
  0
LINE
  5
1720
330
151B
100
AcDbEntity
  8
标注
370
    -2
100
AcDbLine
 10
170.9680848921361
 20
184.5576694731857
 30
0.0
 11
162.1638198002725
 21
184.5576694731857
 31
0.0
  0
LINE
  5
1721
330
151B
100
AcDbEntity
  8
标注
370
    -2
100
AcDbLine
 10
148.8428880417422
 20
184.5576694731857
 30
0.0
 11
157.6471531336058
 21
184.5576694731857
 31
0.0
  0
SOLID
  5
1722
330
151B
100
AcDbEntity
  8
标注
100
AcDbTrace
 10
170.9680848921361
 20
184.666002806519
 30
0.0
 11
170.9680848921361
 21
184.4493361398524
 31
0.0
 12
171.6180848921361
 22
184.5576694731857
 32
0.0
 13
171.6180848921361
 23
184.5576694731857
 33
0.0
  0
SOLID
  5
1723
330
151B
100
AcDbEntity
  8
标注
100
AcDbTrace
 10
148.8428880417422
 20
184.666002806519
 30
0.0
 11
148.8428880417422
 21
184.4493361398524
 31
0.0
 12
148.1928880417421
 22
184.5576694731857
 32
0.0
 13
148.1928880417421
 23
184.5576694731857
 33
0.0
  0
MTEXT
  5
1724
330
151B
100
AcDbEntity
  8
标注
100
AcDbMText
 10
159.9054864669391
 20
184.5576694731857
 30
0.0
 40
0.65
 41
0.0
 71
     5
 72
     1
  1
\A1;23 3/8"
 73
     1
 44
1.0
  0
POINT
  5
1725
330
151B
100
AcDbEntity
  8
Defpoints
 62
     0
100
AcDbPoint
 10
171.6180848921361
 20
197.8792042657488
 30
0.0
  0
POINT
  5
1726
330
151B
100
AcDbEntity
  8
Defpoints
 62
     0
100
AcDbPoint
 10
148.1928880417421
 20
197.8792042657499
 30
0.0
  0
POINT
  5
1727
330
151B
100
AcDbEntity
  8
Defpoints
 62
     0
100
AcDbPoint
 10
148.1928880417421
 20
184.5576694731857
 30
0.0
  0
ENDBLK
  5
1527
330
151B
100
AcDbEntity
  8
0
100
AcDbBlockEnd
  0
BLOCK
  5
1533
330
1528
100
AcDbEntity
  8
0
100
AcDbBlockBegin
  2
*D161
 70
     1
 10
0.0
 20
0.0
 30
0.0
  3
*D161
  1

  0
LINE
  5
1761
330
1528
100
AcDbEntity
  8
标注
370
    -2
100
AcDbLine
 10
160.7854864669389
 20
189.9067633208669
 30
0.0
 11
174.5103666906397
 21
189.9067633208669
 31
0.0
  0
LINE
  5
1762
330
1528
100
AcDbEntity
  8
标注
370
    -2
100
AcDbLine
 10
160.7854864669395
 20
189.0209365492134
 30
0.0
 11
174.5103666906397
 21
189.0209365492134
 31
0.0
  0
LINE
  5
1763
330
1528
100
AcDbEntity
  8
标注
370
    -2
100
AcDbLine
 10
174.1903666906397
 20
190.5567633208669
 30
0.0
 11
174.1903666906397
 21
191.2067633208669
 31
0.0
  0
LINE
  5
1764
330
1528
100
AcDbEntity
  8
标注
370
    -2
100
AcDbLine
 10
174.1903666906397
 20
188.3709365492134
 30
0.0
 11
174.1903666906397
 21
187.7209365492134
 31
0.0
  0
LINE
  5
1765
330
1528
100
AcDbEntity
  8
标注
370
    -2
100
AcDbLine
 10
174.1903666906397
 20
189.9067633208669
 30
0.0
 11
174.1903666906397
 21
189.0209365492134
 31
0.0
  0
SOLID
  5
1766
330
1528
100
AcDbEntity
  8
标注
100
AcDbTrace
 10
174.0820333573064
 20
190.5567633208669
 30
0.0
 11
174.2987000239731
 21
190.5567633208669
 31
0.0
 12
174.1903666906397
 22
189.9067633208669
 32
0.0
 13
174.1903666906397
 23
189.9067633208669
 33
0.0
  0
SOLID
  5
1767
330
1528
100
AcDbEntity
  8
标注
100
AcDbTrace
 10
174.0820333573064
 20
188.3709365492134
 30
0.0
 11
174.2987000239731
 21
188.3709365492134
 31
0.0
 12
174.1903666906397
 22
189.0209365492134
 32
0.0
 13
174.1903666906397
 23
189.0209365492134
 33
0.0
  0
MTEXT
  5
1768
330
1528
100
AcDbEntity
  8
标注
100
AcDbMText
 10
174.1903666906397
 20
186.43760321588
 30
0.0
 40
0.65
 41
0.0
 71
     5
 72
     1
  1
\A1;7/8"
 11
0.0000000000000001
 21
1.0
 31
0.0
 73
     1
 44
1.0
  0
POINT
  5
1769
330
1528
100
AcDbEntity
  8
Defpoints
 62
     0
100
AcDbPoint
 10
159.905486466939
 20
189.9067633208669
 30
0.0
  0
POINT
  5
176A
330
1528
100
AcDbEntity
  8
Defpoints
 62
     0
100
AcDbPoint
 10
159.9054864669395
 20
189.0209365492134
 30
0.0
  0
POINT
  5
176B
330
1528
100
AcDbEntity
  8
Defpoints
 62
     0
100
AcDbPoint
 10
174.1903666906397
 20
189.0209365492134
 30
0.0
  0
ENDBLK
  5
1534
330
1528
100
AcDbEntity
  8
0
100
AcDbBlockEnd
  0
BLOCK
  5
155E
330
1553
100
AcDbEntity
  8
0
100
AcDbBlockBegin
  2
*D162
 70
     1
 10
0.0
 20
0.0
 30
0.0
  3
*D162
  1

  0
LINE
  5
1756
330
1553
100
AcDbEntity
  8
标注
370
    -2
100
AcDbLine
 10
149.1771400102461
 20
196.9795192263787
 30
0.0
 11
149.1771400102461
 21
186.4818833302863
 31
0.0
  0
LINE
  5
1757
330
1553
100
AcDbEntity
  8
标注
370
    -2
100
AcDbLine
 10
148.1928880417421
 20
196.9992042657488
 30
0.0
 11
148.1928880417421
 21
186.4818833302863
 31
0.0
  0
LINE
  5
1758
330
1553
100
AcDbEntity
  8
标注
370
    -2
100
AcDbLine
 10
149.8271400102461
 20
186.8018833302863
 30
0.0
 11
150.4771400102461
 21
186.8018833302863
 31
0.0
  0
LINE
  5
1759
330
1553
100
AcDbEntity
  8
标注
370
    -2
100
AcDbLine
 10
147.5428880417422
 20
186.8018833302863
 30
0.0
 11
146.8928880417422
 21
186.8018833302863
 31
0.0
  0
LINE
  5
175A
330
1553
100
AcDbEntity
  8
标注
370
    -2
100
AcDbLine
 10
149.1771400102461
 20
186.8018833302863
 30
0.0
 11
148.1928880417421
 21
186.8018833302863
 31
0.0
  0
SOLID
  5
175B
330
1553
100
AcDbEntity
  8
标注
100
AcDbTrace
 10
149.8271400102461
 20
186.9102166636196
 30
0.0
 11
149.8271400102461
 21
186.693549996953
 31
0.0
 12
149.1771400102461
 22
186.8018833302863
 32
0.0
 13
149.1771400102461
 23
186.8018833302863
 33
0.0
  0
SOLID
  5
175C
330
1553
100
AcDbEntity
  8
标注
100
AcDbTrace
 10
147.5428880417422
 20
186.9102166636196
 30
0.0
 11
147.5428880417422
 21
186.693549996953
 31
0.0
 12
148.1928880417421
 22
186.8018833302863
 32
0.0
 13
148.1928880417421
 23
186.8018833302863
 33
0.0
  0
MTEXT
  5
175D
330
1553
100
AcDbEntity
  8
标注
100
AcDbMText
 10
146.3678880417422
 20
186.8018833302863
 30
0.0
 40
0.65
 41
0.0
 71
     5
 72
     1
  1
\A1;1"
 73
     1
 44
1.0
  0
POINT
  5
175E
330
1553
100
AcDbEntity
  8
Defpoints
 62
     0
100
AcDbPoint
 10
149.1771400102461
 20
197.8595192263787
 30
0.0
  0
POINT
  5
175F
330
1553
100
AcDbEntity
  8
Defpoints
 62
     0
100
AcDbPoint
 10
148.1928880417421
 20
197.8792042657488
 30
0.0
  0
POINT
  5
1760
330
1553
100
AcDbEntity
  8
Defpoints
 62
     0
100
AcDbPoint
 10
148.1928880417421
 20
186.8018833302863
 30
0.0
  0
ENDBLK
  5
155F
330
1553
100
AcDbEntity
  8
0
100
AcDbBlockEnd
  0
BLOCK
  5
156B
330
1560
100
AcDbEntity
  8
0
100
AcDbBlockBegin
  2
*D163
 70
     1
 10
0.0
 20
0.0
 30
0.0
  3
*D163
  1

  0
LINE
  5
174C
330
1560
100
AcDbEntity
  8
标注
370
    -2
100
AcDbLine
 10
149.1771431051122
 20
197.0004630185404
 30
0.0
 11
149.1771431051122
 21
186.4818833302683
 31
0.0
  0
LINE
  5
174D
330
1560
100
AcDbEntity
  8
标注
370
    -2
100
AcDbLine
 10
170.6338265571527
 20
197.0095581268988
 30
0.0
 11
170.6338265571527
 21
186.4818833302683
 31
0.0
  0
LINE
  5
174E
330
1560
100
AcDbEntity
  8
标注
370
    -2
100
AcDbLine
 10
149.8271431051122
 20
186.8018833302683
 30
0.0
 11
157.8638181644658
 21
186.8018833302683
 31
0.0
  0
LINE
  5
174F
330
1560
100
AcDbEntity
  8
标注
370
    -2
100
AcDbLine
 10
169.9838265571527
 20
186.8018833302683
 30
0.0
 11
161.9471514977991
 21
186.8018833302683
 31
0.0
  0
SOLID
  5
1750
330
1560
100
AcDbEntity
  8
标注
100
AcDbTrace
 10
149.8271431051122
 20
186.9102166636016
 30
0.0
 11
149.8271431051122
 21
186.6935499969349
 31
0.0
 12
149.1771431051122
 22
186.8018833302683
 32
0.0
 13
149.1771431051122
 23
186.8018833302683
 33
0.0
  0
SOLID
  5
1751
330
1560
100
AcDbEntity
  8
标注
100
AcDbTrace
 10
169.9838265571527
 20
186.9102166636016
 30
0.0
 11
169.9838265571527
 21
186.6935499969349
 31
0.0
 12
170.6338265571527
 22
186.8018833302683
 32
0.0
 13
170.6338265571527
 23
186.8018833302683
 33
0.0
  0
MTEXT
  5
1752
330
1560
100
AcDbEntity
  8
标注
100
AcDbMText
 10
159.9054848311324
 20
186.8018833302683
 30
0.0
 40
0.65
 41
0.0
 71
     5
 72
     1
  1
\A1;21 1/2"
 73
     1
 44
1.0
  0
POINT
  5
1753
330
1560
100
AcDbEntity
  8
Defpoints
 62
     0
100
AcDbPoint
 10
149.1771431051122
 20
197.8804630185404
 30
0.0
  0
POINT
  5
1754
330
1560
100
AcDbEntity
  8
Defpoints
 62
     0
100
AcDbPoint
 10
170.6338265571527
 20
197.8895581268988
 30
0.0
  0
POINT
  5
1755
330
1560
100
AcDbEntity
  8
Defpoints
 62
     0
100
AcDbPoint
 10
170.6338265571527
 20
186.8018833302683
 30
0.0
  0
ENDBLK
  5
156C
330
1560
100
AcDbEntity
  8
0
100
AcDbBlockEnd
  0
BLOCK
  5
16EF
330
16E9
100
AcDbEntity
  8
0
100
AcDbBlockBegin
  2
*D169
 70
     1
 10
0.0
 20
0.0
 30
0.0
  3
*D169
  1

  0
LINE
  5
1747
330
16E9
100
AcDbEntity
  8
标注
370
    -2
100
AcDbLine
 10
151.2538218313792
 20
192.2740036213518
 30
0.0
 11
150.7681948452111
 21
191.8419545149932
 31
0.0
  0
MTEXT
  5
1748
330
16E9
100
AcDbEntity
  8
标注
100
AcDbMText
 10
152.9410643089633
 20
193.7750973113927
 30
0.0
 40
0.65
 41
0.0
 71
     5
 72
     1
  1
\A1;R3 7/8"
 11
0.7471184402586434
 21
0.6646909328593945
 31
0.0
 73
     1
 44
1.0
  0
SOLID
  5
1749
330
16E9
100
AcDbEntity
  8
标注
100
AcDbTrace
 10
150.696186660818
 20
191.9228923460213
 30
0.0
 11
150.8402030296042
 21
191.7610166839652
 31
0.0
 12
150.282567859043
 22
191.4099054086346
 32
0.0
 13
150.282567859043
 23
191.4099054086346
 33
0.0
  0
POINT
  5
174A
330
16E9
100
AcDbEntity
  8
Defpoints
 62
     0
100
AcDbPoint
 10
150.282567859043
 20
191.4099054086346
 30
0.0
  0
POINT
  5
174B
330
16E9
100
AcDbEntity
  8
Defpoints
 62
     0
100
AcDbPoint
 10
153.2239790411635
 20
194.0267988450889
 30
0.0
  0
ENDBLK
  5
16F0
330
16E9
100
AcDbEntity
  8
0
100
AcDbBlockEnd
  0
ENDSEC
  0
SECTION
  2
ENTITIES
  0
MTEXT
  5
75D
330
21
100
AcDbEntity
  8
标注
 48
5.0
100
AcDbMText
 10
156.1037469450668
 20
215.4745373824368
 30
0.0
 40
0.7874015748031497
 41
15.1555422233215
 71
     1
 72
     5
  1
{\fArial|b0|i0|c0|p32;FRONT VIEW }
 73
     1
 44
1.0
  0
MTEXT
  5
75E
330
21
100
AcDbEntity
  8
标注
 48
5.0
100
AcDbMText
 10
155.8692887978386
 20
181.3972605482965
 30
0.0
 40
0.7874015748031497
 41
15.1555422233215
 71
     1
 72
     5
  1
{\fArial|b0|i0|c0|p32;OVERHEAD VIEW}
 73
     1
 44
1.0
  0
LINE
  5
75F
330
21
100
AcDbEntity
  8
虚线
 62
     3
 48
0.3
370
    35
100
AcDbLine
 10
151.0037899947135
 20
143.7925950736715
 30
0.0
 11
157.2205949987974
 21
143.7925950736715
 31
0.0
  0
LINE
  5
760
330
21
100
AcDbEntity
  8
截面层
 62
     1
 48
0.2
370
    35
100
AcDbLine
 10
151.0037899947135
 20
141.8240911366637
 30
0.0
 11
157.2205949987974
 21
141.8240911366637
 31
0.0
  0
LINE
  5
761
330
21
100
AcDbEntity
  8
虚线
 62
    11
 48
0.15
370
    35
100
AcDbLine
 10
151.0037899947135
 20
139.8555871996558
 30
0.0
 11
157.2205949987974
 21
139.8555871996558
 31
0.0
  0
MTEXT
  5
762
330
21
100
AcDbEntity
  8
标注
 48
5.0
100
AcDbMText
 10
158.6691960752804
 20
144.3407600112824
 30
0.0
 40
0.7874015748031497
 41
15.1555422233215
 71
     1
 72
     5
  1
1/4" {\fArial|b0|i0|c0|p32;REVEAL CUTOUT}
 73
     1
 44
1.0
  0
MTEXT
  5
763
330
21
100
AcDbEntity
  8
标注
 48
5.0
100
AcDbMText
 10
158.66919607528
 20
142.3722560742745
 30
0.0
 40
0.7874015748031497
 41
15.1555422233215
 71
     1
 72
     5
  1
{\fArial|b0|i0|c0|p32;FLUSH CUTOUT}
 73
     1
 44
1.0
  0
MTEXT
  5
764
330
21
100
AcDbEntity
  8
标注
 48
5.0
100
AcDbMText
 10
158.6691960752804
 20
140.4037521372666
 30
0.0
 40
0.7874015748031497
 41
15.1555422233215
 71
     1
 72
     5
  1
1/4" {\fArial|b0|i0|c0|p32;OVERHANG CUTOUT}
 73
     1
 44
1.0
  0
MTEXT
  5
765
330
21
100
AcDbEntity
  8
标注
 48
5.0
100
AcDbMText
 10
153.8599097862115
 20
109.0238508549169
 30
0.0
 40
0.7874015748031497
 41
15.1555422233215
 71
     1
 72
     5
  1
1/4" {\fArial|b0|i0|c0|p32;REVEAL CUTOUT}
 73
     1
 44
1.0
  0
MTEXT
  5
766
330
21
100
AcDbEntity
  8
标注
 48
5.0
100
AcDbMText
 10
155.2125567972989
 20
79.46890315579131
 30
0.0
 40
0.7874015748031497
 41
15.1555422233215
 71
     1
 72
     5
  1
{\fArial|b0|i0|c0|p32;FLUSH CUTOUT}
 73
     1
 44
1.0
  0
MTEXT
  5
767
330
21
100
AcDbEntity
  8
标注
 48
5.0
100
AcDbMText
 10
151.6705254252867
 20
49.76926390227013
 30
0.0
 40
0.7874015748031497
 41
15.1555422233215
 71
     1
 72
     5
  1
1/4" {\fArial|b0|i0|c0|p32;OVERHANG CUTOUT}
 73
     1
 44
1.0
  0
DIMENSION
  5
1060
102
{ACAD_XDICTIONARY
360
1061
102
}
102
{ACAD_REACTORS
330
1062
102
}
330
21
100
AcDbEntity
  8
标注
100
AcDbDimension
  2
*D132
 10
174.0697763074026
 20
218.9898320463292
 30
0.0
 11
174.0697763074026
 21
223.4780210227071
 31
0.0
 70
    32
 71
     5
 42
8.97637795275591
  3
副本Standard
100
AcDbAlignedDimension
 13
171.6180848921357
 23
227.9662099990851
 33
0.0
 14
162.1889510338679
 24
218.9898320463292
 34
0.0
 50
90.0
100
AcDbRotatedDimension
  0
LINE
  5
1063
330
21
100
AcDbEntity
  8
中心线
 48
0.1
100
AcDbLine
 10
159.9054864669391
 20
228.4456697834546
 30
0.0
 11
159.9054864669391
 21
218.3145172250475
 31
0.0
  0
LINE
  5
1064
330
21
100
AcDbEntity
  8
0
100
AcDbLine
 10
158.1338329236317
 20
218.815958601583
 30
0.0
 11
161.6771400102459
 21
218.815958601583
 31
0.0
  0
LINE
  5
1065
330
21
100
AcDbEntity
  8
0
100
AcDbLine
 10
157.6220219000097
 20
218.9898320463292
 30
0.0
 11
162.1889510338679
 21
218.9898320463292
 31
0.0
  0
LINE
  5
1066
330
21
100
AcDbEntity
  8
0
 62
     6
370
    53
100
AcDbLine
 10
162.1889510338679
 20
218.9898320463292
 30
0.0
 11
162.0708407976475
 21
218.815958601583
 31
0.0
  0
LINE
  5
1067
330
21
100
AcDbEntity
  8
0
 62
     6
370
    53
100
AcDbLine
 10
162.0708407976475
 20
218.815958601583
 30
0.0
 11
161.6771400102459
 21
218.815958601583
 31
0.0
  0
LINE
  5
1068
330
21
100
AcDbEntity
  8
0
 62
     6
370
    53
100
AcDbLine
 10
157.7401321362303
 20
218.815958601583
 30
0.0
 11
158.1338329236317
 21
218.815958601583
 31
0.0
  0
LINE
  5
1069
330
21
100
AcDbEntity
  8
0
 62
     6
370
    53
100
AcDbLine
 10
157.6220219000097
 20
218.9898320463292
 30
0.0
 11
157.7401321362303
 21
218.815958601583
 31
0.0
  0
ARC
  5
1072
330
21
100
AcDbEntity
  8
0
 62
     6
370
    53
100
AcDbCircle
 10
168.938056203061
 20
220.8525314653698
 30
0.0
 40
1.574803149606299
100
AcDbArc
 50
273.8019844794294
 51
358.9999999999982
  0
ARC
  5
1073
330
21
100
AcDbEntity
  8
0
 62
     6
370
    53
100
AcDbCircle
 10
150.8729167308167
 20
220.85253146537
 30
0.0
 40
1.574803149606299
100
AcDbArc
 50
181.0000000000017
 51
266.1980155205707
  0
ARC
  5
1076
102
{ACAD_REACTORS
330
1062
102
}
330
21
100
AcDbEntity
  8
0
 62
     6
370
    53
100
AcDbCircle
 10
159.2045542414366
 20
369.941206108297
 30
0.0
 40
150.9808728131176
100
AcDbArc
 50
271.1326234545456
 51
273.7360441491185
  0
ARC
  5
1077
330
21
100
AcDbEntity
  8
0
 62
     6
370
    53
100
AcDbCircle
 10
148.980289616545
 20
227.7693596053843
 30
0.0
 40
0.1968503937007874
100
AcDbArc
 50
0.0
 51
90.0
  0
ARC
  5
1078
330
21
100
AcDbEntity
  8
0
 62
     6
370
    53
100
AcDbCircle
 10
170.8306833173326
 20
227.7693596053843
 30
0.0
 40
0.1968503937007874
100
AcDbArc
 50
90.0
 51
180.0
  0
LINE
  5
1079
330
21
100
AcDbEntity
  8
0
 62
     6
370
    53
100
AcDbLine
 10
148.980289616545
 20
227.9662099990851
 30
0.0
 11
148.1928880417419
 21
227.9662099990851
 31
0.0
  0
LINE
  5
107A
102
{ACAD_REACTORS
330
1062
102
}
330
21
100
AcDbEntity
  8
0
 62
     6
370
    53
100
AcDbLine
 10
170.8306833173326
 20
227.9662099990851
 30
0.0
 11
171.6180848921357
 21
227.9662099990851
 31
0.0
  0
ARC
  5
107B
330
21
100
AcDbEntity
  8
0
 62
     6
370
    53
100
AcDbCircle
 10
160.606418692451
 20
369.9412061084615
 30
0.0
 40
150.9808728132822
100
AcDbArc
 50
266.2639558508815
 51
268.8673765454544
  0
LINE
  5
107C
330
21
100
AcDbEntity
  8
0
 62
     6
370
    53
100
AcDbLine
 10
149.2983534313579
 20
220.8250473607443
 30
0.0
 11
149.1771400102459
 21
227.7693596053843
 31
0.0
  0
LINE
  5
107D
330
21
100
AcDbEntity
  8
0
 62
     6
370
    53
100
AcDbLine
 10
170.6338329236318
 20
227.7693596053843
 30
0.0
 11
170.5126195025198
 21
220.8250473607442
 31
0.0
  0
LINE
  5
107E
330
21
100
AcDbEntity
  8
0
100
AcDbLine
 10
148.980289616545
 20
227.9662099990851
 30
0.0
 11
170.8306833173326
 21
227.9662099990851
 31
0.0
  0
CIRCLE
  5
12FD
330
21
100
AcDbEntity
  8
0
100
AcDbCircle
 10
159.9473149190776
 20
158.7844692725447
 30
0.0
 40
2.401574803149606
  0
CIRCLE
  5
12FE
330
21
100
AcDbEntity
  8
0
100
AcDbCircle
 10
159.9473149190776
 20
158.7844692725447
 30
0.0
 40
2.263779527559055
  0
CIRCLE
  5
12FF
330
21
100
AcDbEntity
  8
0
100
AcDbCircle
 10
159.9473149190776
 20
158.7844692725447
 30
0.0
 40
1.771653543307085
  0
LINE
  5
14D4
330
21
100
AcDbEntity
  8
中心线
 48
0.1
100
AcDbLine
 10
159.9054864669391
 20
207.1103260321488
 30
0.0
 11
159.9054864669391
 21
188.5053779932863
 31
0.0
  0
LINE
  5
14D5
330
21
100
AcDbEntity
  8
中心线
 48
0.1
100
AcDbLine
 10
147.2864417587841
 20
197.8792042657488
 30
0.0
 11
172.2757571087512
 21
197.8792042657488
 31
0.0
  0
ARC
  5
14D6
330
21
100
AcDbEntity
  8
0
 48
2.0
100
AcDbCircle
 10
159.9054864669391
 20
79.86739324212675
 30
0.0
 40
125.9842519685039
100
AcDbArc
 50
86.86282967936989
 51
93.1371703206301
  0
ARC
  5
14D7
102
{ACAD_REACTORS
330
14E2
330
14E5
102
}
330
21
100
AcDbEntity
  8
0
 48
2.0
100
AcDbCircle
 10
220.0432817425296
 20
197.8595192263788
 30
0.0
 40
70.86614173228347
100
AcDbArc
 50
176.6832747039229
 51
183.2828588857999
  0
ARC
  5
14D8
102
{ACAD_REACTORS
330
14DC
102
}
330
21
100
AcDbEntity
  8
0
 48
2.0
100
AcDbCircle
 10
159.9054864669391
 20
315.891015289371
 30
0.0
 40
125.9842519685039
100
AcDbArc
 50
266.8617590681031
 51
273.1382409318968
  0
ARC
  5
14D9
102
{ACAD_REACTORS
330
14E5
102
}
330
21
100
AcDbEntity
  8
0
 48
2.0
100
AcDbCircle
 10
99.76769119134823
 20
197.8595192263788
 30
0.0
 40
70.86614173228347
100
AcDbArc
 50
356.7171411142
 51
3.316725296077108
  0
DIMENSION
  5
14DA
102
{ACAD_XDICTIONARY
360
14DB
102
}
102
{ACAD_REACTORS
330
14DC
102
}
330
21
100
AcDbEntity
  8
标注
 48
5.0
100
AcDbDimension
  2
*D161
 10
174.1903666906397
 20
189.0209365492134
 30
0.0
 11
174.1903666906397
 21
186.43760321588
 31
0.0
 70
    32
 71
     5
 42
0.8858267716535124
  3
副本Standard
100
AcDbAlignedDimension
 13
159.905486466939
 23
189.9067633208669
 33
0.0
 14
159.9054864669395
 24
189.0209365492134
 34
0.0
 50
90.0
100
AcDbRotatedDimension
  0
DIMENSION
  5
14DD
330
21
100
AcDbEntity
  8
标注
 48
5.0
100
AcDbDimension
  2
*D158
 10
174.1903666906396
 20
189.9067633208669
 30
0.0
 11
174.1903666906395
 21
197.8792042657488
 31
0.0
 70
    32
 71
     5
 42
15.94488188976379
  3
副本Standard
100
AcDbAlignedDimension
 13
159.9054864669387
 23
205.8516452106307
 33
0.0
 14
159.905486466939
 24
189.9067633208669
 34
0.0
 50
90.0
100
AcDbRotatedDimension
  0
DIMENSION
  5
14DE
330
21
100
AcDbEntity
  8
标注
 48
5.0
100
AcDbDimension
  2
*D159
 10
176.3539880210954
 20
189.0209365492134
 30
0.0
 11
176.3539880210954
 21
197.8792042657483
 31
0.0
 70
    32
 71
     5
 42
17.71653543306974
  3
副本Standard
100
AcDbAlignedDimension
 13
159.9054864669393
 23
206.7374719822831
 33
0.0
 14
159.9054864669393
 24
189.0209365492134
 34
0.0
 50
90.0
100
AcDbRotatedDimension
  0
DIMENSION
  5
14DF
330
21
100
AcDbEntity
  8
标注
 48
5.0
100
AcDbDimension
  2
*D160
 10
148.1928880417421
 20
184.5576694731857
 30
0.0
 11
159.9054864669391
 21
184.5576694731857
 31
0.0
 70
    32
 71
     5
 42
23.42519685039395
  3
副本Standard
100
AcDbAlignedDimension
 13
171.6180848921361
 23
197.8792042657488
 33
0.0
 14
148.1928880417421
 24
197.8792042657499
 34
0.0
100
AcDbRotatedDimension
  0
DIMENSION
  5
14E0
102
{ACAD_XDICTIONARY
360
14E1
102
}
102
{ACAD_REACTORS
330
14E2
102
}
330
21
100
AcDbEntity
  8
标注
 48
5.0
100
AcDbDimension
  2
*D162
 10
148.1928880417421
 20
186.8018833302863
 30
0.0
 11
146.3678880417422
 21
186.8018833302863
 31
0.0
 70
    32
 71
     5
 42
0.9842519685039405
  3
副本Standard
100
AcDbAlignedDimension
 13
149.1771400102461
 23
197.8595192263787
 33
0.0
 14
148.1928880417421
 24
197.8792042657488
 34
0.0
100
AcDbRotatedDimension
  0
DIMENSION
  5
14E3
102
{ACAD_XDICTIONARY
360
14E4
102
}
102
{ACAD_REACTORS
330
14E5
102
}
330
21
100
AcDbEntity
  8
标注
 48
5.0
100
AcDbDimension
  2
*D163
 10
170.6338265571527
 20
186.8018833302683
 30
0.0
 11
159.9054848311324
 21
186.8018833302683
 31
0.0
 70
    32
 71
     5
 42
21.45668345204047
  3
副本Standard
100
AcDbAlignedDimension
 13
149.1771431051122
 23
197.8804630185404
 33
0.0
 14
170.6338265571527
 24
197.8895581268988
 34
0.0
100
AcDbRotatedDimension
  0
ARC
  5
14E9
330
21
100
AcDbEntity
  8
0
 48
2.0
100
AcDbCircle
 10
159.9054864669394
 20
79.84770820275667
 30
0.0
 40
126.889763779527
100
AcDbArc
 50
86.77511250641158
 51
93.22488749358841
  0
ARC
  5
14EA
330
21
100
AcDbEntity
  8
0
 48
2.0
100
AcDbCircle
 10
99.7676911913488
 20
197.8792042657488
 30
0.0
 40
71.85039370078737
100
AcDbArc
 50
356.6347137332096
 51
3.365286266790425
  0
ARC
  5
14EB
330
21
100
AcDbEntity
  8
0
 48
2.0
100
AcDbCircle
 10
159.9054864669394
 20
315.9107003287409
 30
0.0
 40
126.889763779527
100
AcDbArc
 50
266.7751125064116
 51
273.2248874935884
  0
ARC
  5
14EC
330
21
100
AcDbEntity
  8
0
 48
2.0
100
AcDbCircle
 10
220.0432817425296
 20
197.8792042657488
 30
0.0
 40
71.85039370078737
100
AcDbArc
 50
176.6347137332095
 51
183.3652862667904
  0
ARC
  5
14ED
102
{ACAD_REACTORS
330
16F7
102
}
330
21
100
AcDbEntity
  8
0
 48
2.0
100
AcDbCircle
 10
153.2239790411636
 20
194.0267988450889
 30
0.0
 40
3.937007874015748
100
AcDbArc
 50
183.2828588857999
 51
266.8617590681031
  0
ARC
  5
14EE
330
21
100
AcDbEntity
  8
0
 48
2.0
100
AcDbCircle
 10
166.5869938927142
 20
194.0267988450889
 30
0.0
 40
3.937007874015748
100
AcDbArc
 50
273.1382409318968
 51
356.7171411142
  0
ARC
  5
14EF
330
21
100
AcDbEntity
  8
0
 48
2.0
100
AcDbCircle
 10
166.5847167745516
 20
201.7317345137126
 30
0.0
 40
3.937007874015748
100
AcDbArc
 50
3.316725296077108
 51
86.86282967936989
  0
ARC
  5
14F0
330
21
100
AcDbEntity
  8
0
 48
2.0
100
AcDbCircle
 10
153.2262561593263
 20
201.7317345137126
 30
0.0
 40
3.937007874015748
100
AcDbArc
 50
93.1371703206301
 51
176.6832747039229
  0
ARC
  5
14FA
330
21
100
AcDbEntity
  8
0
 48
2.0
100
AcDbCircle
 10
153.0330511088607
 20
201.8196042731075
 30
0.0
 40
4.724409448818897
100
AcDbArc
 50
93.22488749358841
 51
176.6347137332095
  0
ARC
  5
14FB
330
21
100
AcDbEntity
  8
0
 48
2.0
100
AcDbCircle
 10
166.7779218250178
 20
201.8196042731075
 30
0.0
 40
4.724409448818897
100
AcDbArc
 50
3.365286266790425
 51
86.77511250641158
  0
ARC
  5
14FC
330
21
100
AcDbEntity
  8
0
 48
2.0
100
AcDbCircle
 10
166.7779218250178
 20
193.9388042583901
 30
0.0
 40
4.724409448818897
100
AcDbArc
 50
273.2248874935884
 51
356.6347137332096
  0
ARC
  5
14FD
330
21
100
AcDbEntity
  8
0
 48
2.0
100
AcDbCircle
 10
153.0330511088607
 20
193.9388042583901
 30
0.0
 40
4.724409448818897
100
AcDbArc
 50
183.3652862667904
 51
266.7751125064116
  0
DIMENSION
  5
16E8
102
{ACAD_XDICTIONARY
360
16F1
102
}
102
{ACAD_REACTORS
330
16F7
102
}
330
21
100
AcDbEntity
  8
标注
100
AcDbDimension
  2
*D169
 10
153.2239790411635
 20
194.0267988450889
 30
0.0
 11
152.9410643089633
 21
193.7750973113927
 31
0.0
 70
   164
 71
     5
 42
3.937007874015648
  3
副本Standard
100
AcDbRadialDimension
 15
150.282567859043
 25
191.4099054086346
 35
0.0
 40
0.0
1001
ACAD
1000
DSTYLE
1002
{
1070
   288
1070
     1
1002
}
  0
CIRCLE
  5
1701
330
21
100
AcDbEntity
  8
0
100
AcDbCircle
 10
160.0235967031595
 20
197.8792042657488
 30
0.0
 40
2.401574803149606
  0
CIRCLE
  5
1702
330
21
100
AcDbEntity
  8
0
100
AcDbCircle
 10
160.0235967031595
 20
197.8792042657488
 30
0.0
 40
2.263779527559055
  0
CIRCLE
  5
1703
330
21
100
AcDbEntity
  8
0
100
AcDbCircle
 10
160.0235967031595
 20
197.8792042657488
 30
0.0
 40
1.771653543307085
  0
ARC
  5
17D3
330
21
100
AcDbEntity
  8
0
 48
2.0
100
AcDbCircle
 10
153.0748795609992
 20
162.7248692799033
 30
0.0
 40
4.724409448818897
100
AcDbArc
 50
93.22488749358841
 51
176.6347137332095
  0
ARC
  5
17D4
330
21
100
AcDbEntity
  8
截面层
 62
     1
 48
0.2
370
    35
100
AcDbCircle
 10
153.2680846114648
 20
162.6369995205085
 30
0.0
 40
3.937007874015748
100
AcDbArc
 50
93.1371703206301
 51
176.6832747039229
  0
ARC
  5
17D5
330
21
100
AcDbEntity
  8
0
 48
2.0
100
AcDbCircle
 10
220.0851101946681
 20
158.7844692725447
 30
0.0
 40
71.85039370078737
100
AcDbArc
 50
176.6347137332095
 51
183.3652862667904
  0
ARC
  5
17D6
330
21
100
AcDbEntity
  8
0
 48
2.0
100
AcDbCircle
 10
159.9473149190779
 20
40.75297320955252
 30
0.0
 40
126.889763779527
100
AcDbArc
 50
86.77511250641158
 51
93.22488749358841
  0
ARC
  5
17D7
330
21
100
AcDbEntity
  8
截面层
 62
     1
 48
0.2
370
    35
100
AcDbCircle
 10
220.0851101946681
 20
158.7647842331746
 30
0.0
 40
70.86614173228347
100
AcDbArc
 50
176.6832747039229
 51
183.2828588857999
  0
ARC
  5
17D8
330
21
100
AcDbEntity
  8
截面层
 62
     1
 48
0.2
370
    35
100
AcDbCircle
 10
159.9473149190776
 20
40.77265824892259
 30
0.0
 40
125.9842519685039
100
AcDbArc
 50
86.86282967936989
 51
93.1371703206301
  0
ARC
  5
17D9
330
21
100
AcDbEntity
  8
0
 48
2.0
100
AcDbCircle
 10
166.8197502771563
 20
162.7248692799033
 30
0.0
 40
4.724409448818897
100
AcDbArc
 50
3.365286266790425
 51
86.77511250641158
  0
ARC
  5
17DA
330
21
100
AcDbEntity
  8
截面层
 62
     1
 48
0.2
370
    35
100
AcDbCircle
 10
166.6265452266901
 20
162.6369995205085
 30
0.0
 40
3.937007874015748
100
AcDbArc
 50
3.316725296077108
 51
86.86282967936989
  0
ARC
  5
17DB
330
21
100
AcDbEntity
  8
0
 48
2.0
100
AcDbCircle
 10
99.80951964348731
 20
158.7844692725447
 30
0.0
 40
71.85039370078737
100
AcDbArc
 50
356.6347137332096
 51
3.365286266790425
  0
ARC
  5
17DC
330
21
100
AcDbEntity
  8
截面层
 62
     1
 48
0.2
370
    35
100
AcDbCircle
 10
99.80951964348674
 20
158.7647842331746
 30
0.0
 40
70.86614173228347
100
AcDbArc
 50
356.7171411142
 51
3.316725296077108
  0
ARC
  5
17DD
330
21
100
AcDbEntity
  8
0
 48
2.0
100
AcDbCircle
 10
166.8197502771563
 20
154.8440692651859
 30
0.0
 40
4.724409448818897
100
AcDbArc
 50
273.2248874935884
 51
356.6347137332096
  0
ARC
  5
17DE
330
21
100
AcDbEntity
  8
截面层
 62
     1
 48
0.2
370
    35
100
AcDbCircle
 10
166.6288223448528
 20
154.9320638518848
 30
0.0
 40
3.937007874015748
100
AcDbArc
 50
273.1382409318968
 51
356.7171411142
  0
ARC
  5
17DF
330
21
100
AcDbEntity
  8
0
 48
2.0
100
AcDbCircle
 10
159.9473149190779
 20
276.8159653355368
 30
0.0
 40
126.889763779527
100
AcDbArc
 50
266.7751125064116
 51
273.2248874935884
  0
ARC
  5
17E0
330
21
100
AcDbEntity
  8
截面层
 62
     1
 48
0.2
370
    35
100
AcDbCircle
 10
159.9473149190776
 20
276.7962802961668
 30
0.0
 40
125.9842519685039
100
AcDbArc
 50
266.8617590681031
 51
273.1382409318968
  0
ARC
  5
17E1
330
21
100
AcDbEntity
  8
截面层
 62
     1
 48
0.2
370
    35
100
AcDbCircle
 10
153.2658074933021
 20
154.9320638518848
 30
0.0
 40
3.937007874015748
100
AcDbArc
 50
183.2828588857999
 51
266.8617590681031
  0
ARC
  5
17E2
330
21
100
AcDbEntity
  8
0
 48
2.0
100
AcDbCircle
 10
153.0748795609992
 20
154.8440692651859
 30
0.0
 40
4.724409448818897
100
AcDbArc
 50
183.3652862667904
 51
266.7751125064116
  0
LINE
  5
17E3
330
21
100
AcDbEntity
  8
中心线
 48
0.1
100
AcDbLine
 10
147.3282702109226
 20
158.7844692725447
 30
0.0
 11
172.3175855608897
 21
158.7844692725447
 31
0.0
  0
LINE
  5
17E4
330
21
100
AcDbEntity
  8
中心线
 48
0.1
100
AcDbLine
 10
159.9473149190776
 20
168.0155910389446
 30
0.0
 11
159.9473149190776
 21
149.4106430000821
 31
0.0
  0
ARC
  5
17E5
330
21
100
AcDbEntity
  8
虚线
 62
    11
 48
0.15
370
    35
100
AcDbCircle
 10
220.0851101946681
 20
158.7647842331746
 30
0.0
 40
70.61614173228346
100
AcDbArc
 50
176.6832747039229
 51
183.2828588857999
  0
ARC
  5
17E6
330
21
100
AcDbEntity
  8
虚线
 62
    11
 48
0.15
370
    35
100
AcDbCircle
 10
153.2680846114648
 20
162.6369995205085
 30
0.0
 40
3.687007874015748
100
AcDbArc
 50
93.1371703206301
 51
176.6832747039229
  0
ARC
  5
17E7
330
21
100
AcDbEntity
  8
虚线
 62
     3
 48
0.3
370
    35
100
AcDbCircle
 10
153.2680846114648
 20
162.6369995205085
 30
0.0
 40
4.187007874015748
100
AcDbArc
 50
93.1371703206301
 51
176.6832747039229
  0
ARC
  5
17E8
330
21
100
AcDbEntity
  8
虚线
 62
     3
 48
0.3
370
    35
100
AcDbCircle
 10
220.0851101946681
 20
158.7647842331746
 30
0.0
 40
71.11614173228346
100
AcDbArc
 50
176.6832747039229
 51
183.2828588857999
  0
ARC
  5
17E9
330
21
100
AcDbEntity
  8
虚线
 62
    11
 48
0.15
370
    35
100
AcDbCircle
 10
153.2658074933021
 20
154.9320638518848
 30
0.0
 40
3.687007874015748
100
AcDbArc
 50
183.2828588857999
 51
266.8617590681031
  0
ARC
  5
17EA
330
21
100
AcDbEntity
  8
虚线
 62
     3
 48
0.3
370
    35
100
AcDbCircle
 10
153.2658074933021
 20
154.9320638518848
 30
0.0
 40
4.187007874015748
100
AcDbArc
 50
183.2828588857999
 51
266.8617590681031
  0
ARC
  5
17EB
330
21
100
AcDbEntity
  8
虚线
 62
    11
 48
0.15
370
    35
100
AcDbCircle
 10
159.9473149190776
 20
276.7962802961668
 30
0.0
 40
125.7342519685039
100
AcDbArc
 50
266.8617590681031
 51
273.1382409318968
  0
ARC
  5
17EC
330
21
100
AcDbEntity
  8
虚线
 62
     3
 48
0.3
370
    35
100
AcDbCircle
 10
159.9473149190776
 20
276.7962802961668
 30
0.0
 40
126.2342519685039
100
AcDbArc
 50
266.8617590681031
 51
273.1382409318968
  0
ARC
  5
17ED
330
21
100
AcDbEntity
  8
虚线
 62
    11
 48
0.15
370
    35
100
AcDbCircle
 10
166.6288223448528
 20
154.9320638518848
 30
0.0
 40
3.687007874015748
100
AcDbArc
 50
273.1382409318968
 51
356.7171411142
  0
ARC
  5
17EE
330
21
100
AcDbEntity
  8
虚线
 62
     3
 48
0.3
370
    35
100
AcDbCircle
 10
166.6288223448528
 20
154.9320638518848
 30
0.0
 40
4.187007874015748
100
AcDbArc
 50
273.1382409318968
 51
356.7171411142
  0
ARC
  5
17EF
330
21
100
AcDbEntity
  8
虚线
 62
    11
 48
0.15
370
    35
100
AcDbCircle
 10
99.80951964348674
 20
158.7647842331746
 30
0.0
 40
70.61614173228346
100
AcDbArc
 50
356.7171411142
 51
3.316725296077108
  0
ARC
  5
17F0
330
21
100
AcDbEntity
  8
虚线
 62
     3
 48
0.3
370
    35
100
AcDbCircle
 10
99.80951964348674
 20
158.7647842331746
 30
0.0
 40
71.11614173228346
100
AcDbArc
 50
356.7171411142
 51
3.316725296077108
  0
ARC
  5
17F1
330
21
100
AcDbEntity
  8
虚线
 62
    11
 48
0.15
370
    35
100
AcDbCircle
 10
166.6265452266901
 20
162.6369995205085
 30
0.0
 40
3.687007874015748
100
AcDbArc
 50
3.316725296077108
 51
86.86282967936989
  0
ARC
  5
17F2
330
21
100
AcDbEntity
  8
虚线
 62
     3
 48
0.3
370
    35
100
AcDbCircle
 10
166.6265452266901
 20
162.6369995205085
 30
0.0
 40
4.187007874015748
100
AcDbArc
 50
3.316725296077108
 51
86.86282967936989
  0
ARC
  5
17F3
330
21
100
AcDbEntity
  8
虚线
 62
     3
 48
0.3
370
    35
100
AcDbCircle
 10
159.9473149190776
 20
40.77265824892259
 30
0.0
 40
126.2342519685039
100
AcDbArc
 50
86.86282967936989
 51
93.1371703206301
  0
ARC
  5
17F4
330
21
100
AcDbEntity
  8
虚线
 62
    11
 48
0.15
370
    35
100
AcDbCircle
 10
159.9473149190776
 20
40.77265824892259
 30
0.0
 40
125.7342519685039
100
AcDbArc
 50
86.86282967936989
 51
93.1371703206301
  0
ARC
  5
1804
330
21
100
AcDbEntity
  8
虚线
 62
     3
 48
0.3
370
    35
100
AcDbCircle
 10
153.312984270109
 20
123.1571541577614
 30
0.0
 40
4.187007874015748
100
AcDbArc
 50
93.1371703206301
 51
176.6832747039229
  0
ARC
  5
1805
330
21
100
AcDbEntity
  8
虚线
 62
     3
 48
0.3
370
    35
100
AcDbCircle
 10
159.9922145777218
 20
1.292812886175511
 30
0.0
 40
126.2342519685039
100
AcDbArc
 50
86.86282967936989
 51
93.1371703206301
  0
ARC
  5
1806
330
21
100
AcDbEntity
  8
虚线
 62
     3
 48
0.3
370
    35
100
AcDbCircle
 10
220.1300098533124
 20
119.2849388704275
 30
0.0
 40
71.11614173228346
100
AcDbArc
 50
176.6832747039229
 51
183.2828588857999
  0
ARC
  5
1807
330
21
100
AcDbEntity
  8
虚线
 62
     3
 48
0.3
370
    35
100
AcDbCircle
 10
166.6714448853344
 20
123.1571541577614
 30
0.0
 40
4.187007874015748
100
AcDbArc
 50
3.316725296077108
 51
86.86282967936989
  0
ARC
  5
1808
330
21
100
AcDbEntity
  8
虚线
 62
     3
 48
0.3
370
    35
100
AcDbCircle
 10
99.85441930213097
 20
119.2849388704275
 30
0.0
 40
71.11614173228346
100
AcDbArc
 50
356.7171411142
 51
3.316725296077108
  0
ARC
  5
1809
330
21
100
AcDbEntity
  8
虚线
 62
     3
 48
0.3
370
    35
100
AcDbCircle
 10
166.673722003497
 20
115.4522184891377
 30
0.0
 40
4.187007874015748
100
AcDbArc
 50
273.1382409318968
 51
356.7171411142
  0
ARC
  5
180A
330
21
100
AcDbEntity
  8
虚线
 62
     3
 48
0.3
370
    35
100
AcDbCircle
 10
159.9922145777218
 20
237.3164349334197
 30
0.0
 40
126.2342519685039
100
AcDbArc
 50
266.8617590681031
 51
273.1382409318968
  0
ARC
  5
180B
330
21
100
AcDbEntity
  8
虚线
 62
     3
 48
0.3
370
    35
100
AcDbCircle
 10
153.3107071519463
 20
115.4522184891377
 30
0.0
 40
4.187007874015748
100
AcDbArc
 50
183.2828588857999
 51
266.8617590681031
  0
ARC
  5
1819
330
21
100
AcDbEntity
  8
截面层
 62
     1
 48
0.2
370
    35
100
AcDbCircle
 10
152.2620467970536
 20
92.84317541784549
 30
0.0
 40
3.937007874015748
100
AcDbArc
 50
93.1371703206301
 51
176.6832747039229
  0
ARC
  5
181A
330
21
100
AcDbEntity
  8
截面层
 62
     1
 48
0.2
370
    35
100
AcDbCircle
 10
158.9412771046664
 20
-29.0211658537404
 30
0.0
 40
125.9842519685039
100
AcDbArc
 50
86.86282967936989
 51
93.1371703206301
  0
ARC
  5
181B
330
21
100
AcDbEntity
  8
截面层
 62
     1
 48
0.2
370
    35
100
AcDbCircle
 10
165.6205074122789
 20
92.84317541784549
 30
0.0
 40
3.937007874015748
100
AcDbArc
 50
3.316725296077108
 51
86.86282967936989
  0
ARC
  5
181C
330
21
100
AcDbEntity
  8
截面层
 62
     1
 48
0.2
370
    35
100
AcDbCircle
 10
98.80348182907553
 20
88.97096013051163
 30
0.0
 40
70.86614173228347
100
AcDbArc
 50
356.7171411142
 51
3.316725296077108
  0
ARC
  5
181D
330
21
100
AcDbEntity
  8
截面层
 62
     1
 48
0.2
370
    35
100
AcDbCircle
 10
165.6227845304416
 20
85.13823974922178
 30
0.0
 40
3.937007874015748
100
AcDbArc
 50
273.1382409318968
 51
356.7171411142
  0
ARC
  5
181E
330
21
100
AcDbEntity
  8
截面层
 62
     1
 48
0.2
370
    35
100
AcDbCircle
 10
158.9412771046664
 20
207.0024561935038
 30
0.0
 40
125.9842519685039
100
AcDbArc
 50
266.8617590681031
 51
273.1382409318968
  0
ARC
  5
181F
330
21
100
AcDbEntity
  8
截面层
 62
     1
 48
0.2
370
    35
100
AcDbCircle
 10
152.2597696788908
 20
85.13823974922178
 30
0.0
 40
3.937007874015748
100
AcDbArc
 50
183.2828588857999
 51
266.8617590681031
  0
ARC
  5
1820
330
21
100
AcDbEntity
  8
截面层
 62
     1
 48
0.2
370
    35
100
AcDbCircle
 10
219.0790723802569
 20
88.97096013051163
 30
0.0
 40
70.86614173228347
100
AcDbArc
 50
176.6832747039229
 51
183.2828588857999
  0
ARC
  5
182E
330
21
100
AcDbEntity
  8
虚线
 62
    11
 48
0.15
370
    35
100
AcDbCircle
 10
151.9964758865606
 20
63.02187972552198
 30
0.0
 40
3.687007874015748
100
AcDbArc
 50
93.1371703206301
 51
176.6832747039229
  0
ARC
  5
182F
330
21
100
AcDbEntity
  8
虚线
 62
    11
 48
0.15
370
    35
100
AcDbCircle
 10
158.6757061941734
 20
-58.8424615460639
 30
0.0
 40
125.7342519685039
100
AcDbArc
 50
86.86282967936987
 51
93.1371703206301
  0
ARC
  5
1830
330
21
100
AcDbEntity
  8
虚线
 62
    11
 48
0.15
370
    35
100
AcDbCircle
 10
165.354936501786
 20
63.02187972552198
 30
0.0
 40
3.687007874015748
100
AcDbArc
 50
3.316725296077108
 51
86.86282967936987
  0
ARC
  5
1831
330
21
100
AcDbEntity
  8
虚线
 62
    11
 48
0.15
370
    35
100
AcDbCircle
 10
98.53791091858258
 20
59.14966443818812
 30
0.0
 40
70.61614173228346
100
AcDbArc
 50
356.7171411142
 51
3.316725296077108
  0
ARC
  5
1832
330
21
100
AcDbEntity
  8
虚线
 62
    11
 48
0.15
370
    35
100
AcDbCircle
 10
165.3572136199486
 20
55.31694405689828
 30
0.0
 40
3.687007874015748
100
AcDbArc
 50
273.1382409318968
 51
356.7171411142
  0
ARC
  5
1833
330
21
100
AcDbEntity
  8
虚线
 62
    11
 48
0.15
370
    35
100
AcDbCircle
 10
158.6757061941734
 20
177.1811605011803
 30
0.0
 40
125.7342519685039
100
AcDbArc
 50
266.8617590681031
 51
273.1382409318968
  0
ARC
  5
1834
330
21
100
AcDbEntity
  8
虚线
 62
    11
 48
0.15
370
    35
100
AcDbCircle
 10
151.9941987683979
 20
55.31694405689828
 30
0.0
 40
3.687007874015748
100
AcDbArc
 50
183.2828588857999
 51
266.8617590681031
  0
ARC
  5
1835
330
21
100
AcDbEntity
  8
虚线
 62
    11
 48
0.15
370
    35
100
AcDbCircle
 10
218.8135014697639
 20
59.14966443818812
 30
0.0
 40
70.61614173228346
100
AcDbArc
 50
176.6832747039229
 51
183.2828588857999
  0
ENDSEC
  0
SECTION
  2
OBJECTS
  0
DICTIONARY
  5
C
330
0
100
AcDbDictionary
281
     1
  3
ACAD_COLOR
350
1C
  3
ACAD_GROUP
350
D
  3
ACAD_LAYOUT
350
1A
  3
ACAD_MATERIAL
350
1B
  3
ACAD_MLINESTYLE
350
17
  3
ACAD_PLOTSETTINGS
350
19
  3
ACAD_PLOTSTYLENAME
350
E
  0
DICTIONARY
  5
F7
330
2
100
AcDbDictionary
280
     1
281
     1
  3
ACAD_LAYERFILTERS
360
183F
  3
ACAD_LAYERSTATES
360
F8
  0
DICTIONARY
  5
1061
330
1060
100
AcDbDictionary
280
     1
281
     1
  3
ACAD_DIMASSOC
360
1062
  0
DICTIONARY
  5
14DB
330
14DA
100
AcDbDictionary
280
     1
281
     1
  3
ACAD_DIMASSOC
360
14DC
  0
DICTIONARY
  5
14E1
330
14E0
100
AcDbDictionary
280
     1
281
     1
  3
ACAD_DIMASSOC
360
14E2
  0
DICTIONARY
  5
14E4
330
14E3
100
AcDbDictionary
280
     1
281
     1
  3
ACAD_DIMASSOC
360
14E5
  0
DICTIONARY
  5
16F1
330
16E8
100
AcDbDictionary
280
     1
281
     1
  3
ACAD_DIMASSOC
360
16F7
  0
DICTIONARY
  5
1C
102
{ACAD_REACTORS
330
C
102
}
330
C
100
AcDbDictionary
281
     1
  0
DICTIONARY
  5
D
102
{ACAD_REACTORS
330
C
102
}
330
C
100
AcDbDictionary
281
     1
  0
DICTIONARY
  5
1A
102
{ACAD_REACTORS
330
C
102
}
330
C
100
AcDbDictionary
281
     1
  3
Model
350
24
  3
布局1
350
20
  3
布局2
350
28
  0
DICTIONARY
  5
1B
102
{ACAD_REACTORS
330
C
102
}
330
C
100
AcDbDictionary
281
     1
  0
DICTIONARY
  5
17
102
{ACAD_REACTORS
330
C
102
}
330
C
100
AcDbDictionary
281
     1
  3
Standard
350
18
  0
DICTIONARY
  5
19
102
{ACAD_REACTORS
330
C
102
}
330
C
100
AcDbDictionary
281
     1
  0
ACDBDICTIONARYWDFLT
  5
E
102
{ACAD_REACTORS
330
C
102
}
330
C
100
AcDbDictionary
281
     1
  3
Normal
350
F
100
AcDbDictionaryWithDefault
340
F
  0
DICTIONARY
  5
183F
102
{ACAD_REACTORS
330
F7
102
}
330
F7
100
AcDbDictionary
281
     1
  0
DICTIONARY
  5
F8
102
{ACAD_REACTORS
330
F7
102
}
330
F7
100
AcDbDictionary
281
     1
  0
DIMASSOC
  5
1062
102
{ACAD_REACTORS
330
1061
102
}
330
1061
100
AcDbDimAssoc
330
1060
 90
        3
 70
     0
 71
     0
  1
AcDbOsnapPointRef
 72
     1
331
107A
 73
     2
 91
        0
 40
1.0
 10
0.0
 20
0.0
 30
2.000000000000000E+50
 75
     0
  1
AcDbOsnapPointRef
 72
    13
331
1076
 73
     2
 91
        0
 40
4.732156988851862
 10
0.0
 20
0.0
 30
2.000000000000000E+50
 75
     0
  0
DIMASSOC
  5
14DC
102
{ACAD_REACTORS
330
14DB
102
}
330
14DB
100
AcDbDimAssoc
330
14DA
 90
        1
 70
     0
 71
     0
  1
AcDbOsnapPointRef
 72
     2
331
14D8
 73
     2
 91
        0
 40
4.712388980384687
 10
0.0
 20
0.0
 30
0.0
 75
     0
  0
DIMASSOC
  5
14E2
102
{ACAD_REACTORS
330
14E1
102
}
330
14E1
100
AcDbDimAssoc
330
14E0
 90
        1
 70
     0
 71
     0
  1
AcDbOsnapPointRef
 72
     5
331
14D7
 73
     2
 91
        0
 40
3.141592653589793
 10
0.0
 20
0.0
 30
0.0
 75
     0
  0
DIMASSOC
  5
14E5
102
{ACAD_REACTORS
330
14E4
102
}
330
14E4
100
AcDbDimAssoc
330
14E3
 90
        3
 70
     0
 71
     0
  1
AcDbOsnapPointRef
 72
     2
331
14D7
 73
     2
 91
        0
 40
3.141297125316099
 10
0.0
 20
0.0
 30
0.0
 75
     0
  1
AcDbOsnapPointRef
 72
     8
331
14D9
 73
     2
 91
        0
 40
6.283609172374597
 10
0.0
 20
0.0
 30
0.0
 75
     1
  1
AcDbOsnapPointRef
 72
     2
331
14D7
 73
     2
 91
        0
 40
3.141297125316099
 10
0.0
 20
0.0
 30
0.0
 75
     0
  0
DIMASSOC
  5
16F7
102
{ACAD_REACTORS
330
16F1
102
}
330
16F1
100
AcDbDimAssoc
330
16E8
 90
        2
 70
     0
 71
     0
  1
AcDbOsnapPointRef
 72
     3
331
14ED
 73
     2
 91
        0
 40
0.0
 10
0.0
 20
0.0
 30
0.0
 75
     0
  0
LAYOUT
  5
24
102
{ACAD_REACTORS
330
1A
102
}
330
1A
100
AcDbPlotSettings
  1

  2
FX DocuPrint 255-AP
  4
A4
  6

 40
4.900083065032958
 41
4.900057315826416
 42
4.90008544921875
 43
4.90008544921875
 44
210.0156707763672
 45
297.0106506347656
 46
0.0
 47
0.0
 48
0.0
 49
0.0
140
0.0
141
0.0
142
1.0
143
1.0
 70
 11952
 72
     1
 73
     1
 74
     0
  7

 75
     0
147
1.0
 76
     0
 77
     2
 78
   300
148
-45.79265335403554
149
-34.06708261125095
100
AcDbLayout
  1
Model
 70
     1
 71
     0
 10
0.0
 20
0.0
 11
12.0
 21
9.0
 12
0.0
 22
0.0
 32
0.0
 14
0.0
 24
0.0
 34
0.0
 15
0.0
 25
0.0
 35
0.0
146
0.0
 13
0.0
 23
0.0
 33
0.0
 16
1.0
 26
0.0
 36
0.0
 17
0.0
 27
1.0
 37
0.0
 76
     0
330
21
  0
LAYOUT
  5
20
102
{ACAD_REACTORS
330
1A
102
}
330
1A
100
AcDbPlotSettings
  1

  2
FX DocuPrint 255-AP
  4

  6

 40
0.0
 41
0.0
 42
0.0
 43
0.0
 44
0.0
 45
0.0
 46
0.0
 47
0.0
 48
0.0
 49
0.0
140
0.0
141
0.0
142
1.0
143
1.0
 70
   688
 72
     0
 73
     0
 74
     5
  7
acad.ctb
 75
    16
147
1.0
 76
     0
 77
     2
 78
   300
148
0.0
149
0.0
100
AcDbLayout
  1
布局1
 70
     1
 71
     1
 10
0.0
 20
0.0
 11
420.0
 21
297.0
 12
0.0
 22
0.0
 32
0.0
 14
1.000000000000000E+20
 24
1.000000000000000E+20
 34
1.000000000000000E+20
 15
-1.000000000000000E+20
 25
-1.000000000000000E+20
 35
-1.000000000000000E+20
146
0.0
 13
0.0
 23
0.0
 33
0.0
 16
1.0
 26
0.0
 36
0.0
 17
0.0
 27
1.0
 37
0.0
 76
     0
330
1D
  0
LAYOUT
  5
28
102
{ACAD_REACTORS
330
1A
102
}
330
1A
100
AcDbPlotSettings
  1

  2
FX DocuPrint 255-AP
  4

  6

 40
0.0
 41
0.0
 42
0.0
 43
0.0
 44
0.0
 45
0.0
 46
0.0
 47
0.0
 48
0.0
 49
0.0
140
0.0
141
0.0
142
1.0
143
1.0
 70
   688
 72
     0
 73
     0
 74
     5
  7
acad.ctb
 75
    16
147
1.0
 76
     0
 77
     2
 78
   300
148
0.0
149
0.0
100
AcDbLayout
  1
布局2
 70
     1
 71
     2
 10
0.0
 20
0.0
 11
12.0
 21
9.0
 12
0.0
 22
0.0
 32
0.0
 14
0.0
 24
0.0
 34
0.0
 15
0.0
 25
0.0
 35
0.0
146
0.0
 13
0.0
 23
0.0
 33
0.0
 16
1.0
 26
0.0
 36
0.0
 17
0.0
 27
1.0
 37
0.0
 76
     0
330
25
  0
MLINESTYLE
  5
18
102
{ACAD_REACTORS
330
17
102
}
330
17
100
AcDbMlineStyle
  2
STANDARD
 70
     0
  3

 62
   256
 51
90.0
 52
90.0
 71
     2
 49
0.5
 62
   256
  6
BYLAYER
 49
-0.5
 62
   256
  6
BYLAYER
  0
ACDBPLACEHOLDER
  5
F
102
{ACAD_REACTORS
330
E
102
}
330
E
  0
ENDSEC
  0
EOF
