  0
SECTION
  2
HEADER
  9
$ACADVER
  1
AC1018
  9
$ACADMAINTVER
 70
   104
  9
$DWGCODEPAGE
  3
ANSI_936
  9
$INSBASE
 10
0.0
 20
0.0
 30
0.0
  9
$EXTMIN
 10
378.2976726826707
 20
-15.34328857751257
 30
0.0
  9
$EXTMAX
 10
1638.431215958031
 20
861.1618047070164
 30
0.0
  9
$LIMMIN
 10
0.0
 20
0.0
  9
$LIMMAX
 10
420.0
 20
297.0
  9
$ORTHOMODE
 70
     1
  9
$REGENMODE
 70
     1
  9
$FILLMODE
 70
     1
  9
$QTEXTMODE
 70
     0
  9
$MIRRTEXT
 70
     0
  9
$LTSCALE
 40
1.0
  9
$ATTMODE
 70
     1
  9
$TEXTSIZE
 40
2.5
  9
$TRACEWID
 40
1.0
  9
$TEXTSTYLE
  7
Standard
  9
$CLAYER
  8
标注
  9
$CELTYPE
  6
ByLayer
  9
$CECOLOR
 62
   256
  9
$CELTSCALE
 40
1.0
  9
$DISPSILH
 70
     0
  9
$DIMSCALE
 40
1.0
  9
$DIMASZ
 40
2.5
  9
$DIMEXO
 40
0.625
  9
$DIMDLI
 40
3.75
  9
$DIMRND
 40
0.0
  9
$DIMDLE
 40
0.0
  9
$DIMEXE
 40
1.25
  9
$DIMTP
 40
0.0
  9
$DIMTM
 40
0.0
  9
$DIMTXT
 40
2.5
  9
$DIMCEN
 40
2.5
  9
$DIMTSZ
 40
0.0
  9
$DIMTOL
 70
     0
  9
$DIMLIM
 70
     0
  9
$DIMTIH
 70
     0
  9
$DIMTOH
 70
     0
  9
$DIMSE1
 70
     0
  9
$DIMSE2
 70
     0
  9
$DIMTAD
 70
     1
  9
$DIMZIN
 70
     8
  9
$DIMBLK
  1

  9
$DIMASO
 70
     1
  9
$DIMSHO
 70
     1
  9
$DIMPOST
  1

  9
$DIMAPOST
  1

  9
$DIMALT
 70
     0
  9
$DIMALTD
 70
     3
  9
$DIMALTF
 40
0.03937007874016
  9
$DIMLFAC
 40
1.0
  9
$DIMTOFL
 70
     1
  9
$DIMTVP
 40
0.0
  9
$DIMTIX
 70
     0
  9
$DIMSOXD
 70
     0
  9
$DIMSAH
 70
     0
  9
$DIMBLK1
  1

  9
$DIMBLK2
  1

  9
$DIMSTYLE
  2
ISO-25
  9
$DIMCLRD
 70
     0
  9
$DIMCLRE
 70
     0
  9
$DIMCLRT
 70
     0
  9
$DIMTFAC
 40
1.0
  9
$DIMGAP
 40
0.625
  9
$DIMJUST
 70
     0
  9
$DIMSD1
 70
     0
  9
$DIMSD2
 70
     0
  9
$DIMTOLJ
 70
     0
  9
$DIMTZIN
 70
     8
  9
$DIMALTZ
 70
     0
  9
$DIMALTTZ
 70
     0
  9
$DIMUPT
 70
     0
  9
$DIMDEC
 70
     2
  9
$DIMTDEC
 70
     2
  9
$DIMALTU
 70
     2
  9
$DIMALTTD
 70
     3
  9
$DIMTXSTY
  7
Standard
  9
$DIMAUNIT
 70
     0
  9
$DIMADEC
 70
     0
  9
$DIMALTRND
 40
0.0
  9
$DIMAZIN
 70
     0
  9
$DIMDSEP
 70
    46
  9
$DIMATFIT
 70
     3
  9
$DIMFRAC
 70
     0
  9
$DIMLDRBLK
  1

  9
$DIMLUNIT
 70
     2
  9
$DIMLWD
 70
    -2
  9
$DIMLWE
 70
    -2
  9
$DIMTMOVE
 70
     0
  9
$LUNITS
 70
     2
  9
$LUPREC
 70
     4
  9
$SKETCHINC
 40
1.0
  9
$FILLETRAD
 40
0.0
  9
$AUNITS
 70
     0
  9
$AUPREC
 70
     0
  9
$MENU
  1
.
  9
$ELEVATION
 40
0.0
  9
$PELEVATION
 40
0.0
  9
$THICKNESS
 40
0.0
  9
$LIMCHECK
 70
     0
  9
$CHAMFERA
 40
0.0
  9
$CHAMFERB
 40
0.0
  9
$CHAMFERC
 40
0.0
  9
$CHAMFERD
 40
0.0
  9
$SKPOLY
 70
     0
  9
$TDCREATE
 40
2455855.628782743
  9
$TDUCREATE
 40
2455855.295449410
  9
$TDUPDATE
 40
2456157.720010301
  9
$TDUUPDATE
 40
2456157.386676968
  9
$TDINDWG
 40
0.0680143171
  9
$TDUSRTIMER
 40
0.0680134144
  9
$USRTIMER
 70
     1
  9
$ANGBASE
 50
0.0
  9
$ANGDIR
 70
     0
  9
$PDMODE
 70
     0
  9
$PDSIZE
 40
0.0
  9
$PLINEWID
 40
0.0
  9
$SPLFRAME
 70
     0
  9
$SPLINETYPE
 70
     6
  9
$SPLINESEGS
 70
     8
  9
$HANDSEED
  5
BD
  9
$SURFTAB1
 70
     6
  9
$SURFTAB2
 70
     6
  9
$SURFTYPE
 70
     6
  9
$SURFU
 70
     6
  9
$SURFV
 70
     6
  9
$UCSBASE
  2

  9
$UCSNAME
  2

  9
$UCSORG
 10
0.0
 20
0.0
 30
0.0
  9
$UCSXDIR
 10
1.0
 20
0.0
 30
0.0
  9
$UCSYDIR
 10
0.0
 20
1.0
 30
0.0
  9
$UCSORTHOREF
  2

  9
$UCSORTHOVIEW
 70
     0
  9
$UCSORGTOP
 10
0.0
 20
0.0
 30
0.0
  9
$UCSORGBOTTOM
 10
0.0
 20
0.0
 30
0.0
  9
$UCSORGLEFT
 10
0.0
 20
0.0
 30
0.0
  9
$UCSORGRIGHT
 10
0.0
 20
0.0
 30
0.0
  9
$UCSORGFRONT
 10
0.0
 20
0.0
 30
0.0
  9
$UCSORGBACK
 10
0.0
 20
0.0
 30
0.0
  9
$PUCSBASE
  2

  9
$PUCSNAME
  2

  9
$PUCSORG
 10
0.0
 20
0.0
 30
0.0
  9
$PUCSXDIR
 10
1.0
 20
0.0
 30
0.0
  9
$PUCSYDIR
 10
0.0
 20
1.0
 30
0.0
  9
$PUCSORTHOREF
  2

  9
$PUCSORTHOVIEW
 70
     0
  9
$PUCSORGTOP
 10
0.0
 20
0.0
 30
0.0
  9
$PUCSORGBOTTOM
 10
0.0
 20
0.0
 30
0.0
  9
$PUCSORGLEFT
 10
0.0
 20
0.0
 30
0.0
  9
$PUCSORGRIGHT
 10
0.0
 20
0.0
 30
0.0
  9
$PUCSORGFRONT
 10
0.0
 20
0.0
 30
0.0
  9
$PUCSORGBACK
 10
0.0
 20
0.0
 30
0.0
  9
$USERI1
 70
     0
  9
$USERI2
 70
     0
  9
$USERI3
 70
     0
  9
$USERI4
 70
     0
  9
$USERI5
 70
     0
  9
$USERR1
 40
0.0
  9
$USERR2
 40
0.0
  9
$USERR3
 40
0.0
  9
$USERR4
 40
0.0
  9
$USERR5
 40
0.0
  9
$WORLDVIEW
 70
     1
  9
$SHADEDGE
 70
     3
  9
$SHADEDIF
 70
    70
  9
$TILEMODE
 70
     1
  9
$MAXACTVP
 70
    64
  9
$PINSBASE
 10
0.0
 20
0.0
 30
0.0
  9
$PLIMCHECK
 70
     0
  9
$PEXTMIN
 10
1.000000000000000E+20
 20
1.000000000000000E+20
 30
1.000000000000000E+20
  9
$PEXTMAX
 10
-1.000000000000000E+20
 20
-1.000000000000000E+20
 30
-1.000000000000000E+20
  9
$PLIMMIN
 10
0.0
 20
0.0
  9
$PLIMMAX
 10
420.0
 20
297.0
  9
$UNITMODE
 70
     0
  9
$VISRETAIN
 70
     1
  9
$PLINEGEN
 70
     0
  9
$PSLTSCALE
 70
     1
  9
$TREEDEPTH
 70
  3020
  9
$CMLSTYLE
  2
Standard
  9
$CMLJUST
 70
     0
  9
$CMLSCALE
 40
20.0
  9
$PROXYGRAPHICS
 70
     1
  9
$MEASUREMENT
 70
     1
  9
$CELWEIGHT
370
    -1
  9
$ENDCAPS
280
     0
  9
$JOINSTYLE
280
     0
  9
$LWDISPLAY
290
     0
  9
$INSUNITS
 70
     4
  9
$HYPERLINKBASE
  1

  9
$STYLESHEET
  1

  9
$XEDIT
290
     1
  9
$CEPSNTYPE
380
     0
  9
$PSTYLEMODE
290
     1
  9
$FINGERPRINTGUID
  2
{F7C4C1AB-5755-41BF-AEC1-43BC03F73E91}
  9
$VERSIONGUID
  2
{FC8495E9-3208-4FC9-B430-9C8EE1A3C321}
  9
$EXTNAMES
290
     1
  9
$PSVPSCALE
 40
0.0
  9
$OLESTARTUP
290
     0
  9
$SORTENTS
280
   127
  9
$INDEXCTL
280
     0
  9
$HIDETEXT
280
     1
  9
$XCLIPFRAME
290
     0
  9
$HALOGAP
280
     0
  9
$OBSCOLOR
 70
   257
  9
$OBSLTYPE
280
     0
  9
$INTERSECTIONDISPLAY
280
     0
  9
$INTERSECTIONCOLOR
 70
   257
  9
$DIMASSOC
280
     2
  9
$PROJECTNAME
  1

  0
ENDSEC
  0
SECTION
  2
CLASSES
  0
CLASS
  1
ACDBDICTIONARYWDFLT
  2
AcDbDictionaryWithDefault
  3
ObjectDBX Classes
 90
        0
 91
        1
280
     0
281
     0
  0
CLASS
  1
DIMASSOC
  2
AcDbDimAssoc
  3
"AcDbDimAssoc|Product Desc:     AcDim ARX App For Dimension|Company:          Autodesk, Inc.|WEB Address:      www.autodesk.com"
 90
        0
 91
        2
280
     0
281
     0
  0
CLASS
  1
SORTENTSTABLE
  2
AcDbSortentsTable
  3
ObjectDBX Classes
 90
        0
 91
        2
280
     0
281
     0
  0
CLASS
  1
MATERIAL
  2
AcDbMaterial
  3
ObjectDBX Classes
 90
     1024
 91
        3
280
     0
281
     0
  0
CLASS
  1
VISUALSTYLE
  2
AcDbVisualStyle
  3
ObjectDBX Classes
 90
     4095
 91
        3
280
     0
281
     0
  0
CLASS
  1
TABLESTYLE
  2
AcDbTableStyle
  3
ObjectDBX Classes
 90
     4095
 91
        1
280
     0
281
     0
  0
CLASS
  1
DICTIONARYVAR
  2
AcDbDictionaryVar
  3
ObjectDBX Classes
 90
        0
 91
        1
280
     0
281
     0
  0
ENDSEC
  0
SECTION
  2
TABLES
  0
TABLE
  2
VPORT
  5
20
330
0
100
AcDbSymbolTable
 70
     1
  0
VPORT
  5
21
330
20
100
AcDbSymbolTableRecord
100
AcDbViewportTableRecord
  2
*Active
 70
     0
 10
0.0
 20
0.0
 11
1.0
 21
1.0
 12
485.6718355404805
 22
160.4873301936769
 13
0.0
 23
0.0
 14
10.0
 24
10.0
 15
10.0
 25
10.0
 16
0.0
 26
0.0
 36
1.0
 17
0.0
 27
0.0
 37
0.0
 40
205.3690307590116
 41
1.755336617405582
 42
50.0
 43
0.0
 44
0.0
 50
0.0
 51
0.0
 71
     0
 72
  1000
 73
     1
 74
     3
 75
     0
 76
     0
 77
     0
 78
     0
281
     0
 65
     1
110
0.0
120
0.0
130
0.0
111
1.0
121
0.0
131
0.0
112
0.0
122
1.0
132
0.0
 79
     0
146
0.0
  0
ENDTAB
  0
TABLE
  2
LTYPE
  5
1B
330
0
100
AcDbSymbolTable
 70
     3
  0
LTYPE
  5
1C
330
1B
100
AcDbSymbolTableRecord
100
AcDbLinetypeTableRecord
  2
ByBlock
 70
     0
  3

 72
    65
 73
     0
 40
0.0
  0
LTYPE
  5
1D
330
1B
100
AcDbSymbolTableRecord
100
AcDbLinetypeTableRecord
  2
ByLayer
 70
     0
  3

 72
    65
 73
     0
 40
0.0
  0
LTYPE
  5
C
330
1B
100
AcDbSymbolTableRecord
100
AcDbLinetypeTableRecord
  2
Continuous
 70
     0
  3
Solid line
 72
    65
 73
     0
 40
0.0
  0
LTYPE
  5
91
330
1B
100
AcDbSymbolTableRecord
100
AcDbLinetypeTableRecord
  2
CENTER2
 70
     0
  3
Center (.5x) ___ _ ___ _ ___ _ ___ _ ___ _ ___
 72
    65
 73
     4
 40
28.575
 49
19.05
 74
     0
 49
-3.174999999999998
 74
     0
 49
3.174999999999998
 74
     0
 49
-3.174999999999998
 74
     0
  0
LTYPE
  5
98
330
1B
100
AcDbSymbolTableRecord
100
AcDbLinetypeTableRecord
  2
HIDDEN2
 70
     0
  3
Hidden (.5x) _ _ _ _ _ _ _ _ _ _ _ _ _ _ _ _ _
 72
    65
 73
     2
 40
4.762499999999998
 49
3.174999999999998
 74
     0
 49
-1.587499999999999
 74
     0
  0
ENDTAB
  0
TABLE
  2
LAYER
  5
14
102
{ACAD_XDICTIONARY
360
15
102
}
330
0
100
AcDbSymbolTable
 70
     7
  0
LAYER
  5
6
330
14
100
AcDbSymbolTableRecord
100
AcDbLayerTableRecord
  2
0
 70
     0
 62
     7
  6
Continuous
370
    -3
390
7
  0
LAYER
  5
90
330
14
100
AcDbSymbolTableRecord
100
AcDbLayerTableRecord
  2
中心线
 70
     0
 62
     1
  6
CENTER2
370
    -3
390
7
  0
LAYER
  5
97
330
14
100
AcDbSymbolTableRecord
100
AcDbLayerTableRecord
  2
虚线
 70
     0
 62
     4
  6
HIDDEN2
370
    -3
390
7
  0
LAYER
  5
6C
330
14
100
AcDbSymbolTableRecord
100
AcDbLayerTableRecord
  2
Defpoints
 70
     0
 62
     7
  6
Continuous
290
     0
370
    -3
390
7
  0
LAYER
  5
34
330
14
100
AcDbSymbolTableRecord
100
AcDbLayerTableRecord
  2
标注
 70
     0
 62
    80
  6
Continuous
370
     5
390
7
1001
AcAecLayerStandard
1000

1000

  0
LAYER
  5
95
330
14
100
AcDbSymbolTableRecord
100
AcDbLayerTableRecord
  2
截面层
 70
     0
 62
     6
  6
Continuous
370
    50
390
7
  0
LAYER
  5
40
330
14
100
AcDbSymbolTableRecord
100
AcDbLayerTableRecord
  2
剖面线
 70
     0
 62
   200
  6
Continuous
370
    20
390
7
  0
ENDTAB
  0
TABLE
  2
STYLE
  5
18
330
0
100
AcDbSymbolTable
 70
     1
  0
STYLE
  5
19
330
18
100
AcDbSymbolTableRecord
100
AcDbTextStyleTableRecord
  2
Standard
 70
     0
 40
0.0
 41
1.0
 50
0.0
 71
     0
 42
2.5
  3
txt
  4

  0
ENDTAB
  0
TABLE
  2
VIEW
  5
1E
330
0
100
AcDbSymbolTable
 70
     0
  0
ENDTAB
  0
TABLE
  2
UCS
  5
1F
330
0
100
AcDbSymbolTable
 70
     0
  0
ENDTAB
  0
TABLE
  2
APPID
  5
24
330
0
100
AcDbSymbolTable
 70
     2
  0
APPID
  5
25
330
24
100
AcDbSymbolTableRecord
100
AcDbRegAppTableRecord
  2
ACAD
 70
     0
  0
APPID
  5
35
330
24
100
AcDbSymbolTableRecord
100
AcDbRegAppTableRecord
  2
AcAecLayerStandard
 70
     0
  0
ENDTAB
  0
TABLE
  2
DIMSTYLE
  5
26
330
0
100
AcDbSymbolTable
 70
     5
100
AcDbDimStyleTable
 71
     5
340
27
340
28
340
29
340
2A
340
2B
  0
DIMSTYLE
105
27
330
26
100
AcDbSymbolTableRecord
100
AcDbDimStyleTableRecord
  2
ISO-25
 70
     0
 41
2.5
 42
0.625
 43
3.75
 44
1.25
 73
     0
 74
     0
 77
     1
 78
     8
140
2.5
141
2.5
143
0.03937007874016
147
0.625
171
     3
172
     1
271
     2
272
     2
274
     3
283
     0
284
     8
340
19
  0
DIMSTYLE
105
2A
330
26
100
AcDbSymbolTableRecord
100
AcDbDimStyleTableRecord
  2
Standard
 70
     0
340
19
  0
DIMSTYLE
105
28
102
{ACAD_REACTORS
330
60
330
6F
330
7B
102
}
330
26
100
AcDbSymbolTableRecord
100
AcDbDimStyleTableRecord
  2
副本Standard
 70
     0
  3
"
  4
"
 41
0.65
 42
0.88
 43
0.015
 44
0.32
 73
     0
 74
     0
 78
     8
 79
     2
140
0.65
143
0.03937
147
0.2
171
     1
172
     1
176
   256
177
   256
178
   256
179
     1
271
     3
272
     3
274
     1
276
     2
277
     5
278
    44
340
19
  0
DIMSTYLE
105
2B
330
26
100
AcDbSymbolTableRecord
100
AcDbDimStyleTableRecord
  2
XIAO
 70
     0
 41
2.0
 42
1.5
 43
1.0
 44
0.5
 73
     0
 74
     0
 77
     1
 78
     8
140
2.0
141
1.0
143
0.03937007874016
147
0.8
171
     3
172
     1
179
     1
271
     1
272
     1
274
     3
278
    44
283
     0
284
     8
340
19
  0
DIMSTYLE
105
29
330
26
100
AcDbSymbolTableRecord
100
AcDbDimStyleTableRecord
  2
xiaoXIAO
 70
     0
 41
2.0
 42
2.0
 43
1.0
 44
0.5
 73
     0
 74
     0
 77
     1
 78
     8
140
2.0
141
0.2
143
0.03937007874016
147
0.7
171
     3
172
     1
179
     1
271
     2
272
     2
274
     3
278
    44
283
     0
284
     8
340
19
  0
ENDTAB
  0
TABLE
  2
BLOCK_RECORD
  5
1
330
0
100
AcDbSymbolTable
 70
     3
  0
BLOCK_RECORD
  5
2
102
{ACAD_XDICTIONARY
360
3
102
}
330
1
100
AcDbSymbolTableRecord
100
AcDbBlockTableRecord
  2
*Model_Space
340
E
  0
BLOCK_RECORD
  5
10
330
1
100
AcDbSymbolTableRecord
100
AcDbBlockTableRecord
  2
*Paper_Space
340
13
  0
BLOCK_RECORD
  5
63
330
1
100
AcDbSymbolTableRecord
100
AcDbBlockTableRecord
  2
*D0
340
0
  0
BLOCK_RECORD
  5
70
330
1
100
AcDbSymbolTableRecord
100
AcDbBlockTableRecord
  2
*D1
340
0
  0
BLOCK_RECORD
  5
7E
330
1
100
AcDbSymbolTableRecord
100
AcDbBlockTableRecord
  2
*D2
340
0
  0
ENDTAB
  0
ENDSEC
  0
SECTION
  2
BLOCKS
  0
BLOCK
  5
5
330
2
100
AcDbEntity
  8
0
100
AcDbBlockBegin
  2
*Model_Space
 70
     0
 10
0.0
 20
0.0
 30
0.0
  3
*Model_Space
  1

  0
ENDBLK
  5
D
330
2
100
AcDbEntity
  8
0
100
AcDbBlockEnd
  0
BLOCK
  5
11
330
10
100
AcDbEntity
 67
     1
  8
0
100
AcDbBlockBegin
  2
*Paper_Space
 70
     0
 10
0.0
 20
0.0
 30
0.0
  3
*Paper_Space
  1

  0
ENDBLK
  5
12
330
10
100
AcDbEntity
 67
     1
  8
0
100
AcDbBlockEnd
  0
BLOCK
  5
64
330
63
100
AcDbEntity
  8
0
100
AcDbBlockBegin
  2
*D0
 70
     1
 10
0.0
 20
0.0
 30
0.0
  3
*D0
  1

  0
LINE
  5
65
330
63
100
AcDbEntity
  8
标注
370
    -2
100
AcDbLine
 10
506.3025362002885
 20
207.4914591963484
 30
0.0
 11
505.6573265696816
 21
207.412690341005
 31
0.0
  0
LINE
  5
66
330
63
100
AcDbEntity
  8
标注
370
    -2
100
AcDbLine
 10
487.386238986369
 20
205.1821088578003
 30
0.0
 11
486.7410293557621
 21
205.1033400024568
 31
0.0
  0
MTEXT
  5
67
330
63
100
AcDbEntity
  8
标注
100
AcDbMText
 10
508.6517610091649
 20
207.778258618368
 30
0.0
 40
0.65
 41
0.0
 71
     5
 72
     1
  1
\A1;\U+220517 1/8"
 11
0.9926302009336849
 21
0.1211828543745056
 31
0.0
 73
     1
 44
1.0
  0
LINE
  5
68
330
63
100
AcDbEntity
  8
标注
370
    -2
100
AcDbLine
 10
488.0314486169758
 20
205.2608777131437
 30
0.0
 11
505.0121169390747
 21
207.3339214856615
 31
0.0
  0
SOLID
  5
69
330
63
100
AcDbEntity
  8
标注
100
AcDbTrace
 10
487.3731108438118
 20
205.2896437962347
 30
0.0
 11
487.3993671289262
 21
205.0745739193658
 31
0.0
 12
488.0314486169758
 22
205.2608777131437
 32
0.0
 13
488.0314486169758
 23
205.2608777131437
 33
0.0
  0
SOLID
  5
6A
330
63
100
AcDbEntity
  8
标注
100
AcDbTrace
 10
505.6441984271244
 20
207.5202252794394
 30
0.0
 11
505.6704547122389
 21
207.3051554025705
 31
0.0
 12
505.0121169390747
 22
207.3339214856615
 32
0.0
 13
505.0121169390747
 23
207.3339214856615
 33
0.0
  0
POINT
  5
6B
330
63
100
AcDbEntity
  8
Defpoints
 62
     0
100
AcDbPoint
 10
505.0121169390747
 20
207.3339214856615
 30
0.0
  0
POINT
  5
6D
330
63
100
AcDbEntity
  8
Defpoints
 62
     0
100
AcDbPoint
 10
488.0314486169758
 20
205.2608777131437
 30
0.0
  0
ENDBLK
  5
6E
330
63
100
AcDbEntity
  8
0
100
AcDbBlockEnd
  0
BLOCK
  5
71
330
70
100
AcDbEntity
  8
0
100
AcDbBlockBegin
  2
*D1
 70
     1
 10
0.0
 20
0.0
 30
0.0
  3
*D1
  1

  0
LINE
  5
72
330
70
100
AcDbEntity
  8
标注
370
    -2
100
AcDbLine
 10
505.5765109663838
 20
203.4964113942217
 30
0.0
 11
504.3748554306664
 21
203.8681313301732
 31
0.0
  0
LINE
  5
73
330
70
100
AcDbEntity
  8
标注
370
    -2
100
AcDbLine
 10
488.6687101253846
 20
208.726667868632
 30
0.0
 11
488.0477420375964
 21
208.9187580400327
 31
0.0
  0
MTEXT
  5
74
330
70
100
AcDbEntity
  8
标注
100
AcDbMText
 10
507.8374716962791
 20
202.7970061547629
 30
0.0
 40
0.65
 41
0.0
 71
     5
 72
     1
  1
\A1;\U+220515 1/8"
 11
0.9553355196740593
 21
-0.2955233406164311
 31
0.0
 73
     1
 44
1.0
  0
LINE
  5
75
330
70
100
AcDbEntity
  8
标注
370
    -2
100
AcDbLine
 10
489.2896782131727
 20
208.5345776972314
 30
0.0
 11
503.7538873428784
 21
204.0602215015739
 31
0.0
  0
SOLID
  5
76
330
70
100
AcDbEntity
  8
标注
100
AcDbTrace
 10
488.7007251539514
 20
208.8301625499301
 30
0.0
 11
488.6366950968178
 21
208.6231731873341
 31
0.0
 12
489.2896782131727
 22
208.5345776972314
 32
0.0
 13
489.2896782131727
 23
208.5345776972314
 33
0.0
  0
SOLID
  5
77
330
70
100
AcDbEntity
  8
标注
100
AcDbTrace
 10
504.4068704592332
 20
203.9716260114713
 30
0.0
 11
504.3428404020996
 21
203.7646366488752
 31
0.0
 12
503.7538873428784
 22
204.0602215015739
 32
0.0
 13
503.7538873428784
 23
204.0602215015739
 33
0.0
  0
POINT
  5
78
330
70
100
AcDbEntity
  8
Defpoints
 62
     0
100
AcDbPoint
 10
503.7538873428784
 20
204.0602215015739
 30
0.0
  0
POINT
  5
79
330
70
100
AcDbEntity
  8
Defpoints
 62
     0
100
AcDbPoint
 10
489.2896782131727
 20
208.5345776972314
 30
0.0
  0
ENDBLK
  5
7A
330
70
100
AcDbEntity
  8
0
100
AcDbBlockEnd
  0
BLOCK
  5
7F
330
7E
100
AcDbEntity
  8
0
100
AcDbBlockBegin
  2
*D2
 70
     1
 10
0.0
 20
0.0
 30
0.0
  3
*D2
  1

  0
LINE
  5
80
330
7E
100
AcDbEntity
  8
标注
370
    -2
100
AcDbLine
 10
497.6388755249373
 20
218.7357237871393
 30
0.0
 11
498.1401151113252
 21
218.7357237871393
 31
0.0
  0
LINE
  5
81
330
7E
100
AcDbEntity
  8
标注
370
    -2
100
AcDbLine
 10
497.6388755249373
 20
225.7357237859593
 30
0.0
 11
498.1401151113252
 21
225.7357237859593
 31
0.0
  0
LINE
  5
82
330
7E
100
AcDbEntity
  8
标注
370
    -2
100
AcDbLine
 10
498.4601151113252
 20
219.3857237871393
 30
0.0
 11
498.4601151113252
 21
221.602390453216
 31
0.0
  0
LINE
  5
83
330
7E
100
AcDbEntity
  8
标注
370
    -2
100
AcDbLine
 10
498.4601151113252
 20
225.0857237859593
 30
0.0
 11
498.4601151113252
 21
222.8690571198826
 31
0.0
  0
SOLID
  5
84
330
7E
100
AcDbEntity
  8
标注
100
AcDbTrace
 10
498.3517817779918
 20
219.3857237871393
 30
0.0
 11
498.5684484446585
 21
219.3857237871393
 31
0.0
 12
498.4601151113252
 22
218.7357237871393
 32
0.0
 13
498.4601151113252
 23
218.7357237871393
 33
0.0
  0
SOLID
  5
85
330
7E
100
AcDbEntity
  8
标注
100
AcDbTrace
 10
498.3517817779918
 20
225.0857237859593
 30
0.0
 11
498.5684484446585
 21
225.0857237859593
 31
0.0
 12
498.4601151113252
 22
225.7357237859593
 32
0.0
 13
498.4601151113252
 23
225.7357237859593
 33
0.0
  0
MTEXT
  5
86
330
7E
100
AcDbEntity
  8
标注
100
AcDbMText
 10
498.4601151113251
 20
222.2357237865494
 30
0.0
 40
0.65
 41
0.0
 71
     5
 72
     1
  1
\A1;7"
 11
0.0000000000000001
 21
1.0
 31
0.0
 73
     1
 44
1.0
  0
POINT
  5
87
330
7E
100
AcDbEntity
  8
Defpoints
 62
     0
100
AcDbPoint
 10
498.5188755249374
 20
218.7357237871393
 30
0.0
  0
POINT
  5
88
330
7E
100
AcDbEntity
  8
Defpoints
 62
     0
100
AcDbPoint
 10
498.5188755249374
 20
225.7357237859593
 30
0.0
  0
POINT
  5
89
330
7E
100
AcDbEntity
  8
Defpoints
 62
     0
100
AcDbPoint
 10
498.4601151113252
 20
225.7357237859593
 30
0.0
  0
ENDBLK
  5
8A
330
7E
100
AcDbEntity
  8
0
100
AcDbBlockEnd
  0
ENDSEC
  0
SECTION
  2
ENTITIES
  0
CIRCLE
  5
3A
330
2
100
AcDbEntity
  8
0
 48
2.0
100
AcDbCircle
 10
496.5217827780255
 20
206.2973995994026
 30
0.0
 40
7.570224717824999
  0
CIRCLE
  5
3B
102
{ACAD_REACTORS
330
62
102
}
330
2
100
AcDbEntity
  8
0
 48
2.0
100
AcDbCircle
 10
496.5217827780255
 20
206.2973995994026
 30
0.0
 40
8.553370785074999
  0
CIRCLE
  5
3C
330
2
100
AcDbEntity
  8
0
 48
2.0
100
AcDbCircle
 10
496.5217827780255
 20
206.2973995994026
 30
0.0
 40
2.39887640409
  0
CIRCLE
  5
3D
330
2
100
AcDbEntity
  8
0
 48
2.0
100
AcDbCircle
 10
496.5217827780255
 20
206.2973995994026
 30
0.0
 40
1.76966292105
  0
CIRCLE
  5
3E
330
2
100
AcDbEntity
  8
0
 48
2.0
100
AcDbCircle
 10
496.5217827780255
 20
206.2973995994026
 30
0.0
 40
2.261235954675
  0
LINE
  5
3F
330
2
100
AcDbEntity
  8
剖面线
100
AcDbLine
 10
504.2099850239205
 20
225.7357237859593
 30
0.0
 11
505.0751535631006
 21
225.7357237859593
 31
0.0
  0
LINE
  5
41
330
2
100
AcDbEntity
  8
剖面线
100
AcDbLine
 10
504.2099850239205
 20
225.6957237859593
 30
0.0
 11
505.0751535631006
 21
225.6957237859593
 31
0.0
  0
ARC
  5
42
330
2
100
AcDbEntity
  8
剖面线
100
AcDbCircle
 10
504.2099850239205
 20
225.6177462578893
 30
0.0
 40
0.11797752807
100
AcDbArc
 50
90.0
 51
180.0
  0
ARC
  5
43
330
2
100
AcDbEntity
  8
剖面线
100
AcDbCircle
 10
504.2099850239205
 20
225.6177462578893
 30
0.0
 40
0.07797752807
100
AcDbArc
 50
90.0
 51
180.0
  0
LINE
  5
44
330
2
100
AcDbEntity
  8
剖面线
100
AcDbLine
 10
487.9684119929505
 20
225.7357237859593
 30
0.0
 11
488.8335805321305
 21
225.7357237859593
 31
0.0
  0
LINE
  5
45
330
2
100
AcDbEntity
  8
剖面线
100
AcDbLine
 10
487.9684119929505
 20
225.6957237859593
 30
0.0
 11
488.8335805321305
 21
225.6957237859593
 31
0.0
  0
ARC
  5
46
330
2
100
AcDbEntity
  8
剖面线
100
AcDbCircle
 10
488.8335805321305
 20
225.6177462578893
 30
0.0
 40
0.11797752807
100
AcDbArc
 50
0.0
 51
90.0
  0
ARC
  5
47
330
2
100
AcDbEntity
  8
剖面线
100
AcDbCircle
 10
488.8335805321305
 20
225.6177462578893
 30
0.0
 40
0.07797752807
100
AcDbArc
 50
0.0
 51
90.0
  0
LINE
  5
48
102
{ACAD_REACTORS
330
7D
102
}
330
2
100
AcDbEntity
  8
0
 48
2.0
100
AcDbLine
 10
488.8335805321305
 20
225.7357237859593
 30
0.0
 11
504.2099850239205
 21
225.7357237859593
 31
0.0
  0
LINE
  5
49
330
2
100
AcDbEntity
  8
剖面线
100
AcDbLine
 10
488.9515580602005
 20
225.6177462578893
 30
0.0
 11
488.9515580602005
 21
220.4389574999008
 31
0.0
  0
LINE
  5
4A
330
2
100
AcDbEntity
  8
剖面线
100
AcDbLine
 10
488.9115580602005
 20
225.6177462578893
 30
0.0
 11
488.9115580602005
 21
220.4389574999008
 31
0.0
  0
ARC
  5
4B
330
2
100
AcDbEntity
  8
剖面线
100
AcDbCircle
 10
490.5245917678006
 20
220.4389574999008
 30
0.0
 40
1.5730337076
100
AcDbArc
 50
180.0
 51
267.0467985043454
  0
ARC
  5
4C
330
2
100
AcDbEntity
  8
剖面线
100
AcDbCircle
 10
490.5245917678006
 20
220.4389574999008
 30
0.0
 40
1.6130337076
100
AcDbArc
 50
180.0
 51
267.0467985043454
  0
LINE
  5
4D
330
2
100
AcDbEntity
  8
剖面线
100
AcDbLine
 10
498.7830187327007
 20
218.5713224023549
 30
0.0
 11
498.2914456990755
 21
218.4913224023549
 31
0.0
  0
LINE
  5
4E
330
2
100
AcDbEntity
  8
剖面线
100
AcDbLine
 10
498.8016978998664
 20
218.5313224023549
 30
0.0
 11
498.2914456990755
 21
218.4513224023549
 31
0.0
  0
LINE
  5
4F
330
2
100
AcDbEntity
  8
剖面线
100
AcDbLine
 10
498.9206591821156
 20
218.7357237871393
 30
0.0
 11
498.7830187327007
 21
218.5713224023549
 31
0.0
  0
LINE
  5
50
330
2
100
AcDbEntity
  8
剖面线
100
AcDbLine
 10
498.9396560582056
 20
218.6961032670623
 30
0.0
 11
498.8016978998664
 21
218.5313224023549
 31
0.0
  0
ARC
  5
51
330
2
100
AcDbEntity
  8
剖面线
100
AcDbCircle
 10
496.5217827780256
 20
336.6888607590127
 30
0.0
 40
117.97752807
100
AcDbArc
 50
271.1650944765243
 51
272.9532014956546
  0
ARC
  5
52
330
2
100
AcDbEntity
  8
剖面线
100
AcDbCircle
 10
496.5217827780256
 20
336.6888607590127
 30
0.0
 40
118.01752807
100
AcDbArc
 50
271.1739241592308
 51
272.9532014956546
  0
ARC
  5
53
330
2
100
AcDbEntity
  8
剖面线
100
AcDbCircle
 10
496.5217827780256
 20
336.6888607590127
 30
0.0
 40
117.97752807
100
AcDbArc
 50
267.0467985043454
 51
268.8349055234758
  0
ARC
  5
54
330
2
100
AcDbEntity
  8
剖面线
100
AcDbCircle
 10
496.5217827780256
 20
336.6888607590127
 30
0.0
 40
118.01752807
100
AcDbArc
 50
267.0467985043454
 51
268.8260758407691
  0
LINE
  5
55
330
2
100
AcDbEntity
  8
剖面线
100
AcDbLine
 10
494.1229063739355
 20
218.7357237871393
 30
0.0
 11
494.2605468233505
 21
218.5713224023549
 31
0.0
  0
LINE
  5
56
330
2
100
AcDbEntity
  8
剖面线
100
AcDbLine
 10
494.1039094978456
 20
218.6961032670622
 30
0.0
 11
494.2418676561849
 21
218.5313224023549
 31
0.0
  0
LINE
  5
57
330
2
100
AcDbEntity
  8
剖面线
100
AcDbLine
 10
494.2605468233505
 20
218.5713224023549
 30
0.0
 11
494.7521198569756
 21
218.4913224023549
 31
0.0
  0
LINE
  5
58
330
2
100
AcDbEntity
  8
剖面线
100
AcDbLine
 10
494.2418676561849
 20
218.5313224023549
 30
0.0
 11
494.7521198569756
 21
218.4513224023549
 31
0.0
  0
LINE
  5
59
102
{ACAD_REACTORS
330
7D
102
}
330
2
100
AcDbEntity
  8
0
 48
2.0
100
AcDbLine
 10
494.1229063739355
 20
218.7357237871393
 30
0.0
 11
498.9206591821155
 21
218.7357237871393
 31
0.0
  0
LINE
  5
5A
330
2
100
AcDbEntity
  8
0
 48
2.0
100
AcDbLine
 10
494.7521198569756
 20
218.4913224023549
 30
0.0
 11
498.2914456990755
 21
218.4913224023549
 31
0.0
  0
LINE
  5
5B
330
2
100
AcDbEntity
  8
0
 48
2.0
100
AcDbLine
 10
494.7521198569756
 20
218.4513224023549
 30
0.0
 11
498.2914456990755
 21
218.4513224023549
 31
0.0
  0
ARC
  5
5C
330
2
100
AcDbEntity
  8
剖面线
100
AcDbCircle
 10
502.5189737882506
 20
220.4389574999008
 30
0.0
 40
1.5730337076
100
AcDbArc
 50
272.9532014956546
 51
0.0
  0
ARC
  5
5D
330
2
100
AcDbEntity
  8
剖面线
100
AcDbCircle
 10
502.5189737882506
 20
220.4389574999008
 30
0.0
 40
1.6130337076
100
AcDbArc
 50
272.9532014956546
 51
0.0
  0
LINE
  5
5E
330
2
100
AcDbEntity
  8
剖面线
100
AcDbLine
 10
504.0920074958505
 20
220.4389574999008
 30
0.0
 11
504.0920074958505
 21
225.6177462578893
 31
0.0
  0
LINE
  5
5F
330
2
100
AcDbEntity
  8
剖面线
100
AcDbLine
 10
504.1320074958505
 20
220.4389574999008
 30
0.0
 11
504.1320074958505
 21
225.6177462578893
 31
0.0
  0
DIMENSION
  5
60
102
{ACAD_XDICTIONARY
360
61
102
}
102
{ACAD_REACTORS
330
62
102
}
330
2
100
AcDbEntity
  8
标注
100
AcDbDimension
  2
*D0
 10
488.0314486169758
 20
205.2608777131437
 30
0.0
 11
508.6517610091649
 21
207.778258618368
 31
0.0
 70
     3
 71
     5
 42
17.10674157015023
  3
副本Standard
100
AcDbDiametricDimension
 15
505.0121169390747
 25
207.3339214856615
 35
0.0
 40
0.0
1001
ACAD
1000
DSTYLE
1002
{
1070
   288
1070
     1
1002
}
  0
DIMENSION
  5
6F
330
2
100
AcDbEntity
  8
标注
100
AcDbDimension
  2
*D1
 10
489.2896782131727
 20
208.5345776972314
 30
0.0
 11
507.8374716962791
 21
202.7970061547629
 31
0.0
 70
   131
 71
     5
 42
15.14044943565011
  3
副本Standard
100
AcDbDiametricDimension
 15
503.7538873428784
 25
204.0602215015739
 35
0.0
 40
0.0
1001
ACAD
1000
DSTYLE
1002
{
1070
   288
1070
     1
1002
}
  0
DIMENSION
  5
7B
102
{ACAD_XDICTIONARY
360
7C
102
}
102
{ACAD_REACTORS
330
7D
102
}
330
2
100
AcDbEntity
  8
标注
100
AcDbDimension
  2
*D2
 10
498.4601151113252
 20
225.7357237859593
 30
0.0
 11
498.4601151113251
 21
222.2357237865494
 31
0.0
 71
     5
 42
6.999999998819987
  3
副本Standard
100
AcDbAlignedDimension
 13
498.5188755249374
 23
218.7357237871393
 33
0.0
 14
498.5188755249374
 24
225.7357237859593
 34
0.0
 50
90.0
100
AcDbRotatedDimension
1001
ACAD
1000
DSTYLE
1002
{
1070
   288
1070
     1
1002
}
  0
LINE
  5
8B
330
2
100
AcDbEntity
  8
剖面线
100
AcDbLine
 10
487.9684119929505
 20
225.7357237859593
 30
0.0
 11
487.9684119929505
 21
225.6957237859593
 31
0.0
  0
LINE
  5
8C
330
2
100
AcDbEntity
  8
剖面线
100
AcDbLine
 10
505.0751535631006
 20
225.7357237859593
 30
0.0
 11
505.0751535631006
 21
225.6957237859593
 31
0.0
  0
LINE
  5
8D
330
2
100
AcDbEntity
  8
剖面线
100
AcDbLine
 10
498.2914456990755
 20
218.4913224023549
 30
0.0
 11
498.2914456990755
 21
218.4513224023549
 31
0.0
  0
LINE
  5
8E
330
2
100
AcDbEntity
  8
剖面线
100
AcDbLine
 10
494.7521198569757
 20
218.4913224023549
 30
0.0
 11
494.7521198569757
 21
218.4513224023549
 31
0.0
  0
LINE
  5
8F
330
2
100
AcDbEntity
  8
中心线
 48
0.1
100
AcDbLine
 10
493.4032434527085
 20
206.2973995994026
 30
0.0
 11
499.6403221033425
 21
206.2973995994026
 31
0.0
  0
LINE
  5
92
330
2
100
AcDbEntity
  8
中心线
 48
0.1
100
AcDbLine
 10
496.5217827780255
 20
209.4159389247196
 30
0.0
 11
496.5217827780255
 21
203.1788602740856
 31
0.0
  0
LINE
  5
93
330
2
100
AcDbEntity
  8
中心线
 48
0.1
100
AcDbLine
 10
496.5217827780255
 20
225.9694608190343
 30
0.0
 11
496.5217827780255
 21
218.0622572752286
 31
0.0
  0
CIRCLE
  5
94
330
2
100
AcDbEntity
  8
截面层
 62
     1
 48
0.2
370
    35
100
AcDbCircle
 10
496.5217827780255
 20
175.9120718575669
 30
0.0
 40
7.570224717824999
  0
CIRCLE
  5
96
330
2
100
AcDbEntity
  8
虚线
 62
     3
 48
0.3
370
    35
100
AcDbCircle
 10
496.5217827780255
 20
175.9120718575669
 30
0.0
 40
7.820224717824999
  0
CIRCLE
  5
99
330
2
100
AcDbEntity
  8
虚线
 62
    11
 48
0.15
370
    35
100
AcDbCircle
 10
496.5217827780255
 20
175.9120718575669
 30
0.0
 40
7.320224717824999
  0
CIRCLE
  5
9A
330
2
100
AcDbEntity
  8
0
 48
2.0
100
AcDbCircle
 10
496.5217827780255
 20
175.9120718575669
 30
0.0
 40
8.553370785074999
  0
CIRCLE
  5
9B
330
2
100
AcDbEntity
  8
0
 48
2.0
100
AcDbCircle
 10
496.5217827780255
 20
175.9120718575669
 30
0.0
 40
2.39887640409
  0
CIRCLE
  5
9C
330
2
100
AcDbEntity
  8
0
 48
2.0
100
AcDbCircle
 10
496.5217827780255
 20
175.9120718575669
 30
0.0
 40
1.76966292105
  0
CIRCLE
  5
9D
330
2
100
AcDbEntity
  8
0
 48
2.0
100
AcDbCircle
 10
496.5217827780255
 20
175.9120718575669
 30
0.0
 40
2.261235954675
  0
LINE
  5
9E
330
2
100
AcDbEntity
  8
中心线
 48
0.1
100
AcDbLine
 10
493.4032434527085
 20
175.9120718575669
 30
0.0
 11
499.6403221033425
 21
175.9120718575669
 31
0.0
  0
LINE
  5
9F
330
2
100
AcDbEntity
  8
中心线
 48
0.1
100
AcDbLine
 10
496.5217827780255
 20
179.0306111828839
 30
0.0
 11
496.5217827780255
 21
172.7935325322499
 31
0.0
  0
LINE
  5
A0
330
2
100
AcDbEntity
  8
虚线
 62
     3
 48
0.3
370
    35
100
AcDbLine
 10
490.576415277493
 20
163.8782105947097
 30
0.0
 11
494.3064982799433
 21
163.8782105947097
 31
0.0
  0
LINE
  5
A1
330
2
100
AcDbEntity
  8
截面层
 62
     1
 48
0.2
370
    35
100
AcDbLine
 10
490.576415277493
 20
162.697108232505
 30
0.0
 11
494.3064982799433
 21
162.697108232505
 31
0.0
  0
LINE
  5
A2
330
2
100
AcDbEntity
  8
虚线
 62
    11
 48
0.15
370
    35
100
AcDbLine
 10
490.576415277493
 20
161.5160058703002
 30
0.0
 11
494.3064982799433
 21
161.5160058703002
 31
0.0
  0
MTEXT
  5
A3
330
2
100
AcDbEntity
  8
标注
 48
5.0
100
AcDbMText
 10
495.1756589258331
 20
164.2071095572762
 30
0.0
 40
0.4724409448818898
 41
9.093325333992899
 71
     1
 72
     5
  1
1/4" {\fArial|b0|i0|c0|p32;REVEAL CUTOUT}
 73
     1
 44
1.0
  0
MTEXT
  5
A4
330
2
100
AcDbEntity
  8
标注
 48
5.0
100
AcDbMText
 10
495.1756589258329
 20
163.0260071950714
 30
0.0
 40
0.4724409448818898
 41
9.093325333992899
 71
     1
 72
     5
  1
{\fArial|b0|i0|c0|p32;FLUSH CUTOUT}
 73
     1
 44
1.0
  0
MTEXT
  5
A5
330
2
100
AcDbEntity
  8
标注
 48
5.0
100
AcDbMText
 10
495.1756589258331
 20
161.8449048328667
 30
0.0
 40
0.4724409448818898
 41
9.093325333992899
 71
     1
 72
     5
  1
1/4" {\fArial|b0|i0|c0|p32;OVERHANG CUTOUT}
 73
     1
 44
1.0
  0
MTEXT
  5
A6
330
2
100
AcDbEntity
  8
标注
 48
5.0
100
AcDbMText
 10
491.891481313301
 20
195.4305232071016
 30
0.0
 40
0.7874015748031497
 41
15.1555422233215
 71
     1
 72
     5
  1
{\fArial|b0|i0|c0|p32;OVERHEAD VIEW}
 73
     1
 44
1.0
  0
CIRCLE
  5
A7
330
2
100
AcDbEntity
  8
虚线
 62
     3
 48
0.3
370
    35
100
AcDbCircle
 10
496.5217827780255
 20
147.3046055873227
 30
0.0
 40
7.820224717824999
  0
LINE
  5
A8
330
2
100
AcDbEntity
  8
虚线
 62
     3
 48
0.3
370
    35
100
AcDbLine
 10
490.576415277493
 20
136.7676192764469
 30
0.0
 11
494.3064982799433
 21
136.7676192764469
 31
0.0
  0
MTEXT
  5
A9
330
2
100
AcDbEntity
  8
标注
 48
5.0
100
AcDbMText
 10
495.1756589258331
 20
137.0965182390134
 30
0.0
 40
0.4724409448818898
 41
9.093325333992899
 71
     1
 72
     5
  1
1/4" {\fArial|b0|i0|c0|p32;REVEAL CUTOUT}
 73
     1
 44
1.0
  0
CIRCLE
  5
AA
330
2
100
AcDbEntity
  8
截面层
 62
     1
 48
0.2
370
    35
100
AcDbCircle
 10
496.5217827780255
 20
123.5859070925679
 30
0.0
 40
7.570224717824999
  0
LINE
  5
AB
330
2
100
AcDbEntity
  8
截面层
 62
     1
 48
0.2
370
    35
100
AcDbLine
 10
490.576415277493
 20
113.4327309173103
 30
0.0
 11
494.3064982799433
 21
113.4327309173103
 31
0.0
  0
MTEXT
  5
AC
330
2
100
AcDbEntity
  8
标注
 48
5.0
100
AcDbMText
 10
495.1756589258329
 20
113.7616298798767
 30
0.0
 40
0.4724409448818898
 41
9.093325333992899
 71
     1
 72
     5
  1
{\fArial|b0|i0|c0|p32;FLUSH CUTOUT}
 73
     1
 44
1.0
  0
CIRCLE
  5
AD
330
2
100
AcDbEntity
  8
虚线
 62
    11
 48
0.15
370
    35
100
AcDbCircle
 10
496.5217827780255
 20
99.53599179940338
 30
0.0
 40
7.320224717824999
  0
LINE
  5
AE
330
2
100
AcDbEntity
  8
虚线
 62
    11
 48
0.15
370
    35
100
AcDbLine
 10
490.576415277493
 20
88.95015073793189
 30
0.0
 11
494.3064982799433
 21
88.95015073793189
 31
0.0
  0
MTEXT
  5
AF
330
2
100
AcDbEntity
  8
标注
 48
5.0
100
AcDbMText
 10
495.1756589258331
 20
89.27904970049832
 30
0.0
 40
0.4724409448818898
 41
9.093325333992899
 71
     1
 72
     5
  1
1/4" {\fArial|b0|i0|c0|p32;OVERHANG CUTOUT}
 73
     1
 44
1.0
  0
ENDSEC
  0
SECTION
  2
OBJECTS
  0
DICTIONARY
  5
9
330
0
100
AcDbDictionary
281
     1
  3
ACAD_COLOR
350
32
  3
ACAD_GROUP
350
2D
  3
ACAD_LAYOUT
350
F
  3
ACAD_MATERIAL
350
B
  3
ACAD_MLINESTYLE
350
2E
  3
ACAD_PLOTSETTINGS
350
2F
  3
ACAD_PLOTSTYLENAME
350
8
  3
ACAD_TABLESTYLE
350
33
  3
ACAD_VISUALSTYLE
350
23
  3
AcDbVariableDictionary
350
B3
  0
DICTIONARY
  5
15
330
14
100
AcDbDictionary
280
     1
281
     1
  3
ACAD_LAYERFILTERS
360
16
  3
ACAD_LAYERSTATES
360
17
  0
DICTIONARY
  5
3
330
2
100
AcDbDictionary
280
     1
281
     1
  3
ACAD_SORTENTS
360
B0
  0
DICTIONARY
  5
61
330
60
100
AcDbDictionary
280
     1
281
     1
  3
ACAD_DIMASSOC
360
62
  0
DICTIONARY
  5
7C
330
7B
100
AcDbDictionary
280
     1
281
     1
  3
ACAD_DIMASSOC
360
7D
  0
DICTIONARY
  5
32
102
{ACAD_REACTORS
330
9
102
}
330
9
100
AcDbDictionary
281
     1
  0
DICTIONARY
  5
2D
102
{ACAD_REACTORS
330
9
102
}
330
9
100
AcDbDictionary
281
     1
  0
DICTIONARY
  5
F
102
{ACAD_REACTORS
330
9
102
}
330
9
100
AcDbDictionary
281
     1
  3
Model
350
E
  3
布局1
350
13
  0
DICTIONARY
  5
B
102
{ACAD_REACTORS
330
9
102
}
330
9
100
AcDbDictionary
281
     1
  3
ByBlock
350
31
  3
ByLayer
350
30
  3
Global
350
A
  0
DICTIONARY
  5
2E
102
{ACAD_REACTORS
330
9
102
}
330
9
100
AcDbDictionary
281
     1
  3
Standard
350
36
  0
DICTIONARY
  5
2F
102
{ACAD_REACTORS
330
9
102
}
330
9
100
AcDbDictionary
281
     1
  0
ACDBDICTIONARYWDFLT
  5
8
102
{ACAD_REACTORS
330
9
102
}
330
9
100
AcDbDictionary
281
     1
  3
Normal
350
7
100
AcDbDictionaryWithDefault
340
7
  0
DICTIONARY
  5
33
102
{ACAD_REACTORS
330
9
102
}
330
9
100
AcDbDictionary
281
     1
  3
Standard
350
37
  0
DICTIONARY
  5
23
102
{ACAD_REACTORS
330
9
102
}
330
9
100
AcDbDictionary
281
     1
  3
2dWireframe
350
22
  3
3dWireframe
350
39
  3
Realistic
350
38
  0
DICTIONARY
  5
B3
102
{ACAD_REACTORS
330
9
102
}
330
9
100
AcDbDictionary
281
     1
  3
CTABLESTYLE
350
B4
  0
DICTIONARY
  5
16
102
{ACAD_REACTORS
330
15
102
}
330
15
100
AcDbDictionary
281
     1
  0
DICTIONARY
  5
17
102
{ACAD_REACTORS
330
15
102
}
330
15
100
AcDbDictionary
281
     1
  0
SORTENTSTABLE
  5
B0
102
{ACAD_REACTORS
330
3
102
}
330
3
100
AcDbSortentsTable
330
2
  0
DIMASSOC
  5
62
102
{ACAD_REACTORS
330
61
102
}
330
61
100
AcDbDimAssoc
330
60
 90
        2
 70
     0
 71
     0
  1
AcDbOsnapPointRef
 72
     3
331
3B
 73
     2
 91
        0
 40
0.0
 10
0.0
 20
0.0
 30
0.0
 75
     0
  0
DIMASSOC
  5
7D
102
{ACAD_REACTORS
330
7C
102
}
330
7C
100
AcDbDimAssoc
330
7B
 90
        3
 70
     0
 71
     0
  1
AcDbOsnapPointRef
 72
    10
331
59
 73
     2
 91
        0
 40
0.9162558653515581
 10
0.0
 20
0.0
 30
0.0
 75
     0
  1
AcDbOsnapPointRef
 72
     8
331
48
 73
     2
 91
        0
 40
0.6298803467337312
 10
0.0
 20
0.0
 30
0.0
 75
     1
  1
AcDbOsnapPointRef
 72
    10
331
59
 73
     2
 91
        0
 40
0.9162558653515581
 10
0.0
 20
0.0
 30
0.0
 75
     0
  0
LAYOUT
  5
E
102
{ACAD_REACTORS
330
F
102
}
330
F
100
AcDbPlotSettings
  1

  2
Adobe PDF
  4
A4
  6

 40
3.174999952316283
 41
3.174999952316283
 42
3.175003051757812
 43
3.17498779296875
 44
209.9733276367186
 45
297.0318298339844
 46
56.2
 47
0.0
 48
369.6064945703233
 49
73.94623796503651
140
422.3394613204288
141
241.9617965434861
142
1.0
143
0.5780050015204629
 70
 11956
 72
     1
 73
     0
 74
     4
  7
acad.ctb
 75
     0
147
1.730088835510875
 76
     0
 77
     2
 78
   300
148
-369.6064945703233
149
-73.94623796503651
100
AcDbLayout
  1
Model
 70
     1
 71
     0
 10
0.0
 20
0.0
 11
12.0
 21
9.0
 12
0.0
 22
0.0
 32
0.0
 14
0.0
 24
0.0
 34
0.0
 15
0.0
 25
0.0
 35
0.0
146
0.0
 13
0.0
 23
0.0
 33
0.0
 16
1.0
 26
0.0
 36
0.0
 17
0.0
 27
1.0
 37
0.0
 76
     0
330
2
331
21
  0
LAYOUT
  5
13
102
{ACAD_REACTORS
330
F
102
}
330
F
100
AcDbPlotSettings
  1

  2
FX DocuPrint 255-AP
  4

  6

 40
0.0
 41
0.0
 42
0.0
 43
0.0
 44
0.0
 45
0.0
 46
0.0
 47
0.0
 48
0.0
 49
0.0
140
0.0
141
0.0
142
1.0
143
1.0
 70
   688
 72
     0
 73
     0
 74
     5
  7

 75
    16
147
1.0
 76
     0
 77
     2
 78
   300
148
0.0
149
0.0
100
AcDbLayout
  1
布局1
 70
     1
 71
     1
 10
0.0
 20
0.0
 11
420.0
 21
297.0
 12
0.0
 22
0.0
 32
0.0
 14
1.000000000000000E+20
 24
1.000000000000000E+20
 34
1.000000000000000E+20
 15
-1.000000000000000E+20
 25
-1.000000000000000E+20
 35
-1.000000000000000E+20
146
0.0
 13
0.0
 23
0.0
 33
0.0
 16
1.0
 26
0.0
 36
0.0
 17
0.0
 27
1.0
 37
0.0
 76
     0
330
10
  0
MATERIAL
  5
31
102
{ACAD_XDICTIONARY
360
B9
102
}
102
{ACAD_REACTORS
330
B
102
}
330
B
100
AcDbMaterial
  1
ByBlock
  0
MATERIAL
  5
30
102
{ACAD_XDICTIONARY
360
B7
102
}
102
{ACAD_REACTORS
330
B
102
}
330
B
100
AcDbMaterial
  1
ByLayer
  0
MATERIAL
  5
A
102
{ACAD_XDICTIONARY
360
B5
102
}
102
{ACAD_REACTORS
330
B
102
}
330
B
100
AcDbMaterial
  1
Global
  0
MLINESTYLE
  5
36
102
{ACAD_REACTORS
330
2E
102
}
330
2E
100
AcDbMlineStyle
  2
STANDARD
 70
     0
  3

 62
   256
 51
90.0
 52
90.0
 71
     2
 49
0.5
 62
   256
  6
BYLAYER
 49
-0.5
 62
   256
  6
BYLAYER
  0
ACDBPLACEHOLDER
  5
7
102
{ACAD_REACTORS
330
8
102
}
330
8
  0
TABLESTYLE
  5
37
102
{ACAD_XDICTIONARY
360
BB
102
}
102
{ACAD_REACTORS
330
33
102
}
330
33
100
AcDbTableStyle
  3
Standard
 70
     0
 71
     0
 40
1.5
 41
1.5
280
     0
281
     0
  7
Standard
140
4.5
170
     2
 62
     0
 63
     7
283
     0
274
    -2
284
     1
 64
     0
275
    -2
285
     1
 65
     0
276
    -2
286
     1
 66
     0
277
    -2
287
     1
 67
     0
278
    -2
288
     1
 68
     0
279
    -2
289
     1
 69
     0
  7
Standard
140
6.0
170
     5
 62
     0
 63
     7
283
     0
274
    -2
284
     1
 64
     0
275
    -2
285
     1
 65
     0
276
    -2
286
     1
 66
     0
277
    -2
287
     1
 67
     0
278
    -2
288
     1
 68
     0
279
    -2
289
     1
 69
     0
  7
Standard
140
4.5
170
     5
 62
     0
 63
     7
283
     0
274
    -2
284
     1
 64
     0
275
    -2
285
     1
 65
     0
276
    -2
286
     1
 66
     0
277
    -2
287
     1
 67
     0
278
    -2
288
     1
 68
     0
279
    -2
289
     1
 69
     0
  0
VISUALSTYLE
  5
22
102
{ACAD_REACTORS
330
23
102
}
330
23
100
AcDbVisualStyle
  2
2dWireframe
 70
     4
 71
     0
 72
     2
 73
     0
 90
        0
 40
-0.6
 41
-30.0
 62
     5
 63
     7
421
 16777215
 74
     1
 91
        4
 64
     7
 65
   257
 75
     1
175
     1
 42
1.0
 92
        0
 66
   257
 43
1.0
 76
     1
 77
     6
 78
     2
 67
     7
 79
     5
170
     0
171
     0
290
     0
174
     0
 93
        1
 44
0.0
173
     0
291
     0
 45
0.0
1001
ACAD
1000
AcDbSavedByObjectVersion
1070
     0
  0
VISUALSTYLE
  5
39
102
{ACAD_REACTORS
330
23
102
}
330
23
100
AcDbVisualStyle
  2
3dWireframe
 70
     5
 71
     0
 72
     2
 73
     0
 90
        0
 40
-0.6
 41
-30.0
 62
     5
 63
     7
421
 16777215
 74
     1
 91
        4
 64
     7
 65
   257
 75
     1
175
     1
 42
1.0
 92
        0
 66
   257
 43
1.0
 76
     1
 77
     6
 78
     2
 67
     7
 79
     5
170
     0
171
     0
290
     0
174
     0
 93
        1
 44
0.0
173
     0
291
     0
 45
0.0
1001
ACAD
1000
AcDbSavedByObjectVersion
1070
     0
  0
VISUALSTYLE
  5
38
102
{ACAD_REACTORS
330
23
102
}
330
23
100
AcDbVisualStyle
  2
Realistic
 70
     8
 71
     2
 72
     2
 73
     0
 90
        0
 40
-0.6
 41
-30.0
 62
     5
 63
     7
421
 16777215
 74
     1
 91
        0
 64
     7
 65
   257
 75
     1
175
     1
 42
1.0
 92
        8
 66
     8
424
  7895160
 43
1.0
 76
     1
 77
     6
 78
     2
 67
     7
 79
     5
170
     0
171
     0
290
     0
174
     0
 93
       13
 44
0.0
173
     0
291
     0
 45
0.0
1001
ACAD
1000
AcDbSavedByObjectVersion
1070
     0
  0
DICTIONARYVAR
  5
B4
102
{ACAD_REACTORS
330
B3
102
}
330
B3
100
DictionaryVariables
280
     0
  1
STANDARD
  0
DICTIONARY
  5
B9
330
31
100
AcDbDictionary
280
     1
281
     1
  3
ACAD_XREC_ROUNDTRIP
360
BA
  0
DICTIONARY
  5
B7
330
30
100
AcDbDictionary
280
     1
281
     1
  3
ACAD_XREC_ROUNDTRIP
360
B8
  0
DICTIONARY
  5
B5
330
A
100
AcDbDictionary
280
     1
281
     1
  3
ACAD_XREC_ROUNDTRIP
360
B6
  0
DICTIONARY
  5
BB
330
37
100
AcDbDictionary
280
     1
281
     1
  3
ACAD_XREC_ROUNDTRIP
360
BC
  0
XRECORD
  5
BA
102
{ACAD_REACTORS
330
B9
102
}
330
B9
100
AcDbXrecord
280
     1
102
MATERIAL
148
0.0
149
0.0
149
0.0
 93
        0
 94
       63
282
     0
 72
     1
 77
     1
171
     1
175
     1
179
     1
273
     0
  0
XRECORD
  5
B8
102
{ACAD_REACTORS
330
B7
102
}
330
B7
100
AcDbXrecord
280
     1
102
MATERIAL
148
0.0
149
0.0
149
0.0
 93
        0
 94
       63
282
     0
 72
     1
 77
     1
171
     1
175
     1
179
     1
273
     0
  0
XRECORD
  5
B6
102
{ACAD_REACTORS
330
B5
102
}
330
B5
100
AcDbXrecord
280
     1
102
MATERIAL
148
0.0
149
0.0
149
0.0
 93
        0
 94
       63
282
     0
 72
     1
 77
     1
171
     1
175
     1
179
     1
273
     0
  0
XRECORD
  5
BC
102
{ACAD_REACTORS
330
BB
102
}
330
BB
100
AcDbXrecord
280
     1
102
ACAD_ROUNDTRIP_PRE2007_TABLESTYLE
 90
      512
 91
        0
  1

 92
      512
 93
        0
  2

 94
      512
 95
        0
  3

  0
ENDSEC
  0
EOF
