  0
SECTION
  2
HEADER
  9
$ACADVER
  1
AC1015
  9
$ACADMAINTVER
 70
    20
  9
$DWGCODEPAGE
  3
ANSI_936
  9
$INSBASE
 10
0.0
 20
0.0
 30
0.0
  9
$EXTMIN
 10
-108830.2061025299
 20
29.86506998618478
 30
0.0
  9
$EXTMAX
 10
366.1503971309618
 20
171644.487831093
 30
0.0
  9
$LIMMIN
 10
0.0
 20
0.0
  9
$LIMMAX
 10
420.0
 20
297.0
  9
$ORTHOMODE
 70
     0
  9
$REGENMODE
 70
     1
  9
$FILLMODE
 70
     1
  9
$QTEXTMODE
 70
     0
  9
$MIRRTEXT
 70
     0
  9
$LTSCALE
 40
1.0
  9
$ATTMODE
 70
     1
  9
$TEXTSIZE
 40
2.5
  9
$TRACEWID
 40
1.0
  9
$TEXTSTYLE
  7
Standard
  9
$CLAYER
  8
标注
  9
$CELTYPE
  6
ByLayer
  9
$CECOLOR
 62
   256
  9
$CELTSCALE
 40
1.0
  9
$DISPSILH
 70
     0
  9
$DIMSCALE
 40
1.0
  9
$DIMASZ
 40
0.65
  9
$DIMEXO
 40
0.88
  9
$DIMDLI
 40
0.015
  9
$DIMRND
 40
0.0
  9
$DIMDLE
 40
0.0
  9
$DIMEXE
 40
0.32
  9
$DIMTP
 40
0.0
  9
$DIMTM
 40
0.0
  9
$DIMTXT
 40
0.65
  9
$DIMCEN
 40
0.09
  9
$DIMTSZ
 40
0.0
  9
$DIMTOL
 70
     0
  9
$DIMLIM
 70
     0
  9
$DIMTIH
 70
     0
  9
$DIMTOH
 70
     0
  9
$DIMSE1
 70
     0
  9
$DIMSE2
 70
     0
  9
$DIMTAD
 70
     0
  9
$DIMZIN
 70
     8
  9
$DIMBLK
  1

  9
$DIMASO
 70
     1
  9
$DIMSHO
 70
     1
  9
$DIMPOST
  1
"
  9
$DIMAPOST
  1
"
  9
$DIMALT
 70
     0
  9
$DIMALTD
 70
     1
  9
$DIMALTF
 40
0.03937
  9
$DIMLFAC
 40
1.0
  9
$DIMTOFL
 70
     1
  9
$DIMTVP
 40
0.0
  9
$DIMTIX
 70
     0
  9
$DIMSOXD
 70
     0
  9
$DIMSAH
 70
     0
  9
$DIMBLK1
  1

  9
$DIMBLK2
  1

  9
$DIMSTYLE
  2
inch
  9
$DIMCLRD
 70
   256
  9
$DIMCLRE
 70
   256
  9
$DIMCLRT
 70
   256
  9
$DIMTFAC
 40
1.0
  9
$DIMGAP
 40
0.2
  9
$DIMJUST
 70
     0
  9
$DIMSD1
 70
     0
  9
$DIMSD2
 70
     0
  9
$DIMTOLJ
 70
     1
  9
$DIMTZIN
 70
     0
  9
$DIMALTZ
 70
     0
  9
$DIMALTTZ
 70
     0
  9
$DIMUPT
 70
     0
  9
$DIMDEC
 70
     3
  9
$DIMTDEC
 70
     3
  9
$DIMALTU
 70
     2
  9
$DIMALTTD
 70
     1
  9
$DIMTXSTY
  7
Standard
  9
$DIMAUNIT
 70
     0
  9
$DIMADEC
 70
     1
  9
$DIMALTRND
 40
0.0
  9
$DIMAZIN
 70
     2
  9
$DIMDSEP
 70
    44
  9
$DIMATFIT
 70
     3
  9
$DIMFRAC
 70
     2
  9
$DIMLDRBLK
  1

  9
$DIMLUNIT
 70
     5
  9
$DIMLWD
 70
    -2
  9
$DIMLWE
 70
    -2
  9
$DIMTMOVE
 70
     0
  9
$LUNITS
 70
     2
  9
$LUPREC
 70
     2
  9
$SKETCHINC
 40
1.0
  9
$FILLETRAD
 40
0.0
  9
$AUNITS
 70
     0
  9
$AUPREC
 70
     0
  9
$MENU
  1
.
  9
$ELEVATION
 40
0.0
  9
$PELEVATION
 40
0.0
  9
$THICKNESS
 40
0.0
  9
$LIMCHECK
 70
     0
  9
$CHAMFERA
 40
0.0
  9
$CHAMFERB
 40
0.0
  9
$CHAMFERC
 40
0.0
  9
$CHAMFERD
 40
0.0
  9
$SKPOLY
 70
     0
  9
$TDCREATE
 40
2455855.628782743
  9
$TDUCREATE
 40
2455855.295449410
  9
$TDUPDATE
 40
2457863.619126875
  9
$TDUUPDATE
 40
2457863.285793541
  9
$TDINDWG
 40
0.1372444792
  9
$TDUSRTIMER
 40
0.1372437500
  9
$USRTIMER
 70
     1
  9
$ANGBASE
 50
0.0
  9
$ANGDIR
 70
     0
  9
$PDMODE
 70
     0
  9
$PDSIZE
 40
0.0
  9
$PLINEWID
 40
0.0
  9
$SPLFRAME
 70
     0
  9
$SPLINETYPE
 70
     6
  9
$SPLINESEGS
 70
     8
  9
$HANDSEED
  5
20A9
  9
$SURFTAB1
 70
     6
  9
$SURFTAB2
 70
     6
  9
$SURFTYPE
 70
     6
  9
$SURFU
 70
     6
  9
$SURFV
 70
     6
  9
$UCSBASE
  2

  9
$UCSNAME
  2

  9
$UCSORG
 10
0.0
 20
0.0
 30
0.0
  9
$UCSXDIR
 10
1.0
 20
0.0
 30
0.0
  9
$UCSYDIR
 10
0.0
 20
1.0
 30
0.0
  9
$UCSORTHOREF
  2

  9
$UCSORTHOVIEW
 70
     0
  9
$UCSORGTOP
 10
0.0
 20
0.0
 30
0.0
  9
$UCSORGBOTTOM
 10
0.0
 20
0.0
 30
0.0
  9
$UCSORGLEFT
 10
0.0
 20
0.0
 30
0.0
  9
$UCSORGRIGHT
 10
0.0
 20
0.0
 30
0.0
  9
$UCSORGFRONT
 10
0.0
 20
0.0
 30
0.0
  9
$UCSORGBACK
 10
0.0
 20
0.0
 30
0.0
  9
$PUCSBASE
  2

  9
$PUCSNAME
  2

  9
$PUCSORG
 10
0.0
 20
0.0
 30
0.0
  9
$PUCSXDIR
 10
1.0
 20
0.0
 30
0.0
  9
$PUCSYDIR
 10
0.0
 20
1.0
 30
0.0
  9
$PUCSORTHOREF
  2

  9
$PUCSORTHOVIEW
 70
     0
  9
$PUCSORGTOP
 10
0.0
 20
0.0
 30
0.0
  9
$PUCSORGBOTTOM
 10
0.0
 20
0.0
 30
0.0
  9
$PUCSORGLEFT
 10
0.0
 20
0.0
 30
0.0
  9
$PUCSORGRIGHT
 10
0.0
 20
0.0
 30
0.0
  9
$PUCSORGFRONT
 10
0.0
 20
0.0
 30
0.0
  9
$PUCSORGBACK
 10
0.0
 20
0.0
 30
0.0
  9
$USERI1
 70
     0
  9
$USERI2
 70
     0
  9
$USERI3
 70
     0
  9
$USERI4
 70
     0
  9
$USERI5
 70
     0
  9
$USERR1
 40
0.0
  9
$USERR2
 40
0.0
  9
$USERR3
 40
0.0
  9
$USERR4
 40
0.0
  9
$USERR5
 40
2.5
  9
$WORLDVIEW
 70
     1
  9
$SHADEDGE
 70
     3
  9
$SHADEDIF
 70
    70
  9
$TILEMODE
 70
     1
  9
$MAXACTVP
 70
    64
  9
$PINSBASE
 10
0.0
 20
0.0
 30
0.0
  9
$PLIMCHECK
 70
     0
  9
$PEXTMIN
 10
1.000000000000000E+20
 20
1.000000000000000E+20
 30
1.000000000000000E+20
  9
$PEXTMAX
 10
-1.000000000000000E+20
 20
-1.000000000000000E+20
 30
-1.000000000000000E+20
  9
$PLIMMIN
 10
0.0
 20
0.0
  9
$PLIMMAX
 10
420.0
 20
297.0
  9
$UNITMODE
 70
     0
  9
$VISRETAIN
 70
     1
  9
$PLINEGEN
 70
     0
  9
$PSLTSCALE
 70
     1
  9
$TREEDEPTH
 70
  3020
  9
$CMLSTYLE
  2
Standard
  9
$CMLJUST
 70
     0
  9
$CMLSCALE
 40
20.0
  9
$PROXYGRAPHICS
 70
     1
  9
$MEASUREMENT
 70
     1
  9
$CELWEIGHT
370
    -1
  9
$ENDCAPS
280
     0
  9
$JOINSTYLE
280
     0
  9
$LWDISPLAY
290
     0
  9
$INSUNITS
 70
     1
  9
$HYPERLINKBASE
  1

  9
$STYLESHEET
  1
ACAD.CTB
  9
$XEDIT
290
     1
  9
$CEPSNTYPE
380
     0
  9
$PSTYLEMODE
290
     1
  9
$FINGERPRINTGUID
  2
{B48F46D2-D0EA-4C00-A4A8-23CB7417C210}
  9
$VERSIONGUID
  2
{DF77130F-CAA7-4037-A7E8-FF7C8E300635}
  9
$EXTNAMES
290
     1
  9
$PSVPSCALE
 40
0.0
  9
$OLESTARTUP
290
     0
  0
ENDSEC
  0
SECTION
  2
CLASSES
  0
CLASS
  1
ACDBDICTIONARYWDFLT
  2
AcDbDictionaryWithDefault
  3
ObjectDBX Classes
 90
        0
280
     0
281
     0
  0
CLASS
  1
DIMASSOC
  2
AcDbDimAssoc
  3
"AcDbDimAssoc|Product Desc:     AcDim ARX App For Dimension|Company:          Autodesk, Inc.|WEB Address:      www.autodesk.com"
 90
        0
280
     0
281
     0
  0
CLASS
  1
SORTENTSTABLE
  2
AcDbSortentsTable
  3
ObjectDBX Classes
 90
        0
280
     0
281
     0
  0
CLASS
  1
MATERIAL
  2
AcDbMaterial
  3
ObjectDBX Classes
 90
     1153
280
     0
281
     0
  0
CLASS
  1
VISUALSTYLE
  2
AcDbVisualStyle
  3
ObjectDBX Classes
 90
     4095
280
     0
281
     0
  0
CLASS
  1
TABLESTYLE
  2
AcDbTableStyle
  3
ObjectDBX Classes
 90
     4095
280
     0
281
     0
  0
CLASS
  1
SCALE
  2
AcDbScale
  3
ObjectDBX Classes
 90
     1153
280
     0
281
     0
  0
CLASS
  1
MLEADERSTYLE
  2
AcDbMLeaderStyle
  3
ACDB_MLEADERSTYLE_CLASS
 90
     4095
280
     0
281
     0
  0
CLASS
  1
AMGSETTINGSOBJ
  2
AmgSettingsObj
  3
"AcadM|Product Description: AutoCAD Mechanical|Company: Autodesk, Inc."
 90
     1024
280
     0
281
     0
  0
CLASS
  1
ACME_DOCUMENT
  2
AcMeDbDoc
  3
AcMeServices
 90
     1024
280
     0
281
     0
  0
CLASS
  1
ACMESCOPE
  2
AcMeScope
  3
AcMeServices
 90
     1024
280
     0
281
     0
  0
CLASS
  1
ACMECOMMANDHISTORY
  2
AcMeCommandHistory
  3
AcMeServices
 90
     1024
280
     0
281
     0
  0
CLASS
  1
ACIMSYSVARMAN
  2
AcImSysVarManager
  3
AcMeServices
 90
     1024
280
     0
281
     0
  0
CLASS
  1
ACIMINTSYSVAR
  2
AcImIntSysVar
  3
AcMeServices
 90
     1024
280
     0
281
     0
  0
CLASS
  1
ACMEDRAWINGMAN
  2
AcMeDrawingMan
  3
AcMeServices
 90
     1024
280
     0
281
     0
  0
CLASS
  1
ACMEVIEW
  2
AcMeView
  3
AcMeServices
 90
     1024
280
     0
281
     0
  0
CLASS
  1
ACDBENTITYCACHE
  2
AcMeEntityCache
  3
AcMeServices
 90
     1024
280
     0
281
     0
  0
CLASS
  1
ACMESTATEMGR
  2
AcMeStateMgr
  3
AcMeServices
 90
     1024
280
     0
281
     0
  0
CLASS
  1
ACGREFMASTER
  2
AcGrefMaster
  3
AcAttribServices
 90
     1024
280
     0
281
     0
  0
CLASS
  1
AM_DRAWING_MGR
  2
AcDmDwgMgr
  3
AcMechDwgViewMgmt
 90
     1024
280
     0
281
     0
  0
CLASS
  1
AM_DWG_DOCUMENT
  2
AcDmDwgDocument
  3
AcMechDwgViewMgmt
 90
     1024
280
     0
281
     0
  0
CLASS
  1
AM_DWG_SHEET
  2
AcDmSheet
  3
AcMechDwgViewMgmt
 90
     1024
280
     0
281
     0
  0
CLASS
  1
AM_VIEWDIMPARMAP
  2
AcDmViewDimParMap
  3
AcMechDwgViewMgmt
 90
     1024
280
     0
281
     0
  0
CLASS
  1
AMDTINTERNALREACTOR
  2
AmdtInternalReactor
  3
AcMeServices
 90
     1024
280
     0
281
     0
  0
CLASS
  1
ACIMREALSYSVAR
  2
AcImRealSysVar
  3
AcMeServices
 90
     1024
280
     0
281
     0
  0
CLASS
  1
AM_DWGMGR_NAME
  2
AcDmDwgMgrName
  3
AcMechDwgViewMgmt
 90
     1024
280
     0
281
     0
  0
CLASS
  1
ACME_DATABASE
  2
AcMeDbDatabase
  3
AcMeServices
 90
     1024
280
     0
281
     0
  0
CLASS
  1
ACRFINSADJUSTERMGR
  2
AcRfInsAdjusterMgr
  3
AcMeServices
 90
     1024
280
     0
281
     0
  0
CLASS
  1
ACGREFACADMASTER
  2
AcGrefacadMaster
  3
AcGrefServices
 90
     1024
280
     0
281
     0
  0
CLASS
  1
AMDTMENUSTATEMGR
  2
AmdtMenuStateMgr
  3
McadcomServices
 90
     1024
280
     0
281
     0
  0
CLASS
  1
AMDTMCOMMENUSTATE
  2
AmdtMcomMenuState
  3
McadcomServices
 90
     1024
280
     0
281
     0
  0
CLASS
  1
AMIMASTER
  2
AmiMaster
  3
AmiServices
 90
     1024
280
     0
281
     0
  0
CLASS
  1
MAPIAMMOUDLE
  2
MApiAmModule
  3
MApiAmServices
 90
     1024
280
     0
281
     0
  0
CLASS
  1
ACIMSTRSYSVAR
  2
AcImStrSysVar
  3
AcMeServices
 90
     1024
280
     0
281
     0
  0
CLASS
  1
AMDTADMENUSTATE
  2
AmdtAdMenuState
  3
DesignerServices
 90
     1024
280
     0
281
     0
  0
CLASS
  1
ADAPPL
  2
AcAdAppl
  3
DesignerServices
 90
     1024
280
     0
281
     0
  0
CLASS
  1
DEPMGR
  2
AcAdDepMgr
  3
DesignerServices
 90
     1024
280
     0
281
     0
  0
CLASS
  1
PARAMMGR
  2
AcAdParamMgr
  3
DesignerServices
 90
     1024
280
     0
281
     0
  0
CLASS
  1
PARAMSCOPE
  2
AcAdParamScope
  3
DesignerServices
 90
     1024
280
     0
281
     0
  0
CLASS
  1
NAMEDAPPL
  2
AcAdNamedAppl
  3
DesignerServices
 90
     1024
280
     0
281
     0
  0
CLASS
  1
AMDTDMMENUSTATE
  2
AmdtDmMenuState
  3
AcMechDwgViewMgmt
 90
     1024
280
     0
281
     0
  0
CLASS
  1
AMDTAMMENUSTATE
  2
AmdtAmMenuState
  3
DesignerAssemblies
 90
     1024
280
     0
281
     0
  0
CLASS
  1
ACAMPROJECT
  2
AcAmProject
  3
DesignerAssemblies
 90
     1024
280
     0
281
     0
  0
CLASS
  1
ACAMGRCOMPDEF
  2
AcAmGrCompDef
  3
DesignerAssemblies
 90
     1024
280
     0
281
     0
  0
CLASS
  1
ACAMCOMPDEF
  2
AcAmCompDef
  3
DesignerAssemblies
 90
     1024
280
     0
281
     0
  0
CLASS
  1
ACAMCOMPDEFMGR
  2
AcAmCompDefMgr
  3
DesignerAssemblies
 90
     1024
280
     0
281
     0
  0
CLASS
  1
AMCONTEXTMGR
  2
AcAmContextMgr
  3
DesignerAssemblies
 90
     1024
280
     0
281
     0
  0
CLASS
  1
ACAMCONTEXTMODELER
  2
AcAmContextModeler
  3
DesignerAssemblies
 90
     1024
280
     0
281
     0
  0
CLASS
  1
ACMDATADICTIONARY
  2
AcmDataDictionary
  3
"AcmSymBB|Product Description: AutoCAD Mechanical|Company: Autodesk, Inc."
 90
     1024
280
     0
281
     0
  0
CLASS
  1
CATALOGSTATE
  2
AcAmCatalogState
  3
DesignerAssemblies
 90
     1024
280
     0
281
     0
  0
CLASS
  1
ACAMGRCOMPDEFSET
  2
AcAmGrCompDefSet
  3
DesignerAssemblies
 90
     1024
280
     0
281
     0
  0
CLASS
  1
AMDTBROWSERDBTAB
  2
AmdtBrowserDbTab
  3
McadcomServices
 90
     1024
280
     0
281
     0
  0
CLASS
  1
CBROWSERAPPOBJECT
  2
CBrowserAppObject
  3
McadcomServices
 90
     1024
280
     0
281
     0
  0
CLASS
  1
DM_PLACEHOLDER
  2
AcDmSelsetPlaceholder
  3
AcMechDwgViewMgmt
 90
     1024
280
     0
281
     0
  0
CLASS
  1
EXACXREFPANELOBJECT
  2
ExAcXREFPanelObject
  3
EXAC_ESW
 90
     1025
280
     0
281
     0
  0
CLASS
  1
NPOCOLLECTION
  2
AcDbImpNonPersistentObjectsCollection
  3
ObjectDBX Classes
 90
     1153
280
     0
281
     0
  0
CLASS
  1
ACMSTANDARDISO
  2
AcmStandardISO
  3
"Amdt_StdImp|Product Description: AutoCAD Mechanical|Company: Autodesk, Inc."
 90
     1024
280
     0
281
     0
  0
CLASS
  1
AMDTEDGESTANDARDISO13715
  2
AmdtEdgeStdISO13715
  3
"Amdt_StdImp|Product Description: AutoCAD Mechanical|Company: Autodesk, Inc."
 90
     1024
280
     0
281
     0
  0
CLASS
  1
ACMSURFSTANDARDISO2002
  2
AcmSurfTextStdISO2002
  3
"Amdt_StdImp|Product Description: AutoCAD Mechanical|Company: Autodesk, Inc."
 90
     1024
280
     0
281
     0
  0
CLASS
  1
ACMFCFSTANDARDISO
  2
AcmFCFStdISO
  3
"Amdt_StdImp|Product Description: AutoCAD Mechanical|Company: Autodesk, Inc."
 90
     1024
280
     0
281
     0
  0
CLASS
  1
ACMWELDSTANDARDISO
  2
AcmWeldingStdISO
  3
"Amdt_StdImp|Product Description: AutoCAD Mechanical|Company: Autodesk, Inc."
 90
     1024
280
     0
281
     0
  0
CLASS
  1
ACMIDSTANDARDISO
  2
AcmIdStdISO
  3
"Amdt_StdImp|Product Description: AutoCAD Mechanical|Company: Autodesk, Inc."
 90
     1024
280
     0
281
     0
  0
CLASS
  1
ACMDATUMSTANDARDISO
  2
AcmDatumStdISO
  3
"Amdt_StdImp|Product Description: AutoCAD Mechanical|Company: Autodesk, Inc."
 90
     1024
280
     0
281
     0
  0
CLASS
  1
ACMBOMSTANDARDISO
  2
AcmBOMStdISO
  3
"Amdt_StdImp|Product Description: AutoCAD Mechanical|Company: Autodesk, Inc."
 90
     1024
280
     0
281
     0
  0
CLASS
  1
ACMDETAILSTANDARDISO
  2
AmdtDetailSymStdISO
  3
"Amdt_StdImp|Product Description: AutoCAD Mechanical|Company: Autodesk, Inc."
 90
     1024
280
     0
281
     0
  0
CLASS
  1
ACMSECTIONSTANDARDISO2001
  2
AmdtSectionSymStdISO2001
  3
"Amdt_StdImp|Product Description: AutoCAD Mechanical|Company: Autodesk, Inc."
 90
     1024
280
     0
281
     0
  0
CLASS
  1
ACMCENTERLINESTANDARDISO
  2
AmdtCenterLineStdISO
  3
"Amdt_StdImp|Product Description: AutoCAD Mechanical|Company: Autodesk, Inc."
 90
     1024
280
     0
281
     0
  0
CLASS
  1
ACMTHREADLINESTANDARDISO
  2
AmdtThreadLineStdISO
  3
"Amdt_StdImp|Product Description: AutoCAD Mechanical|Company: Autodesk, Inc."
 90
     1024
280
     0
281
     0
  0
CLASS
  1
ACMNOTESTANDARDISO
  2
AmdtNoteStdISO
  3
"Amdt_StdImp|Product Description: AutoCAD Mechanical|Company: Autodesk, Inc."
 90
     1024
280
     0
281
     0
  0
CLASS
  1
ACMTAPERSTANDARDISO
  2
AcmTaperStdISO
  3
"Amdt_StdImp|Product Description: AutoCAD Mechanical|Company: Autodesk, Inc."
 90
     1024
280
     0
281
     0
  0
CLASS
  1
ACMANOOTATIONVIEWSTANDARDISO
  2
AmdtAnViewStdISO
  3
"Amdt_StdImp|Product Description: AutoCAD Mechanical|Company: Autodesk, Inc."
 90
     1024
280
     0
281
     0
  0
CLASS
  1
ACAMGLAYSTD
  2
AcAmgLayStd
  3
"AmgLay|Product Description: AutoCAD Mechanical|Company: Autodesk, Inc."
 90
     1024
280
     0
281
     0
  0
CLASS
  1
ACAMGDIMSTD
  2
AcAmgDimStd
  3
"AmgDim|Product Description: AutoCAD Mechanical|Company: Autodesk, Inc."
 90
     1024
280
     0
281
     0
  0
CLASS
  1
AMGOBJPROPCFG
  2
AmgObjPropCfg
  3
"AmgLay|Product Description: AutoCAD Mechanical|Company: Autodesk, Inc."
 90
     1025
280
     0
281
     0
  0
CLASS
  1
ACAMGHOLECHARTSTDISO
  2
AcAmgHoleChartStdISO
  3
AmgDim|Product Description: AutoCAD Mechanical|Company: Autodesk, Inc.
 90
     1024
280
     0
281
     0
  0
CLASS
  1
ACAMGTITLESTD
  2
AcAmgTitleStd
  3
"AmgTitle|Product Description: AutoCAD Mechanical|Company: Autodesk, Inc."
 90
     4095
280
     0
281
     0
  0
CLASS
  1
AMDTNOTETEMPLATEDB
  2
AmdtNoteTemplateDB
  3
AcmSymBB|Product Description: AutoCAD Mechanical|Company: Autodesk, Inc.
 90
     1024
280
     0
281
     0
  0
CLASS
  1
VLO-VL
  2
vlo_VL
  3
VL|AutoLISP based application
 90
      129
280
     0
281
     0
  0
CLASS
  1
ACAMGFILTERDAT
  2
AcAmgFilterDat
  3
"AcadM|Product Description: AutoCAD Mechanical|Company: Autodesk, Inc."
 90
     1024
280
     0
281
     0
  0
CLASS
  1
DICTIONARYVAR
  2
AcDbDictionaryVar
  3
ObjectDBX Classes
 90
        0
280
     0
281
     0
  0
CLASS
  1
CELLSTYLEMAP
  2
AcDbCellStyleMap
  3
ObjectDBX Classes
 90
     1152
280
     0
281
     0
  0
CLASS
  1
ACMSTANDARDANSI
  2
AcmStandardANSI
  3
"Amdt_StdImp|Product Description: AutoCAD Mechanical|Company: Autodesk, Inc."
 90
     1024
280
     0
281
     0
  0
CLASS
  1
ACMSURFSTANDARDANSI
  2
AcmSurfTextStdANSI
  3
"Amdt_StdImp|Product Description: AutoCAD Mechanical|Company: Autodesk, Inc."
 90
     1024
280
     0
281
     0
  0
CLASS
  1
ACMFCFSTANDARDANSI
  2
AcmFCFStdANSI
  3
"Amdt_StdImp|Product Description: AutoCAD Mechanical|Company: Autodesk, Inc."
 90
     1024
280
     0
281
     0
  0
CLASS
  1
ACMWELDSTANDARDANSI
  2
AcmWeldingStdANSI
  3
"Amdt_StdImp|Product Description: AutoCAD Mechanical|Company: Autodesk, Inc."
 90
     1024
280
     0
281
     0
  0
CLASS
  1
ACMIDSTANDARDANSI
  2
AcmIdStdANSI
  3
"Amdt_StdImp|Product Description: AutoCAD Mechanical|Company: Autodesk, Inc."
 90
     1024
280
     0
281
     0
  0
CLASS
  1
ACMDATUMSTANDARDANSI
  2
AcmDatumStdANSI
  3
"Amdt_StdImp|Product Description: AutoCAD Mechanical|Company: Autodesk, Inc."
 90
     1024
280
     0
281
     0
  0
CLASS
  1
ACMBOMSTANDARDANSI
  2
AcmBOMStdANSI
  3
"Amdt_StdImp|Product Description: AutoCAD Mechanical|Company: Autodesk, Inc."
 90
     1024
280
     0
281
     0
  0
CLASS
  1
ACMDETAILSTANDARDANSI
  2
AmdtDetailSymStdANSI
  3
"Amdt_StdImp|Product Description: AutoCAD Mechanical|Company: Autodesk, Inc."
 90
     1024
280
     0
281
     0
  0
CLASS
  1
ACMSECTIONSTANDARDANSI
  2
AmdtSectionSymStdANSI
  3
"Amdt_StdImp|Product Description: AutoCAD Mechanical|Company: Autodesk, Inc."
 90
     1024
280
     0
281
     0
  0
CLASS
  1
ACMCENTERLINESTANDARDANSI
  2
AmdtCenterLineStdANSI
  3
"Amdt_StdImp|Product Description: AutoCAD Mechanical|Company: Autodesk, Inc."
 90
     1024
280
     0
281
     0
  0
CLASS
  1
ACMTHREADLINESTANDARDANSI
  2
AmdtThreadLineStdANSI
  3
"Amdt_StdImp|Product Description: AutoCAD Mechanical|Company: Autodesk, Inc."
 90
     1024
280
     0
281
     0
  0
CLASS
  1
ACMNOTESTANDARDANSI
  2
AmdtNoteStdANSI
  3
"Amdt_StdImp|Product Description: AutoCAD Mechanical|Company: Autodesk, Inc."
 90
     1024
280
     0
281
     0
  0
CLASS
  1
ACMTAPERSTANDARDANSI
  2
AcmTaperStdANSI
  3
"Amdt_StdImp|Product Description: AutoCAD Mechanical|Company: Autodesk, Inc."
 90
     1024
280
     0
281
     0
  0
CLASS
  1
ACMANOOTATIONVIEWSTANDARDANSI
  2
AmdtAnViewStdANSI
  3
"Amdt_StdImp|Product Description: AutoCAD Mechanical|Company: Autodesk, Inc."
 90
     1024
280
     0
281
     0
  0
CLASS
  1
ACAMGHOLECHARTSTDANSI
  2
AcAmgHoleChartStdANSI
  3
AmgDim|Product Description: AutoCAD Mechanical|Company: Autodesk, Inc.
 90
     1024
280
     0
281
     0
  0
CLASS
  1
AEC_REFEDIT_STATUS_TRACKER
  2
AecDbRefEditStatusTracker
  3
AecArchBase60|Product Desc: Autodesk Architectural Desktop 2007 |Company: Autodesk,Inc. |WEB Address: www.autodesk.com
 90
      129
280
     0
281
     0
  0
CLASS
  1
ACDBPLACEHOLDER
  2
AcDbPlaceHolder
  3
ObjectDBX Classes
 90
        0
280
     0
281
     0
  0
CLASS
  1
LAYOUT
  2
AcDbLayout
  3
ObjectDBX Classes
 90
        0
280
     0
281
     0
  0
ENDSEC
  0
SECTION
  2
TABLES
  0
TABLE
  2
VPORT
  5
8
330
0
100
AcDbSymbolTable
 70
     1
  0
VPORT
  5
1840
330
8
100
AcDbSymbolTableRecord
100
AcDbViewportTableRecord
  2
*Active
 70
     0
 10
0.0
 20
0.0
 11
1.0
 21
1.0
 12
165.6755126034329
 22
193.6609502296408
 13
0.0
 23
0.0
 14
10.0
 24
10.0
 15
10.0
 25
10.0
 16
0.0
 26
0.0
 36
1.0
 17
0.0
 27
0.0
 37
0.0
 40
560.3571307117058
 41
1.495552731893265
 42
50.0
 43
0.0
 44
0.0
 50
0.0
 51
0.0
 71
     0
 72
  1000
 73
     1
 74
     3
 75
     0
 76
     0
 77
     0
 78
     0
281
     0
 65
     0
110
0.0
120
0.0
130
0.0
111
1.0
121
0.0
131
0.0
112
0.0
122
1.0
132
0.0
 79
     0
146
0.0
  0
ENDTAB
  0
TABLE
  2
LTYPE
  5
5
330
0
100
AcDbSymbolTable
 70
    22
  0
LTYPE
  5
14
330
5
100
AcDbSymbolTableRecord
100
AcDbLinetypeTableRecord
  2
ByBlock
 70
     0
  3

 72
    65
 73
     0
 40
0.0
  0
LTYPE
  5
15
330
5
100
AcDbSymbolTableRecord
100
AcDbLinetypeTableRecord
  2
ByLayer
 70
     0
  3

 72
    65
 73
     0
 40
0.0
  0
LTYPE
  5
16
330
5
100
AcDbSymbolTableRecord
100
AcDbLinetypeTableRecord
  2
Continuous
 70
     0
  3
Solid line
 72
    65
 73
     0
 40
0.0
  0
LTYPE
  5
ED
330
5
100
AcDbSymbolTableRecord
100
AcDbLinetypeTableRecord
  2
CENTER2
 70
     0
  3
Center (.5x) ___ _ ___ _ ___ _ ___ _ ___ _ ___
 72
    65
 73
     4
 40
28.575
 49
19.05
 74
     0
 49
-3.174999999999998
 74
     0
 49
3.174999999999998
 74
     0
 49
-3.174999999999998
 74
     0
  0
LTYPE
  5
EE
330
5
100
AcDbSymbolTableRecord
100
AcDbLinetypeTableRecord
  2
HIDDEN2
 70
     0
  3
Hidden (.5x) _ _ _ _ _ _ _ _ _ _ _ _ _ _ _ _ _
 72
    65
 73
     2
 40
4.762499999999998
 49
3.174999999999998
 74
     0
 49
-1.587499999999999
 74
     0
  0
LTYPE
  5
18BA
330
5
100
AcDbSymbolTableRecord
100
AcDbLinetypeTableRecord
  2
HIDDEN
 70
     0
  3
Hidden __ __ __ __ __ __ __ __ __ __ __ __ __ _
 72
    65
 73
     2
 40
9.524999999999998
 49
6.349999999999999
 74
     0
 49
-3.174999999999999
 74
     0
  0
LTYPE
  5
18BB
330
5
100
AcDbSymbolTableRecord
100
AcDbLinetypeTableRecord
  2
PHANTOM2
 70
     0
  3
Phantom (.5x) ___ _ _ ___ _ _ ___ _ _ ___ _ _
 72
    65
 73
     6
 40
31.75
 49
15.875
 74
     0
 49
-3.174999999999999
 74
     0
 49
3.174999999999999
 74
     0
 49
-3.174999999999999
 74
     0
 49
3.174999999999999
 74
     0
 49
-3.174999999999999
 74
     0
  0
LTYPE
  5
18BC
330
5
100
AcDbSymbolTableRecord
100
AcDbLinetypeTableRecord
  2
CENTER
 70
     0
  3
Center ____ _ ____ _ ____ _ ____ _ ____ _ ____
 72
    65
 73
     4
 40
50.8
 49
31.75
 74
     0
 49
-6.349999999999999
 74
     0
 49
6.349999999999999
 74
     0
 49
-6.349999999999999
 74
     0
  0
LTYPE
  5
1904
330
5
100
AcDbSymbolTableRecord
100
AcDbLinetypeTableRecord
  2
AM_ISO02W050
 70
     0
  3
__ __ __ __ __ __ __ __ __ __ __ __ __ __ __
 72
    65
 73
     2
 40
7.5
 49
6.0
 74
     0
 49
-1.5
 74
     0
  0
LTYPE
  5
1905
330
5
100
AcDbSymbolTableRecord
100
AcDbLinetypeTableRecord
  2
AM_ISO08W050
 70
     0
  3
____ . ____ . ____ . ____ . ____ . ____ . ____
 72
    65
 73
     4
 40
18.0
 49
12.0
 74
     0
 49
-1.5
 74
     0
 49
3.0
 74
     0
 49
-1.5
 74
     0
  0
LTYPE
  5
1906
330
5
100
AcDbSymbolTableRecord
100
AcDbLinetypeTableRecord
  2
AM_ISO09W050
 70
     0
  3
_____ . . _____ . . _____ . . ____ .. ____
 72
    65
 73
     6
 40
22.5
 49
12.0
 74
     0
 49
-1.5
 74
     0
 49
3.0
 74
     0
 49
-1.5
 74
     0
 49
3.0
 74
     0
 49
-1.5
 74
     0
  0
LTYPE
  5
1907
330
5
100
AcDbSymbolTableRecord
100
AcDbLinetypeTableRecord
  2
Amconstr
 70
     0
  3
_______________________
 72
    65
 73
     2
 40
9999.0
 49
9999.0
 74
     0
 49
0.0
 74
     0
  0
LTYPE
  5
1908
330
5
100
AcDbSymbolTableRecord
100
AcDbLinetypeTableRecord
  2
AM_ISO08W050x2
 70
     0
  3
__ . __ . __ . __ . __ . __
 72
    65
 73
     4
 40
9.0
 49
6.0
 74
     0
 49
-0.75
 74
     0
 49
1.5
 74
     0
 49
-0.75
 74
     0
  0
LTYPE
  5
1909
330
5
100
AcDbSymbolTableRecord
100
AcDbLinetypeTableRecord
  2
AM_ISO02W050x2
 70
     0
  3
 _ _ _ _ _ _ _ _ _ _ _ _
 72
    65
 73
     2
 40
3.75
 49
3.0
 74
     0
 49
-0.75
 74
     0
  0
LTYPE
  5
190C
330
5
100
AcDbSymbolTableRecord
100
AcDbLinetypeTableRecord
  2
Amzigzag
 70
     0
  3
/\/-/\/-/\/-/\/-/\/-/\/
 72
    65
 73
     2
 40
11.0001
 49
0.0001
 74
     4
 75
   136
340
190B
 46
0.04
 50
0.0
 44
0.0
 45
0.0
 49
-11.0
 74
     0
  0
LTYPE
  5
191B
330
5
100
AcDbSymbolTableRecord
100
AcDbLinetypeTableRecord
  2
ACISOWELD
 70
     0
  3
_ _ _ _ _
 72
    65
 73
     2
 40
2.0
 49
2.0
 74
     0
 49
-1.0
 74
     0
  0
LTYPE
  5
191C
330
5
100
AcDbSymbolTableRecord
100
AcDbLinetypeTableRecord
  2
ACISOTGB
 70
     0
  3
__ . . __ . .
 72
    65
 73
     6
 40
9.0
 49
4.0
 74
     0
 49
-1.0
 74
     0
 49
1.0
 74
     0
 49
-1.0
 74
     0
 49
1.0
 74
     0
 49
-1.0
 74
     0
  0
LTYPE
  5
191D
330
5
100
AcDbSymbolTableRecord
100
AcDbLinetypeTableRecord
  2
ACISOTGL
 70
     0
  3
_ _ _ _ _
 72
    65
 73
     2
 40
3.0
 49
2.0
 74
     0
 49
-1.0
 74
     0
  0
LTYPE
  5
1A68
330
5
100
AcDbSymbolTableRecord
100
AcDbLinetypeTableRecord
  2
Amzigzag2
 70
     0
  3
/\/-/\/-/\/-/\/-/\/-/\/
 72
    65
 73
     2
 40
0.4401
 49
0.0001
 74
     4
 75
   136
340
190B
 46
0.0016
 50
0.0
 44
0.0
 45
0.0
 49
-0.4400000000000001
 74
     0
  0
LTYPE
  5
1A69
330
5
100
AcDbSymbolTableRecord
100
AcDbLinetypeTableRecord
  2
ACANSTGB
 70
     0
  3
__ . . __ . .
 72
    65
 73
     6
 40
0.35433070866
 49
0.15748031496
 74
     0
 49
-0.03937007874
 74
     0
 49
0.03937007874
 74
     0
 49
-0.03937007874
 74
     0
 49
0.03937007874
 74
     0
 49
-0.03937007874
 74
     0
  0
LTYPE
  5
1A6A
330
5
100
AcDbSymbolTableRecord
100
AcDbLinetypeTableRecord
  2
ACANSTGL
 70
     0
  3
_ _ _ _ _
 72
    65
 73
     2
 40
0.11811023622
 49
0.07874015748
 74
     0
 49
-0.03937007874
 74
     0
  0
LTYPE
  5
1ECD
330
5
100
AcDbSymbolTableRecord
100
AcDbLinetypeTableRecord
  2
CENTERX2
 70
     0
  3
Center (2x) ________  __  ________  __  _____
 72
    65
 73
     4
 40
101.6
 49
63.5
 74
     0
 49
-12.7
 74
     0
 49
12.7
 74
     0
 49
-12.7
 74
     0
  0
ENDTAB
  0
TABLE
  2
LAYER
  5
2
102
{ACAD_XDICTIONARY
360
F7
102
}
330
0
100
AcDbSymbolTable
 70
     7
  0
LAYER
  5
10
102
{ACAD_XDICTIONARY
360
192D
102
}
330
2
100
AcDbSymbolTableRecord
100
AcDbLayerTableRecord
  2
0
 70
     0
 62
     7
  6
Continuous
370
    -3
390
F
  0
LAYER
  5
EF
102
{ACAD_XDICTIONARY
360
192F
102
}
330
2
100
AcDbSymbolTableRecord
100
AcDbLayerTableRecord
  2
中心线
 70
     0
 62
     1
  6
CENTER2
370
    -3
390
F
  0
LAYER
  5
F0
102
{ACAD_XDICTIONARY
360
1931
102
}
330
2
100
AcDbSymbolTableRecord
100
AcDbLayerTableRecord
  2
虚线
 70
     0
 62
     4
  6
HIDDEN2
370
    -3
390
F
  0
LAYER
  5
F1
330
2
100
AcDbSymbolTableRecord
100
AcDbLayerTableRecord
  2
Defpoints
 70
     0
 62
     7
  6
Continuous
290
     0
370
    -3
390
F
  0
LAYER
  5
F2
102
{ACAD_XDICTIONARY
360
1933
102
}
330
2
100
AcDbSymbolTableRecord
100
AcDbLayerTableRecord
  2
标注
 70
     0
 62
    80
  6
Continuous
370
     5
390
F
1001
AcAecLayerStandard
1000

1000

  0
LAYER
  5
F3
102
{ACAD_XDICTIONARY
360
1935
102
}
330
2
100
AcDbSymbolTableRecord
100
AcDbLayerTableRecord
  2
截面层
 70
     0
 62
     6
  6
Continuous
370
    50
390
F
  0
LAYER
  5
1A6B
330
2
100
AcDbSymbolTableRecord
100
AcDbLayerTableRecord
  2
粗实线
 70
     0
 62
     7
  6
Continuous
370
    25
390
F
1001
AcAecLayerStandard
1000

1000

  0
ENDTAB
  0
TABLE
  2
STYLE
  5
3
330
0
100
AcDbSymbolTable
 70
     8
  0
STYLE
  5
11
330
3
100
AcDbSymbolTableRecord
100
AcDbTextStyleTableRecord
  2
Standard
 70
     0
 40
0.0
 41
1.0
 50
0.0
 71
     0
 42
2.5
  3
SimSun.ttf
  4

1001
ACAD
1000
SimSun
1071
    34306
  0
STYLE
  5
190B
330
3
100
AcDbSymbolTableRecord
100
AcDbTextStyleTableRecord
  2

 70
     1
 40
0.0
 41
1.0
 50
0.0
 71
     0
 42
2.5
  3
genltshp.shx
  4

  0
STYLE
  5
191A
330
3
100
AcDbSymbolTableRecord
100
AcDbTextStyleTableRecord
  2
ACISOGDT
 70
     0
 40
0.0
 41
1.0
 50
0.0
 71
     0
 42
2.5
  3
amgdt.shx
  4

  0
STYLE
  5
1A6C
330
3
100
AcDbSymbolTableRecord
100
AcDbTextStyleTableRecord
  2
ACANSGDT
 70
     0
 40
0.0
 41
1.0
 50
0.0
 71
     0
 42
0.2
  3
amgdt.shx
  4

  0
ENDTAB
  0
TABLE
  2
VIEW
  5
6
330
0
100
AcDbSymbolTable
 70
     0
  0
ENDTAB
  0
TABLE
  2
UCS
  5
7
330
0
100
AcDbSymbolTable
 70
     0
  0
ENDTAB
  0
TABLE
  2
APPID
  5
9
330
0
100
AcDbSymbolTable
 70
    26
  0
APPID
  5
12
330
9
100
AcDbSymbolTableRecord
100
AcDbRegAppTableRecord
  2
ACAD
 70
     0
  0
APPID
  5
F6
330
9
100
AcDbSymbolTableRecord
100
AcDbRegAppTableRecord
  2
AcAecLayerStandard
 70
     0
  0
APPID
  5
453
330
9
100
AcDbSymbolTableRecord
100
AcDbRegAppTableRecord
  2
ACAD_DSTYLE_DIMEXT_LENGTH
 70
     0
  0
APPID
  5
454
330
9
100
AcDbSymbolTableRecord
100
AcDbRegAppTableRecord
  2
ACAD_DSTYLE_DIMEXT_ENABLED
 70
     0
  0
APPID
  5
455
330
9
100
AcDbSymbolTableRecord
100
AcDbRegAppTableRecord
  2
ACAD_DSTYLE_DIMJOGGED_JOGANGLE_SYMBOL
 70
     0
  0
APPID
  5
456
330
9
100
AcDbSymbolTableRecord
100
AcDbRegAppTableRecord
  2
ACAD_DSTYLE_DIMARC_LENGTH_SYMBOL
 70
     0
  0
APPID
  5
188D
330
9
100
AcDbSymbolTableRecord
100
AcDbRegAppTableRecord
  2
MCAD_NO_VIS
 70
     0
  0
APPID
  5
188E
330
9
100
AcDbSymbolTableRecord
100
AcDbRegAppTableRecord
  2
ACAD_TEMP_GRAPHIC
 70
     0
  0
APPID
  5
18BE
330
9
100
AcDbSymbolTableRecord
100
AcDbRegAppTableRecord
  2
AD_DRAW
 70
     0
  0
APPID
  5
18C1
330
9
100
AcDbSymbolTableRecord
100
AcDbRegAppTableRecord
  2
ACATTRIBSERVICES
 70
     0
  0
APPID
  5
18E1
330
9
100
AcDbSymbolTableRecord
100
AcDbRegAppTableRecord
  2
DESIGNERASSEMBLIES
 70
     0
  0
APPID
  5
18E7
330
9
100
AcDbSymbolTableRecord
100
AcDbRegAppTableRecord
  2
ACADM_DIM_EDIT
 70
     0
  0
APPID
  5
18E8
330
9
100
AcDbSymbolTableRecord
100
AcDbRegAppTableRecord
  2
AMDT_DM_ADJ
 70
     0
  0
APPID
  5
1901
330
9
100
AcDbSymbolTableRecord
100
AcDbRegAppTableRecord
  2
ACAD_DSTYLE_DIMJAG
 70
     0
  0
APPID
  5
1902
330
9
100
AcDbSymbolTableRecord
100
AcDbRegAppTableRecord
  2
ACAD_DSTYLE_DIMBREAK
 70
     0
  0
APPID
  5
1979
330
9
100
AcDbSymbolTableRecord
100
AcDbRegAppTableRecord
  2
AcadAnnoPO
 70
     0
  0
APPID
  5
197C
330
9
100
AcDbSymbolTableRecord
100
AcDbRegAppTableRecord
  2
ACAD_DSTYLE_DIMTALN
 70
     0
  0
APPID
  5
1A75
330
9
100
AcDbSymbolTableRecord
100
AcDbRegAppTableRecord
  2
GENIUS_GENODEF_13
 70
     0
  0
APPID
  5
1A76
330
9
100
AcDbSymbolTableRecord
100
AcDbRegAppTableRecord
  2
ACAD_DSTYLE_DIMINSPECT
 70
     0
  0
APPID
  5
1A77
330
9
100
AcDbSymbolTableRecord
100
AcDbRegAppTableRecord
  2
GENIUS_GENOBJ-N-FIL_13
 70
     0
  0
APPID
  5
1D61
330
9
100
AcDbSymbolTableRecord
100
AcDbRegAppTableRecord
  2
ACAD_EXEMPT_FROM_CAD_STANDARDS
 70
     0
  0
APPID
  5
1ECF
330
9
100
AcDbSymbolTableRecord
100
AcDbRegAppTableRecord
  2
ACAD_PSEXT
 70
     0
  0
APPID
  5
20A5
330
9
100
AcDbSymbolTableRecord
100
AcDbRegAppTableRecord
  2
ACAD_MLEADERVER
 70
     0
  0
APPID
  5
20A6
330
9
100
AcDbSymbolTableRecord
100
AcDbRegAppTableRecord
  2
ACAD_DSTYLE_DIM_LINETYPE
 70
     0
  0
APPID
  5
20A7
330
9
100
AcDbSymbolTableRecord
100
AcDbRegAppTableRecord
  2
ACAD_DSTYLE_DIM_EXT1_LINETYPE
 70
     0
  0
APPID
  5
20A8
330
9
100
AcDbSymbolTableRecord
100
AcDbRegAppTableRecord
  2
ACAD_DSTYLE_DIM_EXT2_LINETYPE
 70
     0
  0
ENDTAB
  0
TABLE
  2
DIMSTYLE
  5
A
330
0
100
AcDbSymbolTable
 70
    26
100
AcDbDimStyleTable
 71
     1
340
F5
  0
DIMSTYLE
105
F4
330
A
100
AcDbSymbolTableRecord
100
AcDbDimStyleTableRecord
  2
Standard
 70
     0
340
11
  0
DIMSTYLE
105
F5
102
{ACAD_REACTORS
330
1F40
330
1F3D
330
1F3A
330
1F37
330
1F46
102
}
330
A
100
AcDbSymbolTableRecord
100
AcDbDimStyleTableRecord
  2
inch
 70
     0
  3
"
  4
"
 41
0.65
 42
0.88
 43
0.015
 44
0.32
 73
     0
 74
     0
 78
     8
 79
     2
140
0.65
143
0.03937
147
0.2
171
     1
172
     1
176
   256
177
   256
178
   256
179
     1
271
     3
272
     3
274
     1
276
     2
277
     5
278
    44
340
11
1001
ACAD_DSTYLE_DIMJAG
1070
   388
1040
1.5
1001
ACAD_DSTYLE_DIMTALN
1070
   392
1070
     0
  0
DIMSTYLE
105
1900
102
{ACAD_REACTORS
330
18EF
102
}
330
A
100
AcDbSymbolTableRecord
100
AcDbDimStyleTableRecord
  2
AM_ISO
 70
     0
  4
"
 41
3.5
 42
1.0
 43
10.0
 44
1.0
 47
0.1
 48
0.1
 73
     0
 74
     0
 77
     1
 78
     8
 79
     2
140
3.5
141
0.0
143
0.0393701
146
0.71
147
1.5
172
     1
176
   256
177
   256
178
     2
271
     2
272
     3
274
     4
283
     0
284
     8
340
11
371
    -1
372
    -1
1001
ACAD_DSTYLE_DIMJAG
1070
   388
1040
1.5
1001
ACAD_DSTYLE_DIMBREAK
1070
   391
1040
3.75
1001
ACAD_DSTYLE_DIMARC_LENGTH_SYMBOL
1070
   379
1070
     1
1001
ACAD_DSTYLE_DIM_LINETYPE
1070
   380
1005
14
1001
ACAD_DSTYLE_DIM_EXT1_LINETYPE
1070
   381
1005
14
1001
ACAD_DSTYLE_DIM_EXT2_LINETYPE
1070
   382
1005
14
  0
DIMSTYLE
105
190D
330
A
100
AcDbSymbolTableRecord
100
AcDbDimStyleTableRecord
  2
AM_ISO$3
 70
     0
  4
"
 41
3.5
 42
1.0
 43
10.0
 44
1.0
 47
0.1
 48
0.1
 73
     0
 77
     1
 78
     8
 79
     2
140
3.5
141
0.0
143
0.0393701
146
0.71
147
1.5
176
   256
177
   256
178
     2
271
     2
272
     3
274
     4
283
     0
284
     8
288
     1
289
     0
340
11
371
    -1
372
    -1
1001
ACAD_DSTYLE_DIMBREAK
1070
   391
1040
3.75
1001
ACAD_DSTYLE_DIMJAG
1070
   388
1040
1.5
1001
ACAD_DSTYLE_DIMARC_LENGTH_SYMBOL
1070
   379
1070
     1
1001
ACAD_DSTYLE_DIM_LINETYPE
1070
   380
1005
14
1001
ACAD_DSTYLE_DIM_EXT1_LINETYPE
1070
   381
1005
14
1001
ACAD_DSTYLE_DIM_EXT2_LINETYPE
1070
   382
1005
14
  0
DIMSTYLE
105
190E
330
A
100
AcDbSymbolTableRecord
100
AcDbDimStyleTableRecord
  2
AM_ISO$4
 70
     0
  4
"
 41
3.5
 42
1.0
 43
10.0
 44
1.0
 47
0.1
 48
0.1
 73
     0
 77
     1
 78
     8
 79
     2
140
3.5
141
0.0
143
0.0393701
146
0.71
147
1.5
176
   256
177
   256
178
     2
271
     2
272
     3
274
     4
283
     0
284
     8
288
     1
289
     0
340
11
371
    -1
372
    -1
1001
ACAD_DSTYLE_DIMBREAK
1070
   391
1040
3.75
1001
ACAD_DSTYLE_DIMJAG
1070
   388
1040
1.5
1001
ACAD_DSTYLE_DIMARC_LENGTH_SYMBOL
1070
   379
1070
     1
1001
ACAD_DSTYLE_DIM_LINETYPE
1070
   380
1005
14
1001
ACAD_DSTYLE_DIM_EXT1_LINETYPE
1070
   381
1005
14
1001
ACAD_DSTYLE_DIM_EXT2_LINETYPE
1070
   382
1005
14
  0
DIMSTYLE
105
190F
330
A
100
AcDbSymbolTableRecord
100
AcDbDimStyleTableRecord
  2
AM_ISO$6
 70
     0
  4
"
 41
3.5
 42
1.0
 43
10.0
 44
1.0
 47
0.1
 48
0.1
 73
     0
 74
     0
 78
     8
 79
     2
140
3.5
141
0.0
143
0.0393701
146
0.71
147
1.5
172
     1
176
   256
177
   256
178
     2
271
     2
272
     3
274
     4
283
     0
284
     8
340
11
371
    -1
372
    -1
1001
ACAD_DSTYLE_DIMBREAK
1070
   391
1040
3.75
1001
ACAD_DSTYLE_DIMJAG
1070
   388
1040
1.5
1001
ACAD_DSTYLE_DIMARC_LENGTH_SYMBOL
1070
   379
1070
     1
1001
ACAD_DSTYLE_DIM_LINETYPE
1070
   380
1005
14
1001
ACAD_DSTYLE_DIM_EXT1_LINETYPE
1070
   381
1005
14
1001
ACAD_DSTYLE_DIM_EXT2_LINETYPE
1070
   382
1005
14
  0
DIMSTYLE
105
1910
330
A
100
AcDbSymbolTableRecord
100
AcDbDimStyleTableRecord
  2
AM_ISO$7
 70
     0
  4
"
 41
3.5
 42
1.0
 43
10.0
 44
1.0
 47
0.1
 48
0.1
 73
     0
 74
     0
 77
     1
 78
     8
 79
     2
140
3.5
141
0.0
143
0.0393701
146
0.71
147
1.5
172
     1
176
   256
177
   256
178
     2
271
     2
272
     3
274
     4
283
     0
284
     8
340
11
371
    -1
372
    -1
1001
ACAD_DSTYLE_DIMBREAK
1070
   391
1040
3.75
1001
ACAD_DSTYLE_DIMJAG
1070
   388
1040
1.5
1001
ACAD_DSTYLE_DIMARC_LENGTH_SYMBOL
1070
   379
1070
     1
1001
ACAD_DSTYLE_DIM_LINETYPE
1070
   380
1005
14
1001
ACAD_DSTYLE_DIM_EXT1_LINETYPE
1070
   381
1005
14
1001
ACAD_DSTYLE_DIM_EXT2_LINETYPE
1070
   382
1005
14
  0
DIMSTYLE
105
1911
330
A
100
AcDbSymbolTableRecord
100
AcDbDimStyleTableRecord
  2
AM_ISO$SF
 70
     0
  4
"
 41
3.5
 42
1.0
 43
10.0
 44
1.0
 47
0.1
 48
0.1
 73
     0
 74
     0
 75
     1
 76
     1
 77
     1
 78
     8
 79
     2
140
3.5
141
0.0
143
0.0393701
146
0.71
147
1.5
172
     1
176
   256
177
   256
178
     2
271
     2
272
     3
274
     4
283
     0
284
     8
340
11
371
    -1
372
    -1
1001
ACAD_DSTYLE_DIMBREAK
1070
   391
1040
3.75
1001
ACAD_DSTYLE_DIMJAG
1070
   388
1040
1.5
1001
ACAD_DSTYLE_DIMARC_LENGTH_SYMBOL
1070
   379
1070
     1
1001
ACAD_DSTYLE_DIM_LINETYPE
1070
   380
1005
14
1001
ACAD_DSTYLE_DIM_EXT1_LINETYPE
1070
   381
1005
14
1001
ACAD_DSTYLE_DIM_EXT2_LINETYPE
1070
   382
1005
14
  0
DIMSTYLE
105
1916
330
A
100
AcDbSymbolTableRecord
100
AcDbDimStyleTableRecord
  2
AM_ISO$SH
 70
     0
  4
"
 41
3.5
 42
1.0
 43
10.0
 44
1.0
 47
0.1
 48
0.1
 73
     0
 74
     0
 75
     1
 76
     1
 77
     1
 78
     8
 79
     2
140
3.5
141
0.0
143
0.0393701
144
2.0
146
0.71
147
1.5
172
     1
173
     1
176
   256
177
   256
178
     2
271
     2
272
     3
274
     4
283
     0
284
     8
340
11
343
1912
371
    -1
372
    -1
1001
ACAD_DSTYLE_DIMBREAK
1070
   391
1040
3.75
1001
ACAD_DSTYLE_DIMJAG
1070
   388
1040
1.5
1001
ACAD_DSTYLE_DIMARC_LENGTH_SYMBOL
1070
   379
1070
     1
1001
ACAD_DSTYLE_DIM_LINETYPE
1070
   380
1005
14
1001
ACAD_DSTYLE_DIM_EXT1_LINETYPE
1070
   381
1005
14
1001
ACAD_DSTYLE_DIM_EXT2_LINETYPE
1070
   382
1005
14
  0
DIMSTYLE
105
1A6D
330
A
100
AcDbSymbolTableRecord
100
AcDbDimStyleTableRecord
  2
副本Standard
 70
     0
  4
"
 41
16.0
 42
7.0
 44
7.0
 73
     0
 74
     0
 78
     8
 79
     2
140
20.0
141
2.5
143
0.03937
147
1.0
171
     3
172
     1
176
   256
177
   256
178
   256
179
     1
271
     1
272
     1
273
     7
274
     3
278
    44
340
11
1001
ACAD_DSTYLE_DIMJAG
1070
   388
1040
1.5
1001
ACAD_DSTYLE_DIMTALN
1070
   392
1070
     0
  0
DIMSTYLE
105
1A6E
102
{ACAD_REACTORS
330
1B16
102
}
330
A
100
AcDbSymbolTableRecord
100
AcDbDimStyleTableRecord
  2
AM_ANSI
 70
     0
  4
mm
 41
0.12
 42
0.05
 43
0.5
 44
0.1
 47
0.1
 48
0.1
 78
     7
 79
     2
140
0.12
141
0.0
146
0.71
147
0.06
176
   256
177
   256
178
     2
274
     4
284
     7
340
11
371
    -1
372
    -1
1001
ACAD_DSTYLE_DIMJAG
1070
   388
1040
1.5
1001
ACAD_DSTYLE_DIMBREAK
1070
   391
1040
0.125
1001
ACAD_DSTYLE_DIMARC_LENGTH_SYMBOL
1070
   379
1070
     1
1001
ACAD_DSTYLE_DIM_LINETYPE
1070
   380
1005
14
1001
ACAD_DSTYLE_DIM_EXT1_LINETYPE
1070
   381
1005
14
1001
ACAD_DSTYLE_DIM_EXT2_LINETYPE
1070
   382
1005
14
  0
DIMSTYLE
105
1A6F
330
A
100
AcDbSymbolTableRecord
100
AcDbDimStyleTableRecord
  2
AM_ANSI$3
 70
     0
  4
mm
 41
0.12
 42
0.05
 43
0.5
 44
0.1
 47
0.1
 48
0.1
 78
     7
 79
     2
140
0.12
141
0.0
146
0.71
147
0.06
176
   256
177
   256
178
     2
274
     4
284
     7
288
     1
289
     0
340
11
371
    -1
372
    -1
1001
ACAD_DSTYLE_DIMBREAK
1070
   391
1040
0.125
1001
ACAD_DSTYLE_DIMJAG
1070
   388
1040
1.5
1001
ACAD_DSTYLE_DIMARC_LENGTH_SYMBOL
1070
   379
1070
     1
1001
ACAD_DSTYLE_DIM_LINETYPE
1070
   380
1005
14
1001
ACAD_DSTYLE_DIM_EXT1_LINETYPE
1070
   381
1005
14
1001
ACAD_DSTYLE_DIM_EXT2_LINETYPE
1070
   382
1005
14
  0
DIMSTYLE
105
1A70
330
A
100
AcDbSymbolTableRecord
100
AcDbDimStyleTableRecord
  2
AM_ANSI$4
 70
     0
  4
mm
 41
0.12
 42
0.05
 43
0.5
 44
0.1
 47
0.1
 48
0.1
 78
     7
 79
     2
140
0.12
141
0.0
146
0.71
147
0.06
176
   256
177
   256
178
     2
274
     4
284
     7
288
     1
289
     0
340
11
371
    -1
372
    -1
1001
ACAD_DSTYLE_DIMBREAK
1070
   391
1040
0.125
1001
ACAD_DSTYLE_DIMJAG
1070
   388
1040
1.5
1001
ACAD_DSTYLE_DIMARC_LENGTH_SYMBOL
1070
   379
1070
     1
1001
ACAD_DSTYLE_DIM_LINETYPE
1070
   380
1005
14
1001
ACAD_DSTYLE_DIM_EXT1_LINETYPE
1070
   381
1005
14
1001
ACAD_DSTYLE_DIM_EXT2_LINETYPE
1070
   382
1005
14
  0
DIMSTYLE
105
1A71
330
A
100
AcDbSymbolTableRecord
100
AcDbDimStyleTableRecord
  2
AM_ANSI$7
 70
     0
  4
mm
 41
0.12
 42
0.05
 43
0.5
 44
0.1
 47
0.1
 48
0.1
 78
     7
 79
     2
140
0.12
141
0.0
146
0.71
147
0.06
176
   256
177
   256
178
     2
274
     4
284
     7
340
11
371
    -1
372
    -1
1001
ACAD_DSTYLE_DIMBREAK
1070
   391
1040
0.125
1001
ACAD_DSTYLE_DIMJAG
1070
   388
1040
1.5
1001
ACAD_DSTYLE_DIMARC_LENGTH_SYMBOL
1070
   379
1070
     1
1001
ACAD_DSTYLE_DIM_LINETYPE
1070
   380
1005
14
1001
ACAD_DSTYLE_DIM_EXT1_LINETYPE
1070
   381
1005
14
1001
ACAD_DSTYLE_DIM_EXT2_LINETYPE
1070
   382
1005
14
  0
DIMSTYLE
105
1A72
330
A
100
AcDbSymbolTableRecord
100
AcDbDimStyleTableRecord
  2
AM_ANSI$SF
 70
     0
  4
mm
 41
0.12
 42
0.05
 43
0.5
 44
0.1
 47
0.1
 48
0.1
 75
     1
 76
     1
 78
     7
 79
     2
140
0.12
141
0.0
146
0.71
147
0.06
176
   256
177
   256
178
     2
274
     4
284
     7
340
11
371
    -1
372
    -1
1001
ACAD_DSTYLE_DIMBREAK
1070
   391
1040
0.125
1001
ACAD_DSTYLE_DIMJAG
1070
   388
1040
1.5
1001
ACAD_DSTYLE_DIMARC_LENGTH_SYMBOL
1070
   379
1070
     1
1001
ACAD_DSTYLE_DIM_LINETYPE
1070
   380
1005
14
1001
ACAD_DSTYLE_DIM_EXT1_LINETYPE
1070
   381
1005
14
1001
ACAD_DSTYLE_DIM_EXT2_LINETYPE
1070
   382
1005
14
  0
DIMSTYLE
105
1A73
330
A
100
AcDbSymbolTableRecord
100
AcDbDimStyleTableRecord
  2
AM_ANSI$SH
 70
     0
  4
mm
 41
0.12
 42
0.05
 43
0.5
 44
0.1
 47
0.1
 48
0.1
 75
     1
 76
     1
 78
     7
 79
     2
140
0.12
141
0.0
146
0.71
147
0.06
173
     1
176
   256
177
   256
178
     2
274
     4
284
     7
340
11
343
1912
371
    -1
372
    -1
1001
ACAD_DSTYLE_DIMBREAK
1070
   391
1040
0.125
1001
ACAD_DSTYLE_DIMJAG
1070
   388
1040
1.5
1001
ACAD_DSTYLE_DIMARC_LENGTH_SYMBOL
1070
   379
1070
     1
1001
ACAD_DSTYLE_DIM_LINETYPE
1070
   380
1005
14
1001
ACAD_DSTYLE_DIM_EXT1_LINETYPE
1070
   381
1005
14
1001
ACAD_DSTYLE_DIM_EXT2_LINETYPE
1070
   382
1005
14
  0
DIMSTYLE
105
1A74
330
A
100
AcDbSymbolTableRecord
100
AcDbDimStyleTableRecord
  2
5倍
 70
     0
 41
12.5
 42
12.0
 44
5.0
 73
     0
 74
     0
 78
     8
 79
     2
140
12.5
147
5.0
172
     1
176
     3
177
     3
178
     3
179
     1
271
     1
272
     1
278
    44
340
11
371
    13
372
    13
1001
ACAD_DSTYLE_DIMBREAK
1070
   391
1040
0.125
1001
ACAD_DSTYLE_DIMJAG
1070
   388
1040
1.5
1001
ACAD_DSTYLE_DIMTALN
1070
   392
1070
     0
1001
ACAD_DSTYLE_DIMEXT_LENGTH
1070
   378
1040
8.0
  0
DIMSTYLE
105
1ECE
102
{ACAD_REACTORS
330
1EF0
330
1EF3
330
1EF6
330
1EF9
330
1EFF
102
}
330
A
100
AcDbSymbolTableRecord
100
AcDbDimStyleTableRecord
  2
ISO-25
 70
     0
 41
15.0
 42
3.0
 43
3.75
 44
3.0
 73
     0
 74
     0
 77
     1
 78
     8
140
20.0
141
0.0
143
0.03937007874016
147
2.0
171
     3
172
     1
176
     3
177
     3
178
     3
271
     1
272
     1
273
     7
274
     3
278
    44
283
     0
284
     8
340
11
371
     9
372
     9
1001
ACAD_DSTYLE_DIMJAG
1070
   388
1040
1.5
1001
ACAD_DSTYLE_DIMTALN
1070
   392
1070
     0
1001
ACAD_DSTYLE_DIMEXT_LENGTH
1070
   378
1040
1.25
1001
ACAD_DSTYLE_DIMJOGGED_JOGANGLE_SYMBOL
1070
   384
1040
1.570796326794896
1001
ACAD_DSTYLE_DIM_LINETYPE
1070
   380
1005
16
1001
ACAD_DSTYLE_DIM_EXT1_LINETYPE
1070
   381
1005
16
1001
ACAD_DSTYLE_DIM_EXT2_LINETYPE
1070
   382
1005
16
  0
ENDTAB
  0
TABLE
  2
BLOCK_RECORD
  5
1
330
0
100
AcDbSymbolTable
 70
    41
  0
BLOCK_RECORD
  5
21
330
1
100
AcDbSymbolTableRecord
100
AcDbBlockTableRecord
  2
*Model_Space
340
24
  0
BLOCK_RECORD
  5
1D
330
1
100
AcDbSymbolTableRecord
100
AcDbBlockTableRecord
  2
*Paper_Space
340
20
  0
BLOCK_RECORD
  5
25
330
1
100
AcDbSymbolTableRecord
100
AcDbBlockTableRecord
  2
*Paper_Space0
340
28
  0
BLOCK_RECORD
  5
10F1
330
1
100
AcDbSymbolTableRecord
100
AcDbBlockTableRecord
  2
*D1
340
0
  0
BLOCK_RECORD
  5
1501
330
1
100
AcDbSymbolTableRecord
100
AcDbBlockTableRecord
  2
*D3
340
0
  0
BLOCK_RECORD
  5
150E
330
1
100
AcDbSymbolTableRecord
100
AcDbBlockTableRecord
  2
*D4
340
0
  0
BLOCK_RECORD
  5
151B
330
1
100
AcDbSymbolTableRecord
100
AcDbBlockTableRecord
  2
*D5
340
0
  0
BLOCK_RECORD
  5
1528
330
1
100
AcDbSymbolTableRecord
100
AcDbBlockTableRecord
  2
*D6
340
0
  0
BLOCK_RECORD
  5
1553
330
1
100
AcDbSymbolTableRecord
100
AcDbBlockTableRecord
  2
*D7
340
0
  0
BLOCK_RECORD
  5
1560
330
1
100
AcDbSymbolTableRecord
100
AcDbBlockTableRecord
  2
*D8
340
0
  0
BLOCK_RECORD
  5
16E9
330
1
100
AcDbSymbolTableRecord
100
AcDbBlockTableRecord
  2
*D9
340
0
  0
BLOCK_RECORD
  5
1912
330
1
100
AcDbSymbolTableRecord
100
AcDbBlockTableRecord
  2
GENAXEH
340
0
  0
BLOCK_RECORD
  5
1A14
330
1
100
AcDbSymbolTableRecord
100
AcDbBlockTableRecord
  2
*D12
340
0
  0
BLOCK_RECORD
  5
1A22
330
1
100
AcDbSymbolTableRecord
100
AcDbBlockTableRecord
  2
*D13
340
0
  0
BLOCK_RECORD
  5
1A30
330
1
100
AcDbSymbolTableRecord
100
AcDbBlockTableRecord
  2
*D14
340
0
  0
BLOCK_RECORD
  5
1A3E
330
1
100
AcDbSymbolTableRecord
100
AcDbBlockTableRecord
  2
*D15
340
0
  0
BLOCK_RECORD
  5
1A4C
330
1
100
AcDbSymbolTableRecord
100
AcDbBlockTableRecord
  2
*D16
340
0
  0
BLOCK_RECORD
  5
1A5A
330
1
100
AcDbSymbolTableRecord
100
AcDbBlockTableRecord
  2
*D17
340
0
  0
BLOCK_RECORD
  5
1BCD
330
1
100
AcDbSymbolTableRecord
100
AcDbBlockTableRecord
  2
*D19
340
0
  0
BLOCK_RECORD
  5
1BDA
330
1
100
AcDbSymbolTableRecord
100
AcDbBlockTableRecord
  2
*D20
340
0
  0
BLOCK_RECORD
  5
1BE7
330
1
100
AcDbSymbolTableRecord
100
AcDbBlockTableRecord
  2
*D21
340
0
  0
BLOCK_RECORD
  5
1BF4
330
1
100
AcDbSymbolTableRecord
100
AcDbBlockTableRecord
  2
*D22
340
0
  0
BLOCK_RECORD
  5
1C01
330
1
100
AcDbSymbolTableRecord
100
AcDbBlockTableRecord
  2
*D23
340
0
  0
BLOCK_RECORD
  5
1C0E
330
1
100
AcDbSymbolTableRecord
100
AcDbBlockTableRecord
  2
*D24
340
0
  0
BLOCK_RECORD
  5
1C94
330
1
100
AcDbSymbolTableRecord
100
AcDbBlockTableRecord
  2
*D25
340
0
  0
BLOCK_RECORD
  5
1E87
330
1
100
AcDbSymbolTableRecord
100
AcDbBlockTableRecord
  2
*D30
340
0
  0
BLOCK_RECORD
  5
1E95
330
1
100
AcDbSymbolTableRecord
100
AcDbBlockTableRecord
  2
*D31
340
0
  0
BLOCK_RECORD
  5
1EA3
330
1
100
AcDbSymbolTableRecord
100
AcDbBlockTableRecord
  2
*D32
340
0
  0
BLOCK_RECORD
  5
1EB1
330
1
100
AcDbSymbolTableRecord
100
AcDbBlockTableRecord
  2
*D33
340
0
  0
BLOCK_RECORD
  5
1EBF
330
1
100
AcDbSymbolTableRecord
100
AcDbBlockTableRecord
  2
*D34
340
0
  0
BLOCK_RECORD
  5
1F5A
330
1
100
AcDbSymbolTableRecord
100
AcDbBlockTableRecord
  2
*D36
340
0
  0
BLOCK_RECORD
  5
1F68
330
1
100
AcDbSymbolTableRecord
100
AcDbBlockTableRecord
  2
*D37
340
0
  0
BLOCK_RECORD
  5
1F76
330
1
100
AcDbSymbolTableRecord
100
AcDbBlockTableRecord
  2
*D38
340
0
  0
BLOCK_RECORD
  5
1F84
330
1
100
AcDbSymbolTableRecord
100
AcDbBlockTableRecord
  2
*D39
340
0
  0
BLOCK_RECORD
  5
1F92
330
1
100
AcDbSymbolTableRecord
100
AcDbBlockTableRecord
  2
*D40
340
0
  0
ENDTAB
  0
ENDSEC
  0
SECTION
  2
BLOCKS
  0
BLOCK
  5
22
330
21
100
AcDbEntity
  8
0
100
AcDbBlockBegin
  2
*Model_Space
 70
     0
 10
0.0
 20
0.0
 30
0.0
  3
*Model_Space
  1

  0
ENDBLK
  5
23
330
21
100
AcDbEntity
  8
0
100
AcDbBlockEnd
  0
BLOCK
  5
1E
330
1D
100
AcDbEntity
 67
     1
  8
0
100
AcDbBlockBegin
  2
*Paper_Space
 70
     0
 10
0.0
 20
0.0
 30
0.0
  3
*Paper_Space
  1

  0
ENDBLK
  5
1F
330
1D
100
AcDbEntity
 67
     1
  8
0
100
AcDbBlockEnd
  0
BLOCK
  5
26
330
25
100
AcDbEntity
 67
     1
  8
0
100
AcDbBlockBegin
  2
*Paper_Space0
 70
     0
 10
0.0
 20
0.0
 30
0.0
  3
*Paper_Space0
  1

  0
ENDBLK
  5
27
330
25
100
AcDbEntity
 67
     1
  8
0
100
AcDbBlockEnd
  0
BLOCK
  5
10FC
330
10F1
100
AcDbEntity
  8
0
100
AcDbBlockBegin
  2
*D1
 70
     1
 10
0.0
 20
0.0
 30
0.0
  3
*D1
  1

  0
LINE
  5
197D
330
10F1
100
AcDbEntity
  8
标注
370
    -2
100
AcDbLine
 10
172.4980848921357
 20
227.9662099990851
 30
0.0
 11
174.3897763074026
 21
227.9662099990851
 31
0.0
  0
LINE
  5
197E
330
10F1
100
AcDbEntity
  8
标注
370
    -2
100
AcDbLine
 10
163.0689510338679
 20
218.9898320463292
 30
0.0
 11
174.3897763074026
 21
218.9898320463292
 31
0.0
  0
LINE
  5
197F
330
10F1
100
AcDbEntity
  8
标注
370
    -2
100
AcDbLine
 10
174.0697763074026
 20
227.3162099990851
 30
0.0
 11
174.0697763074026
 21
224.0824654671516
 31
0.0
  0
LINE
  5
1980
330
10F1
100
AcDbEntity
  8
标注
370
    -2
100
AcDbLine
 10
174.0697763074026
 20
219.6398320463292
 30
0.0
 11
174.0697763074026
 21
222.8735765782627
 31
0.0
  0
SOLID
  5
1981
330
10F1
100
AcDbEntity
  8
标注
100
AcDbTrace
 10
173.9614429740693
 20
227.3162099990851
 30
0.0
 11
174.1781096407359
 21
227.3162099990851
 31
0.0
 12
174.0697763074026
 22
227.9662099990851
 32
0.0
 13
174.0697763074026
 23
227.9662099990851
 33
0.0
  0
SOLID
  5
1982
330
10F1
100
AcDbEntity
  8
标注
100
AcDbTrace
 10
173.9614429740693
 20
219.6398320463292
 30
0.0
 11
174.1781096407359
 21
219.6398320463292
 31
0.0
 12
174.0697763074026
 22
218.9898320463292
 32
0.0
 13
174.0697763074026
 23
218.9898320463292
 33
0.0
  0
MTEXT
  5
1983
330
10F1
100
AcDbEntity
  8
标注
100
AcDbMText
 10
174.0697763074025
 20
223.4780210227071
 30
0.0
 40
0.65
 41
0.0
 71
     5
 72
     1
  1
\A1;9"
 11
0.0000000000000001
 21
1.0
 31
0.0
 73
     1
 44
1.0
1001
ACAD
1000
MTEXTBEGIN
1070
    73
1070
     1
1070
    44
1040
1.0
1070
    74
1070
     0
1000
MTEXTEND
  0
POINT
  5
1984
330
10F1
100
AcDbEntity
  8
Defpoints
 62
     0
100
AcDbPoint
 10
171.6180848921357
 20
227.9662099990851
 30
0.0
  0
POINT
  5
1985
330
10F1
100
AcDbEntity
  8
Defpoints
 62
     0
100
AcDbPoint
 10
162.1889510338679
 20
218.9898320463292
 30
0.0
  0
POINT
  5
1986
330
10F1
100
AcDbEntity
  8
Defpoints
 62
     0
100
AcDbPoint
 10
174.0697763074026
 20
218.9898320463292
 30
0.0
  0
ENDBLK
  5
10FD
330
10F1
100
AcDbEntity
  8
0
100
AcDbBlockEnd
  0
BLOCK
  5
150C
330
1501
100
AcDbEntity
  8
0
100
AcDbBlockBegin
  2
*D3
 70
     1
 10
0.0
 20
0.0
 30
0.0
  3
*D3
  1

  0
LINE
  5
1992
330
1501
100
AcDbEntity
  8
标注
 48
5.0
370
    -2
100
AcDbLine
 10
160.7854864669387
 20
205.8516452106307
 30
0.0
 11
174.5103666906396
 21
205.8516452106307
 31
0.0
  0
LINE
  5
1993
330
1501
100
AcDbEntity
  8
标注
 48
5.0
370
    -2
100
AcDbLine
 10
160.7854864669389
 20
189.9067633208669
 30
0.0
 11
174.5103666906396
 21
189.9067633208669
 31
0.0
  0
LINE
  5
1994
330
1501
100
AcDbEntity
  8
标注
 48
5.0
370
    -2
100
AcDbLine
 10
174.1903666906396
 20
205.2016452106307
 30
0.0
 11
174.1903666906396
 21
198.6822598213043
 31
0.0
  0
LINE
  5
1995
330
1501
100
AcDbEntity
  8
标注
 48
5.0
370
    -2
100
AcDbLine
 10
174.1903666906396
 20
190.5567633208669
 30
0.0
 11
174.1903666906396
 21
197.0761487101932
 31
0.0
  0
SOLID
  5
1996
330
1501
100
AcDbEntity
  8
标注
 48
5.0
100
AcDbTrace
 10
174.0820333573063
 20
205.2016452106307
 30
0.0
 11
174.2987000239729
 21
205.2016452106307
 31
0.0
 12
174.1903666906396
 22
205.8516452106307
 32
0.0
 13
174.1903666906396
 23
205.8516452106307
 33
0.0
  0
SOLID
  5
1997
330
1501
100
AcDbEntity
  8
标注
 48
5.0
100
AcDbTrace
 10
174.0820333573063
 20
190.5567633208669
 30
0.0
 11
174.2987000239729
 21
190.5567633208669
 31
0.0
 12
174.1903666906396
 22
189.9067633208669
 32
0.0
 13
174.1903666906396
 23
189.9067633208669
 33
0.0
  0
MTEXT
  5
1998
330
1501
100
AcDbEntity
  8
标注
 48
5.0
100
AcDbMText
 10
174.1903666906396
 20
197.8792042657488
 30
0.0
 40
0.65
 41
0.0
 71
     5
 72
     1
  1
\A1;16"
 11
0.0000000000000001
 21
1.0
 31
0.0
 73
     1
 44
1.0
1001
ACAD
1000
MTEXTBEGIN
1070
    73
1070
     1
1070
    44
1040
1.0
1070
    74
1070
     0
1000
MTEXTEND
  0
POINT
  5
1999
330
1501
100
AcDbEntity
  8
Defpoints
 62
     0
 48
5.0
100
AcDbPoint
 10
159.9054864669387
 20
205.8516452106307
 30
0.0
  0
POINT
  5
199A
330
1501
100
AcDbEntity
  8
Defpoints
 62
     0
 48
5.0
100
AcDbPoint
 10
159.905486466939
 20
189.9067633208669
 30
0.0
  0
POINT
  5
199B
330
1501
100
AcDbEntity
  8
Defpoints
 62
     0
 48
5.0
100
AcDbPoint
 10
174.1903666906396
 20
189.9067633208669
 30
0.0
  0
ENDBLK
  5
150D
330
1501
100
AcDbEntity
  8
0
100
AcDbBlockEnd
  0
BLOCK
  5
1519
330
150E
100
AcDbEntity
  8
0
100
AcDbBlockBegin
  2
*D4
 70
     1
 10
0.0
 20
0.0
 30
0.0
  3
*D4
  1

  0
LINE
  5
199C
330
150E
100
AcDbEntity
  8
标注
 48
5.0
370
    -2
100
AcDbLine
 10
160.7854864669393
 20
206.7374719822831
 30
0.0
 11
176.6739880210954
 21
206.7374719822831
 31
0.0
  0
LINE
  5
199D
330
150E
100
AcDbEntity
  8
标注
 48
5.0
370
    -2
100
AcDbLine
 10
160.7854864669393
 20
189.0209365492134
 30
0.0
 11
176.6739880210954
 21
189.0209365492134
 31
0.0
  0
LINE
  5
199E
330
150E
100
AcDbEntity
  8
标注
 48
5.0
370
    -2
100
AcDbLine
 10
176.3539880210954
 20
206.0874719822831
 30
0.0
 11
176.3539880210954
 21
199.6067042657482
 31
0.0
  0
LINE
  5
199F
330
150E
100
AcDbEntity
  8
标注
 48
5.0
370
    -2
100
AcDbLine
 10
176.3539880210954
 20
189.6709365492134
 30
0.0
 11
176.3539880210954
 21
196.1517042657482
 31
0.0
  0
SOLID
  5
19A0
330
150E
100
AcDbEntity
  8
标注
 48
5.0
100
AcDbTrace
 10
176.2456546877621
 20
206.0874719822831
 30
0.0
 11
176.4623213544287
 21
206.0874719822831
 31
0.0
 12
176.3539880210954
 22
206.7374719822831
 32
0.0
 13
176.3539880210954
 23
206.7374719822831
 33
0.0
  0
SOLID
  5
19A1
330
150E
100
AcDbEntity
  8
标注
 48
5.0
100
AcDbTrace
 10
176.245654687762
 20
189.6709365492134
 30
0.0
 11
176.4623213544287
 21
189.6709365492134
 31
0.0
 12
176.3539880210954
 22
189.0209365492134
 32
0.0
 13
176.3539880210954
 23
189.0209365492134
 33
0.0
  0
MTEXT
  5
19A2
330
150E
100
AcDbEntity
  8
标注
 48
5.0
100
AcDbMText
 10
176.3539880210954
 20
197.8792042657483
 30
0.0
 40
0.65
 41
0.0
 71
     5
 72
     1
  1
\A1;17 3/4"
 11
0.0000000000000001
 21
1.0
 31
0.0
 73
     1
 44
1.0
1001
ACAD
1000
MTEXTBEGIN
1070
    73
1070
     1
1070
    44
1040
1.0
1070
    74
1070
     0
1000
MTEXTEND
  0
POINT
  5
19A3
330
150E
100
AcDbEntity
  8
Defpoints
 62
     0
 48
5.0
100
AcDbPoint
 10
159.9054864669393
 20
206.7374719822831
 30
0.0
  0
POINT
  5
19A4
330
150E
100
AcDbEntity
  8
Defpoints
 62
     0
 48
5.0
100
AcDbPoint
 10
159.9054864669393
 20
189.0209365492134
 30
0.0
  0
POINT
  5
19A5
330
150E
100
AcDbEntity
  8
Defpoints
 62
     0
 48
5.0
100
AcDbPoint
 10
176.3539880210954
 20
189.0209365492134
 30
0.0
  0
ENDBLK
  5
151A
330
150E
100
AcDbEntity
  8
0
100
AcDbBlockEnd
  0
BLOCK
  5
1526
330
151B
100
AcDbEntity
  8
0
100
AcDbBlockBegin
  2
*D5
 70
     1
 10
0.0
 20
0.0
 30
0.0
  3
*D5
  1

  0
LINE
  5
19A6
330
151B
100
AcDbEntity
  8
标注
 48
5.0
370
    -2
100
AcDbLine
 10
171.6180848921361
 20
196.9992042657488
 30
0.0
 11
171.6180848921361
 21
184.2376694731857
 31
0.0
  0
LINE
  5
19A7
330
151B
100
AcDbEntity
  8
标注
 48
5.0
370
    -2
100
AcDbLine
 10
148.1928880417421
 20
196.9992042657499
 30
0.0
 11
148.1928880417421
 21
184.2376694731857
 31
0.0
  0
LINE
  5
19A8
330
151B
100
AcDbEntity
  8
标注
 48
5.0
370
    -2
100
AcDbLine
 10
170.9680848921361
 20
184.5576694731857
 30
0.0
 11
161.661875355828
 21
184.5576694731857
 31
0.0
  0
LINE
  5
19A9
330
151B
100
AcDbEntity
  8
标注
 48
5.0
370
    -2
100
AcDbLine
 10
148.8428880417421
 20
184.5576694731857
 30
0.0
 11
158.1490975780502
 21
184.5576694731857
 31
0.0
  0
SOLID
  5
19AA
330
151B
100
AcDbEntity
  8
标注
 48
5.0
100
AcDbTrace
 10
170.9680848921361
 20
184.666002806519
 30
0.0
 11
170.9680848921361
 21
184.4493361398523
 31
0.0
 12
171.6180848921361
 22
184.5576694731857
 32
0.0
 13
171.6180848921361
 23
184.5576694731857
 33
0.0
  0
SOLID
  5
19AB
330
151B
100
AcDbEntity
  8
标注
 48
5.0
100
AcDbTrace
 10
148.8428880417421
 20
184.666002806519
 30
0.0
 11
148.8428880417421
 21
184.4493361398523
 31
0.0
 12
148.1928880417421
 22
184.5576694731857
 32
0.0
 13
148.1928880417421
 23
184.5576694731857
 33
0.0
  0
MTEXT
  5
19AC
330
151B
100
AcDbEntity
  8
标注
 48
5.0
100
AcDbMText
 10
159.9054864669391
 20
184.5576694731857
 30
0.0
 40
0.65
 41
0.0
 71
     5
 72
     1
  1
\A1;23 3/8"
 73
     1
 44
1.0
1001
ACAD
1000
MTEXTBEGIN
1070
    73
1070
     1
1070
    44
1040
1.0
1070
    74
1070
     0
1000
MTEXTEND
  0
POINT
  5
19AD
330
151B
100
AcDbEntity
  8
Defpoints
 62
     0
 48
5.0
100
AcDbPoint
 10
171.6180848921361
 20
197.8792042657488
 30
0.0
  0
POINT
  5
19AE
330
151B
100
AcDbEntity
  8
Defpoints
 62
     0
 48
5.0
100
AcDbPoint
 10
148.1928880417421
 20
197.8792042657499
 30
0.0
  0
POINT
  5
19AF
330
151B
100
AcDbEntity
  8
Defpoints
 62
     0
 48
5.0
100
AcDbPoint
 10
148.1928880417421
 20
184.5576694731857
 30
0.0
  0
ENDBLK
  5
1527
330
151B
100
AcDbEntity
  8
0
100
AcDbBlockEnd
  0
BLOCK
  5
1533
330
1528
100
AcDbEntity
  8
0
100
AcDbBlockBegin
  2
*D6
 70
     1
 10
0.0
 20
0.0
 30
0.0
  3
*D6
  1

  0
LINE
  5
1987
330
1528
100
AcDbEntity
  8
标注
 48
5.0
370
    -2
100
AcDbLine
 10
160.7854864669389
 20
189.9067633208669
 30
0.0
 11
174.5103666906397
 21
189.9067633208669
 31
0.0
  0
LINE
  5
1988
330
1528
100
AcDbEntity
  8
标注
 48
5.0
370
    -2
100
AcDbLine
 10
160.7854864669395
 20
189.0209365492134
 30
0.0
 11
174.5103666906397
 21
189.0209365492134
 31
0.0
  0
LINE
  5
1989
330
1528
100
AcDbEntity
  8
标注
 48
5.0
370
    -2
100
AcDbLine
 10
174.1903666906396
 20
190.5567633208669
 30
0.0
 11
174.1903666906396
 21
191.2067633208669
 31
0.0
  0
LINE
  5
198A
330
1528
100
AcDbEntity
  8
标注
 48
5.0
370
    -2
100
AcDbLine
 10
174.1903666906396
 20
188.3709365492134
 30
0.0
 11
174.1903666906396
 21
187.7209365492134
 31
0.0
  0
LINE
  5
198B
330
1528
100
AcDbEntity
  8
标注
 48
5.0
370
    -2
100
AcDbLine
 10
174.1903666906396
 20
189.9067633208669
 30
0.0
 11
174.1903666906396
 21
189.0209365492134
 31
0.0
  0
SOLID
  5
198C
330
1528
100
AcDbEntity
  8
标注
 48
5.0
100
AcDbTrace
 10
174.0820333573063
 20
190.5567633208669
 30
0.0
 11
174.298700023973
 21
190.5567633208669
 31
0.0
 12
174.1903666906396
 22
189.9067633208669
 32
0.0
 13
174.1903666906396
 23
189.9067633208669
 33
0.0
  0
SOLID
  5
198D
330
1528
100
AcDbEntity
  8
标注
 48
5.0
100
AcDbTrace
 10
174.0820333573063
 20
188.3709365492134
 30
0.0
 11
174.298700023973
 21
188.3709365492134
 31
0.0
 12
174.1903666906396
 22
189.0209365492134
 32
0.0
 13
174.1903666906396
 23
189.0209365492134
 33
0.0
  0
MTEXT
  5
198E
330
1528
100
AcDbEntity
  8
标注
 48
5.0
100
AcDbMText
 10
174.1903666906396
 20
186.6632976603245
 30
0.0
 40
0.65
 41
0.0
 71
     5
 72
     1
  1
\A1;7/8"
 11
0.0000000000000001
 21
1.0
 31
0.0
 73
     1
 44
1.0
1001
ACAD
1000
MTEXTBEGIN
1070
    73
1070
     1
1070
    44
1040
1.0
1070
    74
1070
     0
1000
MTEXTEND
  0
POINT
  5
198F
330
1528
100
AcDbEntity
  8
Defpoints
 62
     0
 48
5.0
100
AcDbPoint
 10
159.905486466939
 20
189.9067633208669
 30
0.0
  0
POINT
  5
1990
330
1528
100
AcDbEntity
  8
Defpoints
 62
     0
 48
5.0
100
AcDbPoint
 10
159.9054864669395
 20
189.0209365492134
 30
0.0
  0
POINT
  5
1991
330
1528
100
AcDbEntity
  8
Defpoints
 62
     0
 48
5.0
100
AcDbPoint
 10
174.1903666906396
 20
189.0209365492134
 30
0.0
  0
ENDBLK
  5
1534
330
1528
100
AcDbEntity
  8
0
100
AcDbBlockEnd
  0
BLOCK
  5
155E
330
1553
100
AcDbEntity
  8
0
100
AcDbBlockBegin
  2
*D7
 70
     1
 10
0.0
 20
0.0
 30
0.0
  3
*D7
  1

  0
LINE
  5
19B0
330
1553
100
AcDbEntity
  8
标注
 48
5.0
370
    -2
100
AcDbLine
 10
149.1771400102461
 20
196.9795192263786
 30
0.0
 11
149.1771400102461
 21
186.4818833302863
 31
0.0
  0
LINE
  5
19B1
330
1553
100
AcDbEntity
  8
标注
 48
5.0
370
    -2
100
AcDbLine
 10
148.1928880417421
 20
196.9992042657488
 30
0.0
 11
148.1928880417421
 21
186.4818833302863
 31
0.0
  0
LINE
  5
19B2
330
1553
100
AcDbEntity
  8
标注
 48
5.0
370
    -2
100
AcDbLine
 10
149.8271400102461
 20
186.8018833302863
 30
0.0
 11
150.4771400102461
 21
186.8018833302863
 31
0.0
  0
LINE
  5
19B3
330
1553
100
AcDbEntity
  8
标注
 48
5.0
370
    -2
100
AcDbLine
 10
147.5428880417421
 20
186.8018833302863
 30
0.0
 11
146.8928880417421
 21
186.8018833302863
 31
0.0
  0
LINE
  5
19B4
330
1553
100
AcDbEntity
  8
标注
 48
5.0
370
    -2
100
AcDbLine
 10
149.1771400102461
 20
186.8018833302863
 30
0.0
 11
148.1928880417421
 21
186.8018833302863
 31
0.0
  0
SOLID
  5
19B5
330
1553
100
AcDbEntity
  8
标注
 48
5.0
100
AcDbTrace
 10
149.8271400102461
 20
186.9102166636196
 30
0.0
 11
149.8271400102461
 21
186.693549996953
 31
0.0
 12
149.1771400102461
 22
186.8018833302863
 32
0.0
 13
149.1771400102461
 23
186.8018833302863
 33
0.0
  0
SOLID
  5
19B6
330
1553
100
AcDbEntity
  8
标注
 48
5.0
100
AcDbTrace
 10
147.5428880417421
 20
186.9102166636196
 30
0.0
 11
147.5428880417421
 21
186.693549996953
 31
0.0
 12
148.1928880417421
 22
186.8018833302863
 32
0.0
 13
148.1928880417421
 23
186.8018833302863
 33
0.0
  0
MTEXT
  5
19B7
330
1553
100
AcDbEntity
  8
标注
 48
5.0
100
AcDbMText
 10
146.3209435972976
 20
186.8018833302863
 30
0.0
 40
0.65
 41
0.0
 71
     5
 72
     1
  1
\A1;1"
 73
     1
 44
1.0
1001
ACAD
1000
MTEXTBEGIN
1070
    73
1070
     1
1070
    44
1040
1.0
1070
    74
1070
     0
1000
MTEXTEND
  0
POINT
  5
19B8
330
1553
100
AcDbEntity
  8
Defpoints
 62
     0
 48
5.0
100
AcDbPoint
 10
149.1771400102461
 20
197.8595192263787
 30
0.0
  0
POINT
  5
19B9
330
1553
100
AcDbEntity
  8
Defpoints
 62
     0
 48
5.0
100
AcDbPoint
 10
148.1928880417421
 20
197.8792042657488
 30
0.0
  0
POINT
  5
19BA
330
1553
100
AcDbEntity
  8
Defpoints
 62
     0
 48
5.0
100
AcDbPoint
 10
148.1928880417421
 20
186.8018833302863
 30
0.0
  0
ENDBLK
  5
155F
330
1553
100
AcDbEntity
  8
0
100
AcDbBlockEnd
  0
BLOCK
  5
156B
330
1560
100
AcDbEntity
  8
0
100
AcDbBlockBegin
  2
*D8
 70
     1
 10
0.0
 20
0.0
 30
0.0
  3
*D8
  1

  0
LINE
  5
19BB
330
1560
100
AcDbEntity
  8
标注
 48
5.0
370
    -2
100
AcDbLine
 10
149.1771431051122
 20
197.0004630185404
 30
0.0
 11
149.1771431051122
 21
186.4818833302683
 31
0.0
  0
LINE
  5
19BC
330
1560
100
AcDbEntity
  8
标注
 48
5.0
370
    -2
100
AcDbLine
 10
170.6338265571527
 20
197.0095581268988
 30
0.0
 11
170.6338265571527
 21
186.4818833302683
 31
0.0
  0
LINE
  5
19BD
330
1560
100
AcDbEntity
  8
标注
 48
5.0
370
    -2
100
AcDbLine
 10
149.8271431051121
 20
186.8018833302683
 30
0.0
 11
158.1490959422435
 21
186.8018833302683
 31
0.0
  0
LINE
  5
19BE
330
1560
100
AcDbEntity
  8
标注
 48
5.0
370
    -2
100
AcDbLine
 10
169.9838265571527
 20
186.8018833302683
 30
0.0
 11
161.6618737200213
 21
186.8018833302683
 31
0.0
  0
SOLID
  5
19BF
330
1560
100
AcDbEntity
  8
标注
 48
5.0
100
AcDbTrace
 10
149.8271431051121
 20
186.9102166636016
 30
0.0
 11
149.8271431051121
 21
186.693549996935
 31
0.0
 12
149.1771431051122
 22
186.8018833302683
 32
0.0
 13
149.1771431051122
 23
186.8018833302683
 33
0.0
  0
SOLID
  5
19C0
330
1560
100
AcDbEntity
  8
标注
 48
5.0
100
AcDbTrace
 10
169.9838265571527
 20
186.9102166636016
 30
0.0
 11
169.9838265571527
 21
186.693549996935
 31
0.0
 12
170.6338265571527
 22
186.8018833302683
 32
0.0
 13
170.6338265571527
 23
186.8018833302683
 33
0.0
  0
MTEXT
  5
19C1
330
1560
100
AcDbEntity
  8
标注
 48
5.0
100
AcDbMText
 10
159.9054848311324
 20
186.8018833302683
 30
0.0
 40
0.65
 41
0.0
 71
     5
 72
     1
  1
\A1;21 1/2"
 73
     1
 44
1.0
1001
ACAD
1000
MTEXTBEGIN
1070
    73
1070
     1
1070
    44
1040
1.0
1070
    74
1070
     0
1000
MTEXTEND
  0
POINT
  5
19C2
330
1560
100
AcDbEntity
  8
Defpoints
 62
     0
 48
5.0
100
AcDbPoint
 10
149.1771431051122
 20
197.8804630185404
 30
0.0
  0
POINT
  5
19C3
330
1560
100
AcDbEntity
  8
Defpoints
 62
     0
 48
5.0
100
AcDbPoint
 10
170.6338265571527
 20
197.8895581268988
 30
0.0
  0
POINT
  5
19C4
330
1560
100
AcDbEntity
  8
Defpoints
 62
     0
 48
5.0
100
AcDbPoint
 10
170.6338265571527
 20
186.8018833302683
 30
0.0
  0
ENDBLK
  5
156C
330
1560
100
AcDbEntity
  8
0
100
AcDbBlockEnd
  0
BLOCK
  5
16EF
330
16E9
100
AcDbEntity
  8
0
100
AcDbBlockBegin
  2
*D9
 70
     1
 10
0.0
 20
0.0
 30
0.0
  3
*D9
  1

  0
LINE
  5
19C5
330
16E9
100
AcDbEntity
  8
标注
370
    -2
100
AcDbLine
 10
151.6220889625567
 20
192.6016408603405
 30
0.0
 11
150.7681948452111
 21
191.8419545149932
 31
0.0
  0
MTEXT
  5
19C6
330
16E9
100
AcDbEntity
  8
标注
100
AcDbMText
 10
152.9410643089633
 20
193.7750973113927
 30
0.0
 40
0.65
 41
0.0
 71
     5
 72
     1
  1
\A1;R3 7/8"
 11
0.7471184402586239
 21
0.6646909328594165
 31
0.0
 73
     1
 44
1.0
1001
ACAD
1000
MTEXTBEGIN
1070
    73
1070
     1
1070
    44
1040
1.0
1070
    74
1070
     0
1000
MTEXTEND
  0
SOLID
  5
19C7
330
16E9
100
AcDbEntity
  8
标注
100
AcDbTrace
 10
150.696186660818
 20
191.9228923460212
 30
0.0
 11
150.8402030296042
 21
191.7610166839652
 31
0.0
 12
150.282567859043
 22
191.4099054086346
 32
0.0
 13
150.282567859043
 23
191.4099054086346
 33
0.0
  0
POINT
  5
19C8
330
16E9
100
AcDbEntity
  8
Defpoints
 62
     0
100
AcDbPoint
 10
150.282567859043
 20
191.4099054086346
 30
0.0
  0
POINT
  5
19C9
330
16E9
100
AcDbEntity
  8
Defpoints
 62
     0
100
AcDbPoint
 10
153.2239790411635
 20
194.0267988450889
 30
0.0
  0
ENDBLK
  5
16F0
330
16E9
100
AcDbEntity
  8
0
100
AcDbBlockEnd
  0
BLOCK
  5
1914
330
1912
100
AcDbEntity
  8
0
100
AcDbBlockBegin
  2
GENAXEH
 70
     0
 10
0.0
 20
0.0
 30
0.0
  3
GENAXEH
  1

  0
LINE
  5
1913
330
1912
100
AcDbEntity
  8
0
100
AcDbLine
 10
-1.0
 20
0.0
 30
0.0
 11
1.0
 21
0.0
 31
0.0
  0
ENDBLK
  5
1915
330
1912
100
AcDbEntity
  8
0
100
AcDbBlockEnd
  0
BLOCK
  5
1A15
330
1A14
100
AcDbEntity
  8
0
 48
5.0
100
AcDbBlockBegin
  2
*D12
 70
     1
 10
0.0
 20
0.0
 30
0.0
  3
*D12
  1

  0
LINE
  5
1A16
330
1A14
100
AcDbEntity
  8
0
 62
     3
 48
5.0
370
    -2
100
AcDbLine
 10
109070.6034557276
 20
-171353.890122756
 30
0.0
 11
109070.6034557276
 21
-171364.9888215003
 31
0.0
  0
LINE
  5
1A17
330
1A14
100
AcDbEntity
  8
0
 62
     3
 48
5.0
370
    -2
100
AcDbLine
 10
109099.7372557276
 20
-171353.890122756
 30
0.0
 11
109099.7372557276
 21
-171364.9888215003
 31
0.0
  0
LINE
  5
1A18
330
1A14
100
AcDbEntity
  8
0
 62
     3
 48
5.0
370
    -2
100
AcDbLine
 10
109055.6034557276
 20
-171354.4888215003
 30
0.0
 11
109040.6034557275
 21
-171354.4888215003
 31
0.0
  0
LINE
  5
1A19
330
1A14
100
AcDbEntity
  8
0
 62
     3
 48
5.0
370
    -2
100
AcDbLine
 10
109114.7372557276
 20
-171354.4888215003
 30
0.0
 11
109129.7372557276
 21
-171354.4888215003
 31
0.0
  0
LINE
  5
1A1A
330
1A14
100
AcDbEntity
  8
0
 62
     3
 48
5.0
370
    -2
100
AcDbLine
 10
109070.6034557276
 20
-171354.4888215003
 30
0.0
 11
109099.7372557276
 21
-171354.4888215003
 31
0.0
  0
SOLID
  5
1A1B
330
1A14
100
AcDbEntity
  8
0
 62
     3
 48
5.0
100
AcDbTrace
 10
109055.6034557276
 20
-171351.9888215003
 30
0.0
 11
109055.6034557276
 21
-171356.9888215004
 31
0.0
 12
109070.6034557276
 22
-171354.4888215003
 32
0.0
 13
109070.6034557276
 23
-171354.4888215003
 33
0.0
  0
SOLID
  5
1A1C
330
1A14
100
AcDbEntity
  8
0
 62
     3
 48
5.0
100
AcDbTrace
 10
109114.7372557276
 20
-171351.9888215003
 30
0.0
 11
109114.7372557276
 21
-171356.9888215004
 31
0.0
 12
109099.7372557276
 22
-171354.4888215003
 32
0.0
 13
109099.7372557276
 23
-171354.4888215003
 33
0.0
  0
MTEXT
  5
1A1D
330
1A14
100
AcDbEntity
  8
0
 62
     3
 48
5.0
100
AcDbMText
 10
109085.1703557276
 20
-171354.4888215003
 30
0.0
 40
15.0
 41
0.0
 71
     5
 72
     1
  1
\A1;29.1
 73
     1
 44
1.0
1001
ACAD
1000
MTEXTBEGIN
1070
    73
1070
     1
1070
    44
1040
1.0
1070
    74
1070
     0
1000
MTEXTEND
  0
POINT
  5
1A1E
330
1A14
100
AcDbEntity
  8
Defpoints
 62
     0
 48
5.0
100
AcDbPoint
 10
109070.6034557276
 20
-171347.8901227561
 30
0.0
  0
POINT
  5
1A1F
330
1A14
100
AcDbEntity
  8
Defpoints
 62
     0
 48
5.0
100
AcDbPoint
 10
109099.7372557276
 20
-171347.8901227561
 30
0.0
  0
POINT
  5
1A20
330
1A14
100
AcDbEntity
  8
Defpoints
 62
     0
 48
5.0
100
AcDbPoint
 10
109099.7372557276
 20
-171354.4888215003
 30
0.0
  0
ENDBLK
  5
1A21
330
1A14
100
AcDbEntity
  8
0
 48
5.0
100
AcDbBlockEnd
  0
BLOCK
  5
1A23
330
1A22
100
AcDbEntity
  8
0
 48
5.0
100
AcDbBlockBegin
  2
*D13
 70
     1
 10
0.0
 20
0.0
 30
0.0
  3
*D13
  1

  0
LINE
  5
1A24
330
1A22
100
AcDbEntity
  8
0
 62
     3
 48
5.0
370
    -2
100
AcDbLine
 10
109098.2569557276
 20
-171334.8980227561
 30
0.0
 11
109111.413106268
 21
-171334.8980227561
 31
0.0
  0
LINE
  5
1A25
330
1A22
100
AcDbEntity
  8
0
 62
     3
 48
5.0
370
    -2
100
AcDbLine
 10
109098.2569557276
 20
-171351.4334227561
 30
0.0
 11
109111.413106268
 21
-171351.4334227561
 31
0.0
  0
LINE
  5
1A26
330
1A22
100
AcDbEntity
  8
0
 62
     3
 48
5.0
370
    -2
100
AcDbLine
 10
109100.913106268
 20
-171319.8980227561
 30
0.0
 11
109100.913106268
 21
-171304.8980227561
 31
0.0
  0
LINE
  5
1A27
330
1A22
100
AcDbEntity
  8
0
 62
     3
 48
5.0
370
    -2
100
AcDbLine
 10
109100.913106268
 20
-171366.433422756
 30
0.0
 11
109100.913106268
 21
-171381.4334227561
 31
0.0
  0
LINE
  5
1A28
330
1A22
100
AcDbEntity
  8
0
 62
     3
 48
5.0
370
    -2
100
AcDbLine
 10
109100.913106268
 20
-171334.8980227561
 30
0.0
 11
109100.913106268
 21
-171351.4334227561
 31
0.0
  0
SOLID
  5
1A29
330
1A22
100
AcDbEntity
  8
0
 62
     3
 48
5.0
100
AcDbTrace
 10
109098.413106268
 20
-171319.8980227561
 30
0.0
 11
109103.413106268
 21
-171319.8980227561
 31
0.0
 12
109100.913106268
 22
-171334.8980227561
 32
0.0
 13
109100.913106268
 23
-171334.8980227561
 33
0.0
  0
SOLID
  5
1A2A
330
1A22
100
AcDbEntity
  8
0
 62
     3
 48
5.0
100
AcDbTrace
 10
109098.413106268
 20
-171366.433422756
 30
0.0
 11
109103.413106268
 21
-171366.433422756
 31
0.0
 12
109100.913106268
 22
-171351.4334227561
 32
0.0
 13
109100.913106268
 23
-171351.4334227561
 33
0.0
  0
MTEXT
  5
1A2B
330
1A22
100
AcDbEntity
  8
0
 62
     3
 48
5.0
100
AcDbMText
 10
109100.9131062681
 20
-171403.8917560894
 30
0.0
 40
15.0
 41
0.0
 71
     5
 72
     1
  1
\A1;16.5
 11
0.0000000000000001
 21
1.0
 31
0.0
 73
     1
 44
1.0
1001
ACAD
1000
MTEXTBEGIN
1070
    73
1070
     1
1070
    44
1040
1.0
1070
    74
1070
     0
1000
MTEXTEND
  0
POINT
  5
1A2C
330
1A22
100
AcDbEntity
  8
Defpoints
 62
     0
 48
5.0
100
AcDbPoint
 10
109092.2569557275
 20
-171334.8980227561
 30
0.0
  0
POINT
  5
1A2D
330
1A22
100
AcDbEntity
  8
Defpoints
 62
     0
 48
5.0
100
AcDbPoint
 10
109092.2569557275
 20
-171351.4334227561
 30
0.0
  0
POINT
  5
1A2E
330
1A22
100
AcDbEntity
  8
Defpoints
 62
     0
 48
5.0
100
AcDbPoint
 10
109100.913106268
 20
-171351.4334227561
 30
0.0
  0
ENDBLK
  5
1A2F
330
1A22
100
AcDbEntity
  8
0
 48
5.0
100
AcDbBlockEnd
  0
BLOCK
  5
1A31
330
1A30
100
AcDbEntity
  8
0
 48
5.0
100
AcDbBlockBegin
  2
*D14
 70
     1
 10
0.0
 20
0.0
 30
0.0
  3
*D14
  1

  0
LINE
  5
1A32
330
1A30
100
AcDbEntity
  8
0
 62
     3
 48
5.0
370
    -2
100
AcDbLine
 10
109101.2097057276
 20
-171333.9137727561
 30
0.0
 11
109113.1365981155
 21
-171333.9137727561
 31
0.0
  0
LINE
  5
1A33
330
1A30
100
AcDbEntity
  8
0
 62
     3
 48
5.0
370
    -2
100
AcDbLine
 10
109101.2097057276
 20
-171352.4176727561
 30
0.0
 11
109113.1365981155
 21
-171352.4176727561
 31
0.0
  0
LINE
  5
1A34
330
1A30
100
AcDbEntity
  8
0
 62
     3
 48
5.0
370
    -2
100
AcDbLine
 10
109102.6365981154
 20
-171318.913772756
 30
0.0
 11
109102.6365981154
 21
-171303.9137727561
 31
0.0
  0
LINE
  5
1A35
330
1A30
100
AcDbEntity
  8
0
 62
     3
 48
5.0
370
    -2
100
AcDbLine
 10
109102.6365981154
 20
-171367.4176727561
 30
0.0
 11
109102.6365981154
 21
-171382.4176727561
 31
0.0
  0
LINE
  5
1A36
330
1A30
100
AcDbEntity
  8
0
 62
     3
 48
5.0
370
    -2
100
AcDbLine
 10
109102.6365981154
 20
-171333.9137727561
 30
0.0
 11
109102.6365981154
 21
-171352.4176727561
 31
0.0
  0
SOLID
  5
1A37
330
1A30
100
AcDbEntity
  8
0
 62
     3
 48
5.0
100
AcDbTrace
 10
109100.1365981155
 20
-171318.913772756
 30
0.0
 11
109105.1365981155
 21
-171318.913772756
 31
0.0
 12
109102.6365981154
 22
-171333.9137727561
 32
0.0
 13
109102.6365981154
 23
-171333.9137727561
 33
0.0
  0
SOLID
  5
1A38
330
1A30
100
AcDbEntity
  8
0
 62
     3
 48
5.0
100
AcDbTrace
 10
109100.1365981155
 20
-171367.4176727561
 30
0.0
 11
109105.1365981155
 21
-171367.4176727561
 31
0.0
 12
109102.6365981154
 22
-171352.4176727561
 32
0.0
 13
109102.6365981154
 23
-171352.4176727561
 33
0.0
  0
MTEXT
  5
1A39
330
1A30
100
AcDbEntity
  8
0
 62
     3
 48
5.0
100
AcDbMText
 10
109102.6365981155
 20
-171404.8760060894
 30
0.0
 40
15.0
 41
0.0
 71
     5
 72
     1
  1
\A1;18.5
 11
0.0000000000000001
 21
1.0
 31
0.0
 73
     1
 44
1.0
1001
ACAD
1000
MTEXTBEGIN
1070
    73
1070
     1
1070
    44
1040
1.0
1070
    74
1070
     0
1000
MTEXTEND
  0
POINT
  5
1A3A
330
1A30
100
AcDbEntity
  8
Defpoints
 62
     0
 48
5.0
100
AcDbPoint
 10
109095.2097057275
 20
-171333.9137727561
 30
0.0
  0
POINT
  5
1A3B
330
1A30
100
AcDbEntity
  8
Defpoints
 62
     0
 48
5.0
100
AcDbPoint
 10
109095.2097057275
 20
-171352.4176727561
 30
0.0
  0
POINT
  5
1A3C
330
1A30
100
AcDbEntity
  8
Defpoints
 62
     0
 48
5.0
100
AcDbPoint
 10
109102.6365981154
 20
-171352.4176727561
 30
0.0
  0
ENDBLK
  5
1A3D
330
1A30
100
AcDbEntity
  8
0
 48
5.0
100
AcDbBlockEnd
  0
BLOCK
  5
1A3F
330
1A3E
100
AcDbEntity
  8
0
 48
5.0
100
AcDbBlockBegin
  2
*D15
 70
     1
 10
0.0
 20
0.0
 30
0.0
  3
*D15
  1

  0
LINE
  5
1A40
330
1A3E
100
AcDbEntity
  8
0
 62
     3
 48
5.0
370
    -2
100
AcDbLine
 10
109071.5877057276
 20
-171349.165722756
 30
0.0
 11
109071.5877057276
 21
-171363.8165051847
 31
0.0
  0
LINE
  5
1A41
330
1A3E
100
AcDbEntity
  8
0
 62
     3
 48
5.0
370
    -2
100
AcDbLine
 10
109084.5798057276
 20
-171349.165722756
 30
0.0
 11
109084.5798057276
 21
-171363.8165051847
 31
0.0
  0
LINE
  5
1A42
330
1A3E
100
AcDbEntity
  8
0
 62
     3
 48
5.0
370
    -2
100
AcDbLine
 10
109056.5877057276
 20
-171353.3165051847
 30
0.0
 11
109041.5877057276
 21
-171353.3165051847
 31
0.0
  0
LINE
  5
1A43
330
1A3E
100
AcDbEntity
  8
0
 62
     3
 48
5.0
370
    -2
100
AcDbLine
 10
109099.5798057275
 20
-171353.3165051847
 30
0.0
 11
109114.5798057276
 21
-171353.3165051847
 31
0.0
  0
LINE
  5
1A44
330
1A3E
100
AcDbEntity
  8
0
 62
     3
 48
5.0
370
    -2
100
AcDbLine
 10
109071.5877057276
 20
-171353.3165051847
 30
0.0
 11
109084.5798057276
 21
-171353.3165051847
 31
0.0
  0
SOLID
  5
1A45
330
1A3E
100
AcDbEntity
  8
0
 62
     3
 48
5.0
100
AcDbTrace
 10
109056.5877057276
 20
-171350.8165051847
 30
0.0
 11
109056.5877057276
 21
-171355.8165051847
 31
0.0
 12
109071.5877057276
 22
-171353.3165051847
 32
0.0
 13
109071.5877057276
 23
-171353.3165051847
 33
0.0
  0
SOLID
  5
1A46
330
1A3E
100
AcDbEntity
  8
0
 62
     3
 48
5.0
100
AcDbTrace
 10
109099.5798057275
 20
-171350.8165051847
 30
0.0
 11
109099.5798057275
 21
-171355.8165051847
 31
0.0
 12
109084.5798057276
 22
-171353.3165051847
 32
0.0
 13
109084.5798057276
 23
-171353.3165051847
 33
0.0
  0
MTEXT
  5
1A47
330
1A3E
100
AcDbEntity
  8
0
 62
     3
 48
5.0
100
AcDbMText
 10
109126.3714723942
 20
-171353.3165051847
 30
0.0
 40
15.0
 41
0.0
 71
     5
 72
     1
  1
\A1;13
 73
     1
 44
1.0
1001
ACAD
1000
MTEXTBEGIN
1070
    73
1070
     1
1070
    44
1040
1.0
1070
    74
1070
     0
1000
MTEXTEND
  0
POINT
  5
1A48
330
1A3E
100
AcDbEntity
  8
Defpoints
 62
     0
 48
5.0
100
AcDbPoint
 10
109071.5877057276
 20
-171343.1657227561
 30
0.0
  0
POINT
  5
1A49
330
1A3E
100
AcDbEntity
  8
Defpoints
 62
     0
 48
5.0
100
AcDbPoint
 10
109084.5798057276
 20
-171343.1657227561
 30
0.0
  0
POINT
  5
1A4A
330
1A3E
100
AcDbEntity
  8
Defpoints
 62
     0
 48
5.0
100
AcDbPoint
 10
109084.5798057276
 20
-171353.3165051847
 30
0.0
  0
ENDBLK
  5
1A4B
330
1A3E
100
AcDbEntity
  8
0
 48
5.0
100
AcDbBlockEnd
  0
BLOCK
  5
1A4D
330
1A4C
100
AcDbEntity
  8
0
 48
5.0
100
AcDbBlockBegin
  2
*D16
 70
     1
 10
0.0
 20
0.0
 30
0.0
  3
*D16
  1

  0
LINE
  5
1A4E
330
1A4C
100
AcDbEntity
  8
0
 62
     3
 48
5.0
370
    -2
100
AcDbLine
 10
109085.7609057276
 20
-171349.165722756
 30
0.0
 11
109085.7609057276
 21
-171363.8165051847
 31
0.0
  0
LINE
  5
1A4F
330
1A4C
100
AcDbEntity
  8
0
 62
     3
 48
5.0
370
    -2
100
AcDbLine
 10
109098.7530057276
 20
-171349.165722756
 30
0.0
 11
109098.7530057276
 21
-171363.8165051847
 31
0.0
  0
LINE
  5
1A50
330
1A4C
100
AcDbEntity
  8
0
 62
     3
 48
5.0
370
    -2
100
AcDbLine
 10
109070.7609057276
 20
-171353.3165051847
 30
0.0
 11
109055.7609057276
 21
-171353.3165051847
 31
0.0
  0
LINE
  5
1A51
330
1A4C
100
AcDbEntity
  8
0
 62
     3
 48
5.0
370
    -2
100
AcDbLine
 10
109113.7530057276
 20
-171353.3165051847
 30
0.0
 11
109128.7530057275
 21
-171353.3165051847
 31
0.0
  0
LINE
  5
1A52
330
1A4C
100
AcDbEntity
  8
0
 62
     3
 48
5.0
370
    -2
100
AcDbLine
 10
109085.7609057276
 20
-171353.3165051847
 30
0.0
 11
109098.7530057276
 21
-171353.3165051847
 31
0.0
  0
SOLID
  5
1A53
330
1A4C
100
AcDbEntity
  8
0
 62
     3
 48
5.0
100
AcDbTrace
 10
109070.7609057276
 20
-171350.8165051847
 30
0.0
 11
109070.7609057276
 21
-171355.8165051847
 31
0.0
 12
109085.7609057276
 22
-171353.3165051847
 32
0.0
 13
109085.7609057276
 23
-171353.3165051847
 33
0.0
  0
SOLID
  5
1A54
330
1A4C
100
AcDbEntity
  8
0
 62
     3
 48
5.0
100
AcDbTrace
 10
109113.7530057276
 20
-171350.8165051847
 30
0.0
 11
109113.7530057276
 21
-171355.8165051847
 31
0.0
 12
109098.7530057276
 22
-171353.3165051847
 32
0.0
 13
109098.7530057276
 23
-171353.3165051847
 33
0.0
  0
MTEXT
  5
1A55
330
1A4C
100
AcDbEntity
  8
0
 62
     3
 48
5.0
100
AcDbMText
 10
109140.5446723942
 20
-171353.3165051847
 30
0.0
 40
15.0
 41
0.0
 71
     5
 72
     1
  1
\A1;13
 73
     1
 44
1.0
1001
ACAD
1000
MTEXTBEGIN
1070
    73
1070
     1
1070
    44
1040
1.0
1070
    74
1070
     0
1000
MTEXTEND
  0
POINT
  5
1A56
330
1A4C
100
AcDbEntity
  8
Defpoints
 62
     0
 48
5.0
100
AcDbPoint
 10
109085.7609057276
 20
-171343.1657227561
 30
0.0
  0
POINT
  5
1A57
330
1A4C
100
AcDbEntity
  8
Defpoints
 62
     0
 48
5.0
100
AcDbPoint
 10
109098.7530057276
 20
-171343.1657227561
 30
0.0
  0
POINT
  5
1A58
330
1A4C
100
AcDbEntity
  8
Defpoints
 62
     0
 48
5.0
100
AcDbPoint
 10
109098.7530057276
 20
-171353.3165051847
 30
0.0
  0
ENDBLK
  5
1A59
330
1A4C
100
AcDbEntity
  8
0
 48
5.0
100
AcDbBlockEnd
  0
BLOCK
  5
1A5B
330
1A5A
100
AcDbEntity
  8
0
 48
5.0
100
AcDbBlockBegin
  2
*D17
 70
     1
 10
0.0
 20
0.0
 30
0.0
  3
*D17
  1

  0
LINE
  5
1A5C
330
1A5A
100
AcDbEntity
  8
0
 62
     3
 48
5.0
370
    -2
100
AcDbLine
 10
109064.6034557275
 20
-171319.6814796814
 30
0.0
 11
109058.362494262
 21
-171319.6814796814
 31
0.0
  0
LINE
  5
1A5D
330
1A5A
100
AcDbEntity
  8
0
 62
     3
 48
5.0
370
    -2
100
AcDbLine
 10
109069.9185837157
 20
-171327.6735896814
 30
0.0
 11
109058.362494262
 21
-171327.6735896814
 31
0.0
  0
LINE
  5
1A5E
330
1A5A
100
AcDbEntity
  8
0
 62
     3
 48
5.0
370
    -2
100
AcDbLine
 10
109068.862494262
 20
-171304.6814796814
 30
0.0
 11
109068.862494262
 21
-171289.6814796815
 31
0.0
  0
LINE
  5
1A5F
330
1A5A
100
AcDbEntity
  8
0
 62
     3
 48
5.0
370
    -2
100
AcDbLine
 10
109068.862494262
 20
-171342.6735896814
 30
0.0
 11
109068.862494262
 21
-171357.6735896814
 31
0.0
  0
LINE
  5
1A60
330
1A5A
100
AcDbEntity
  8
0
 62
     3
 48
5.0
370
    -2
100
AcDbLine
 10
109068.862494262
 20
-171319.6814796814
 30
0.0
 11
109068.862494262
 21
-171327.6735896814
 31
0.0
  0
SOLID
  5
1A61
330
1A5A
100
AcDbEntity
  8
0
 62
     3
 48
5.0
100
AcDbTrace
 10
109066.362494262
 20
-171304.6814796814
 30
0.0
 11
109071.362494262
 21
-171304.6814796814
 31
0.0
 12
109068.862494262
 22
-171319.6814796814
 32
0.0
 13
109068.862494262
 23
-171319.6814796814
 33
0.0
  0
SOLID
  5
1A62
330
1A5A
100
AcDbEntity
  8
0
 62
     3
 48
5.0
100
AcDbTrace
 10
109066.362494262
 20
-171342.6735896814
 30
0.0
 11
109071.362494262
 21
-171342.6735896814
 31
0.0
 12
109068.862494262
 22
-171327.6735896814
 32
0.0
 13
109068.862494262
 23
-171327.6735896814
 33
0.0
  0
MTEXT
  5
1A63
330
1A5A
100
AcDbEntity
  8
0
 62
     3
 48
5.0
100
AcDbMText
 10
109068.8624942621
 20
-171364.9235896814
 30
0.0
 40
15.0
 41
0.0
 71
     5
 72
     1
  1
\A1;8
 11
0.0000000000000001
 21
1.0
 31
0.0
 73
     1
 44
1.0
1001
ACAD
1000
MTEXTBEGIN
1070
    73
1070
     1
1070
    44
1040
1.0
1070
    74
1070
     0
1000
MTEXTEND
  0
POINT
  5
1A64
330
1A5A
100
AcDbEntity
  8
Defpoints
 62
     0
 48
5.0
100
AcDbPoint
 10
109070.6034557276
 20
-171319.6814796814
 30
0.0
  0
POINT
  5
1A65
330
1A5A
100
AcDbEntity
  8
Defpoints
 62
     0
 48
5.0
100
AcDbPoint
 10
109075.9185837157
 20
-171327.6735896814
 30
0.0
  0
POINT
  5
1A66
330
1A5A
100
AcDbEntity
  8
Defpoints
 62
     0
 48
5.0
100
AcDbPoint
 10
109068.862494262
 20
-171327.6735896814
 30
0.0
  0
ENDBLK
  5
1A67
330
1A5A
100
AcDbEntity
  8
0
 48
5.0
100
AcDbBlockEnd
  0
BLOCK
  5
1BCE
330
1BCD
100
AcDbEntity
  8
0
100
AcDbBlockBegin
  2
*D19
 70
     1
 10
0.0
 20
0.0
 30
0.0
  3
*D19
  1

  0
LINE
  5
1D14
330
1BCD
100
AcDbEntity
  8
标注
 48
5.0
370
    -2
100
AcDbLine
 10
212.5173328315011
 20
188.3629020371476
 30
0.0
 11
212.5173328315011
 21
181.0946170682337
 31
0.0
  0
LINE
  5
1D15
330
1BCD
100
AcDbEntity
  8
标注
 48
5.0
370
    -2
100
AcDbLine
 10
241.6511328315116
 20
188.3629020371476
 30
0.0
 11
241.6511328315116
 21
181.0946170682337
 31
0.0
  0
LINE
  5
1D16
330
1BCD
100
AcDbEntity
  8
标注
 48
5.0
370
    -2
100
AcDbLine
 10
213.1673328315011
 20
181.4146170682336
 30
0.0
 11
225.3278439426175
 21
181.4146170682336
 31
0.0
  0
LINE
  5
1D17
330
1BCD
100
AcDbEntity
  8
标注
 48
5.0
370
    -2
100
AcDbLine
 10
241.0011328315116
 20
181.4146170682336
 30
0.0
 11
228.8406217203953
 21
181.4146170682336
 31
0.0
  0
SOLID
  5
1D18
330
1BCD
100
AcDbEntity
  8
标注
 48
5.0
100
AcDbTrace
 10
213.1673328315011
 20
181.522950401567
 30
0.0
 11
213.1673328315011
 21
181.3062837349003
 31
0.0
 12
212.5173328315011
 22
181.4146170682336
 32
0.0
 13
212.5173328315011
 23
181.4146170682336
 33
0.0
  0
SOLID
  5
1D19
330
1BCD
100
AcDbEntity
  8
标注
 48
5.0
100
AcDbTrace
 10
241.0011328315116
 20
181.522950401567
 30
0.0
 11
241.0011328315116
 21
181.3062837349003
 31
0.0
 12
241.6511328315116
 22
181.4146170682336
 32
0.0
 13
241.6511328315116
 23
181.4146170682336
 33
0.0
  0
MTEXT
  5
1D1A
330
1BCD
100
AcDbEntity
  8
标注
 48
5.0
100
AcDbMText
 10
227.0842328315064
 20
181.4146170682336
 30
0.0
 40
0.65
 41
0.0
 71
     5
 72
     1
  1
\A1;29 1/8"
 73
     1
 44
1.0
1001
ACAD
1000
MTEXTBEGIN
1070
    73
1070
     1
1070
    44
1040
1.0
1070
    74
1070
     0
1000
MTEXTEND
  0
POINT
  5
1D1B
330
1BCD
100
AcDbEntity
  8
Defpoints
 62
     0
 48
5.0
100
AcDbPoint
 10
212.5173328315011
 20
189.2429020371476
 30
0.0
  0
POINT
  5
1D1C
330
1BCD
100
AcDbEntity
  8
Defpoints
 62
     0
 48
5.0
100
AcDbPoint
 10
241.6511328315116
 20
189.2429020371476
 30
0.0
  0
POINT
  5
1D1D
330
1BCD
100
AcDbEntity
  8
Defpoints
 62
     0
 48
5.0
100
AcDbPoint
 10
241.6511328315116
 20
181.4146170682336
 30
0.0
  0
ENDBLK
  5
1BCF
330
1BCD
100
AcDbEntity
  8
0
100
AcDbBlockEnd
  0
BLOCK
  5
1BDB
330
1BDA
100
AcDbEntity
  8
0
100
AcDbBlockBegin
  2
*D20
 70
     1
 10
0.0
 20
0.0
 30
0.0
  3
*D20
  1

  0
LINE
  5
1D00
330
1BDA
100
AcDbEntity
  8
标注
 48
5.0
370
    -2
100
AcDbLine
 10
235.0508328315015
 20
202.2350020371507
 30
0.0
 11
243.7639904789072
 21
202.2350020371507
 31
0.0
  0
LINE
  5
1D01
330
1BDA
100
AcDbEntity
  8
标注
 48
5.0
370
    -2
100
AcDbLine
 10
235.0508328315015
 20
185.6996020371574
 30
0.0
 11
243.7639904789072
 21
185.6996020371574
 31
0.0
  0
LINE
  5
1D02
330
1BDA
100
AcDbEntity
  8
标注
 48
5.0
370
    -2
100
AcDbLine
 10
243.4439904789072
 20
201.5850020371507
 30
0.0
 11
243.4439904789072
 21
195.694802037154
 31
0.0
  0
LINE
  5
1D03
330
1BDA
100
AcDbEntity
  8
标注
 48
5.0
370
    -2
100
AcDbLine
 10
243.4439904789072
 20
186.3496020371574
 30
0.0
 11
243.4439904789072
 21
192.239802037154
 31
0.0
  0
SOLID
  5
1D04
330
1BDA
100
AcDbEntity
  8
标注
 48
5.0
100
AcDbTrace
 10
243.3356571455739
 20
201.5850020371507
 30
0.0
 11
243.5523238122405
 21
201.5850020371507
 31
0.0
 12
243.4439904789072
 22
202.2350020371507
 32
0.0
 13
243.4439904789072
 23
202.2350020371507
 33
0.0
  0
SOLID
  5
1D05
330
1BDA
100
AcDbEntity
  8
标注
 48
5.0
100
AcDbTrace
 10
243.3356571455739
 20
186.3496020371574
 30
0.0
 11
243.5523238122405
 21
186.3496020371574
 31
0.0
 12
243.4439904789072
 22
185.6996020371574
 32
0.0
 13
243.4439904789072
 23
185.6996020371574
 33
0.0
  0
MTEXT
  5
1D06
330
1BDA
100
AcDbEntity
  8
标注
 48
5.0
100
AcDbMText
 10
243.4439904789071
 20
193.9673020371541
 30
0.0
 40
0.65
 41
0.0
 71
     5
 72
     1
  1
\A1;16 1/2"
 11
0.0000000000000001
 21
1.0
 31
0.0
 73
     1
 44
1.0
1001
ACAD
1000
MTEXTBEGIN
1070
    73
1070
     1
1070
    44
1040
1.0
1070
    74
1070
     0
1000
MTEXTEND
  0
POINT
  5
1D07
330
1BDA
100
AcDbEntity
  8
Defpoints
 62
     0
 48
5.0
100
AcDbPoint
 10
234.1708328315014
 20
202.2350020371507
 30
0.0
  0
POINT
  5
1D08
330
1BDA
100
AcDbEntity
  8
Defpoints
 62
     0
 48
5.0
100
AcDbPoint
 10
234.1708328315014
 20
185.6996020371574
 30
0.0
  0
POINT
  5
1D09
330
1BDA
100
AcDbEntity
  8
Defpoints
 62
     0
 48
5.0
100
AcDbPoint
 10
243.4439904789072
 20
185.6996020371574
 30
0.0
  0
ENDBLK
  5
1BDC
330
1BDA
100
AcDbEntity
  8
0
100
AcDbBlockEnd
  0
BLOCK
  5
1BE8
330
1BE7
100
AcDbEntity
  8
0
100
AcDbBlockBegin
  2
*D21
 70
     1
 10
0.0
 20
0.0
 30
0.0
  3
*D21
  1

  0
LINE
  5
1D0A
330
1BE7
100
AcDbEntity
  8
标注
 48
5.0
370
    -2
100
AcDbLine
 10
238.0035828314982
 20
203.2192520371594
 30
0.0
 11
245.3178598253282
 21
203.2192520371594
 31
0.0
  0
LINE
  5
1D0B
330
1BE7
100
AcDbEntity
  8
标注
 48
5.0
370
    -2
100
AcDbLine
 10
238.0035828314982
 20
184.7153520371487
 30
0.0
 11
245.3178598253282
 21
184.7153520371487
 31
0.0
  0
LINE
  5
1D0C
330
1BE7
100
AcDbEntity
  8
标注
 48
5.0
370
    -2
100
AcDbLine
 10
244.9978598253283
 20
202.5692520371594
 30
0.0
 11
244.9978598253283
 21
195.694802037154
 31
0.0
  0
LINE
  5
1D0D
330
1BE7
100
AcDbEntity
  8
标注
 48
5.0
370
    -2
100
AcDbLine
 10
244.9978598253282
 20
185.3653520371487
 30
0.0
 11
244.9978598253283
 21
192.239802037154
 31
0.0
  0
SOLID
  5
1D0E
330
1BE7
100
AcDbEntity
  8
标注
 48
5.0
100
AcDbTrace
 10
244.8895264919949
 20
202.5692520371594
 30
0.0
 11
245.1061931586616
 21
202.5692520371594
 31
0.0
 12
244.9978598253283
 22
203.2192520371594
 32
0.0
 13
244.9978598253283
 23
203.2192520371594
 33
0.0
  0
SOLID
  5
1D0F
330
1BE7
100
AcDbEntity
  8
标注
 48
5.0
100
AcDbTrace
 10
244.8895264919949
 20
185.3653520371487
 30
0.0
 11
245.1061931586616
 21
185.3653520371487
 31
0.0
 12
244.9978598253282
 22
184.7153520371487
 32
0.0
 13
244.9978598253282
 23
184.7153520371487
 33
0.0
  0
MTEXT
  5
1D10
330
1BE7
100
AcDbEntity
  8
标注
 48
5.0
100
AcDbMText
 10
244.9978598253282
 20
193.9673020371541
 30
0.0
 40
0.65
 41
0.0
 71
     5
 72
     1
  1
\A1;18 1/2"
 11
0.0000000000000001
 21
1.0
 31
0.0
 73
     1
 44
1.0
1001
ACAD
1000
MTEXTBEGIN
1070
    73
1070
     1
1070
    44
1040
1.0
1070
    74
1070
     0
1000
MTEXTEND
  0
POINT
  5
1D11
330
1BE7
100
AcDbEntity
  8
Defpoints
 62
     0
 48
5.0
100
AcDbPoint
 10
237.1235828314982
 20
203.2192520371594
 30
0.0
  0
POINT
  5
1D12
330
1BE7
100
AcDbEntity
  8
Defpoints
 62
     0
 48
5.0
100
AcDbPoint
 10
237.1235828314982
 20
184.7153520371487
 30
0.0
  0
POINT
  5
1D13
330
1BE7
100
AcDbEntity
  8
Defpoints
 62
     0
 48
5.0
100
AcDbPoint
 10
244.9978598253282
 20
184.7153520371487
 30
0.0
  0
ENDBLK
  5
1BE9
330
1BE7
100
AcDbEntity
  8
0
100
AcDbBlockEnd
  0
BLOCK
  5
1BF5
330
1BF4
100
AcDbEntity
  8
0
100
AcDbBlockBegin
  2
*D22
 70
     1
 10
0.0
 20
0.0
 30
0.0
  3
*D22
  1

  0
LINE
  5
1D32
330
1BF4
100
AcDbEntity
  8
标注
 48
5.0
370
    -2
100
AcDbLine
 10
213.5015828315097
 20
193.087302037154
 30
0.0
 11
213.5015828315097
 21
182.9139929579438
 31
0.0
  0
LINE
  5
1D33
330
1BF4
100
AcDbEntity
  8
标注
 48
5.0
370
    -2
100
AcDbLine
 10
226.4936828314983
 20
193.087302037154
 30
0.0
 11
226.4936828314983
 21
182.9139929579438
 31
0.0
  0
LINE
  5
1D34
330
1BF4
100
AcDbEntity
  8
标注
 48
5.0
370
    -2
100
AcDbLine
 10
214.1515828315097
 20
183.2339929579438
 30
0.0
 11
219.1945772759485
 21
183.2339929579438
 31
0.0
  0
LINE
  5
1D35
330
1BF4
100
AcDbEntity
  8
标注
 48
5.0
370
    -2
100
AcDbLine
 10
225.8436828314983
 20
183.2339929579438
 30
0.0
 11
220.8006883870595
 21
183.2339929579438
 31
0.0
  0
SOLID
  5
1D36
330
1BF4
100
AcDbEntity
  8
标注
 48
5.0
100
AcDbTrace
 10
214.1515828315097
 20
183.3423262912771
 30
0.0
 11
214.1515828315097
 21
183.1256596246105
 31
0.0
 12
213.5015828315097
 22
183.2339929579438
 32
0.0
 13
213.5015828315097
 23
183.2339929579438
 33
0.0
  0
SOLID
  5
1D37
330
1BF4
100
AcDbEntity
  8
标注
 48
5.0
100
AcDbTrace
 10
225.8436828314983
 20
183.3423262912771
 30
0.0
 11
225.8436828314983
 21
183.1256596246105
 31
0.0
 12
226.4936828314983
 22
183.2339929579438
 32
0.0
 13
226.4936828314983
 23
183.2339929579438
 33
0.0
  0
MTEXT
  5
1D38
330
1BF4
100
AcDbEntity
  8
标注
 48
5.0
100
AcDbMText
 10
219.997632831504
 20
183.2339929579438
 30
0.0
 40
0.65
 41
0.0
 71
     5
 72
     1
  1
\A1;13"
 73
     1
 44
1.0
1001
ACAD
1000
MTEXTBEGIN
1070
    73
1070
     1
1070
    44
1040
1.0
1070
    74
1070
     0
1000
MTEXTEND
  0
POINT
  5
1D39
330
1BF4
100
AcDbEntity
  8
Defpoints
 62
     0
 48
5.0
100
AcDbPoint
 10
213.5015828315097
 20
193.967302037154
 30
0.0
  0
POINT
  5
1D3A
330
1BF4
100
AcDbEntity
  8
Defpoints
 62
     0
 48
5.0
100
AcDbPoint
 10
226.4936828314983
 20
193.967302037154
 30
0.0
  0
POINT
  5
1D3B
330
1BF4
100
AcDbEntity
  8
Defpoints
 62
     0
 48
5.0
100
AcDbPoint
 10
226.4936828314983
 20
183.2339929579438
 30
0.0
  0
ENDBLK
  5
1BF6
330
1BF4
100
AcDbEntity
  8
0
100
AcDbBlockEnd
  0
BLOCK
  5
1C02
330
1C01
100
AcDbEntity
  8
0
100
AcDbBlockBegin
  2
*D23
 70
     1
 10
0.0
 20
0.0
 30
0.0
  3
*D23
  1

  0
LINE
  5
1D1E
330
1C01
100
AcDbEntity
  8
标注
 48
5.0
370
    -2
100
AcDbLine
 10
227.6747828314999
 20
193.087302037154
 30
0.0
 11
227.6747828314999
 21
182.9139130925599
 31
0.0
  0
LINE
  5
1D1F
330
1C01
100
AcDbEntity
  8
标注
 48
5.0
370
    -2
100
AcDbLine
 10
240.666882831503
 20
193.087302037154
 30
0.0
 11
240.666882831503
 21
182.9139130925599
 31
0.0
  0
LINE
  5
1D20
330
1C01
100
AcDbEntity
  8
标注
 48
5.0
370
    -2
100
AcDbLine
 10
228.3247828314999
 20
183.2339130925599
 30
0.0
 11
233.3677772759459
 21
183.2339130925599
 31
0.0
  0
LINE
  5
1D21
330
1C01
100
AcDbEntity
  8
标注
 48
5.0
370
    -2
100
AcDbLine
 10
240.016882831503
 20
183.2339130925599
 30
0.0
 11
234.973888387057
 21
183.2339130925599
 31
0.0
  0
SOLID
  5
1D22
330
1C01
100
AcDbEntity
  8
标注
 48
5.0
100
AcDbTrace
 10
228.3247828314999
 20
183.3422464258932
 30
0.0
 11
228.3247828314999
 21
183.1255797592266
 31
0.0
 12
227.6747828314999
 22
183.2339130925599
 32
0.0
 13
227.6747828314999
 23
183.2339130925599
 33
0.0
  0
SOLID
  5
1D23
330
1C01
100
AcDbEntity
  8
标注
 48
5.0
100
AcDbTrace
 10
240.016882831503
 20
183.3422464258932
 30
0.0
 11
240.016882831503
 21
183.1255797592266
 31
0.0
 12
240.666882831503
 22
183.2339130925599
 32
0.0
 13
240.666882831503
 23
183.2339130925599
 33
0.0
  0
MTEXT
  5
1D24
330
1C01
100
AcDbEntity
  8
标注
 48
5.0
100
AcDbMText
 10
234.1708328315014
 20
183.2339130925599
 30
0.0
 40
0.65
 41
0.0
 71
     5
 72
     1
  1
\A1;13"
 73
     1
 44
1.0
1001
ACAD
1000
MTEXTBEGIN
1070
    73
1070
     1
1070
    44
1040
1.0
1070
    74
1070
     0
1000
MTEXTEND
  0
POINT
  5
1D25
330
1C01
100
AcDbEntity
  8
Defpoints
 62
     0
 48
5.0
100
AcDbPoint
 10
227.6747828314999
 20
193.967302037154
 30
0.0
  0
POINT
  5
1D26
330
1C01
100
AcDbEntity
  8
Defpoints
 62
     0
 48
5.0
100
AcDbPoint
 10
240.666882831503
 20
193.967302037154
 30
0.0
  0
POINT
  5
1D27
330
1C01
100
AcDbEntity
  8
Defpoints
 62
     0
 48
5.0
100
AcDbPoint
 10
240.666882831503
 20
183.2339130925599
 30
0.0
  0
ENDBLK
  5
1C03
330
1C01
100
AcDbEntity
  8
0
100
AcDbBlockEnd
  0
BLOCK
  5
1C0F
330
1C0E
100
AcDbEntity
  8
0
100
AcDbBlockBegin
  2
*D24
 70
     1
 10
0.0
 20
0.0
 30
0.0
  3
*D24
  1

  0
LINE
  5
1D3C
330
1C0E
100
AcDbEntity
  8
标注
 48
5.0
370
    -2
100
AcDbLine
 10
211.6373328315011
 20
221.330751714281
 30
0.0
 11
210.4563713659676
 21
221.330751714281
 31
0.0
  0
LINE
  5
1D3D
330
1C0E
100
AcDbEntity
  8
标注
 48
5.0
370
    -2
100
AcDbLine
 10
216.952460819687
 20
213.3386417142891
 30
0.0
 11
210.4563713659676
 21
213.3386417142891
 31
0.0
  0
LINE
  5
1D3E
330
1C0E
100
AcDbEntity
  8
标注
 48
5.0
370
    -2
100
AcDbLine
 10
210.7763713659676
 20
220.680751714281
 30
0.0
 11
210.7763713659676
 21
217.9391411587295
 31
0.0
  0
LINE
  5
1D3F
330
1C0E
100
AcDbEntity
  8
标注
 48
5.0
370
    -2
100
AcDbLine
 10
210.7763713659676
 20
213.9886417142891
 30
0.0
 11
210.7763713659676
 21
216.7302522698406
 31
0.0
  0
SOLID
  5
1D40
330
1C0E
100
AcDbEntity
  8
标注
 48
5.0
100
AcDbTrace
 10
210.6680380326343
 20
220.680751714281
 30
0.0
 11
210.8847046993009
 21
220.680751714281
 31
0.0
 12
210.7763713659676
 22
221.330751714281
 32
0.0
 13
210.7763713659676
 23
221.330751714281
 33
0.0
  0
SOLID
  5
1D41
330
1C0E
100
AcDbEntity
  8
标注
 48
5.0
100
AcDbTrace
 10
210.6680380326343
 20
213.9886417142891
 30
0.0
 11
210.8847046993009
 21
213.9886417142891
 31
0.0
 12
210.7763713659676
 22
213.3386417142891
 32
0.0
 13
210.7763713659676
 23
213.3386417142891
 33
0.0
  0
MTEXT
  5
1D42
330
1C0E
100
AcDbEntity
  8
标注
 48
5.0
100
AcDbMText
 10
210.7763713659676
 20
217.3346967142851
 30
0.0
 40
0.65
 41
0.0
 71
     5
 72
     1
  1
\A1;8"
 11
0.0000000000000001
 21
1.0
 31
0.0
 73
     1
 44
1.0
1001
ACAD
1000
MTEXTBEGIN
1070
    73
1070
     1
1070
    44
1040
1.0
1070
    74
1070
     0
1000
MTEXTEND
  0
POINT
  5
1D43
330
1C0E
100
AcDbEntity
  8
Defpoints
 62
     0
 48
5.0
100
AcDbPoint
 10
212.5173328315011
 20
221.330751714281
 30
0.0
  0
POINT
  5
1D44
330
1C0E
100
AcDbEntity
  8
Defpoints
 62
     0
 48
5.0
100
AcDbPoint
 10
217.832460819687
 20
213.3386417142891
 30
0.0
  0
POINT
  5
1D45
330
1C0E
100
AcDbEntity
  8
Defpoints
 62
     0
 48
5.0
100
AcDbPoint
 10
210.7763713659676
 20
213.3386417142891
 30
0.0
  0
ENDBLK
  5
1C10
330
1C0E
100
AcDbEntity
  8
0
100
AcDbBlockEnd
  0
BLOCK
  5
1C95
330
1C94
100
AcDbEntity
  8
0
100
AcDbBlockBegin
  2
*D25
 70
     1
 10
0.0
 20
0.0
 30
0.0
  3
*D25
  1

  0
LINE
  5
1D46
330
1C94
100
AcDbEntity
  8
标注
 48
5.0
370
    -2
100
AcDbLine
 10
242.5311328314972
 20
221.3307517142809
 30
0.0
 11
243.7120942970306
 21
221.3307517142809
 31
0.0
  0
LINE
  5
1D47
330
1C94
100
AcDbEntity
  8
标注
 48
5.0
370
    -2
100
AcDbLine
 10
237.2160048433113
 20
213.338641714289
 30
0.0
 11
243.7120942970306
 21
213.338641714289
 31
0.0
  0
LINE
  5
1D48
330
1C94
100
AcDbEntity
  8
标注
 48
5.0
370
    -2
100
AcDbLine
 10
243.3920942970306
 20
220.6807517142809
 30
0.0
 11
243.3920942970306
 21
217.9391411587294
 31
0.0
  0
LINE
  5
1D49
330
1C94
100
AcDbEntity
  8
标注
 48
5.0
370
    -2
100
AcDbLine
 10
243.3920942970306
 20
213.988641714289
 30
0.0
 11
243.3920942970306
 21
216.7302522698405
 31
0.0
  0
SOLID
  5
1D4A
330
1C94
100
AcDbEntity
  8
标注
 48
5.0
100
AcDbTrace
 10
243.2837609636973
 20
220.6807517142809
 30
0.0
 11
243.5004276303639
 21
220.6807517142809
 31
0.0
 12
243.3920942970306
 22
221.3307517142809
 32
0.0
 13
243.3920942970306
 23
221.3307517142809
 33
0.0
  0
SOLID
  5
1D4B
330
1C94
100
AcDbEntity
  8
标注
 48
5.0
100
AcDbTrace
 10
243.2837609636973
 20
213.988641714289
 30
0.0
 11
243.5004276303639
 21
213.988641714289
 31
0.0
 12
243.3920942970306
 22
213.338641714289
 32
0.0
 13
243.3920942970306
 23
213.338641714289
 33
0.0
  0
MTEXT
  5
1D4C
330
1C94
100
AcDbEntity
  8
标注
 48
5.0
100
AcDbMText
 10
243.3920942970305
 20
217.334696714285
 30
0.0
 40
0.65
 41
0.0
 71
     5
 72
     1
  1
\A1;8"
 11
0.0000000000000001
 21
1.0
 31
0.0
 73
     1
 44
1.0
1001
ACAD
1000
MTEXTBEGIN
1070
    73
1070
     1
1070
    44
1040
1.0
1070
    74
1070
     0
1000
MTEXTEND
  0
POINT
  5
1D4D
330
1C94
100
AcDbEntity
  8
Defpoints
 62
     0
 48
5.0
100
AcDbPoint
 10
241.6511328314971
 20
221.3307517142809
 30
0.0
  0
POINT
  5
1D4E
330
1C94
100
AcDbEntity
  8
Defpoints
 62
     0
 48
5.0
100
AcDbPoint
 10
236.3360048433113
 20
213.338641714289
 30
0.0
  0
POINT
  5
1D4F
330
1C94
100
AcDbEntity
  8
Defpoints
 62
     0
 48
5.0
100
AcDbPoint
 10
243.3920942970306
 20
213.338641714289
 30
0.0
  0
ENDBLK
  5
1C96
330
1C94
100
AcDbEntity
  8
0
100
AcDbBlockEnd
  0
BLOCK
  5
1E88
330
1E87
100
AcDbEntity
  8
0
370
    -3
100
AcDbBlockBegin
  2
*D30
 70
     1
 10
0.0
 20
0.0
 30
0.0
  3
*D30
  1

  0
LINE
  5
1E89
330
1E87
100
AcDbEntity
  8
0
  6
Continuous
 62
     3
370
     9
100
AcDbLine
 10
17826.64275553337
 20
-11373.30959709114
 30
0.0
 11
17826.64275553337
 21
-11381.15486020067
 31
0.0
  0
LINE
  5
1E8A
330
1E87
100
AcDbEntity
  8
0
  6
Continuous
 62
     3
370
     9
100
AcDbLine
 10
17842.62697553337
 20
-11373.30959709114
 30
0.0
 11
17842.62697553337
 21
-11381.15486020067
 31
0.0
  0
LINE
  5
1E8B
330
1E87
100
AcDbEntity
  8
0
  6
Continuous
 62
     3
370
     9
100
AcDbLine
 10
17811.64275553337
 20
-11378.15486020067
 30
0.0
 11
17796.64275553337
 21
-11378.15486020067
 31
0.0
  0
LINE
  5
1E8C
330
1E87
100
AcDbEntity
  8
0
  6
Continuous
 62
     3
370
     9
100
AcDbLine
 10
17857.62697553337
 20
-11378.15486020067
 30
0.0
 11
17900.40475331115
 21
-11378.15486020067
 31
0.0
  0
LINE
  5
1E8D
330
1E87
100
AcDbEntity
  8
0
  6
Continuous
 62
     3
370
     9
100
AcDbLine
 10
17826.64275553337
 20
-11378.15486020067
 30
0.0
 11
17842.62697553337
 21
-11378.15486020067
 31
0.0
  0
SOLID
  5
1E8E
330
1E87
100
AcDbEntity
  8
0
 62
     3
370
    -3
100
AcDbTrace
 10
17811.64275553337
 20
-11375.65486020067
 30
0.0
 11
17811.64275553337
 21
-11380.65486020068
 31
0.0
 12
17826.64275553337
 22
-11378.15486020067
 32
0.0
 13
17826.64275553337
 23
-11378.15486020067
 33
0.0
  0
SOLID
  5
1E8F
330
1E87
100
AcDbEntity
  8
0
 62
     3
370
    -3
100
AcDbTrace
 10
17857.62697553337
 20
-11375.65486020067
 30
0.0
 11
17857.62697553337
 21
-11380.65486020068
 31
0.0
 12
17842.62697553337
 22
-11378.15486020067
 32
0.0
 13
17842.62697553337
 23
-11378.15486020067
 33
0.0
  0
MTEXT
  5
1E90
330
1E87
100
AcDbEntity
  8
0
 62
     3
370
    -3
100
AcDbMText
 10
17886.51586442226
 20
-11366.15486020067
 30
0.0
 40
20.0
 41
0.0
 71
     5
 72
     1
  1
16
 73
     1
 44
1.0
1001
ACAD
1000
MTEXTBEGIN
1070
    73
1070
     1
1070
    44
1040
1.0
1070
    74
1070
     0
1000
MTEXTEND
  0
POINT
  5
1E91
330
1E87
100
AcDbEntity
  8
Defpoints
 62
     0
370
    -3
100
AcDbPoint
 10
17826.64275553337
 20
-11370.30959709114
 30
0.0
  0
POINT
  5
1E92
330
1E87
100
AcDbEntity
  8
Defpoints
 62
     0
370
    -3
100
AcDbPoint
 10
17842.62697553337
 20
-11370.30959709114
 30
0.0
  0
POINT
  5
1E93
330
1E87
100
AcDbEntity
  8
Defpoints
 62
     0
370
    -3
100
AcDbPoint
 10
17842.62697553337
 20
-11378.15486020067
 30
0.0
  0
ENDBLK
  5
1E94
330
1E87
100
AcDbEntity
  8
0
370
    -3
100
AcDbBlockEnd
  0
BLOCK
  5
1E96
330
1E95
100
AcDbEntity
  8
0
370
    -3
100
AcDbBlockBegin
  2
*D31
 70
     1
 10
0.0
 20
0.0
 30
0.0
  3
*D31
  1

  0
LINE
  5
1E97
330
1E95
100
AcDbEntity
  8
0
  6
Continuous
 62
     3
370
     9
100
AcDbLine
 10
17827.64669053337
 20
-11369.84503709114
 30
0.0
 11
17827.64669053337
 21
-11379.66382753432
 31
0.0
  0
LINE
  5
1E98
330
1E95
100
AcDbEntity
  8
0
  6
Continuous
 62
     3
370
     9
100
AcDbLine
 10
17841.62304053337
 20
-11369.84503709114
 30
0.0
 11
17841.62304053337
 21
-11379.66382753432
 31
0.0
  0
LINE
  5
1E99
330
1E95
100
AcDbEntity
  8
0
  6
Continuous
 62
     3
370
     9
100
AcDbLine
 10
17812.64669053337
 20
-11376.66382753433
 30
0.0
 11
17797.64669053337
 21
-11376.66382753433
 31
0.0
  0
LINE
  5
1E9A
330
1E95
100
AcDbEntity
  8
0
  6
Continuous
 62
     3
370
     9
100
AcDbLine
 10
17856.62304053337
 20
-11376.66382753433
 30
0.0
 11
17899.84526275559
 21
-11376.66382753433
 31
0.0
  0
LINE
  5
1E9B
330
1E95
100
AcDbEntity
  8
0
  6
Continuous
 62
     3
370
     9
100
AcDbLine
 10
17827.64669053337
 20
-11376.66382753433
 30
0.0
 11
17841.62304053337
 21
-11376.66382753433
 31
0.0
  0
SOLID
  5
1E9C
330
1E95
100
AcDbEntity
  8
0
 62
     3
370
    -3
100
AcDbTrace
 10
17812.64669053337
 20
-11374.16382753432
 30
0.0
 11
17812.64669053337
 21
-11379.16382753432
 31
0.0
 12
17827.64669053337
 22
-11376.66382753433
 32
0.0
 13
17827.64669053337
 23
-11376.66382753433
 33
0.0
  0
SOLID
  5
1E9D
330
1E95
100
AcDbEntity
  8
0
 62
     3
370
    -3
100
AcDbTrace
 10
17856.62304053337
 20
-11374.16382753432
 30
0.0
 11
17856.62304053337
 21
-11379.16382753432
 31
0.0
 12
17841.62304053337
 22
-11376.66382753433
 32
0.0
 13
17841.62304053337
 23
-11376.66382753433
 33
0.0
  0
MTEXT
  5
1E9E
330
1E95
100
AcDbEntity
  8
0
 62
     3
370
    -3
100
AcDbMText
 10
17885.73415164448
 20
-11364.66382753432
 30
0.0
 40
20.0
 41
0.0
 71
     5
 72
     1
  1
14
 73
     1
 44
1.0
1001
ACAD
1000
MTEXTBEGIN
1070
    73
1070
     1
1070
    44
1040
1.0
1070
    74
1070
     0
1000
MTEXTEND
  0
POINT
  5
1E9F
330
1E95
100
AcDbEntity
  8
Defpoints
 62
     0
370
    -3
100
AcDbPoint
 10
17827.64669053337
 20
-11366.84503709114
 30
0.0
  0
POINT
  5
1EA0
330
1E95
100
AcDbEntity
  8
Defpoints
 62
     0
370
    -3
100
AcDbPoint
 10
17841.62304053337
 20
-11366.84503709114
 30
0.0
  0
POINT
  5
1EA1
330
1E95
100
AcDbEntity
  8
Defpoints
 62
     0
370
    -3
100
AcDbPoint
 10
17841.62304053337
 20
-11376.66382753433
 30
0.0
  0
ENDBLK
  5
1EA2
330
1E95
100
AcDbEntity
  8
0
370
    -3
100
AcDbBlockEnd
  0
BLOCK
  5
1EA4
330
1EA3
100
AcDbEntity
  8
0
370
    -3
100
AcDbBlockBegin
  2
*D32
 70
     1
 10
0.0
 20
0.0
 30
0.0
  3
*D32
  1

  0
LINE
  5
1EA5
330
1EA3
100
AcDbEntity
  8
0
  6
Continuous
 62
     3
370
     9
100
AcDbLine
 10
17837.63486553336
 20
-11373.83321209114
 30
0.0
 11
17847.39262158864
 21
-11373.83321209114
 31
0.0
  0
LINE
  5
1EA6
330
1EA3
100
AcDbEntity
  8
0
  6
Continuous
 62
     3
370
     9
100
AcDbLine
 10
17837.63486553335
 20
-11359.85686209114
 30
0.0
 11
17847.39262158864
 21
-11359.85686209114
 31
0.0
  0
LINE
  5
1EA7
330
1EA3
100
AcDbEntity
  8
0
  6
Continuous
 62
     3
370
     9
100
AcDbLine
 10
17844.39262158864
 20
-11388.83321209114
 30
0.0
 11
17844.39262158864
 21
-11403.83321209114
 31
0.0
  0
LINE
  5
1EA8
330
1EA3
100
AcDbEntity
  8
0
  6
Continuous
 62
     3
370
     9
100
AcDbLine
 10
17844.39262158864
 20
-11344.85686209114
 30
0.0
 11
17844.39262158864
 21
-11301.63463986892
 31
0.0
  0
LINE
  5
1EA9
330
1EA3
100
AcDbEntity
  8
0
  6
Continuous
 62
     3
370
     9
100
AcDbLine
 10
17844.39262158864
 20
-11373.83321209114
 30
0.0
 11
17844.39262158864
 21
-11359.85686209114
 31
0.0
  0
SOLID
  5
1EAA
330
1EA3
100
AcDbEntity
  8
0
 62
     3
370
    -3
100
AcDbTrace
 10
17841.89262158864
 20
-11388.83321209114
 30
0.0
 11
17846.89262158864
 21
-11388.83321209114
 31
0.0
 12
17844.39262158864
 22
-11373.83321209114
 32
0.0
 13
17844.39262158864
 23
-11373.83321209114
 33
0.0
  0
SOLID
  5
1EAB
330
1EA3
100
AcDbEntity
  8
0
 62
     3
370
    -3
100
AcDbTrace
 10
17841.89262158864
 20
-11344.85686209114
 30
0.0
 11
17846.89262158864
 21
-11344.85686209114
 31
0.0
 12
17844.39262158864
 22
-11359.85686209114
 32
0.0
 13
17844.39262158864
 23
-11359.85686209114
 33
0.0
  0
MTEXT
  5
1EAC
330
1EA3
100
AcDbEntity
  8
0
 62
     3
370
    -3
100
AcDbMText
 10
17832.39262158864
 20
-11315.74575098003
 30
0.0
 40
20.0
 41
0.0
 71
     5
 72
     1
  1
14
 11
0.0000000000000001
 21
1.0
 31
0.0
 73
     1
 44
1.0
1001
ACAD
1000
MTEXTBEGIN
1070
    73
1070
     1
1070
    44
1040
1.0
1070
    74
1070
     0
1000
MTEXTEND
  0
POINT
  5
1EAD
330
1EA3
100
AcDbEntity
  8
Defpoints
 62
     0
370
    -3
100
AcDbPoint
 10
17834.63486553336
 20
-11373.83321209114
 30
0.0
  0
POINT
  5
1EAE
330
1EA3
100
AcDbEntity
  8
Defpoints
 62
     0
370
    -3
100
AcDbPoint
 10
17834.63486553335
 20
-11359.85686209114
 30
0.0
  0
POINT
  5
1EAF
330
1EA3
100
AcDbEntity
  8
Defpoints
 62
     0
370
    -3
100
AcDbPoint
 10
17844.39262158864
 20
-11359.85686209114
 30
0.0
  0
ENDBLK
  5
1EB0
330
1EA3
100
AcDbEntity
  8
0
370
    -3
100
AcDbBlockEnd
  0
BLOCK
  5
1EB2
330
1EB1
100
AcDbEntity
  8
0
370
    -3
100
AcDbBlockBegin
  2
*D33
 70
     1
 10
0.0
 20
0.0
 30
0.0
  3
*D33
  1

  0
LINE
  5
1EB3
330
1EB1
100
AcDbEntity
  8
0
  6
Continuous
 62
     3
370
     9
100
AcDbLine
 10
17841.09942553337
 20
-11374.83714709114
 30
0.0
 11
17849.21647215518
 21
-11374.83714709114
 31
0.0
  0
LINE
  5
1EB4
330
1EB1
100
AcDbEntity
  8
0
  6
Continuous
 62
     3
370
     9
100
AcDbLine
 10
17841.09942553337
 20
-11358.85292709114
 30
0.0
 11
17849.21647215518
 21
-11358.85292709114
 31
0.0
  0
LINE
  5
1EB5
330
1EB1
100
AcDbEntity
  8
0
  6
Continuous
 62
     3
370
     9
100
AcDbLine
 10
17846.21647215518
 20
-11389.83714709114
 30
0.0
 11
17846.21647215518
 21
-11404.83714709114
 31
0.0
  0
LINE
  5
1EB6
330
1EB1
100
AcDbEntity
  8
0
  6
Continuous
 62
     3
370
     9
100
AcDbLine
 10
17846.21647215518
 20
-11343.85292709114
 30
0.0
 11
17846.21647215518
 21
-11301.07514931336
 31
0.0
  0
LINE
  5
1EB7
330
1EB1
100
AcDbEntity
  8
0
  6
Continuous
 62
     3
370
     9
100
AcDbLine
 10
17846.21647215518
 20
-11374.83714709114
 30
0.0
 11
17846.21647215518
 21
-11358.85292709114
 31
0.0
  0
SOLID
  5
1EB8
330
1EB1
100
AcDbEntity
  8
0
 62
     3
370
    -3
100
AcDbTrace
 10
17843.71647215518
 20
-11389.83714709114
 30
0.0
 11
17848.71647215518
 21
-11389.83714709114
 31
0.0
 12
17846.21647215518
 22
-11374.83714709114
 32
0.0
 13
17846.21647215518
 23
-11374.83714709114
 33
0.0
  0
SOLID
  5
1EB9
330
1EB1
100
AcDbEntity
  8
0
 62
     3
370
    -3
100
AcDbTrace
 10
17843.71647215518
 20
-11343.85292709114
 30
0.0
 11
17848.71647215518
 21
-11343.85292709114
 31
0.0
 12
17846.21647215518
 22
-11358.85292709114
 32
0.0
 13
17846.21647215518
 23
-11358.85292709114
 33
0.0
  0
MTEXT
  5
1EBA
330
1EB1
100
AcDbEntity
  8
0
 62
     3
370
    -3
100
AcDbMText
 10
17834.21647215518
 20
-11314.96403820225
 30
0.0
 40
20.0
 41
0.0
 71
     5
 72
     1
  1
16
 11
0.0000000000000001
 21
1.0
 31
0.0
 73
     1
 44
1.0
1001
ACAD
1000
MTEXTBEGIN
1070
    73
1070
     1
1070
    44
1040
1.0
1070
    74
1070
     0
1000
MTEXTEND
  0
POINT
  5
1EBB
330
1EB1
100
AcDbEntity
  8
Defpoints
 62
     0
370
    -3
100
AcDbPoint
 10
17838.09942553337
 20
-11374.83714709114
 30
0.0
  0
POINT
  5
1EBC
330
1EB1
100
AcDbEntity
  8
Defpoints
 62
     0
370
    -3
100
AcDbPoint
 10
17838.09942553337
 20
-11358.85292709114
 30
0.0
  0
POINT
  5
1EBD
330
1EB1
100
AcDbEntity
  8
Defpoints
 62
     0
370
    -3
100
AcDbPoint
 10
17846.21647215518
 20
-11358.85292709114
 30
0.0
  0
ENDBLK
  5
1EBE
330
1EB1
100
AcDbEntity
  8
0
370
    -3
100
AcDbBlockEnd
  0
BLOCK
  5
1EC0
330
1EBF
100
AcDbEntity
  8
0
370
    -3
100
AcDbBlockBegin
  2
*D34
 70
     1
 10
0.0
 20
0.0
 30
0.0
  3
*D34
  1

  0
LINE
  5
1EC1
330
1EBF
100
AcDbEntity
  8
0
  6
Continuous
 62
     3
370
     9
100
AcDbLine
 10
17839.99706553335
 20
-11352.3752678424
 30
0.0
 11
17847.40114644997
 21
-11352.3752678424
 31
0.0
  0
LINE
  5
1EC2
330
1EBF
100
AcDbEntity
  8
0
  6
Continuous
 62
     3
370
     9
100
AcDbLine
 10
17845.62697553335
 20
-11344.3752838424
 30
0.0
 11
17847.40114644997
 21
-11344.3752838424
 31
0.0
  0
LINE
  5
1EC3
330
1EBF
100
AcDbEntity
  8
0
  6
Continuous
 62
     3
370
     9
100
AcDbLine
 10
17844.40114644997
 20
-11367.3752678424
 30
0.0
 11
17844.40114644997
 21
-11382.3752678424
 31
0.0
  0
LINE
  5
1EC4
330
1EBF
100
AcDbEntity
  8
0
  6
Continuous
 62
     3
370
     9
100
AcDbLine
 10
17844.40114644997
 20
-11329.3752838424
 30
0.0
 11
17844.40114644997
 21
-11299.04195050907
 31
0.0
  0
LINE
  5
1EC5
330
1EBF
100
AcDbEntity
  8
0
  6
Continuous
 62
     3
370
     9
100
AcDbLine
 10
17844.40114644997
 20
-11352.3752678424
 30
0.0
 11
17844.40114644997
 21
-11344.3752838424
 31
0.0
  0
SOLID
  5
1EC6
330
1EBF
100
AcDbEntity
  8
0
 62
     3
370
    -3
100
AcDbTrace
 10
17841.90114644997
 20
-11367.3752678424
 30
0.0
 11
17846.90114644997
 21
-11367.3752678424
 31
0.0
 12
17844.40114644997
 22
-11352.3752678424
 32
0.0
 13
17844.40114644997
 23
-11352.3752678424
 33
0.0
  0
SOLID
  5
1EC7
330
1EBF
100
AcDbEntity
  8
0
 62
     3
370
    -3
100
AcDbTrace
 10
17841.90114644997
 20
-11329.3752838424
 30
0.0
 11
17846.90114644997
 21
-11329.3752838424
 31
0.0
 12
17844.40114644997
 22
-11344.3752838424
 32
0.0
 13
17844.40114644997
 23
-11344.3752838424
 33
0.0
  0
MTEXT
  5
1EC8
330
1EBF
100
AcDbEntity
  8
0
 62
     3
370
    -3
100
AcDbMText
 10
17832.40114644997
 20
-11306.70861717573
 30
0.0
 40
20.0
 41
0.0
 71
     5
 72
     1
  1
8
 11
0.0000000000000001
 21
1.0
 31
0.0
 73
     1
 44
1.0
1001
ACAD
1000
MTEXTBEGIN
1070
    73
1070
     1
1070
    44
1040
1.0
1070
    74
1070
     0
1000
MTEXTEND
  0
POINT
  5
1EC9
330
1EBF
100
AcDbEntity
  8
Defpoints
 62
     0
370
    -3
100
AcDbPoint
 10
17836.99706553335
 20
-11352.3752678424
 30
0.0
  0
POINT
  5
1ECA
330
1EBF
100
AcDbEntity
  8
Defpoints
 62
     0
370
    -3
100
AcDbPoint
 10
17842.62697553335
 20
-11344.3752838424
 30
0.0
  0
POINT
  5
1ECB
330
1EBF
100
AcDbEntity
  8
Defpoints
 62
     0
370
    -3
100
AcDbPoint
 10
17844.40114644997
 20
-11344.3752838424
 30
0.0
  0
ENDBLK
  5
1ECC
330
1EBF
100
AcDbEntity
  8
0
370
    -3
100
AcDbBlockEnd
  0
BLOCK
  5
1F5B
330
1F5A
100
AcDbEntity
  8
0
100
AcDbBlockBegin
  2
*D36
 70
     1
 10
0.0
 20
0.0
 30
0.0
  3
*D36
  1

  0
LINE
  5
1FFF
330
1F5A
100
AcDbEntity
  8
标注
 48
5.0
370
    -2
100
AcDbLine
 10
292.3883993531808
 20
189.0739081055978
 30
0.0
 11
292.3883993531808
 21
181.7886449960645
 31
0.0
  0
LINE
  5
2000
330
1F5A
100
AcDbEntity
  8
标注
 48
5.0
370
    -2
100
AcDbLine
 10
308.3726193531829
 20
189.0739081055978
 30
0.0
 11
308.3726193531829
 21
181.7886449960645
 31
0.0
  0
LINE
  5
2001
330
1F5A
100
AcDbEntity
  8
标注
 48
5.0
370
    -2
100
AcDbLine
 10
293.0383993531808
 20
182.1086449960645
 30
0.0
 11
299.5774537976263
 21
182.1086449960645
 31
0.0
  0
LINE
  5
2002
330
1F5A
100
AcDbEntity
  8
标注
 48
5.0
370
    -2
100
AcDbLine
 10
307.722619353183
 20
182.1086449960645
 30
0.0
 11
301.1835649087374
 21
182.1086449960645
 31
0.0
  0
SOLID
  5
2003
330
1F5A
100
AcDbEntity
  8
标注
 48
5.0
100
AcDbTrace
 10
293.0383993531808
 20
182.2169783293978
 30
0.0
 11
293.0383993531808
 21
182.0003116627312
 31
0.0
 12
292.3883993531808
 22
182.1086449960645
 32
0.0
 13
292.3883993531808
 23
182.1086449960645
 33
0.0
  0
SOLID
  5
2004
330
1F5A
100
AcDbEntity
  8
标注
 48
5.0
100
AcDbTrace
 10
307.722619353183
 20
182.2169783293978
 30
0.0
 11
307.722619353183
 21
182.0003116627312
 31
0.0
 12
308.3726193531829
 22
182.1086449960645
 32
0.0
 13
308.3726193531829
 23
182.1086449960645
 33
0.0
  0
MTEXT
  5
2005
330
1F5A
100
AcDbEntity
  8
标注
 48
5.0
100
AcDbMText
 10
300.3805093531819
 20
182.1086449960645
 30
0.0
 40
0.65
 41
0.0
 71
     5
 72
     1
  1
\A1;16"
 73
     1
 44
1.0
1001
ACAD
1000
MTEXTBEGIN
1070
    73
1070
     1
1070
    44
1040
1.0
1070
    74
1070
     0
1000
MTEXTEND
  0
POINT
  5
2006
330
1F5A
100
AcDbEntity
  8
Defpoints
 62
     0
 48
5.0
100
AcDbPoint
 10
292.3883993531808
 20
189.9539081055978
 30
0.0
  0
POINT
  5
2007
330
1F5A
100
AcDbEntity
  8
Defpoints
 62
     0
 48
5.0
100
AcDbPoint
 10
308.3726193531829
 20
189.9539081055978
 30
0.0
  0
POINT
  5
2008
330
1F5A
100
AcDbEntity
  8
Defpoints
 62
     0
 48
5.0
100
AcDbPoint
 10
308.3726193531829
 20
182.1086449960645
 30
0.0
  0
ENDBLK
  5
1F5C
330
1F5A
100
AcDbEntity
  8
0
100
AcDbBlockEnd
  0
BLOCK
  5
1F69
330
1F68
100
AcDbEntity
  8
0
100
AcDbBlockBegin
  2
*D37
 70
     1
 10
0.0
 20
0.0
 30
0.0
  3
*D37
  1

  0
LINE
  5
1FF5
330
1F68
100
AcDbEntity
  8
标注
 48
5.0
370
    -2
100
AcDbLine
 10
293.3923343531778
 20
192.5384681055964
 30
0.0
 11
293.3923343531778
 21
183.2796776624148
 31
0.0
  0
LINE
  5
1FF6
330
1F68
100
AcDbEntity
  8
标注
 48
5.0
370
    -2
100
AcDbLine
 10
307.3686843531787
 20
192.5384681055964
 30
0.0
 11
307.3686843531787
 21
183.2796776624148
 31
0.0
  0
LINE
  5
1FF7
330
1F68
100
AcDbEntity
  8
标注
 48
5.0
370
    -2
100
AcDbLine
 10
294.0423343531778
 20
183.5996776624148
 30
0.0
 11
299.5774537976227
 21
183.5996776624148
 31
0.0
  0
LINE
  5
1FF8
330
1F68
100
AcDbEntity
  8
标注
 48
5.0
370
    -2
100
AcDbLine
 10
306.7186843531787
 20
183.5996776624148
 30
0.0
 11
301.1835649087338
 21
183.5996776624148
 31
0.0
  0
SOLID
  5
1FF9
330
1F68
100
AcDbEntity
  8
标注
 48
5.0
100
AcDbTrace
 10
294.0423343531778
 20
183.7080109957481
 30
0.0
 11
294.0423343531778
 21
183.4913443290815
 31
0.0
 12
293.3923343531778
 22
183.5996776624148
 32
0.0
 13
293.3923343531778
 23
183.5996776624148
 33
0.0
  0
SOLID
  5
1FFA
330
1F68
100
AcDbEntity
  8
标注
 48
5.0
100
AcDbTrace
 10
306.7186843531787
 20
183.7080109957481
 30
0.0
 11
306.7186843531787
 21
183.4913443290815
 31
0.0
 12
307.3686843531787
 22
183.5996776624148
 32
0.0
 13
307.3686843531787
 23
183.5996776624148
 33
0.0
  0
MTEXT
  5
1FFB
330
1F68
100
AcDbEntity
  8
标注
 48
5.0
100
AcDbMText
 10
300.3805093531783
 20
183.5996776624148
 30
0.0
 40
0.65
 41
0.0
 71
     5
 72
     1
  1
\A1;14"
 73
     1
 44
1.0
1001
ACAD
1000
MTEXTBEGIN
1070
    73
1070
     1
1070
    44
1040
1.0
1070
    74
1070
     0
1000
MTEXTEND
  0
POINT
  5
1FFC
330
1F68
100
AcDbEntity
  8
Defpoints
 62
     0
 48
5.0
100
AcDbPoint
 10
293.3923343531778
 20
193.4184681055964
 30
0.0
  0
POINT
  5
1FFD
330
1F68
100
AcDbEntity
  8
Defpoints
 62
     0
 48
5.0
100
AcDbPoint
 10
307.3686843531787
 20
193.4184681055964
 30
0.0
  0
POINT
  5
1FFE
330
1F68
100
AcDbEntity
  8
Defpoints
 62
     0
 48
5.0
100
AcDbPoint
 10
307.3686843531787
 20
183.5996776624148
 30
0.0
  0
ENDBLK
  5
1F6A
330
1F68
100
AcDbEntity
  8
0
100
AcDbBlockEnd
  0
BLOCK
  5
1F77
330
1F76
100
AcDbEntity
  8
0
100
AcDbBlockBegin
  2
*D38
 70
     1
 10
0.0
 20
0.0
 30
0.0
  3
*D38
  1

  0
LINE
  5
1FEB
330
1F76
100
AcDbEntity
  8
标注
 48
5.0
370
    -2
100
AcDbLine
 10
301.2605093531679
 20
186.4302931055966
 30
0.0
 11
310.4582654084496
 21
186.4302931055966
 31
0.0
  0
LINE
  5
1FEC
330
1F76
100
AcDbEntity
  8
标注
 48
5.0
370
    -2
100
AcDbLine
 10
301.2605093531642
 20
200.4066431055957
 30
0.0
 11
310.4582654084496
 21
200.4066431055957
 31
0.0
  0
LINE
  5
1FED
330
1F76
100
AcDbEntity
  8
标注
 48
5.0
370
    -2
100
AcDbLine
 10
310.1382654084496
 20
187.0802931055966
 30
0.0
 11
310.1382654084496
 21
192.6154125500406
 31
0.0
  0
LINE
  5
1FEE
330
1F76
100
AcDbEntity
  8
标注
 48
5.0
370
    -2
100
AcDbLine
 10
310.1382654084496
 20
199.7566431055956
 30
0.0
 11
310.1382654084496
 21
194.2215236611517
 31
0.0
  0
SOLID
  5
1FEF
330
1F76
100
AcDbEntity
  8
标注
 48
5.0
100
AcDbTrace
 10
310.0299320751163
 20
187.0802931055966
 30
0.0
 11
310.246598741783
 21
187.0802931055966
 31
0.0
 12
310.1382654084496
 22
186.4302931055966
 32
0.0
 13
310.1382654084496
 23
186.4302931055966
 33
0.0
  0
SOLID
  5
1FF0
330
1F76
100
AcDbEntity
  8
标注
 48
5.0
100
AcDbTrace
 10
310.0299320751163
 20
199.7566431055956
 30
0.0
 11
310.246598741783
 21
199.7566431055956
 31
0.0
 12
310.1382654084496
 22
200.4066431055957
 32
0.0
 13
310.1382654084496
 23
200.4066431055957
 33
0.0
  0
MTEXT
  5
1FF1
330
1F76
100
AcDbEntity
  8
标注
 48
5.0
100
AcDbMText
 10
310.1382654084496
 20
193.4184681055962
 30
0.0
 40
0.65
 41
0.0
 71
     5
 72
     1
  1
\A1;14"
 11
0.0000000000000001
 21
1.0
 31
0.0
 73
     1
 44
1.0
1001
ACAD
1000
MTEXTBEGIN
1070
    73
1070
     1
1070
    44
1040
1.0
1070
    74
1070
     0
1000
MTEXTEND
  0
POINT
  5
1FF2
330
1F76
100
AcDbEntity
  8
Defpoints
 62
     0
 48
5.0
100
AcDbPoint
 10
300.3805093531678
 20
186.4302931055966
 30
0.0
  0
POINT
  5
1FF3
330
1F76
100
AcDbEntity
  8
Defpoints
 62
     0
 48
5.0
100
AcDbPoint
 10
300.3805093531642
 20
200.4066431055957
 30
0.0
  0
POINT
  5
1FF4
330
1F76
100
AcDbEntity
  8
Defpoints
 62
     0
 48
5.0
100
AcDbPoint
 10
310.1382654084496
 20
200.4066431055957
 30
0.0
  0
ENDBLK
  5
1F78
330
1F76
100
AcDbEntity
  8
0
100
AcDbBlockEnd
  0
BLOCK
  5
1F85
330
1F84
100
AcDbEntity
  8
0
100
AcDbBlockBegin
  2
*D39
 70
     1
 10
0.0
 20
0.0
 30
0.0
  3
*D39
  1

  0
LINE
  5
1FE1
330
1F84
100
AcDbEntity
  8
标注
 48
5.0
370
    -2
100
AcDbLine
 10
304.7250693531779
 20
185.4263581055978
 30
0.0
 11
312.2821159749879
 21
185.4263581055978
 31
0.0
  0
LINE
  5
1FE2
330
1F84
100
AcDbEntity
  8
标注
 48
5.0
370
    -2
100
AcDbLine
 10
304.7250693531779
 20
201.4105781055981
 30
0.0
 11
312.2821159749879
 21
201.4105781055981
 31
0.0
  0
LINE
  5
1FE3
330
1F84
100
AcDbEntity
  8
标注
 48
5.0
370
    -2
100
AcDbLine
 10
311.9621159749879
 20
186.0763581055979
 30
0.0
 11
311.9621159749879
 21
192.6154125500424
 31
0.0
  0
LINE
  5
1FE4
330
1F84
100
AcDbEntity
  8
标注
 48
5.0
370
    -2
100
AcDbLine
 10
311.9621159749879
 20
200.7605781055981
 30
0.0
 11
311.9621159749879
 21
194.2215236611535
 31
0.0
  0
SOLID
  5
1FE5
330
1F84
100
AcDbEntity
  8
标注
 48
5.0
100
AcDbTrace
 10
311.8537826416546
 20
186.0763581055979
 30
0.0
 11
312.0704493083213
 21
186.0763581055979
 31
0.0
 12
311.9621159749879
 22
185.4263581055978
 32
0.0
 13
311.9621159749879
 23
185.4263581055978
 33
0.0
  0
SOLID
  5
1FE6
330
1F84
100
AcDbEntity
  8
标注
 48
5.0
100
AcDbTrace
 10
311.8537826416546
 20
200.7605781055981
 30
0.0
 11
312.0704493083213
 21
200.7605781055981
 31
0.0
 12
311.9621159749879
 22
201.4105781055981
 32
0.0
 13
311.9621159749879
 23
201.4105781055981
 33
0.0
  0
MTEXT
  5
1FE7
330
1F84
100
AcDbEntity
  8
标注
 48
5.0
100
AcDbMText
 10
311.9621159749879
 20
193.418468105598
 30
0.0
 40
0.65
 41
0.0
 71
     5
 72
     1
  1
\A1;16"
 11
0.0000000000000001
 21
1.0
 31
0.0
 73
     1
 44
1.0
1001
ACAD
1000
MTEXTBEGIN
1070
    73
1070
     1
1070
    44
1040
1.0
1070
    74
1070
     0
1000
MTEXTEND
  0
POINT
  5
1FE8
330
1F84
100
AcDbEntity
  8
Defpoints
 62
     0
 48
5.0
100
AcDbPoint
 10
303.8450693531779
 20
185.4263581055978
 30
0.0
  0
POINT
  5
1FE9
330
1F84
100
AcDbEntity
  8
Defpoints
 62
     0
 48
5.0
100
AcDbPoint
 10
303.8450693531779
 20
201.4105781055981
 30
0.0
  0
POINT
  5
1FEA
330
1F84
100
AcDbEntity
  8
Defpoints
 62
     0
 48
5.0
100
AcDbPoint
 10
311.9621159749879
 20
201.4105781055981
 30
0.0
  0
ENDBLK
  5
1F86
330
1F84
100
AcDbEntity
  8
0
100
AcDbBlockEnd
  0
BLOCK
  5
1F93
330
1F92
100
AcDbEntity
  8
0
100
AcDbBlockBegin
  2
*D40
 70
     1
 10
0.0
 20
0.0
 30
0.0
  3
*D40
  1

  0
LINE
  5
2009
330
1F92
100
AcDbEntity
  8
标注
 48
5.0
370
    -2
100
AcDbLine
 10
303.6227093531591
 20
207.8882373543389
 30
0.0
 11
310.4667902697809
 21
207.8882373543389
 31
0.0
  0
LINE
  5
200A
330
1F92
100
AcDbEntity
  8
标注
 48
5.0
370
    -2
100
AcDbLine
 10
309.2526193531587
 20
215.8882213543389
 30
0.0
 11
310.4667902697809
 21
215.8882213543389
 31
0.0
  0
LINE
  5
200B
330
1F92
100
AcDbEntity
  8
标注
 48
5.0
370
    -2
100
AcDbLine
 10
310.1467902697809
 20
208.5382373543389
 30
0.0
 11
310.1467902697809
 21
211.2837849098945
 31
0.0
  0
LINE
  5
200C
330
1F92
100
AcDbEntity
  8
标注
 48
5.0
370
    -2
100
AcDbLine
 10
310.1467902697809
 20
215.2382213543389
 30
0.0
 11
310.1467902697809
 21
212.4926737987834
 31
0.0
  0
SOLID
  5
200D
330
1F92
100
AcDbEntity
  8
标注
 48
5.0
100
AcDbTrace
 10
310.0384569364475
 20
208.5382373543389
 30
0.0
 11
310.2551236031142
 21
208.5382373543389
 31
0.0
 12
310.1467902697809
 22
207.8882373543389
 32
0.0
 13
310.1467902697809
 23
207.8882373543389
 33
0.0
  0
SOLID
  5
200E
330
1F92
100
AcDbEntity
  8
标注
 48
5.0
100
AcDbTrace
 10
310.0384569364475
 20
215.2382213543389
 30
0.0
 11
310.2551236031142
 21
215.2382213543389
 31
0.0
 12
310.1467902697809
 22
215.8882213543389
 32
0.0
 13
310.1467902697809
 23
215.8882213543389
 33
0.0
  0
MTEXT
  5
200F
330
1F92
100
AcDbEntity
  8
标注
 48
5.0
100
AcDbMText
 10
310.1467902697808
 20
211.888229354339
 30
0.0
 40
0.65
 41
0.0
 71
     5
 72
     1
  1
\A1;8"
 11
0.0000000000000001
 21
1.0
 31
0.0
 73
     1
 44
1.0
1001
ACAD
1000
MTEXTBEGIN
1070
    73
1070
     1
1070
    44
1040
1.0
1070
    74
1070
     0
1000
MTEXTEND
  0
POINT
  5
2010
330
1F92
100
AcDbEntity
  8
Defpoints
 62
     0
 48
5.0
100
AcDbPoint
 10
302.7427093531591
 20
207.8882373543389
 30
0.0
  0
POINT
  5
2011
330
1F92
100
AcDbEntity
  8
Defpoints
 62
     0
 48
5.0
100
AcDbPoint
 10
308.3726193531588
 20
215.8882213543389
 30
0.0
  0
POINT
  5
2012
330
1F92
100
AcDbEntity
  8
Defpoints
 62
     0
 48
5.0
100
AcDbPoint
 10
310.1467902697809
 20
215.8882213543389
 30
0.0
  0
ENDBLK
  5
1F94
330
1F92
100
AcDbEntity
  8
0
100
AcDbBlockEnd
  0
ENDSEC
  0
SECTION
  2
ENTITIES
  0
LINE
  5
1F18
330
21
100
AcDbEntity
  8
0
  6
ByBlock
370
    25
100
AcDbLine
 10
292.3883993531783
 20
196.8830281055967
 30
0.0
 11
292.3883993531783
 21
189.9539081055978
 31
0.0
  0
ARC
  5
1F19
330
21
100
AcDbEntity
  8
0
  6
ByBlock
370
    25
100
AcDbCircle
 10
296.9159493531808
 20
196.8830281055967
 30
0.0
 40
4.52755
100
AcDbArc
 50
90.0
 51
180.0
  0
LINE
  5
1F1A
330
21
100
AcDbEntity
  8
0
  6
ByBlock
370
    25
100
AcDbLine
 10
308.3726193531804
 20
196.8830281055967
 30
0.0
 11
308.3726193531804
 21
189.9539081055978
 31
0.0
  0
ARC
  5
1F1B
102
{ACAD_REACTORS
330
1F39
330
1F42
102
}
330
21
100
AcDbEntity
  8
0
  6
ByBlock
370
    25
100
AcDbCircle
 10
303.8450693531779
 20
189.9539081055978
 30
0.0
 40
4.52755
100
AcDbArc
 50
270.0
 51
0.0
  0
LINE
  5
1F1C
330
21
100
AcDbEntity
  8
0
  6
ByBlock
370
    25
100
AcDbLine
 10
303.8450693531779
 20
185.4263581055971
 30
0.0
 11
296.9159493531808
 21
185.4263581055971
 31
0.0
  0
ARC
  5
1F1D
102
{ACAD_REACTORS
330
1F39
102
}
330
21
100
AcDbEntity
  8
0
  6
ByBlock
370
    25
100
AcDbCircle
 10
296.9159493531808
 20
189.9539081055978
 30
0.0
 40
4.52755
100
AcDbArc
 50
180.0
 51
270.0
  0
LINE
  5
1F1E
102
{ACAD_REACTORS
330
1F42
102
}
330
21
100
AcDbEntity
  8
0
  6
ByBlock
370
    25
100
AcDbLine
 10
303.8450693531779
 20
201.4105781055974
 30
0.0
 11
296.9159493531808
 21
201.4105781055974
 31
0.0
  0
ARC
  5
1F1F
330
21
100
AcDbEntity
  8
0
  6
ByBlock
370
    25
100
AcDbCircle
 10
303.8450693531779
 20
196.8830281055967
 30
0.0
 40
4.52755
100
AcDbArc
 50
0.0
 51
90.0
  0
LINE
  5
1F20
330
21
100
AcDbEntity
  8
0
  6
ByBlock
370
    25
100
AcDbLine
 10
307.176363071547
 20
209.9871604217466
 30
0.0
 11
307.3686843531798
 21
215.4945213543403
 31
0.0
  0
LINE
  5
1F21
330
21
100
AcDbEntity
  8
0
  6
ByBlock
370
    25
100
AcDbLine
 10
307.3686843531798
 20
215.4945213543403
 30
0.0
 11
307.3686843531798
 21
215.7701113543395
 31
0.0
  0
LINE
  5
1F22
330
21
100
AcDbEntity
  8
0
  6
ByBlock
370
    25
100
AcDbLine
 10
293.5846556348153
 20
209.9871604217466
 30
0.0
 11
293.392334353179
 21
215.4945213543403
 31
0.0
  0
LINE
  5
1F23
330
21
100
AcDbEntity
  8
0
  6
ByBlock
370
    25
100
AcDbLine
 10
293.392334353179
 20
215.4945213543403
 30
0.0
 11
293.392334353179
 21
215.7701113543395
 31
0.0
  0
LINE
  5
1F24
330
21
100
AcDbEntity
  8
0
  6
ByBlock
370
    25
100
AcDbLine
 10
292.3883993531783
 20
215.8882213543389
 30
0.0
 11
293.2742243531795
 21
215.8882213543389
 31
0.0
  0
ARC
  5
1F25
330
21
100
AcDbEntity
  8
0
  6
ByBlock
370
    25
100
AcDbCircle
 10
293.2742243531795
 20
215.7701113543395
 30
0.0
 40
0.11811
100
AcDbArc
 50
0.0
 51
90.0
  0
LINE
  5
1F26
102
{ACAD_REACTORS
330
1F48
102
}
330
21
100
AcDbEntity
  8
0
  6
ByBlock
370
    25
100
AcDbLine
 10
307.4867943531792
 20
215.8882213543389
 30
0.0
 11
308.3726193531804
 21
215.8882213543389
 31
0.0
  0
ARC
  5
1F27
330
21
100
AcDbEntity
  8
0
  6
ByBlock
370
    25
100
AcDbCircle
 10
307.4867943531792
 20
215.7701113543395
 30
0.0
 40
0.11811
100
AcDbArc
 50
90.0
 51
180.0
  0
LINE
  5
1F28
102
{ACAD_REACTORS
330
1F48
102
}
330
21
100
AcDbEntity
  8
标注
 62
     7
370
    25
100
AcDbLine
 10
298.018309353178
 20
207.8882373543389
 30
0.0
 11
302.7427093531808
 21
207.8882373543389
 31
0.0
  0
LINE
  5
1F29
330
21
100
AcDbEntity
  8
标注
 62
     7
370
    25
100
AcDbLine
 10
298.6088593531788
 20
207.5968993543398
 30
0.0
 11
302.15215935318
 21
207.5968993543398
 31
0.0
  0
LINE
  5
1F2A
330
21
100
AcDbEntity
  8
0
  6
ByBlock
370
    25
100
AcDbLine
 10
298.1757893531796
 20
207.7307573543391
 30
0.0
 11
298.018309353178
 21
207.8882373543389
 31
0.0
  0
LINE
  5
1F2B
330
21
100
AcDbEntity
  8
0
  6
ByBlock
370
    25
100
AcDbLine
 10
302.5852293531791
 20
207.7307573543391
 30
0.0
 11
302.15215935318
 21
207.5968993543398
 31
0.0
  0
LINE
  5
1F2C
330
21
100
AcDbEntity
  8
0
  6
ByBlock
370
    25
100
AcDbLine
 10
298.1757893531796
 20
207.7307573543391
 30
0.0
 11
298.6088593531788
 21
207.5968993543398
 31
0.0
  0
LINE
  5
1F2D
330
21
100
AcDbEntity
  8
0
  6
ByBlock
370
    25
100
AcDbLine
 10
302.5852293531791
 20
207.7307573543391
 30
0.0
 11
302.7427093531808
 21
207.8882373543389
 31
0.0
  0
ARC
  5
1F2E
330
21
100
AcDbEntity
  8
0
  6
ByBlock
370
    25
100
AcDbCircle
 10
300.3805093531812
 20
255.0731453987561
 30
0.0
 40
47.244
100
AcDbArc
 50
263.8778623447806
 51
267.1340160163993
  0
ARC
  5
1F2F
330
21
100
AcDbEntity
  8
0
  6
ByBlock
370
    25
100
AcDbCircle
 10
295.5519564778008
 20
210.055860081006
 30
0.0
 40
1.9685
100
AcDbArc
 50
182.0000000005251
 51
263.8778623447806
1001
GENIUS_GENODEF_13
1002
{
1000
HIER
1070
     0
1002
}
1002
{
1000
MANEDIT
1070
     0
1002
}
1002
{
1000
NOSEL
1070
     0
1002
}
1002
{
1000
BEHIND
1070
     0
1002
}
1002
{
1000
OTHER
1070
     0
1002
}
1002
{
1000
REACTOR
1002
}
1001
GENIUS_GENOBJ-N-FIL_13
1002
{
1000
OWNER
1000
GEN
1002
}
  0
ARC
  5
1F30
102
{ACAD_REACTORS
330
1F48
102
}
330
21
100
AcDbEntity
  8
0
  6
ByBlock
370
    25
100
AcDbCircle
 10
300.3805093531812
 20
255.0731453987561
 30
0.0
 40
47.244
100
AcDbArc
 50
272.8659839836006
 51
276.1221376552194
  0
ARC
  5
1F31
330
21
100
AcDbEntity
  8
0
  6
ByBlock
370
    25
100
AcDbCircle
 10
305.209062228558
 20
210.055860081006
 30
0.0
 40
1.9685
100
AcDbArc
 50
276.1221376552194
 51
357.9999999994749
1001
GENIUS_GENOBJ-N-FIL_13
1002
{
1000
OWNER
1000
GEN
1002
}
1001
GENIUS_GENODEF_13
1002
{
1000
HIER
1070
     0
1002
}
1002
{
1000
MANEDIT
1070
     0
1002
}
1002
{
1000
NOSEL
1070
     0
1002
}
1002
{
1000
BEHIND
1070
     0
1002
}
1002
{
1000
OTHER
1070
     0
1002
}
1002
{
1000
REACTOR
1002
}
  0
LINE
  5
1F32
330
21
100
AcDbEntity
  8
标注
 62
     7
370
    25
100
AcDbLine
 10
307.4867943531792
 20
215.8882213543389
 30
0.0
 11
293.2742243531795
 21
215.8882213543389
 31
0.0
  0
CIRCLE
  5
1F33
330
21
100
AcDbEntity
  8
标注
 62
     7
370
    25
100
AcDbCircle
 10
300.3805093531812
 20
193.4184681055964
 30
0.0
 40
2.3622
  0
CIRCLE
  5
1F34
330
21
100
AcDbEntity
  8
标注
 62
     7
370
    25
100
AcDbCircle
 10
300.3805093531812
 20
193.4184681055964
 30
0.0
 40
2.244089999999999
  0
CIRCLE
  5
1F35
330
21
100
AcDbEntity
  8
标注
 62
     7
370
    25
100
AcDbCircle
 10
300.3805093531812
 20
193.4184681055964
 30
0.0
 40
1.77165
  0
REGION
  5
1F36
102
{ACAD_REACTORS
330
1F3C
330
1F3F
102
}
330
21
100
AcDbEntity
  8
0
  6
ByBlock
370
    25
100
AcDbModelerGeometry
 70
     1
  1
koo ki n o          
  1
ni ^ *+0;:,4 ^ *+0\^ [ nf ^ LR mnjqoqoqkmnk QK o  
  1
n fqfffffffffffffffj:rooh n:rono 
  1
=0;& {rn {n {rn {rn |
  1
3*2/ {rn {rn {m {o |
  1
,7:33 {rn {rn {rn {l {rn {n |
  1
9><: {rn {rn {k {m {rn {j 90-(>-; ;0*=3: 0*+ |
  1
300/ {rn {rn {i {l |
  1
/3>1:r,*-9><: {rn looqlgojofljlngnm nflqkngkignojjfilf o o o n oqolflhoooooooooooom o o 90-(>-;@) V V V V |
  1
<0:;8: {rn {h {g {rn {f 90-(>-; {k {rn |
  1
<0:;8: {rn {no {i {rn {nn 90-(>-; {k {rn |
  1
<0:;8: {rn {i {nm {rn {nl 90-(>-; {k {rn |
  1
:;8: {rn {nk {nj {i {ni 90-(>-; |
  1
<0:;8: {rn {nh {h {rn {ng 90-(>-; {k {rn |
  1
:;8: {rn {nj {nf {h {mo 90-(>-; |
  1
<0:;8: {rn {g {mn {rn {mm 90-(>-; {k {rn |
  1
:;8: {rn {ml {nk {g {mk 90-(>-; |
  1
):-+:' {rn {f {mj |
  1
):-+:' {rn {f {mi |
  1
:336/,:r<*-): {rn lolqhlghgmkhnjjjk nfiqhhihknmmlfhojf o o o n lqjklloooooooooool o o n V V |
  1
<0:;8: {rn {mh {no {rn {mg 90-(>-; {k {rn |
  1
:;8: {rn {nf {mf {no {lo 90-(>-; |
  1
):-+:' {rn {nn {ln |
  1
:336/,:r<*-): {rn looqlgojofljlngnm nlnqhojfflnojjfhfk o o o n igqhooijoooooooon o o n V V |
  1
<0:;8: {rn {nm {mh {rn {lm 90-(>-; {k {rn |
  1
:;8: {rn {ll {ml {nm {lk 90-(>-; |
  1
):-+:' {rn {mm {lj |
  1
:336/,:r<*-): {rn mlgqiigolkljlngofl nflqkngkignojjfilf o o o n igqhooijoooooooon o o n V V |
  1
/061+ {rn lohqmhhlhloolihnhi nfiqfjfliilkgmlkln o |
  1
/061+ {rn lolqfmnkohjfjgnjkg mooqlnjllnhjiogghh o |
  1
<0:;8: {rn {mn {nh {rn {li 90-(>-; {k {rn |
  1
:;8: {rn {mf {lh {nh {lg 90-(>-; |
  1
):-+:' {rn {ng {lf |
  1
:336/,:r<*-): {rn mfhqommmlimlkgolli nfiqhhihknmmlfhojf o o o n lqjklloooooooooool o o n V V |
  1
/061+ {rn mfiqglfinnnnojighk mooqlnjllnhjiogghh o |
  1
:;8: {rn {ko {ll {mn {kn 90-(>-; |
  1
):-+:' {rn {lm {km |
  1
:336/,:r<*-): {rn lolqhlghgmkhnjjjk nfoqoionfkfghmmmnf o o o n lqjklloooooooooool o o n V V |
  1
/061+ {rn lohqmhhlhloolihnhi ngfqghhjifgimfiomf o |
  1
:;8: {rn {lh {ko {mh {kl 90-(>-; |
  1
):-+:' {rn {mg {kk |
  1
:336/,:r<*-): {rn limqofmfgkljlnhhgl nflqkngkignojjfilf o o o n igqhooijoooooooon o o n V V |
  1
/061+ {rn mflqkglikjhomigh nfiqfjfliilkgmlkln o |
  1
):-+:' {rn {li {kj |
  1
:336/,:r<*-): {rn looqlgojofljlngnm mjjqnlofklnojjfiii o o o n igqhooijoooooooon o o n V V |
  1
/061+ {rn lolqfmnkohjfjhfoon ngiqjmniokkjjnokon o |
  1
:336/,:r<*-): {rn mfhqommmlimlkgolli nfoqoionfkfghmmmnf o o o n lqjklloooooooooool o o n V V |
  1
/061+ {rn mflqkglikjhomigh ngfqghhjifgimfiomf o |
  1
/061+ {rn mfiqglfinnnnojlfik ngiqjmniokkjjnojgl o |
  0
DIMENSION
  5
1F37
102
{ACAD_XDICTIONARY
360
1F38
102
}
102
{ACAD_REACTORS
330
1F39
102
}
330
21
100
AcDbEntity
  8
标注
 48
5.0
100
AcDbDimension
  2
*D36
 10
308.3726193531829
 20
182.1086449960645
 30
0.0
 11
300.3805093531819
 21
182.1086449960645
 31
0.0
 70
    32
 71
     5
 42
15.9842200000021
  3
inch
100
AcDbAlignedDimension
 13
292.3883993531808
 23
189.9539081055978
 33
0.0
 14
308.3726193531829
 24
189.9539081055978
 34
0.0
100
AcDbRotatedDimension
  0
DIMENSION
  5
1F3A
102
{ACAD_XDICTIONARY
360
1F3B
102
}
102
{ACAD_REACTORS
330
1F3C
102
}
330
21
100
AcDbEntity
  8
标注
 48
5.0
100
AcDbDimension
  2
*D37
 10
307.3686843531787
 20
183.5996776624148
 30
0.0
 11
300.3805093531783
 21
183.5996776624148
 31
0.0
 70
    32
 71
     5
 42
13.97635000000082
  3
inch
100
AcDbAlignedDimension
 13
293.3923343531778
 23
193.4184681055964
 33
0.0
 14
307.3686843531787
 24
193.4184681055964
 34
0.0
100
AcDbRotatedDimension
  0
DIMENSION
  5
1F3D
102
{ACAD_XDICTIONARY
360
1F3E
102
}
102
{ACAD_REACTORS
330
1F3F
102
}
330
21
100
AcDbEntity
  8
标注
 48
5.0
100
AcDbDimension
  2
*D38
 10
310.1382654084496
 20
200.4066431055957
 30
0.0
 11
310.1382654084496
 21
193.4184681055962
 31
0.0
 70
    32
 71
     5
 42
13.976349999999
  3
inch
100
AcDbAlignedDimension
 13
300.3805093531678
 23
186.4302931055966
 33
0.0
 14
300.3805093531642
 24
200.4066431055957
 34
0.0
 50
90.0
100
AcDbRotatedDimension
  0
DIMENSION
  5
1F40
102
{ACAD_XDICTIONARY
360
1F41
102
}
102
{ACAD_REACTORS
330
1F42
102
}
330
21
100
AcDbEntity
  8
标注
 48
5.0
100
AcDbDimension
  2
*D39
 10
311.9621159749879
 20
201.4105781055981
 30
0.0
 11
311.9621159749879
 21
193.418468105598
 31
0.0
 70
    32
 71
     5
 42
15.98422000000027
  3
inch
100
AcDbAlignedDimension
 13
303.8450693531779
 23
185.4263581055978
 33
0.0
 14
303.8450693531779
 24
201.4105781055981
 34
0.0
 50
90.0
100
AcDbRotatedDimension
  0
LINE
  5
1F43
330
21
100
AcDbEntity
  8
0
  6
CENTERX2
 62
     1
370
     9
100
AcDbLine
 10
291.8922115286989
 20
193.4184681055964
 30
0.0
 11
308.7147633232746
 21
193.4184681055964
 31
0.0
  0
LINE
  5
1F44
330
21
100
AcDbEntity
  8
0
  6
CENTERX2
 62
     1
370
     9
100
AcDbLine
 10
300.3805093531812
 20
202.5532503318396
 30
0.0
 11
300.3805093531812
 21
184.9415334997326
 31
0.0
  0
LINE
  5
1F45
330
21
100
AcDbEntity
  8
0
  6
CENTERX2
 62
     1
370
     9
100
AcDbLine
 10
300.3805093531812
 20
206.2200183435276
 30
0.0
 11
300.3805093531812
 21
209.5812788790723
 31
0.0
  0
DIMENSION
  5
1F46
102
{ACAD_XDICTIONARY
360
1F47
102
}
102
{ACAD_REACTORS
330
1F48
102
}
330
21
100
AcDbEntity
  8
标注
 48
5.0
100
AcDbDimension
  2
*D40
 10
310.1467902697809
 20
215.8882213543389
 30
0.0
 11
310.1467902697808
 21
211.888229354339
 31
0.0
 70
    32
 71
     5
 42
7.99998400000004
  3
inch
100
AcDbAlignedDimension
 13
302.7427093531591
 23
207.8882373543389
 33
0.0
 14
308.3726193531588
 24
215.8882213543389
 34
0.0
 50
90.0
100
AcDbRotatedDimension
  0
LINE
  5
1F49
330
21
100
AcDbEntity
  8
0
  6
ByBlock
370
    25
100
AcDbLine
 10
292.3883993531783
 20
169.2402856719733
 30
0.0
 11
292.3883993531783
 21
162.3111656719744
 31
0.0
  0
ARC
  5
1F4A
330
21
100
AcDbEntity
  8
0
  6
ByBlock
370
    25
100
AcDbCircle
 10
296.9159493531808
 20
169.2402856719733
 30
0.0
 40
4.52755
100
AcDbArc
 50
90.0
 51
180.0
  0
LINE
  5
1F4B
330
21
100
AcDbEntity
  8
0
  6
ByBlock
370
    25
100
AcDbLine
 10
308.3726193531804
 20
169.2402856719733
 30
0.0
 11
308.3726193531804
 21
162.3111656719744
 31
0.0
  0
ARC
  5
1F4C
330
21
100
AcDbEntity
  8
0
  6
ByBlock
370
    25
100
AcDbCircle
 10
303.8450693531779
 20
162.3111656719744
 30
0.0
 40
4.52755
100
AcDbArc
 50
270.0
 51
0.0
  0
LINE
  5
1F4D
330
21
100
AcDbEntity
  8
0
  6
ByBlock
370
    25
100
AcDbLine
 10
303.8450693531779
 20
157.7836156719737
 30
0.0
 11
296.9159493531808
 21
157.7836156719737
 31
0.0
  0
ARC
  5
1F4E
330
21
100
AcDbEntity
  8
0
  6
ByBlock
370
    25
100
AcDbCircle
 10
296.9159493531808
 20
162.3111656719744
 30
0.0
 40
4.52755
100
AcDbArc
 50
180.0
 51
270.0
  0
LINE
  5
1F4F
330
21
100
AcDbEntity
  8
0
  6
ByBlock
370
    25
100
AcDbLine
 10
303.8450693531779
 20
173.767835671974
 30
0.0
 11
296.9159493531808
 21
173.767835671974
 31
0.0
  0
ARC
  5
1F50
330
21
100
AcDbEntity
  8
0
  6
ByBlock
370
    25
100
AcDbCircle
 10
303.8450693531779
 20
169.2402856719733
 30
0.0
 40
4.52755
100
AcDbArc
 50
0.0
 51
90.0
  0
CIRCLE
  5
1F51
330
21
100
AcDbEntity
  8
标注
 62
     7
370
    25
100
AcDbCircle
 10
300.3805093531812
 20
165.7757256719748
 30
0.0
 40
2.3622
  0
CIRCLE
  5
1F52
330
21
100
AcDbEntity
  8
标注
 62
     7
370
    25
100
AcDbCircle
 10
300.3805093531812
 20
165.7757256719748
 30
0.0
 40
2.244089999999999
  0
CIRCLE
  5
1F53
330
21
100
AcDbEntity
  8
标注
 62
     7
370
    25
100
AcDbCircle
 10
300.3805093531812
 20
165.7757256719748
 30
0.0
 40
1.77165
  0
REGION
  5
1F54
330
21
100
AcDbEntity
  8
0
  6
ByBlock
370
    25
100
AcDbModelerGeometry
 70
     1
  1
koo ki n o          
  1
ni ^ *+0;:,4 ^ *+0\^ [ nf ^ LR mnjqoqoqkmnk QK o  
  1
n fqfffffffffffffffj:rooh n:rono 
  1
=0;& {rn {n {rn {rn |
  1
3*2/ {rn {rn {m {o |
  1
,7:33 {rn {rn {rn {l {rn {n |
  1
9><: {rn {rn {k {m {rn {j 90-(>-; ;0*=3: 0*+ |
  1
300/ {rn {rn {i {l |
  1
/3>1:r,*-9><: {rn looqlgojofljlngnm nijqhhjhmjihnfhkhg o o o n oqolflhoooooooooooom o o 90-(>-;@) V V V V |
  1
<0:;8: {rn {h {g {rn {f 90-(>-; {k {rn |
  1
<0:;8: {rn {no {i {rn {nn 90-(>-; {k {rn |
  1
<0:;8: {rn {i {nm {rn {nl 90-(>-; {k {rn |
  1
:;8: {rn {nk {nj {i {ni 90-(>-; |
  1
<0:;8: {rn {nh {h {rn {ng 90-(>-; {k {rn |
  1
:;8: {rn {nj {nf {h {mo 90-(>-; |
  1
<0:;8: {rn {g {mn {rn {mm 90-(>-; {k {rn |
  1
:;8: {rn {ml {nk {g {mk 90-(>-; |
  1
):-+:' {rn {f {mj |
  1
):-+:' {rn {f {mi |
  1
:336/,:r<*-): {rn lolqhlghgmkhnjjjk nifqnllffghfolkgfg o o o n lqjklloooooooooool o o n V V |
  1
<0:;8: {rn {mh {no {rn {mg 90-(>-; {k {rn |
  1
:;8: {rn {nf {mf {no {lo 90-(>-; |
  1
):-+:' {rn {nn {ln |
  1
:336/,:r<*-): {rn looqlgojofljlngnm nokqoilmjoihnfhkjm o o o n igqhooijoooooooon o o n V V |
  1
<0:;8: {rn {nm {mh {rn {lm 90-(>-; {k {rn |
  1
:;8: {rn {ll {ml {nm {lk 90-(>-; |
  1
):-+:' {rn {mm {lj |
  1
:336/,:r<*-): {rn mlgqiigolkljlngofl nijqhhjhmjihnfhkhg o o o n igqhooijoooooooon o o n V V |
  1
/061+ {rn lohqmhhlhloolihnhi nifqlniimlfnkinogf o |
  1
/061+ {rn lolqfmnkohjfjgnjkg nhmqihmjgflmmkijlk o |
  1
<0:;8: {rn {mn {nh {rn {li 90-(>-; {k {rn |
  1
:;8: {rn {mf {lh {nh {lg 90-(>-; |
  1
):-+:' {rn {ng {lf |
  1
:336/,:r<*-): {rn mfhqommmlimlkgolli nifqnllffghfolkgfg o o o n lqjklloooooooooool o o n V V |
  1
/061+ {rn mfiqglfinnnnojighk nhmqihmjgflmmkihni o |
  1
:;8: {rn {ko {ll {mn {kn 90-(>-; |
  1
):-+:' {rn {lm {km |
  1
:336/,:r<*-): {rn lolqhlghgmkhnjjjk nimqknhkjmjjljfghi o o o n lqjklloooooooooool o o n V V |
  1
/061+ {rn lohqmhhlhloolihnhi nimqmlkgmhkmflligi o |
  1
:;8: {rn {lh {ko {mh {kl 90-(>-; |
  1
):-+:' {rn {mg {kk |
  1
:336/,:r<*-): {rn limqofmfgkljlnhhgl nijqhhjhmjihnfhkhg o o o n igqhooijoooooooon o o n V V |
  1
/061+ {rn mflqkglikjhomigh nifqlniimlfnkinogf o |
  1
):-+:' {rn {li {kj |
  1
:336/,:r<*-): {rn looqlgojofljlngnm mmhqkggmooihnfhlml o o o n igqhooijoooooooon o o n V V |
  1
/061+ {rn lolqfmnkohjfjhfoon njgqghggimomnkgojf o |
  1
:336/,:r<*-): {rn mfhqommmlimlkgolli nimqknhkjmjjljfghi o o o n lqjklloooooooooool o o n V V |
  1
/061+ {rn mflqkglikjhomigh nimqmlkgmhkmflligi o |
  1
/061+ {rn mfiqglfinnnnojlfik njgqghggimomnkgmk o |
  0
LWPOLYLINE
  5
1F57
330
21
100
AcDbEntity
  8
截面层
 62
     1
 48
0.2
370
    35
100
AcDbPolyline
 90
        8
 70
     1
 43
0.0
 10
296.8396111105688
 20
172.6725893224671
 42
0.3843207847622472
 10
293.4836457026906
 20
169.3166239146636
 42
0.0257876231550082
 10
293.483645702687
 20
162.2348274293386
 42
0.3843207847601352
 10
296.8396111105032
 20
158.8788620214842
 42
0.0257876231550082
 10
303.92140759579
 20
158.8788620214806
 42
0.3843207847622418
 10
307.2773730036681
 20
162.2348274292859
 42
0.0257876231550082
 10
307.2773730036717
 20
169.316623914609
 42
0.3843207847601408
 10
303.9214075959137
 20
172.6725893224599
 42
0.0257876231550083
  0
LWPOLYLINE
  5
1F58
330
21
100
AcDbEntity
  8
虚线
 62
     3
 48
0.3
370
    20
100
AcDbPolyline
 90
        8
 70
     1
 43
0.0
 10
296.8267258934723
 20
172.9222565433434
 42
0.3843207847622417
 10
293.2339784818143
 20
169.3295091317656
 42
0.025787623155008
 10
293.2339784818107
 20
162.2219422122385
 42
0.3843207847601298
 10
296.8267258934032
 20
158.6291948006079
 42
0.0257876231550083
 10
303.9342928128901
 20
158.6291948006043
 42
0.3843207847622367
 10
307.5270402245444
 20
162.2219422121822
 42
0.0257876231550083
 10
307.5270402245481
 20
169.329509131711
 42
0.3843207847601349
 10
303.9342928130175
 20
172.922256543338
 42
0.0257876231550083
  0
LWPOLYLINE
  5
1F59
330
21
100
AcDbEntity
  8
虚线
 62
    11
 48
0.15
370
    35
100
AcDbPolyline
 90
        8
 70
     1
 43
0.0
 10
296.8524963276652
 20
172.422922101589
 42
0.3843207847622475
 10
293.7333129235669
 20
169.3037386975599
 42
0.0257876231550081
 10
293.7333129235669
 20
162.2477126464406
 42
0.3843207847601238
 10
296.852496327607
 20
159.1285292423623
 42
0.0257876231550081
 10
303.9085223786863
 20
159.1285292423587
 42
0.3843207847622359
 10
307.0277057827918
 20
162.2477126463878
 42
0.0257876231550081
 10
307.0277057827955
 20
169.3037386975089
 42
0.3843207847601357
 10
303.90852237881
 20
172.4229221015836
 42
0.0257876231550087
  0
LINE
  5
2055
330
21
100
AcDbEntity
  8
虚线
 62
     3
 48
0.3
370
    35
100
AcDbLine
 10
288.9978322773364
 20
151.1197704332641
 30
0.0
 11
295.2146372814203
 21
151.1197704332641
 31
0.0
  0
LINE
  5
2056
330
21
100
AcDbEntity
  8
截面层
 62
     1
 48
0.2
370
    35
100
AcDbLine
 10
288.9978322773364
 20
149.1512664962563
 30
0.0
 11
295.2146372814203
 21
149.1512664962563
 31
0.0
  0
LINE
  5
2057
330
21
100
AcDbEntity
  8
虚线
 62
    11
 48
0.15
370
    35
100
AcDbLine
 10
288.9978322773364
 20
147.1827625592484
 30
0.0
 11
295.2146372814203
 21
147.1827625592484
 31
0.0
  0
MTEXT
  5
2058
330
21
100
AcDbEntity
  8
标注
 48
5.0
100
AcDbMText
 10
296.6632383579033
 20
151.667935370875
 30
0.0
 40
0.7874015748031497
 41
15.1555422233215
 71
     1
 72
     5
  1
1/4" {\fArial|b0|i0|c0|p32;REVEAL CUTOUT}
 73
     1
 44
1.0
1001
ACAD
1000
MTEXTBEGIN
1070
    73
1070
     1
1070
    44
1040
1.0
1070
    74
1070
     0
1000
MTEXTEND
  0
MTEXT
  5
2059
330
21
100
AcDbEntity
  8
标注
 48
5.0
100
AcDbMText
 10
296.6632383579029
 20
149.6994314338671
 30
0.0
 40
0.7874015748031497
 41
15.1555422233215
 71
     1
 72
     5
  1
{\fArial|b0|i0|c0|p32;FLUSH CUTOUT}
 73
     1
 44
1.0
1001
ACAD
1000
MTEXTBEGIN
1070
    73
1070
     1
1070
    44
1040
1.0
1070
    74
1070
     0
1000
MTEXTEND
  0
MTEXT
  5
205A
330
21
100
AcDbEntity
  8
标注
 48
5.0
100
AcDbMText
 10
296.6632383579033
 20
147.7309274968592
 30
0.0
 40
0.7874015748031497
 41
15.1555422233215
 71
     1
 72
     5
  1
1/4" {\fArial|b0|i0|c0|p32;OVERHANG CUTOUT}
 73
     1
 44
1.0
1001
ACAD
1000
MTEXTBEGIN
1070
    73
1070
     1
1070
    44
1040
1.0
1070
    74
1070
     0
1000
MTEXTEND
  0
LWPOLYLINE
  5
205B
330
21
100
AcDbEntity
  8
虚线
 62
     3
 48
0.3
370
    20
100
AcDbPolyline
 90
        8
 70
     1
 43
0.0
 10
296.8267258934723
 20
135.4045117620604
 42
0.3843207847622417
 10
293.2339784818143
 20
131.8117643504826
 42
0.025787623155008
 10
293.2339784818107
 20
124.7041974309555
 42
0.3843207847601298
 10
296.8267258934032
 20
121.1114500193249
 42
0.0257876231550083
 10
303.9342928128901
 20
121.1114500193213
 42
0.3843207847622367
 10
307.5270402245444
 20
124.7041974308991
 42
0.0257876231550083
 10
307.5270402245481
 20
131.811764350428
 42
0.3843207847601349
 10
303.9342928130175
 20
135.404511762055
 42
0.0257876231550083
  0
LINE
  5
205C
330
21
100
AcDbEntity
  8
虚线
 62
     3
 48
0.3
370
    35
100
AcDbLine
 10
288.9978322773364
 20
117.2217326091021
 30
0.0
 11
295.2146372814203
 21
117.2217326091021
 31
0.0
  0
MTEXT
  5
205D
330
21
100
AcDbEntity
  8
标注
 48
5.0
100
AcDbMText
 10
296.6632383579033
 20
117.769897546713
 30
0.0
 40
0.7874015748031497
 41
15.1555422233215
 71
     1
 72
     5
  1
1/4" {\fArial|b0|i0|c0|p32;REVEAL CUTOUT}
 73
     1
 44
1.0
1001
ACAD
1000
MTEXTBEGIN
1070
    73
1070
     1
1070
    44
1040
1.0
1070
    74
1070
     0
1000
MTEXTEND
  0
LWPOLYLINE
  5
205E
330
21
100
AcDbEntity
  8
截面层
 62
     1
 48
0.2
370
    35
100
AcDbPolyline
 90
        8
 70
     1
 43
0.0
 10
296.8396111105688
 20
109.8444280543829
 42
0.3843207847622472
 10
293.4836457026906
 20
106.4884626465793
 42
0.0257876231550082
 10
293.483645702687
 20
99.4066661612544
 42
0.3843207847601352
 10
296.8396111105032
 20
96.05070075339995
 42
0.0257876231550082
 10
303.92140759579
 20
96.05070075339632
 42
0.3843207847622418
 10
307.2773730036681
 20
99.40666616120166
 42
0.0257876231550082
 10
307.2773730036717
 20
106.4884626465248
 42
0.3843207847601408
 10
303.9214075959137
 20
109.8444280543756
 42
0.0257876231550083
  0
LINE
  5
205F
330
21
100
AcDbEntity
  8
截面层
 62
     1
 48
0.2
370
    35
100
AcDbLine
 10
288.9978322773364
 20
92.44838698492401
 30
0.0
 11
295.2146372814203
 21
92.44838698492401
 31
0.0
  0
MTEXT
  5
2060
330
21
100
AcDbEntity
  8
标注
 48
5.0
100
AcDbMText
 10
296.6632383579029
 20
92.99655192253482
 30
0.0
 40
0.7874015748031497
 41
15.1555422233215
 71
     1
 72
     5
  1
{\fArial|b0|i0|c0|p32;FLUSH CUTOUT}
 73
     1
 44
1.0
1001
ACAD
1000
MTEXTBEGIN
1070
    73
1070
     1
1070
    44
1040
1.0
1070
    74
1070
     0
1000
MTEXTEND
  0
LWPOLYLINE
  5
2061
330
21
100
AcDbEntity
  8
虚线
 62
    11
 48
0.15
370
    35
100
AcDbPolyline
 90
        8
 70
     1
 43
0.0
 10
296.8524963276652
 20
83.15352000830841
 42
0.3843207847622475
 10
293.7333129235669
 20
80.03433660427925
 42
0.0257876231550081
 10
293.7333129235669
 20
72.97831055315999
 42
0.3843207847601238
 10
296.852496327607
 20
69.8591271490817
 42
0.0257876231550081
 10
303.9085223786863
 20
69.85912714907806
 42
0.3843207847622359
 10
307.0277057827918
 20
72.97831055310723
 42
0.0257876231550081
 10
307.0277057827955
 20
80.03433660422832
 42
0.3843207847601357
 10
303.90852237881
 20
83.15352000830296
 42
0.0257876231550087
  0
LINE
  5
2064
330
21
100
AcDbEntity
  8
虚线
 62
    11
 48
0.15
370
    35
100
AcDbLine
 10
288.9978322773364
 20
65.34256860065332
 30
0.0
 11
295.2146372814203
 21
65.34256860065332
 31
0.0
  0
MTEXT
  5
2065
330
21
100
AcDbEntity
  8
标注
 48
5.0
100
AcDbMText
 10
296.6632383579033
 20
65.89073353826413
 30
0.0
 40
0.7874015748031497
 41
15.1555422233215
 71
     1
 72
     5
  1
1/4" {\fArial|b0|i0|c0|p32;OVERHANG CUTOUT}
 73
     1
 44
1.0
1001
ACAD
1000
MTEXTBEGIN
1070
    73
1070
     1
1070
    44
1040
1.0
1070
    74
1070
     0
1000
MTEXTEND
  0
MTEXT
  5
2066
330
21
100
AcDbEntity
  8
标注
 48
5.0
100
AcDbMText
 10
297.7649685573333
 20
204.6166964275112
 30
0.0
 40
0.7874015748031497
 41
15.1555422233215
 71
     1
 72
     5
  1
{\fArial|b0|i0|c0|p32;FRONT VIEW }
 73
     1
 44
1.0
1001
ACAD
1000
MTEXTBEGIN
1070
    73
1070
     1
1070
    44
1040
1.0
1070
    74
1070
     0
1000
MTEXTEND
  0
MTEXT
  5
2067
330
21
100
AcDbEntity
  8
标注
 48
5.0
100
AcDbMText
 10
296.2690039560575
 20
179.8222601481225
 30
0.0
 40
0.7874015748031497
 41
15.1555422233215
 71
     1
 72
     5
  1
{\fArial|b0|i0|c0|p32;OVERHEAD VIEW}
 73
     1
 44
1.0
1001
ACAD
1000
MTEXTBEGIN
1070
    73
1070
     1
1070
    44
1040
1.0
1070
    74
1070
     0
1000
MTEXTEND
  0
ENDSEC
  0
SECTION
  2
OBJECTS
  0
DICTIONARY
  5
C
330
0
100
AcDbDictionary
281
     1
  3
ACAD_COLOR
350
1C
  3
ACAD_GROUP
350
D
  3
ACAD_LAYOUT
350
1A
  3
ACAD_MATERIAL
350
1B
  3
ACAD_MLEADERSTYLE
350
1883
  3
ACAD_MLINESTYLE
350
17
  3
ACAD_PLOTSETTINGS
350
19
  3
ACAD_PLOTSTYLENAME
350
E
  3
ACAD_SCALELIST
350
1871
  3
ACAD_TABLESTYLE
350
186F
  3
ACAD_VISUALSTYLE
350
185B
  3
ACDB_RECOMPOSE_DATA
350
2073
  3
AcDbVariableDictionary
350
2068
  3
AcmDictionary
350
18E2
  3
AEC_PROPERTY_SET_DEFS
350
1B2E
  3
AMG
350
1888
  3
AMGSNAPSETTINGS
350
1926
  3
DWGPROPS
350
2074
  3
lxx_dict
350
1924
  0
DICTIONARY
  5
F7
330
2
100
AcDbDictionary
280
     1
281
     1
  3
ACAD_LAYERFILTERS
360
183F
  3
ACAD_LAYERSTATES
360
F8
  0
DICTIONARY
  5
192D
330
10
100
AcDbDictionary
280
     1
281
     1
  3
ADSK_XREC_LAYER_RECONCILED
360
192E
  0
DICTIONARY
  5
192F
330
EF
100
AcDbDictionary
280
     1
281
     1
  3
ADSK_XREC_LAYER_RECONCILED
360
1930
  0
DICTIONARY
  5
1931
330
F0
100
AcDbDictionary
280
     1
281
     1
  3
ADSK_XREC_LAYER_RECONCILED
360
1932
  0
DICTIONARY
  5
1933
330
F2
100
AcDbDictionary
280
     1
281
     1
  3
ADSK_XREC_LAYER_RECONCILED
360
1934
  0
DICTIONARY
  5
1935
330
F3
100
AcDbDictionary
280
     1
281
     1
  3
ADSK_XREC_LAYER_RECONCILED
360
1936
  0
DICTIONARY
  5
1F38
330
1F37
100
AcDbDictionary
280
     1
281
     1
  3
ACAD_DIMASSOC
360
1F39
  0
DICTIONARY
  5
1F3B
330
1F3A
100
AcDbDictionary
280
     1
281
     1
  3
ACAD_DIMASSOC
360
1F3C
  0
DICTIONARY
  5
1F3E
330
1F3D
100
AcDbDictionary
280
     1
281
     1
  3
ACAD_DIMASSOC
360
1F3F
  0
DICTIONARY
  5
1F41
330
1F40
100
AcDbDictionary
280
     1
281
     1
  3
ACAD_DIMASSOC
360
1F42
  0
DICTIONARY
  5
1F47
330
1F46
100
AcDbDictionary
280
     1
281
     1
  3
ACAD_DIMASSOC
360
1F48
  0
DICTIONARY
  5
1C
102
{ACAD_REACTORS
330
C
102
}
330
C
100
AcDbDictionary
281
     1
  0
DICTIONARY
  5
D
102
{ACAD_REACTORS
330
C
102
}
330
C
100
AcDbDictionary
281
     1
  0
DICTIONARY
  5
1A
102
{ACAD_REACTORS
330
C
102
}
330
C
100
AcDbDictionary
281
     1
  3
Model
350
24
  3
布局1
350
20
  3
布局2
350
28
  0
DICTIONARY
  5
1B
102
{ACAD_REACTORS
330
C
102
}
330
C
100
AcDbDictionary
281
     1
  3
ByBlock
350
184B
  3
ByLayer
350
1843
  3
Global
350
1853
  0
DICTIONARY
  5
1883
102
{ACAD_REACTORS
330
C
102
}
330
C
100
AcDbDictionary
281
     1
  3
Standard
350
1884
  0
DICTIONARY
  5
17
102
{ACAD_REACTORS
330
C
102
}
330
C
100
AcDbDictionary
281
     1
  3
Standard
350
18
  0
DICTIONARY
  5
19
102
{ACAD_REACTORS
330
C
102
}
330
C
100
AcDbDictionary
281
     1
  0
ACDBDICTIONARYWDFLT
  5
E
102
{ACAD_REACTORS
330
C
102
}
330
C
100
AcDbDictionary
281
     1
  3
Normal
350
F
100
AcDbDictionaryWithDefault
340
F
  0
DICTIONARY
  5
1871
102
{ACAD_REACTORS
330
C
102
}
330
C
100
AcDbDictionary
281
     1
  3
A0
350
1872
  3
A1
350
1873
  3
A2
350
1874
  3
A3
350
1875
  3
A4
350
1876
  3
A5
350
1877
  3
A6
350
1878
  3
A7
350
1879
  3
A8
350
187A
  3
A9
350
187B
  3
B0
350
187C
  3
B1
350
187D
  3
B2
350
187E
  3
B3
350
187F
  3
B4
350
1880
  3
B5
350
1881
  3
B6
350
1882
  0
DICTIONARY
  5
186F
102
{ACAD_REACTORS
330
C
102
}
330
C
100
AcDbDictionary
281
     1
  3
Standard
350
1870
  0
DICTIONARY
  5
185B
102
{ACAD_REACTORS
330
C
102
}
330
C
100
AcDbDictionary
281
     1
  3
2dWireframe
350
1861
  3
3D Hidden
350
1863
  3
3dWireframe
350
1862
  3
Basic
350
1860
  3
Brighten
350
1867
  3
ColorChange
350
186B
  3
Conceptual
350
1864
  3
Dim
350
1866
  3
EdgeColorOff
350
186E
  3
Facepattern
350
186A
  3
Flat
350
185C
  3
FlatWithEdges
350
185D
  3
Gouraud
350
185E
  3
GouraudWithEdges
350
185F
  3
JitterOff
350
186C
  3
Linepattern
350
1869
  3
OverhangOff
350
186D
  3
Realistic
350
1865
  3
Thicken
350
1868
  0
XRECORD
  5
2073
102
{ACAD_REACTORS
330
C
102
}
330
C
100
AcDbXrecord
280
     1
 90
        1
330
1870
  0
DICTIONARY
  5
2068
102
{ACAD_REACTORS
330
C
102
}
330
C
100
AcDbDictionary
281
     1
  3
CANNOSCALE
350
206B
  3
CMLEADERSTYLE
350
206A
  3
CTABLESTYLE
350
2069
  3
DIMASSOC
350
2070
  3
HIDETEXT
350
206E
  3
INDEXCTL
350
206D
  3
SORTENTS
350
206C
  3
XCLIPFRAME
350
206F
  0
DICTIONARY
  5
18E2
102
{ACAD_REACTORS
330
C
102
}
330
C
100
AcDbDictionary
281
     1
  3
AcmStdDictionary
350
18EE
  0
DICTIONARY
  5
1B2E
102
{ACAD_REACTORS
330
C
102
}
330
C
100
AcDbDictionary
281
     1
  0
DICTIONARY
  5
1888
102
{ACAD_REACTORS
330
C
102
}
330
C
100
AcDbDictionary
281
     1
  0
DICTIONARY
  5
1926
102
{ACAD_REACTORS
330
C
102
}
330
C
100
AcDbDictionary
281
     1
  0
XRECORD
  5
2074
102
{ACAD_REACTORS
330
C
102
}
330
C
100
AcDbXrecord
280
     1
  1
DWGPROPS COOKIE
  2

  3

  4

  6

  7

  8
Administrator
  9

300
=
301
=
302
=
303
=
304
=
305
=
306
=
307
=
308
=
309
=
 40
0.1372443055555556
 41
2455855.628782743
 42
2457863.619126875
  1

 90
        0
  0
DICTIONARY
  5
1924
102
{ACAD_REACTORS
330
C
102
}
330
C
100
AcDbDictionary
281
     1
  3
lxx_dimth
350
1925
  0
DICTIONARY
  5
183F
102
{ACAD_REACTORS
330
F7
102
}
330
F7
100
AcDbDictionary
281
     1
  0
DICTIONARY
  5
F8
102
{ACAD_REACTORS
330
F7
102
}
330
F7
100
AcDbDictionary
281
     1
  0
XRECORD
  5
192E
102
{ACAD_REACTORS
330
192D
102
}
330
192D
100
AcDbXrecord
280
     1
290
     1
  0
XRECORD
  5
1930
102
{ACAD_REACTORS
330
192F
102
}
330
192F
100
AcDbXrecord
280
     1
290
     1
  0
XRECORD
  5
1932
102
{ACAD_REACTORS
330
1931
102
}
330
1931
100
AcDbXrecord
280
     1
290
     1
  0
XRECORD
  5
1934
102
{ACAD_REACTORS
330
1933
102
}
330
1933
100
AcDbXrecord
280
     1
290
     1
  0
XRECORD
  5
1936
102
{ACAD_REACTORS
330
1935
102
}
330
1935
100
AcDbXrecord
280
     1
290
     1
  0
DIMASSOC
  5
1F39
102
{ACAD_REACTORS
330
1F38
102
}
330
1F38
100
AcDbDimAssoc
330
1F37
 90
        3
 70
     0
 71
     0
  1
AcDbOsnapPointRef
 72
    13
331
1F1D
 73
     2
 91
        0
 40
3.141592653589793
 10
0.0
 20
0.0
 30
2.000000000000000E+50
 75
     0
  1
AcDbOsnapPointRef
 72
     1
331
1F1B
 73
     2
 91
        0
 40
6.283185307179586
 10
0.0
 20
0.0
 30
2.000000000000000E+50
 75
     0
  0
DIMASSOC
  5
1F3C
102
{ACAD_REACTORS
330
1F3B
102
}
330
1F3B
100
AcDbDimAssoc
330
1F3A
 90
        3
 70
     0
 71
     0
  1
AcDbOsnapPointRef
 72
     2
331
1F36
 73
     2
 91
        4
 40
3.141592653589793
 10
0.0
 20
0.0
 30
0.0
 75
     0
  1
AcDbOsnapPointRef
 72
     2
331
1F36
 73
     2
 91
        8
 40
6.283185307179586
 10
0.0
 20
0.0
 30
0.0
 75
     0
  0
DIMASSOC
  5
1F3F
102
{ACAD_REACTORS
330
1F3E
102
}
330
1F3E
100
AcDbDimAssoc
330
1F3D
 90
        3
 70
     0
 71
     0
  1
AcDbOsnapPointRef
 72
     2
331
1F36
 73
     2
 91
        6
 40
4.712388980384496
 10
0.0
 20
0.0
 30
0.0
 75
     0
  1
AcDbOsnapPointRef
 72
     8
331
1F36
 73
     2
 91
        2
 40
1.57079632679514
 10
0.0
 20
0.0
 30
0.0
 75
     1
  1
AcDbOsnapPointRef
 72
     2
331
1F36
 73
     2
 91
        6
 40
4.712388980384496
 10
0.0
 20
0.0
 30
0.0
 75
     0
  0
DIMASSOC
  5
1F42
102
{ACAD_REACTORS
330
1F41
102
}
330
1F41
100
AcDbDimAssoc
330
1F40
 90
        3
 70
     0
 71
     0
  1
AcDbOsnapPointRef
 72
    13
331
1F1B
 73
     2
 91
        0
 40
4.712388980384689
 10
0.0
 20
0.0
 30
2.000000000000000E+50
 75
     0
  1
AcDbOsnapPointRef
 72
     8
331
1F1E
 73
     2
 91
        0
 40
0.0
 10
0.0
 20
0.0
 30
0.0
 75
     1
  1
AcDbOsnapPointRef
 72
    13
331
1F1B
 73
     2
 91
        0
 40
4.712388980384689
 10
0.0
 20
0.0
 30
2.000000000000000E+50
 75
     0
  0
DIMASSOC
  5
1F48
102
{ACAD_REACTORS
330
1F47
102
}
330
1F47
100
AcDbDimAssoc
330
1F46
 90
        3
 70
     0
 71
     0
  1
AcDbOsnapPointRef
 72
    11
331
1F28
 73
     2
 91
        0
 40
1.0
 10
0.0
 20
0.0
 30
0.0
332
1F30
 74
     2
 92
        0
 75
     0
  1
AcDbOsnapPointRef
 72
     1
331
1F26
 73
     2
 91
        0
 40
1.0
 10
0.0
 20
0.0
 30
2.000000000000000E+50
 75
     0
  0
LAYOUT
  5
24
102
{ACAD_XDICTIONARY
360
2077
102
}
102
{ACAD_REACTORS
330
1A
102
}
330
1A
100
AcDbPlotSettings
  1

  2
FX DocuPrint 255-AP
  4
A4
  6

 40
4.900083065032958
 41
4.900057315826416
 42
4.90008544921875
 43
4.90008544921875
 44
210.0156707763672
 45
297.0106506347656
 46
0.0
 47
0.0
 48
0.0
 49
0.0
140
0.0
141
0.0
142
1.0
143
1.0
 70
 11952
 72
     1
 73
     1
 74
     0
  7

 75
     0
147
1.0
148
-45.79265335403554
149
-34.06708261125095
100
AcDbLayout
  1
Model
 70
     1
 71
     0
 10
0.0
 20
0.0
 11
12.0
 21
9.0
 12
0.0
 22
0.0
 32
0.0
 14
0.0
 24
0.0
 34
0.0
 15
0.0
 25
0.0
 35
0.0
146
0.0
 13
0.0
 23
0.0
 33
0.0
 16
1.0
 26
0.0
 36
0.0
 17
0.0
 27
1.0
 37
0.0
 76
     0
330
21
331
1840
  0
LAYOUT
  5
20
102
{ACAD_XDICTIONARY
360
2075
102
}
102
{ACAD_REACTORS
330
1A
102
}
330
1A
100
AcDbPlotSettings
  1

  2
FX DocuPrint 255-AP
  4

  6

 40
0.0
 41
0.0
 42
0.0
 43
0.0
 44
0.0
 45
0.0
 46
0.0
 47
0.0
 48
0.0
 49
0.0
140
0.0
141
0.0
142
1.0
143
1.0
 70
   688
 72
     0
 73
     0
 74
     5
  7
acad.ctb
 75
    16
147
1.0
148
0.0
149
0.0
100
AcDbLayout
  1
布局1
 70
     1
 71
     1
 10
0.0
 20
0.0
 11
420.0
 21
297.0
 12
0.0
 22
0.0
 32
0.0
 14
1.000000000000000E+20
 24
1.000000000000000E+20
 34
1.000000000000000E+20
 15
-1.000000000000000E+20
 25
-1.000000000000000E+20
 35
-1.000000000000000E+20
146
0.0
 13
0.0
 23
0.0
 33
0.0
 16
1.0
 26
0.0
 36
0.0
 17
0.0
 27
1.0
 37
0.0
 76
     0
330
1D
  0
LAYOUT
  5
28
102
{ACAD_XDICTIONARY
360
2079
102
}
102
{ACAD_REACTORS
330
1A
102
}
330
1A
100
AcDbPlotSettings
  1

  2
FX DocuPrint 255-AP
  4

  6

 40
0.0
 41
0.0
 42
0.0
 43
0.0
 44
0.0
 45
0.0
 46
0.0
 47
0.0
 48
0.0
 49
0.0
140
0.0
141
0.0
142
1.0
143
1.0
 70
   688
 72
     0
 73
     0
 74
     5
  7
acad.ctb
 75
    16
147
1.0
148
0.0
149
0.0
100
AcDbLayout
  1
布局2
 70
     1
 71
     2
 10
0.0
 20
0.0
 11
12.0
 21
9.0
 12
0.0
 22
0.0
 32
0.0
 14
0.0
 24
0.0
 34
0.0
 15
0.0
 25
0.0
 35
0.0
146
0.0
 13
0.0
 23
0.0
 33
0.0
 16
1.0
 26
0.0
 36
0.0
 17
0.0
 27
1.0
 37
0.0
 76
     0
330
25
  0
MATERIAL
  5
184B
102
{ACAD_XDICTIONARY
360
184C
102
}
102
{ACAD_REACTORS
330
1B
102
}
330
1B
100
AcDbMaterial
  1
ByBlock
 72
     0
 43
0.0008202099737533
 43
0.0
 43
0.0
 43
0.0
 43
0.0
 43
0.0008202099737533
 43
0.0
 43
0.0
 43
0.0
 43
0.0
 43
1.0
 43
0.0
 43
0.0
 43
0.0
 43
0.0
 43
1.0
 77
     0
 47
0.0008202099737533
 47
0.0
 47
0.0
 47
0.0
 47
0.0
 47
0.0008202099737533
 47
0.0
 47
0.0
 47
0.0
 47
0.0
 47
1.0
 47
0.0
 47
0.0
 47
0.0
 47
0.0
 47
1.0
171
     0
 49
0.0008202099737533
 49
0.0
 49
0.0
 49
0.0
 49
0.0
 49
0.0008202099737533
 49
0.0
 49
0.0
 49
0.0
 49
0.0
 49
1.0
 49
0.0
 49
0.0
 49
0.0
 49
0.0
 49
1.0
175
     0
142
0.0008202099737533
142
0.0
142
0.0
142
0.0
142
0.0
142
0.0008202099737533
142
0.0
142
0.0
142
0.0
142
0.0
142
1.0
142
0.0
142
0.0
142
0.0
142
0.0
142
1.0
179
     0
144
0.0008202099737533
144
0.0
144
0.0
144
0.0
144
0.0
144
0.0008202099737533
144
0.0
144
0.0
144
0.0
144
0.0
144
1.0
144
0.0
144
0.0
144
0.0
144
0.0
144
1.0
147
0.0008202099737533
147
0.0
147
0.0
147
0.0
147
0.0
147
0.0008202099737533
147
0.0
147
0.0
147
0.0
147
0.0
147
1.0
147
0.0
147
0.0
147
0.0
147
0.0
147
1.0
  0
MATERIAL
  5
1843
102
{ACAD_XDICTIONARY
360
1844
102
}
102
{ACAD_REACTORS
330
1B
102
}
330
1B
100
AcDbMaterial
  1
ByLayer
 72
     0
 43
0.0008202099737533
 43
0.0
 43
0.0
 43
0.0
 43
0.0
 43
0.0008202099737533
 43
0.0
 43
0.0
 43
0.0
 43
0.0
 43
1.0
 43
0.0
 43
0.0
 43
0.0
 43
0.0
 43
1.0
 77
     0
 47
0.0008202099737533
 47
0.0
 47
0.0
 47
0.0
 47
0.0
 47
0.0008202099737533
 47
0.0
 47
0.0
 47
0.0
 47
0.0
 47
1.0
 47
0.0
 47
0.0
 47
0.0
 47
0.0
 47
1.0
171
     0
 49
0.0008202099737533
 49
0.0
 49
0.0
 49
0.0
 49
0.0
 49
0.0008202099737533
 49
0.0
 49
0.0
 49
0.0
 49
0.0
 49
1.0
 49
0.0
 49
0.0
 49
0.0
 49
0.0
 49
1.0
175
     0
142
0.0008202099737533
142
0.0
142
0.0
142
0.0
142
0.0
142
0.0008202099737533
142
0.0
142
0.0
142
0.0
142
0.0
142
1.0
142
0.0
142
0.0
142
0.0
142
0.0
142
1.0
179
     0
144
0.0008202099737533
144
0.0
144
0.0
144
0.0
144
0.0
144
0.0008202099737533
144
0.0
144
0.0
144
0.0
144
0.0
144
1.0
144
0.0
144
0.0
144
0.0
144
0.0
144
1.0
147
0.0008202099737533
147
0.0
147
0.0
147
0.0
147
0.0
147
0.0008202099737533
147
0.0
147
0.0
147
0.0
147
0.0
147
1.0
147
0.0
147
0.0
147
0.0
147
0.0
147
1.0
  0
MATERIAL
  5
1853
102
{ACAD_XDICTIONARY
360
1854
102
}
102
{ACAD_REACTORS
330
1B
102
}
330
1B
100
AcDbMaterial
  1
Global
 72
     0
 43
0.0008202099737533
 43
0.0
 43
0.0
 43
0.0
 43
0.0
 43
0.0008202099737533
 43
0.0
 43
0.0
 43
0.0
 43
0.0
 43
1.0
 43
0.0
 43
0.0
 43
0.0
 43
0.0
 43
1.0
 77
     0
 47
0.0008202099737533
 47
0.0
 47
0.0
 47
0.0
 47
0.0
 47
0.0008202099737533
 47
0.0
 47
0.0
 47
0.0
 47
0.0
 47
1.0
 47
0.0
 47
0.0
 47
0.0
 47
0.0
 47
1.0
171
     0
 49
0.0008202099737533
 49
0.0
 49
0.0
 49
0.0
 49
0.0
 49
0.0008202099737533
 49
0.0
 49
0.0
 49
0.0
 49
0.0
 49
1.0
 49
0.0
 49
0.0
 49
0.0
 49
0.0
 49
1.0
175
     0
142
0.0008202099737533
142
0.0
142
0.0
142
0.0
142
0.0
142
0.0008202099737533
142
0.0
142
0.0
142
0.0
142
0.0
142
1.0
142
0.0
142
0.0
142
0.0
142
0.0
142
1.0
179
     0
144
0.0008202099737533
144
0.0
144
0.0
144
0.0
144
0.0
144
0.0008202099737533
144
0.0
144
0.0
144
0.0
144
0.0
144
1.0
144
0.0
144
0.0
144
0.0
144
0.0
144
1.0
147
0.0008202099737533
147
0.0
147
0.0
147
0.0
147
0.0
147
0.0008202099737533
147
0.0
147
0.0
147
0.0
147
0.0
147
1.0
147
0.0
147
0.0
147
0.0
147
0.0
147
1.0
  0
MLEADERSTYLE
  5
1884
102
{ACAD_REACTORS
330
1883
102
}
330
1883
100
AcDbMLeaderStyle
170
     2
171
     1
172
     0
 90
        2
 40
0.0
 41
0.0
173
     1
 91
-1056964608
340
14
 92
       -2
290
     1
 42
2.0
291
     1
 43
0.36
  3
Standard
 44
4.0
300

342
11
174
     1
178
     6
175
     1
176
     0
 93
-1056964608
 45
4.0
292
     0
297
     0
 46
4.0
 94
-1056964608
 47
1.0
 49
1.0
140
1.0
293
     1
141
0.0
294
     1
177
     0
142
1.0
295
     0
296
     0
143
0.125
1001
ACAD_MLEADERVER
1070
     2
  0
MLINESTYLE
  5
18
102
{ACAD_REACTORS
330
17
102
}
330
17
100
AcDbMlineStyle
  2
STANDARD
 70
     0
  3

 62
   256
 51
90.0
 52
90.0
 71
     2
 49
0.5
 62
   256
  6
BYLAYER
 49
-0.5
 62
   256
  6
BYLAYER
  0
ACDBPLACEHOLDER
  5
F
102
{ACAD_REACTORS
330
E
102
}
330
E
  0
SCALE
  5
1872
102
{ACAD_REACTORS
330
1871
102
}
330
1871
100
AcDbScale
 70
     0
300
1:1
140
1.0
141
1.0
290
     1
  0
SCALE
  5
1873
102
{ACAD_REACTORS
330
1871
102
}
330
1871
100
AcDbScale
 70
     0
300
1:2
140
1.0
141
2.0
290
     0
  0
SCALE
  5
1874
102
{ACAD_REACTORS
330
1871
102
}
330
1871
100
AcDbScale
 70
     0
300
1:4
140
1.0
141
4.0
290
     0
  0
SCALE
  5
1875
102
{ACAD_REACTORS
330
1871
102
}
330
1871
100
AcDbScale
 70
     0
300
1:5
140
1.0
141
5.0
290
     0
  0
SCALE
  5
1876
102
{ACAD_REACTORS
330
1871
102
}
330
1871
100
AcDbScale
 70
     0
300
1:8
140
1.0
141
8.0
290
     0
  0
SCALE
  5
1877
102
{ACAD_REACTORS
330
1871
102
}
330
1871
100
AcDbScale
 70
     0
300
1:10
140
1.0
141
10.0
290
     0
  0
SCALE
  5
1878
102
{ACAD_REACTORS
330
1871
102
}
330
1871
100
AcDbScale
 70
     0
300
1:16
140
1.0
141
16.0
290
     0
  0
SCALE
  5
1879
102
{ACAD_REACTORS
330
1871
102
}
330
1871
100
AcDbScale
 70
     0
300
1:20
140
1.0
141
20.0
290
     0
  0
SCALE
  5
187A
102
{ACAD_REACTORS
330
1871
102
}
330
1871
100
AcDbScale
 70
     0
300
1:30
140
1.0
141
30.0
290
     0
  0
SCALE
  5
187B
102
{ACAD_REACTORS
330
1871
102
}
330
1871
100
AcDbScale
 70
     0
300
1:40
140
1.0
141
40.0
290
     0
  0
SCALE
  5
187C
102
{ACAD_REACTORS
330
1871
102
}
330
1871
100
AcDbScale
 70
     0
300
1:50
140
1.0
141
50.0
290
     0
  0
SCALE
  5
187D
102
{ACAD_REACTORS
330
1871
102
}
330
1871
100
AcDbScale
 70
     0
300
1:100
140
1.0
141
100.0
290
     0
  0
SCALE
  5
187E
102
{ACAD_REACTORS
330
1871
102
}
330
1871
100
AcDbScale
 70
     0
300
2:1
140
2.0
141
1.0
290
     0
  0
SCALE
  5
187F
102
{ACAD_REACTORS
330
1871
102
}
330
1871
100
AcDbScale
 70
     0
300
4:1
140
4.0
141
1.0
290
     0
  0
SCALE
  5
1880
102
{ACAD_REACTORS
330
1871
102
}
330
1871
100
AcDbScale
 70
     0
300
8:1
140
8.0
141
1.0
290
     0
  0
SCALE
  5
1881
102
{ACAD_REACTORS
330
1871
102
}
330
1871
100
AcDbScale
 70
     0
300
10:1
140
10.0
141
1.0
290
     0
  0
SCALE
  5
1882
102
{ACAD_REACTORS
330
1871
102
}
330
1871
100
AcDbScale
 70
     0
300
100:1
140
100.0
141
1.0
290
     0
  0
TABLESTYLE
  5
1870
102
{ACAD_XDICTIONARY
360
2071
102
}
102
{ACAD_REACTORS
330
186F
102
}
330
186F
100
AcDbTableStyle
  3
Standard
 70
     0
 71
     0
 40
1.5
 41
1.5
280
     0
281
     0
  7
Standard
140
4.5
170
     2
 62
     0
 63
     7
283
     0
274
    -2
284
     1
 64
     0
275
    -2
285
     1
 65
     0
276
    -2
286
     1
 66
     0
277
    -2
287
     1
 67
     0
278
    -2
288
     1
 68
     0
279
    -2
289
     1
 69
     0
  7
Standard
140
6.0
170
     5
 62
     0
 63
     7
283
     0
274
    -2
284
     1
 64
     0
275
    -2
285
     1
 65
     0
276
    -2
286
     1
 66
     0
277
    -2
287
     1
 67
     0
278
    -2
288
     1
 68
     0
279
    -2
289
     1
 69
     0
  7
Standard
140
4.5
170
     5
 62
     0
 63
     7
283
     0
274
    -2
284
     1
 64
     0
275
    -2
285
     1
 65
     0
276
    -2
286
     1
 66
     0
277
    -2
287
     1
 67
     0
278
    -2
288
     1
 68
     0
279
    -2
289
     1
 69
     0
  0
VISUALSTYLE
  5
1861
102
{ACAD_XDICTIONARY
360
2088
102
}
102
{ACAD_REACTORS
330
185B
102
}
330
185B
100
AcDbVisualStyle
  2
2dWireframe
 70
     4
 71
     0
 72
     2
 73
     0
 90
        0
 40
-0.6
 41
-30.0
 62
     5
 63
     7
 74
     1
 91
        4
 64
     7
 65
   257
 75
     1
175
     1
 42
1.0
 92
        0
 66
   257
 43
1.0
 76
     1
 77
     6
 78
     2
 67
     7
 79
     5
170
     0
171
     0
290
     0
174
     0
 93
        1
 44
0.0
173
     0
291
     0
 45
0.0
1001
ACAD
1000
AcDbSavedByObjectVersion
1070
     0
  0
VISUALSTYLE
  5
1863
102
{ACAD_XDICTIONARY
360
208C
102
}
102
{ACAD_REACTORS
330
185B
102
}
330
185B
100
AcDbVisualStyle
  2
3D Hidden
 70
     6
 71
     1
 72
     2
 73
     2
 90
        0
 40
-0.6
 41
-30.0
 62
     5
 63
     7
 74
     2
 91
        2
 64
     7
 65
   257
 75
     2
175
     1
 42
179.0
 92
        0
 66
   257
 43
1.0
 76
     1
 77
     6
 78
     2
 67
     7
 79
     3
170
     0
171
     0
290
     0
174
     0
 93
        1
 44
0.0
173
     0
291
     0
 45
0.0
1001
ACAD
1000
AcDbSavedByObjectVersion
1070
     0
  0
VISUALSTYLE
  5
1862
102
{ACAD_XDICTIONARY
360
208A
102
}
102
{ACAD_REACTORS
330
185B
102
}
330
185B
100
AcDbVisualStyle
  2
3dWireframe
 70
     5
 71
     0
 72
     2
 73
     0
 90
        0
 40
-0.6
 41
-30.0
 62
     5
 63
     7
 74
     1
 91
        4
 64
     7
 65
   257
 75
     1
175
     1
 42
1.0
 92
        0
 66
   257
 43
1.0
 76
     1
 77
     6
 78
     2
 67
     7
 79
     5
170
     0
171
     0
290
     0
174
     0
 93
        1
 44
0.0
173
     0
291
     0
 45
0.0
1001
ACAD
1000
AcDbSavedByObjectVersion
1070
     0
  0
VISUALSTYLE
  5
1860
102
{ACAD_XDICTIONARY
360
2086
102
}
102
{ACAD_REACTORS
330
185B
102
}
330
185B
100
AcDbVisualStyle
  2
Basic
 70
     7
 71
     1
 72
     0
 73
     1
 90
        0
 40
-0.6
 41
-30.0
 62
     5
 63
     7
 74
     0
 91
        4
 64
     7
 65
   257
 75
     1
175
     1
 42
1.0
 92
        8
 66
     7
 43
1.0
 76
     1
 77
     6
 78
     2
 67
     7
 79
     5
170
     0
171
     0
290
     0
174
     0
 93
        1
 44
0.0
173
     0
291
     1
 45
0.0
1001
ACAD
1000
AcDbSavedByObjectVersion
1070
     0
  0
VISUALSTYLE
  5
1867
102
{ACAD_XDICTIONARY
360
2094
102
}
102
{ACAD_REACTORS
330
185B
102
}
330
185B
100
AcDbVisualStyle
  2
Brighten
 70
    12
 71
     2
 72
     2
 73
     0
 90
        0
 40
-0.6
 41
-30.0
 62
     5
 63
     7
 74
     1
 91
        4
 64
     7
 65
   257
 75
     1
175
     1
 42
1.0
 92
        8
 66
     7
 43
1.0
 76
     1
 77
     6
 78
     2
 67
     7
 79
     5
170
     0
171
     0
290
     0
174
     0
 93
        1
 44
50.0
173
     0
291
     1
 45
0.0
1001
ACAD
1000
AcDbSavedByObjectVersion
1070
     0
  0
VISUALSTYLE
  5
186B
102
{ACAD_XDICTIONARY
360
209C
102
}
102
{ACAD_REACTORS
330
185B
102
}
330
185B
100
AcDbVisualStyle
  2
ColorChange
 70
    16
 71
     2
 72
     2
 73
     3
 90
        0
 40
-0.6
 41
-30.0
 62
     5
 63
     8
 74
     1
 91
        4
 64
     7
 65
   257
 75
     1
175
     1
 42
1.0
 92
        8
 66
     8
 43
1.0
 76
     1
 77
     6
 78
     2
 67
     7
 79
     5
170
     0
171
     0
290
     0
174
     0
 93
        1
 44
0.0
173
     0
291
     1
 45
0.0
1001
ACAD
1000
AcDbSavedByObjectVersion
1070
     0
  0
VISUALSTYLE
  5
1864
102
{ACAD_XDICTIONARY
360
208E
102
}
102
{ACAD_REACTORS
330
185B
102
}
330
185B
100
AcDbVisualStyle
  2
Conceptual
 70
     9
 71
     3
 72
     2
 73
     0
 90
        0
 40
-0.6
 41
-30.0
 62
     5
 63
     7
 74
     2
 91
        2
 64
     7
 65
   257
 75
     1
175
     1
 42
179.0
 92
        8
 66
     7
 43
1.0
 76
     1
 77
     6
 78
     2
 67
     7
 79
     3
170
     0
171
     0
290
     0
174
     0
 93
        1
 44
0.0
173
     0
291
     0
 45
0.0
1001
ACAD
1000
AcDbSavedByObjectVersion
1070
     0
  0
VISUALSTYLE
  5
1866
102
{ACAD_XDICTIONARY
360
2092
102
}
102
{ACAD_REACTORS
330
185B
102
}
330
185B
100
AcDbVisualStyle
  2
Dim
 70
    11
 71
     2
 72
     2
 73
     0
 90
        0
 40
-0.6
 41
-30.0
 62
     5
 63
     7
 74
     1
 91
        4
 64
     7
 65
   257
 75
     1
175
     1
 42
1.0
 92
        8
 66
     7
 43
1.0
 76
     1
 77
     6
 78
     2
 67
     7
 79
     5
170
     0
171
     0
290
     0
174
     0
 93
        1
 44
-50.0
173
     0
291
     1
 45
0.0
1001
ACAD
1000
AcDbSavedByObjectVersion
1070
     0
  0
VISUALSTYLE
  5
186E
102
{ACAD_XDICTIONARY
360
20A2
102
}
102
{ACAD_REACTORS
330
185B
102
}
330
185B
100
AcDbVisualStyle
  2
EdgeColorOff
 70
    22
 71
     2
 72
     2
 73
     0
 90
        0
 40
-0.6
 41
-30.0
 62
     5
 63
     7
 74
     1
 91
        4
 64
     7
 65
   257
 75
     1
175
     1
 42
1.0
 92
        8
 66
     7
 43
1.0
 76
     1
 77
     6
 78
     2
 67
     7
 79
     5
170
     0
171
     0
290
     0
174
     0
 93
        1
 44
0.0
173
     0
291
     1
 45
0.0
1001
ACAD
1000
AcDbSavedByObjectVersion
1070
     0
  0
VISUALSTYLE
  5
186A
102
{ACAD_XDICTIONARY
360
209A
102
}
102
{ACAD_REACTORS
330
185B
102
}
330
185B
100
AcDbVisualStyle
  2
Facepattern
 70
    15
 71
     2
 72
     2
 73
     0
 90
        0
 40
-0.6
 41
-30.0
 62
     5
 63
     7
 74
     1
 91
        4
 64
     7
 65
   257
 75
     1
175
     1
 42
1.0
 92
        8
 66
     7
 43
1.0
 76
     1
 77
     6
 78
     2
 67
     7
 79
     5
170
     0
171
     0
290
     0
174
     0
 93
        1
 44
0.0
173
     0
291
     1
 45
0.0
1001
ACAD
1000
AcDbSavedByObjectVersion
1070
     0
  0
VISUALSTYLE
  5
185C
102
{ACAD_XDICTIONARY
360
207E
102
}
102
{ACAD_REACTORS
330
185B
102
}
330
185B
100
AcDbVisualStyle
  2
Flat
 70
     0
 71
     2
 72
     1
 73
     1
 90
        2
 40
-0.6
 41
30.0
 62
     5
 63
     7
 74
     0
 91
        4
 64
     7
 65
   257
 75
     1
175
     1
 42
1.0
 92
        8
 66
     7
 43
1.0
 76
     1
 77
     6
 78
     2
 67
     7
 79
     5
170
     0
171
     0
290
     0
174
     0
 93
       13
 44
0.0
173
     0
291
     1
 45
0.0
1001
ACAD
1000
AcDbSavedByObjectVersion
1070
     0
  0
VISUALSTYLE
  5
185D
102
{ACAD_XDICTIONARY
360
2080
102
}
102
{ACAD_REACTORS
330
185B
102
}
330
185B
100
AcDbVisualStyle
  2
FlatWithEdges
 70
     1
 71
     2
 72
     1
 73
     1
 90
        2
 40
-0.6
 41
30.0
 62
     5
 63
     7
 74
     1
 91
        4
 64
     7
 65
   257
 75
     1
175
     1
 42
1.0
 92
        0
 66
   257
 43
1.0
 76
     1
 77
     6
 78
     2
 67
     7
 79
     5
170
     0
171
     0
290
     0
174
     0
 93
       13
 44
0.0
173
     0
291
     1
 45
0.0
1001
ACAD
1000
AcDbSavedByObjectVersion
1070
     0
  0
VISUALSTYLE
  5
185E
102
{ACAD_XDICTIONARY
360
2082
102
}
102
{ACAD_REACTORS
330
185B
102
}
330
185B
100
AcDbVisualStyle
  2
Gouraud
 70
     2
 71
     2
 72
     2
 73
     1
 90
        2
 40
-0.6
 41
30.0
 62
     5
 63
     7
 74
     0
 91
        4
 64
     7
 65
   257
 75
     1
175
     1
 42
1.0
 92
        0
 66
     7
 43
1.0
 76
     1
 77
     6
 78
     2
 67
     7
 79
     5
170
     0
171
     0
290
     0
174
     0
 93
       13
 44
0.0
173
     0
291
     1
 45
0.0
1001
ACAD
1000
AcDbSavedByObjectVersion
1070
     0
  0
VISUALSTYLE
  5
185F
102
{ACAD_XDICTIONARY
360
2084
102
}
102
{ACAD_REACTORS
330
185B
102
}
330
185B
100
AcDbVisualStyle
  2
GouraudWithEdges
 70
     3
 71
     2
 72
     2
 73
     1
 90
        2
 40
-0.6
 41
30.0
 62
     5
 63
     7
 74
     1
 91
        4
 64
     7
 65
   257
 75
     1
175
     1
 42
1.0
 92
        0
 66
   257
 43
1.0
 76
     1
 77
     6
 78
     2
 67
     7
 79
     5
170
     0
171
     0
290
     0
174
     0
 93
       13
 44
0.0
173
     0
291
     1
 45
0.0
1001
ACAD
1000
AcDbSavedByObjectVersion
1070
     0
  0
VISUALSTYLE
  5
186C
102
{ACAD_XDICTIONARY
360
209E
102
}
102
{ACAD_REACTORS
330
185B
102
}
330
185B
100
AcDbVisualStyle
  2
JitterOff
 70
    20
 71
     2
 72
     2
 73
     0
 90
        0
 40
-0.6
 41
-30.0
 62
     5
 63
     7
 74
     1
 91
        4
 64
     7
 65
   257
 75
     1
175
     1
 42
1.0
 92
       10
 66
     7
 43
1.0
 76
     1
 77
     6
 78
     2
 67
     7
 79
     5
170
     0
171
     0
290
     0
174
     0
 93
        1
 44
0.0
173
     0
291
     1
 45
0.0
1001
ACAD
1000
AcDbSavedByObjectVersion
1070
     0
  0
VISUALSTYLE
  5
1869
102
{ACAD_XDICTIONARY
360
2098
102
}
102
{ACAD_REACTORS
330
185B
102
}
330
185B
100
AcDbVisualStyle
  2
Linepattern
 70
    14
 71
     2
 72
     2
 73
     0
 90
        0
 40
-0.6
 41
-30.0
 62
     5
 63
     7
 74
     1
 91
        4
 64
     7
 65
   257
 75
     7
175
     7
 42
1.0
 92
        8
 66
     7
 43
1.0
 76
     1
 77
     6
 78
     2
 67
     7
 79
     5
170
     0
171
     0
290
     0
174
     0
 93
        1
 44
0.0
173
     0
291
     1
 45
0.0
1001
ACAD
1000
AcDbSavedByObjectVersion
1070
     0
  0
VISUALSTYLE
  5
186D
102
{ACAD_XDICTIONARY
360
20A0
102
}
102
{ACAD_REACTORS
330
185B
102
}
330
185B
100
AcDbVisualStyle
  2
OverhangOff
 70
    21
 71
     2
 72
     2
 73
     0
 90
        0
 40
-0.6
 41
-30.0
 62
     5
 63
     7
 74
     1
 91
        4
 64
     7
 65
   257
 75
     1
175
     1
 42
1.0
 92
        9
 66
     7
 43
1.0
 76
     1
 77
     6
 78
     2
 67
     7
 79
     5
170
     0
171
     0
290
     0
174
     0
 93
        1
 44
0.0
173
     0
291
     1
 45
0.0
1001
ACAD
1000
AcDbSavedByObjectVersion
1070
     0
  0
VISUALSTYLE
  5
1865
102
{ACAD_XDICTIONARY
360
2090
102
}
102
{ACAD_REACTORS
330
185B
102
}
330
185B
100
AcDbVisualStyle
  2
Realistic
 70
     8
 71
     2
 72
     2
 73
     0
 90
        0
 40
-0.6
 41
-30.0
 62
     5
 63
     7
 74
     1
 91
        0
 64
     7
 65
   257
 75
     1
175
     1
 42
1.0
 92
        8
 66
     8
 43
1.0
 76
     1
 77
     6
 78
     2
 67
     7
 79
     5
170
     0
171
     0
290
     0
174
     0
 93
       13
 44
0.0
173
     0
291
     0
 45
0.0
1001
ACAD
1000
AcDbSavedByObjectVersion
1070
     0
  0
VISUALSTYLE
  5
1868
102
{ACAD_XDICTIONARY
360
2096
102
}
102
{ACAD_REACTORS
330
185B
102
}
330
185B
100
AcDbVisualStyle
  2
Thicken
 70
    13
 71
     2
 72
     2
 73
     0
 90
        0
 40
-0.6
 41
-30.0
 62
     5
 63
     7
 74
     1
 91
        4
 64
     7
 65
   257
 75
     1
175
     1
 42
1.0
 92
       12
 66
     7
 43
1.0
 76
     1
 77
     6
 78
     2
 67
     7
 79
     5
170
     0
171
     0
290
     0
174
     0
 93
        1
 44
0.0
173
     0
291
     1
 45
0.0
1001
ACAD
1000
AcDbSavedByObjectVersion
1070
     0
  0
DICTIONARYVAR
  5
206B
102
{ACAD_REACTORS
330
2068
102
}
330
2068
100
DictionaryVariables
280
     0
  1
1:1
  0
DICTIONARYVAR
  5
206A
102
{ACAD_REACTORS
330
2068
102
}
330
2068
100
DictionaryVariables
280
     0
  1
STANDARD
  0
DICTIONARYVAR
  5
2069
102
{ACAD_REACTORS
330
2068
102
}
330
2068
100
DictionaryVariables
280
     0
  1
STANDARD
  0
DICTIONARYVAR
  5
2070
102
{ACAD_REACTORS
330
2068
102
}
330
2068
100
DictionaryVariables
280
     0
  1
2
  0
DICTIONARYVAR
  5
206E
102
{ACAD_REACTORS
330
2068
102
}
330
2068
100
DictionaryVariables
280
     0
  1
1
  0
DICTIONARYVAR
  5
206D
102
{ACAD_REACTORS
330
2068
102
}
330
2068
100
DictionaryVariables
280
     0
  1
0
  0
DICTIONARYVAR
  5
206C
102
{ACAD_REACTORS
330
2068
102
}
330
2068
100
DictionaryVariables
280
     0
  1
127
  0
DICTIONARYVAR
  5
206F
102
{ACAD_REACTORS
330
2068
102
}
330
2068
100
DictionaryVariables
280
     0
  1
0
  0
DICTIONARY
  5
18EE
102
{ACAD_REACTORS
330
18E2
102
}
330
18E2
100
AcDbDictionary
281
     1
  0
VLO-VL
  5
1925
102
{ACAD_REACTORS
330
1924
102
}
330
1924
100
vlo_VL
 90
   -64512
 91
       12
 92
        1
 40
2.5
300
(&VLO-R . 0)
  0
DICTIONARY
  5
2077
330
24
100
AcDbDictionary
280
     1
281
     1
  3
ACAD_XREC_ROUNDTRIP
360
2078
  0
DICTIONARY
  5
2075
330
20
100
AcDbDictionary
280
     1
281
     1
  3
ACAD_XREC_ROUNDTRIP
360
2076
  0
DICTIONARY
  5
2079
330
28
100
AcDbDictionary
280
     1
281
     1
  3
ACAD_XREC_ROUNDTRIP
360
207A
  0
DICTIONARY
  5
184C
330
184B
100
AcDbDictionary
280
     1
281
     1
  3
ACAD_XREC_ROUNDTRIP
360
207C
  3
BUMPTILE
360
184E
  3
DIFFUSETILE
360
184D
  3
OPACITYTILE
360
1851
  3
REFLECTIONTILE
360
1850
  3
REFRACTIONTILE
360
1852
  3
SPECULARTILE
360
184F
  0
DICTIONARY
  5
1844
330
1843
100
AcDbDictionary
280
     1
281
     1
  3
ACAD_XREC_ROUNDTRIP
360
207B
  3
BUMPTILE
360
1846
  3
DIFFUSETILE
360
1845
  3
OPACITYTILE
360
1849
  3
REFLECTIONTILE
360
1848
  3
REFRACTIONTILE
360
184A
  3
SPECULARTILE
360
1847
  0
DICTIONARY
  5
1854
330
1853
100
AcDbDictionary
280
     1
281
     1
  3
ACAD_XREC_ROUNDTRIP
360
207D
  3
BUMPTILE
360
1856
  3
DIFFUSETILE
360
1855
  3
OPACITYTILE
360
1859
  3
REFLECTIONTILE
360
1858
  3
REFRACTIONTILE
360
185A
  3
SPECULARTILE
360
1857
  0
DICTIONARY
  5
2071
330
1870
100
AcDbDictionary
280
     1
281
     1
  3
ACAD_ROUNDTRIP_2008_TABLESTYLE_CELLSTYLEMAP
360
2072
  3
ACAD_XREC_ROUNDTRIP
360
20A4
  0
DICTIONARY
  5
2088
330
1861
100
AcDbDictionary
280
     1
281
     1
  3
ACAD_XREC_ROUNDTRIP
360
2089
  0
DICTIONARY
  5
208C
330
1863
100
AcDbDictionary
280
     1
281
     1
  3
ACAD_XREC_ROUNDTRIP
360
208D
  0
DICTIONARY
  5
208A
330
1862
100
AcDbDictionary
280
     1
281
     1
  3
ACAD_XREC_ROUNDTRIP
360
208B
  0
DICTIONARY
  5
2086
330
1860
100
AcDbDictionary
280
     1
281
     1
  3
ACAD_XREC_ROUNDTRIP
360
2087
  0
DICTIONARY
  5
2094
330
1867
100
AcDbDictionary
280
     1
281
     1
  3
ACAD_XREC_ROUNDTRIP
360
2095
  0
DICTIONARY
  5
209C
330
186B
100
AcDbDictionary
280
     1
281
     1
  3
ACAD_XREC_ROUNDTRIP
360
209D
  0
DICTIONARY
  5
208E
330
1864
100
AcDbDictionary
280
     1
281
     1
  3
ACAD_XREC_ROUNDTRIP
360
208F
  0
DICTIONARY
  5
2092
330
1866
100
AcDbDictionary
280
     1
281
     1
  3
ACAD_XREC_ROUNDTRIP
360
2093
  0
DICTIONARY
  5
20A2
330
186E
100
AcDbDictionary
280
     1
281
     1
  3
ACAD_XREC_ROUNDTRIP
360
20A3
  0
DICTIONARY
  5
209A
330
186A
100
AcDbDictionary
280
     1
281
     1
  3
ACAD_XREC_ROUNDTRIP
360
209B
  0
DICTIONARY
  5
207E
330
185C
100
AcDbDictionary
280
     1
281
     1
  3
ACAD_XREC_ROUNDTRIP
360
207F
  0
DICTIONARY
  5
2080
330
185D
100
AcDbDictionary
280
     1
281
     1
  3
ACAD_XREC_ROUNDTRIP
360
2081
  0
DICTIONARY
  5
2082
330
185E
100
AcDbDictionary
280
     1
281
     1
  3
ACAD_XREC_ROUNDTRIP
360
2083
  0
DICTIONARY
  5
2084
330
185F
100
AcDbDictionary
280
     1
281
     1
  3
ACAD_XREC_ROUNDTRIP
360
2085
  0
DICTIONARY
  5
209E
330
186C
100
AcDbDictionary
280
     1
281
     1
  3
ACAD_XREC_ROUNDTRIP
360
209F
  0
DICTIONARY
  5
2098
330
1869
100
AcDbDictionary
280
     1
281
     1
  3
ACAD_XREC_ROUNDTRIP
360
2099
  0
DICTIONARY
  5
20A0
330
186D
100
AcDbDictionary
280
     1
281
     1
  3
ACAD_XREC_ROUNDTRIP
360
20A1
  0
DICTIONARY
  5
2090
330
1865
100
AcDbDictionary
280
     1
281
     1
  3
ACAD_XREC_ROUNDTRIP
360
2091
  0
DICTIONARY
  5
2096
330
1868
100
AcDbDictionary
280
     1
281
     1
  3
ACAD_XREC_ROUNDTRIP
360
2097
  0
XRECORD
  5
2078
102
{ACAD_REACTORS
330
2077
102
}
330
2077
100
AcDbXrecord
280
     1
102
SHADEPLOT
 70
     0
102
SHADEPLOTRESLEVEL
 70
     2
102
SHADEPLOTCUSTOMDPI
 70
   300
  0
XRECORD
  5
2076
102
{ACAD_REACTORS
330
2075
102
}
330
2075
100
AcDbXrecord
280
     1
102
SHADEPLOT
 70
     0
102
SHADEPLOTRESLEVEL
 70
     2
102
SHADEPLOTCUSTOMDPI
 70
   300
  0
XRECORD
  5
207A
102
{ACAD_REACTORS
330
2079
102
}
330
2079
100
AcDbXrecord
280
     1
102
SHADEPLOT
 70
     0
102
SHADEPLOTRESLEVEL
 70
     2
102
SHADEPLOTCUSTOMDPI
 70
   300
  0
XRECORD
  5
207C
102
{ACAD_REACTORS
330
184C
102
}
330
184C
100
AcDbXrecord
280
     1
102
MATERIAL
148
0.0
149
0.0
149
0.0
 93
        0
 94
      127
282
     0
 72
     0
 77
     0
171
     0
175
     0
179
     0
273
     0
  0
XRECORD
  5
184E
102
{ACAD_REACTORS
330
184C
102
}
330
184C
100
AcDbXrecord
280
     1
270
     1
271
     1
  0
XRECORD
  5
184D
102
{ACAD_REACTORS
330
184C
102
}
330
184C
100
AcDbXrecord
280
     1
270
     1
271
     1
  0
XRECORD
  5
1851
102
{ACAD_REACTORS
330
184C
102
}
330
184C
100
AcDbXrecord
280
     1
270
     1
271
     1
  0
XRECORD
  5
1850
102
{ACAD_REACTORS
330
184C
102
}
330
184C
100
AcDbXrecord
280
     1
270
     1
271
     1
  0
XRECORD
  5
1852
102
{ACAD_REACTORS
330
184C
102
}
330
184C
100
AcDbXrecord
280
     1
270
     1
271
     1
  0
XRECORD
  5
184F
102
{ACAD_REACTORS
330
184C
102
}
330
184C
100
AcDbXrecord
280
     1
270
     1
271
     1
  0
XRECORD
  5
207B
102
{ACAD_REACTORS
330
1844
102
}
330
1844
100
AcDbXrecord
280
     1
102
MATERIAL
148
0.0
149
0.0
149
0.0
 93
        0
 94
      127
282
     0
 72
     0
 77
     0
171
     0
175
     0
179
     0
273
     0
  0
XRECORD
  5
1846
102
{ACAD_REACTORS
330
1844
102
}
330
1844
100
AcDbXrecord
280
     1
270
     1
271
     1
  0
XRECORD
  5
1845
102
{ACAD_REACTORS
330
1844
102
}
330
1844
100
AcDbXrecord
280
     1
270
     1
271
     1
  0
XRECORD
  5
1849
102
{ACAD_REACTORS
330
1844
102
}
330
1844
100
AcDbXrecord
280
     1
270
     1
271
     1
  0
XRECORD
  5
1848
102
{ACAD_REACTORS
330
1844
102
}
330
1844
100
AcDbXrecord
280
     1
270
     1
271
     1
  0
XRECORD
  5
184A
102
{ACAD_REACTORS
330
1844
102
}
330
1844
100
AcDbXrecord
280
     1
270
     1
271
     1
  0
XRECORD
  5
1847
102
{ACAD_REACTORS
330
1844
102
}
330
1844
100
AcDbXrecord
280
     1
270
     1
271
     1
  0
XRECORD
  5
207D
102
{ACAD_REACTORS
330
1854
102
}
330
1854
100
AcDbXrecord
280
     1
102
MATERIAL
148
0.0
149
0.0
149
0.0
 93
        0
 94
      127
282
     0
 72
     0
 77
     0
171
     0
175
     0
179
     0
273
     0
  0
XRECORD
  5
1856
102
{ACAD_REACTORS
330
1854
102
}
330
1854
100
AcDbXrecord
280
     1
270
     1
271
     1
  0
XRECORD
  5
1855
102
{ACAD_REACTORS
330
1854
102
}
330
1854
100
AcDbXrecord
280
     1
270
     1
271
     1
  0
XRECORD
  5
1859
102
{ACAD_REACTORS
330
1854
102
}
330
1854
100
AcDbXrecord
280
     1
270
     1
271
     1
  0
XRECORD
  5
1858
102
{ACAD_REACTORS
330
1854
102
}
330
1854
100
AcDbXrecord
280
     1
270
     1
271
     1
  0
XRECORD
  5
185A
102
{ACAD_REACTORS
330
1854
102
}
330
1854
100
AcDbXrecord
280
     1
270
     1
271
     1
  0
XRECORD
  5
1857
102
{ACAD_REACTORS
330
1854
102
}
330
1854
100
AcDbXrecord
280
     1
270
     1
271
     1
  0
CELLSTYLEMAP
  5
2072
102
{ACAD_REACTORS
330
2071
102
}
330
2071
100
AcDbCellStyleMap
 90
        3
300
CELLSTYLE
  1
TABLEFORMAT_BEGIN
 90
        5
170
     1
 91
        0
 92
    32768
 62
   257
 93
        1
300
CONTENTFORMAT
  1
CONTENTFORMAT_BEGIN
 90
        0
 91
        0
 92
      512
 93
        0
300

 40
0.0
140
1.0
 94
        5
 62
     0
340
11
144
6.0
309
CONTENTFORMAT_END
171
     1
301
MARGIN
  1
CELLMARGIN_BEGIN
 40
1.5
 40
1.5
 40
1.5
 40
1.5
 40
4.5
 40
4.5
309
CELLMARGIN_END
 94
        6
 95
        1
302
GRIDFORMAT
  1
GRIDFORMAT_BEGIN
 90
        0
 91
        1
 62
     0
 92
       -2
340
0
 93
        0
 40
1.125
309
GRIDFORMAT_END
 95
        2
302
GRIDFORMAT
  1
GRIDFORMAT_BEGIN
 90
        0
 91
        1
 62
     0
 92
       -2
340
0
 93
        0
 40
1.125
309
GRIDFORMAT_END
 95
        4
302
GRIDFORMAT
  1
GRIDFORMAT_BEGIN
 90
        0
 91
        1
 62
     0
 92
       -2
340
0
 93
        0
 40
1.125
309
GRIDFORMAT_END
 95
        8
302
GRIDFORMAT
  1
GRIDFORMAT_BEGIN
 90
        0
 91
        1
 62
     0
 92
       -2
340
0
 93
        0
 40
1.125
309
GRIDFORMAT_END
 95
       16
302
GRIDFORMAT
  1
GRIDFORMAT_BEGIN
 90
        0
 91
        1
 62
     0
 92
       -2
340
0
 93
        0
 40
1.125
309
GRIDFORMAT_END
 95
       32
302
GRIDFORMAT
  1
GRIDFORMAT_BEGIN
 90
        0
 91
        1
 62
     0
 92
       -2
340
0
 93
        0
 40
1.125
309
GRIDFORMAT_END
309
TABLEFORMAT_END
  1
CELLSTYLE_BEGIN
 90
        1
 91
        1
300
_TITLE
309
CELLSTYLE_END
300
CELLSTYLE
  1
TABLEFORMAT_BEGIN
 90
        5
170
     1
 91
        0
 92
        0
 62
   257
 93
        1
300
CONTENTFORMAT
  1
CONTENTFORMAT_BEGIN
 90
        0
 91
        0
 92
      512
 93
        0
300

 40
0.0
140
1.0
 94
        5
 62
     0
340
11
144
4.5
309
CONTENTFORMAT_END
171
     1
301
MARGIN
  1
CELLMARGIN_BEGIN
 40
1.5
 40
1.5
 40
1.5
 40
1.5
 40
4.5
 40
4.5
309
CELLMARGIN_END
 94
        6
 95
        1
302
GRIDFORMAT
  1
GRIDFORMAT_BEGIN
 90
        0
 91
        1
 62
     0
 92
       -2
340
0
 93
        0
 40
1.125
309
GRIDFORMAT_END
 95
        2
302
GRIDFORMAT
  1
GRIDFORMAT_BEGIN
 90
        0
 91
        1
 62
     0
 92
       -2
340
0
 93
        0
 40
1.125
309
GRIDFORMAT_END
 95
        4
302
GRIDFORMAT
  1
GRIDFORMAT_BEGIN
 90
        0
 91
        1
 62
     0
 92
       -2
340
0
 93
        0
 40
1.125
309
GRIDFORMAT_END
 95
        8
302
GRIDFORMAT
  1
GRIDFORMAT_BEGIN
 90
        0
 91
        1
 62
     0
 92
       -2
340
0
 93
        0
 40
1.125
309
GRIDFORMAT_END
 95
       16
302
GRIDFORMAT
  1
GRIDFORMAT_BEGIN
 90
        0
 91
        1
 62
     0
 92
       -2
340
0
 93
        0
 40
1.125
309
GRIDFORMAT_END
 95
       32
302
GRIDFORMAT
  1
GRIDFORMAT_BEGIN
 90
        0
 91
        1
 62
     0
 92
       -2
340
0
 93
        0
 40
1.125
309
GRIDFORMAT_END
309
TABLEFORMAT_END
  1
CELLSTYLE_BEGIN
 90
        2
 91
        1
300
_HEADER
309
CELLSTYLE_END
300
CELLSTYLE
  1
TABLEFORMAT_BEGIN
 90
        5
170
     1
 91
        0
 92
        0
 62
   257
 93
        1
300
CONTENTFORMAT
  1
CONTENTFORMAT_BEGIN
 90
        0
 91
        0
 92
      512
 93
        0
300

 40
0.0
140
1.0
 94
        2
 62
     0
340
11
144
4.5
309
CONTENTFORMAT_END
171
     1
301
MARGIN
  1
CELLMARGIN_BEGIN
 40
1.5
 40
1.5
 40
1.5
 40
1.5
 40
4.5
 40
4.5
309
CELLMARGIN_END
 94
        6
 95
        1
302
GRIDFORMAT
  1
GRIDFORMAT_BEGIN
 90
        0
 91
        1
 62
     0
 92
       -2
340
0
 93
        0
 40
1.125
309
GRIDFORMAT_END
 95
        2
302
GRIDFORMAT
  1
GRIDFORMAT_BEGIN
 90
        0
 91
        1
 62
     0
 92
       -2
340
0
 93
        0
 40
1.125
309
GRIDFORMAT_END
 95
        4
302
GRIDFORMAT
  1
GRIDFORMAT_BEGIN
 90
        0
 91
        1
 62
     0
 92
       -2
340
0
 93
        0
 40
1.125
309
GRIDFORMAT_END
 95
        8
302
GRIDFORMAT
  1
GRIDFORMAT_BEGIN
 90
        0
 91
        1
 62
     0
 92
       -2
340
0
 93
        0
 40
1.125
309
GRIDFORMAT_END
 95
       16
302
GRIDFORMAT
  1
GRIDFORMAT_BEGIN
 90
        0
 91
        1
 62
     0
 92
       -2
340
0
 93
        0
 40
1.125
309
GRIDFORMAT_END
 95
       32
302
GRIDFORMAT
  1
GRIDFORMAT_BEGIN
 90
        0
 91
        1
 62
     0
 92
       -2
340
0
 93
        0
 40
1.125
309
GRIDFORMAT_END
309
TABLEFORMAT_END
  1
CELLSTYLE_BEGIN
 90
        3
 91
        2
300
_DATA
309
CELLSTYLE_END
  0
XRECORD
  5
20A4
102
{ACAD_REACTORS
330
2071
102
}
330
2071
100
AcDbXrecord
280
     1
102
ACAD_ROUNDTRIP_PRE2007_TABLESTYLE
 90
      512
 91
        0
  1

 92
      512
 93
        0
  2

 94
      512
 95
        0
  3

  0
XRECORD
  5
2089
102
{ACAD_REACTORS
330
2088
102
}
330
2088
100
AcDbXrecord
280
     1
102
RTVSPropertyOp0
 70
     1
102
RTVSPropertyOp1
 70
     1
102
RTVSPropertyOp2
 70
     1
102
RTVSPropertyOp3
 70
     1
102
RTVSPropertyOp4
 70
     1
102
RTVSPropertyOp5
 70
     1
102
RTVSPropertyOp6
 70
     1
102
RTVSPropertyOp7
 70
     1
102
RTVSPropertyOp8
 70
     1
102
RTVSPropertyOp9
 70
     1
102
RTVSPropertyOp10
 70
     1
102
RTVSPropertyOp11
 70
     1
102
RTVSPropertyOp12
 70
     1
102
RTVSPropertyOp13
 70
     1
102
RTVSPropertyOp14
 70
     1
102
RTVSPropertyOp15
 70
     1
102
RTVSPropertyOp16
 70
     1
102
RTVSPropertyOp17
 70
     1
102
RTVSPropertyOp18
 70
     1
102
RTVSPropertyOp19
 70
     1
102
RTVSPropertyOp20
 70
     1
102
RTVSPropertyOp21
 70
     1
102
RTVSPropertyOp22
 70
     1
102
RTVSPropertyOp23
 70
     1
102
RTVSPropertyOp24
 70
     1
102
RTVSPropertyOp25
 70
     1
102
RTVSPropertyOp26
 70
     1
102
RTVSPropertyOp27
 70
     1
  0
XRECORD
  5
208D
102
{ACAD_REACTORS
330
208C
102
}
330
208C
100
AcDbXrecord
280
     1
102
RTVSPropertyOp0
 70
     1
102
RTVSPropertyOp1
 70
     1
102
RTVSPropertyOp2
 70
     1
102
RTVSPropertyOp3
 70
     1
102
RTVSPropertyOp4
 70
     1
102
RTVSPropertyOp5
 70
     1
102
RTVSPropertyOp6
 70
     1
102
RTVSPropertyOp7
 70
     1
102
RTVSPropertyOp8
 70
     1
102
RTVSPropertyOp9
 70
     1
102
RTVSPropertyOp10
 70
     1
102
RTVSPropertyOp11
 70
     1
102
RTVSPropertyOp12
 70
     1
102
RTVSPropertyOp13
 70
     1
102
RTVSPropertyOp14
 70
     1
102
RTVSPropertyOp15
 70
     1
102
RTVSPropertyOp16
 70
     1
102
RTVSPropertyOp17
 70
     1
102
RTVSPropertyOp18
 70
     1
102
RTVSPropertyOp19
 70
     1
102
RTVSPropertyOp20
 70
     1
102
RTVSPropertyOp21
 70
     1
102
RTVSPropertyOp22
 70
     1
102
RTVSPropertyOp23
 70
     1
102
RTVSPropertyOp24
 70
     1
102
RTVSPropertyOp25
 70
     1
102
RTVSPropertyOp26
 70
     1
102
RTVSPropertyOp27
 70
     1
  0
XRECORD
  5
208B
102
{ACAD_REACTORS
330
208A
102
}
330
208A
100
AcDbXrecord
280
     1
102
RTVSPropertyOp0
 70
     1
102
RTVSPropertyOp1
 70
     1
102
RTVSPropertyOp2
 70
     1
102
RTVSPropertyOp3
 70
     1
102
RTVSPropertyOp4
 70
     1
102
RTVSPropertyOp5
 70
     1
102
RTVSPropertyOp6
 70
     1
102
RTVSPropertyOp7
 70
     1
102
RTVSPropertyOp8
 70
     1
102
RTVSPropertyOp9
 70
     1
102
RTVSPropertyOp10
 70
     1
102
RTVSPropertyOp11
 70
     1
102
RTVSPropertyOp12
 70
     1
102
RTVSPropertyOp13
 70
     1
102
RTVSPropertyOp14
 70
     1
102
RTVSPropertyOp15
 70
     1
102
RTVSPropertyOp16
 70
     1
102
RTVSPropertyOp17
 70
     1
102
RTVSPropertyOp18
 70
     1
102
RTVSPropertyOp19
 70
     1
102
RTVSPropertyOp20
 70
     1
102
RTVSPropertyOp21
 70
     1
102
RTVSPropertyOp22
 70
     1
102
RTVSPropertyOp23
 70
     1
102
RTVSPropertyOp24
 70
     1
102
RTVSPropertyOp25
 70
     1
102
RTVSPropertyOp26
 70
     1
102
RTVSPropertyOp27
 70
     1
  0
XRECORD
  5
2087
102
{ACAD_REACTORS
330
2086
102
}
330
2086
100
AcDbXrecord
280
     1
102
RTVSPropertyOp0
 70
     1
102
RTVSPropertyOp1
 70
     1
102
RTVSPropertyOp2
 70
     1
102
RTVSPropertyOp3
 70
     1
102
RTVSPropertyOp4
 70
     1
102
RTVSPropertyOp5
 70
     1
102
RTVSPropertyOp6
 70
     1
102
RTVSPropertyOp7
 70
     1
102
RTVSPropertyOp8
 70
     1
102
RTVSPropertyOp9
 70
     1
102
RTVSPropertyOp10
 70
     1
102
RTVSPropertyOp11
 70
     1
102
RTVSPropertyOp12
 70
     1
102
RTVSPropertyOp13
 70
     1
102
RTVSPropertyOp14
 70
     1
102
RTVSPropertyOp15
 70
     1
102
RTVSPropertyOp16
 70
     1
102
RTVSPropertyOp17
 70
     1
102
RTVSPropertyOp18
 70
     1
102
RTVSPropertyOp19
 70
     1
102
RTVSPropertyOp20
 70
     1
102
RTVSPropertyOp21
 70
     1
102
RTVSPropertyOp22
 70
     1
102
RTVSPropertyOp23
 70
     1
102
RTVSPropertyOp24
 70
     1
102
RTVSPropertyOp25
 70
     1
102
RTVSPropertyOp26
 70
     1
102
RTVSPropertyOp27
 70
     1
  0
XRECORD
  5
2095
102
{ACAD_REACTORS
330
2094
102
}
330
2094
100
AcDbXrecord
280
     1
102
RTVSPropertyOp0
 70
     1
102
RTVSPropertyOp1
 70
     1
102
RTVSPropertyOp2
 70
     1
102
RTVSPropertyOp3
 70
     1
102
RTVSPropertyOp4
 70
     1
102
RTVSPropertyOp5
 70
     1
102
RTVSPropertyOp6
 70
     1
102
RTVSPropertyOp7
 70
     1
102
RTVSPropertyOp8
 70
     1
102
RTVSPropertyOp9
 70
     1
102
RTVSPropertyOp10
 70
     1
102
RTVSPropertyOp11
 70
     1
102
RTVSPropertyOp12
 70
     1
102
RTVSPropertyOp13
 70
     1
102
RTVSPropertyOp14
 70
     1
102
RTVSPropertyOp15
 70
     1
102
RTVSPropertyOp16
 70
     1
102
RTVSPropertyOp17
 70
     1
102
RTVSPropertyOp18
 70
     1
102
RTVSPropertyOp19
 70
     1
102
RTVSPropertyOp20
 70
     1
102
RTVSPropertyOp21
 70
     1
102
RTVSPropertyOp22
 70
     1
102
RTVSPropertyOp23
 70
     1
102
RTVSPropertyOp24
 70
     1
102
RTVSPropertyOp25
 70
     1
102
RTVSPropertyOp26
 70
     1
102
RTVSPropertyOp27
 70
     1
  0
XRECORD
  5
209D
102
{ACAD_REACTORS
330
209C
102
}
330
209C
100
AcDbXrecord
280
     1
102
RTVSPropertyOp0
 70
     1
102
RTVSPropertyOp1
 70
     1
102
RTVSPropertyOp2
 70
     1
102
RTVSPropertyOp3
 70
     1
102
RTVSPropertyOp4
 70
     1
102
RTVSPropertyOp5
 70
     1
102
RTVSPropertyOp6
 70
     1
102
RTVSPropertyOp7
 70
     1
102
RTVSPropertyOp8
 70
     1
102
RTVSPropertyOp9
 70
     1
102
RTVSPropertyOp10
 70
     1
102
RTVSPropertyOp11
 70
     1
102
RTVSPropertyOp12
 70
     1
102
RTVSPropertyOp13
 70
     1
102
RTVSPropertyOp14
 70
     1
102
RTVSPropertyOp15
 70
     1
102
RTVSPropertyOp16
 70
     1
102
RTVSPropertyOp17
 70
     1
102
RTVSPropertyOp18
 70
     1
102
RTVSPropertyOp19
 70
     1
102
RTVSPropertyOp20
 70
     1
102
RTVSPropertyOp21
 70
     1
102
RTVSPropertyOp22
 70
     1
102
RTVSPropertyOp23
 70
     1
102
RTVSPropertyOp24
 70
     1
102
RTVSPropertyOp25
 70
     1
102
RTVSPropertyOp26
 70
     1
102
RTVSPropertyOp27
 70
     1
  0
XRECORD
  5
208F
102
{ACAD_REACTORS
330
208E
102
}
330
208E
100
AcDbXrecord
280
     1
102
RTVSPropertyOp0
 70
     1
102
RTVSPropertyOp1
 70
     1
102
RTVSPropertyOp2
 70
     1
102
RTVSPropertyOp3
 70
     1
102
RTVSPropertyOp4
 70
     1
102
RTVSPropertyOp5
 70
     1
102
RTVSPropertyOp6
 70
     1
102
RTVSPropertyOp7
 70
     1
102
RTVSPropertyOp8
 70
     1
102
RTVSPropertyOp9
 70
     1
102
RTVSPropertyOp10
 70
     1
102
RTVSPropertyOp11
 70
     1
102
RTVSPropertyOp12
 70
     1
102
RTVSPropertyOp13
 70
     1
102
RTVSPropertyOp14
 70
     1
102
RTVSPropertyOp15
 70
     1
102
RTVSPropertyOp16
 70
     1
102
RTVSPropertyOp17
 70
     1
102
RTVSPropertyOp18
 70
     1
102
RTVSPropertyOp19
 70
     1
102
RTVSPropertyOp20
 70
     1
102
RTVSPropertyOp21
 70
     1
102
RTVSPropertyOp22
 70
     1
102
RTVSPropertyOp23
 70
     1
102
RTVSPropertyOp24
 70
     1
102
RTVSPropertyOp25
 70
     1
102
RTVSPropertyOp26
 70
     1
102
RTVSPropertyOp27
 70
     1
  0
XRECORD
  5
2093
102
{ACAD_REACTORS
330
2092
102
}
330
2092
100
AcDbXrecord
280
     1
102
RTVSPropertyOp0
 70
     1
102
RTVSPropertyOp1
 70
     1
102
RTVSPropertyOp2
 70
     1
102
RTVSPropertyOp3
 70
     1
102
RTVSPropertyOp4
 70
     1
102
RTVSPropertyOp5
 70
     1
102
RTVSPropertyOp6
 70
     1
102
RTVSPropertyOp7
 70
     1
102
RTVSPropertyOp8
 70
     1
102
RTVSPropertyOp9
 70
     1
102
RTVSPropertyOp10
 70
     1
102
RTVSPropertyOp11
 70
     1
102
RTVSPropertyOp12
 70
     1
102
RTVSPropertyOp13
 70
     1
102
RTVSPropertyOp14
 70
     1
102
RTVSPropertyOp15
 70
     1
102
RTVSPropertyOp16
 70
     1
102
RTVSPropertyOp17
 70
     1
102
RTVSPropertyOp18
 70
     1
102
RTVSPropertyOp19
 70
     1
102
RTVSPropertyOp20
 70
     1
102
RTVSPropertyOp21
 70
     1
102
RTVSPropertyOp22
 70
     1
102
RTVSPropertyOp23
 70
     1
102
RTVSPropertyOp24
 70
     1
102
RTVSPropertyOp25
 70
     1
102
RTVSPropertyOp26
 70
     1
102
RTVSPropertyOp27
 70
     1
  0
XRECORD
  5
20A3
102
{ACAD_REACTORS
330
20A2
102
}
330
20A2
100
AcDbXrecord
280
     1
102
RTVSPropertyOp0
 70
     0
102
RTVSPropertyOp1
 70
     0
102
RTVSPropertyOp2
 70
     0
102
RTVSPropertyOp3
 70
     0
102
RTVSPropertyOp4
 70
     0
102
RTVSPropertyOp5
 70
     0
102
RTVSPropertyOp6
 70
     0
102
RTVSPropertyOp7
 70
     0
102
RTVSPropertyOp8
 70
     0
102
RTVSPropertyOp9
 70
     0
102
RTVSPropertyOp10
 70
     0
102
RTVSPropertyOp11
 70
     0
102
RTVSPropertyOp12
 70
     0
102
RTVSPropertyOp13
 70
     0
102
RTVSPropertyOp14
 70
     2
102
RTVSPropertyOp15
 70
     0
102
RTVSPropertyOp16
 70
     0
102
RTVSPropertyOp17
 70
     0
102
RTVSPropertyOp18
 70
     0
102
RTVSPropertyOp19
 70
     0
102
RTVSPropertyOp20
 70
     0
102
RTVSPropertyOp21
 70
     0
102
RTVSPropertyOp22
 70
     0
102
RTVSPropertyOp23
 70
     0
102
RTVSPropertyOp24
 70
     0
102
RTVSPropertyOp25
 70
     0
102
RTVSPropertyOp26
 70
     0
102
RTVSPropertyOp27
 70
     0
  0
XRECORD
  5
209B
102
{ACAD_REACTORS
330
209A
102
}
330
209A
100
AcDbXrecord
280
     1
102
RTVSPropertyOp0
 70
     1
102
RTVSPropertyOp1
 70
     1
102
RTVSPropertyOp2
 70
     1
102
RTVSPropertyOp3
 70
     1
102
RTVSPropertyOp4
 70
     1
102
RTVSPropertyOp5
 70
     1
102
RTVSPropertyOp6
 70
     1
102
RTVSPropertyOp7
 70
     1
102
RTVSPropertyOp8
 70
     1
102
RTVSPropertyOp9
 70
     1
102
RTVSPropertyOp10
 70
     1
102
RTVSPropertyOp11
 70
     1
102
RTVSPropertyOp12
 70
     1
102
RTVSPropertyOp13
 70
     1
102
RTVSPropertyOp14
 70
     1
102
RTVSPropertyOp15
 70
     1
102
RTVSPropertyOp16
 70
     1
102
RTVSPropertyOp17
 70
     1
102
RTVSPropertyOp18
 70
     1
102
RTVSPropertyOp19
 70
     1
102
RTVSPropertyOp20
 70
     1
102
RTVSPropertyOp21
 70
     1
102
RTVSPropertyOp22
 70
     1
102
RTVSPropertyOp23
 70
     1
102
RTVSPropertyOp24
 70
     1
102
RTVSPropertyOp25
 70
     1
102
RTVSPropertyOp26
 70
     1
102
RTVSPropertyOp27
 70
     1
  0
XRECORD
  5
207F
102
{ACAD_REACTORS
330
207E
102
}
330
207E
100
AcDbXrecord
280
     1
102
RTVSPropertyOp0
 70
     1
102
RTVSPropertyOp1
 70
     1
102
RTVSPropertyOp2
 70
     1
102
RTVSPropertyOp3
 70
     1
102
RTVSPropertyOp4
 70
     1
102
RTVSPropertyOp5
 70
     1
102
RTVSPropertyOp6
 70
     1
102
RTVSPropertyOp7
 70
     1
102
RTVSPropertyOp8
 70
     1
102
RTVSPropertyOp9
 70
     1
102
RTVSPropertyOp10
 70
     1
102
RTVSPropertyOp11
 70
     1
102
RTVSPropertyOp12
 70
     1
102
RTVSPropertyOp13
 70
     1
102
RTVSPropertyOp14
 70
     1
102
RTVSPropertyOp15
 70
     1
102
RTVSPropertyOp16
 70
     1
102
RTVSPropertyOp17
 70
     1
102
RTVSPropertyOp18
 70
     1
102
RTVSPropertyOp19
 70
     1
102
RTVSPropertyOp20
 70
     1
102
RTVSPropertyOp21
 70
     1
102
RTVSPropertyOp22
 70
     1
102
RTVSPropertyOp23
 70
     1
102
RTVSPropertyOp24
 70
     1
102
RTVSPropertyOp25
 70
     1
102
RTVSPropertyOp26
 70
     1
102
RTVSPropertyOp27
 70
     1
  0
XRECORD
  5
2081
102
{ACAD_REACTORS
330
2080
102
}
330
2080
100
AcDbXrecord
280
     1
102
RTVSPropertyOp0
 70
     1
102
RTVSPropertyOp1
 70
     1
102
RTVSPropertyOp2
 70
     1
102
RTVSPropertyOp3
 70
     1
102
RTVSPropertyOp4
 70
     1
102
RTVSPropertyOp5
 70
     1
102
RTVSPropertyOp6
 70
     1
102
RTVSPropertyOp7
 70
     1
102
RTVSPropertyOp8
 70
     1
102
RTVSPropertyOp9
 70
     1
102
RTVSPropertyOp10
 70
     1
102
RTVSPropertyOp11
 70
     1
102
RTVSPropertyOp12
 70
     1
102
RTVSPropertyOp13
 70
     1
102
RTVSPropertyOp14
 70
     1
102
RTVSPropertyOp15
 70
     1
102
RTVSPropertyOp16
 70
     1
102
RTVSPropertyOp17
 70
     1
102
RTVSPropertyOp18
 70
     1
102
RTVSPropertyOp19
 70
     1
102
RTVSPropertyOp20
 70
     1
102
RTVSPropertyOp21
 70
     1
102
RTVSPropertyOp22
 70
     1
102
RTVSPropertyOp23
 70
     1
102
RTVSPropertyOp24
 70
     1
102
RTVSPropertyOp25
 70
     1
102
RTVSPropertyOp26
 70
     1
102
RTVSPropertyOp27
 70
     1
  0
XRECORD
  5
2083
102
{ACAD_REACTORS
330
2082
102
}
330
2082
100
AcDbXrecord
280
     1
102
RTVSPropertyOp0
 70
     1
102
RTVSPropertyOp1
 70
     1
102
RTVSPropertyOp2
 70
     1
102
RTVSPropertyOp3
 70
     1
102
RTVSPropertyOp4
 70
     1
102
RTVSPropertyOp5
 70
     1
102
RTVSPropertyOp6
 70
     1
102
RTVSPropertyOp7
 70
     1
102
RTVSPropertyOp8
 70
     1
102
RTVSPropertyOp9
 70
     1
102
RTVSPropertyOp10
 70
     1
102
RTVSPropertyOp11
 70
     1
102
RTVSPropertyOp12
 70
     1
102
RTVSPropertyOp13
 70
     1
102
RTVSPropertyOp14
 70
     1
102
RTVSPropertyOp15
 70
     1
102
RTVSPropertyOp16
 70
     1
102
RTVSPropertyOp17
 70
     1
102
RTVSPropertyOp18
 70
     1
102
RTVSPropertyOp19
 70
     1
102
RTVSPropertyOp20
 70
     1
102
RTVSPropertyOp21
 70
     1
102
RTVSPropertyOp22
 70
     1
102
RTVSPropertyOp23
 70
     1
102
RTVSPropertyOp24
 70
     1
102
RTVSPropertyOp25
 70
     1
102
RTVSPropertyOp26
 70
     1
102
RTVSPropertyOp27
 70
     1
  0
XRECORD
  5
2085
102
{ACAD_REACTORS
330
2084
102
}
330
2084
100
AcDbXrecord
280
     1
102
RTVSPropertyOp0
 70
     1
102
RTVSPropertyOp1
 70
     1
102
RTVSPropertyOp2
 70
     1
102
RTVSPropertyOp3
 70
     1
102
RTVSPropertyOp4
 70
     1
102
RTVSPropertyOp5
 70
     1
102
RTVSPropertyOp6
 70
     1
102
RTVSPropertyOp7
 70
     1
102
RTVSPropertyOp8
 70
     1
102
RTVSPropertyOp9
 70
     1
102
RTVSPropertyOp10
 70
     1
102
RTVSPropertyOp11
 70
     1
102
RTVSPropertyOp12
 70
     1
102
RTVSPropertyOp13
 70
     1
102
RTVSPropertyOp14
 70
     1
102
RTVSPropertyOp15
 70
     1
102
RTVSPropertyOp16
 70
     1
102
RTVSPropertyOp17
 70
     1
102
RTVSPropertyOp18
 70
     1
102
RTVSPropertyOp19
 70
     1
102
RTVSPropertyOp20
 70
     1
102
RTVSPropertyOp21
 70
     1
102
RTVSPropertyOp22
 70
     1
102
RTVSPropertyOp23
 70
     1
102
RTVSPropertyOp24
 70
     1
102
RTVSPropertyOp25
 70
     1
102
RTVSPropertyOp26
 70
     1
102
RTVSPropertyOp27
 70
     1
  0
XRECORD
  5
209F
102
{ACAD_REACTORS
330
209E
102
}
330
209E
100
AcDbXrecord
280
     1
102
RTVSPropertyOp0
 70
     0
102
RTVSPropertyOp1
 70
     0
102
RTVSPropertyOp2
 70
     0
102
RTVSPropertyOp3
 70
     0
102
RTVSPropertyOp4
 70
     0
102
RTVSPropertyOp5
 70
     0
102
RTVSPropertyOp6
 70
     0
102
RTVSPropertyOp7
 70
     0
102
RTVSPropertyOp8
 70
     0
102
RTVSPropertyOp9
 70
     0
102
RTVSPropertyOp10
 70
     0
102
RTVSPropertyOp11
 70
     0
102
RTVSPropertyOp12
 70
     0
102
RTVSPropertyOp13
 70
     0
102
RTVSPropertyOp14
 70
     2
102
RTVSPropertyOp15
 70
     0
102
RTVSPropertyOp16
 70
     0
102
RTVSPropertyOp17
 70
     0
102
RTVSPropertyOp18
 70
     0
102
RTVSPropertyOp19
 70
     0
102
RTVSPropertyOp20
 70
     0
102
RTVSPropertyOp21
 70
     0
102
RTVSPropertyOp22
 70
     0
102
RTVSPropertyOp23
 70
     0
102
RTVSPropertyOp24
 70
     0
102
RTVSPropertyOp25
 70
     0
102
RTVSPropertyOp26
 70
     0
102
RTVSPropertyOp27
 70
     0
  0
XRECORD
  5
2099
102
{ACAD_REACTORS
330
2098
102
}
330
2098
100
AcDbXrecord
280
     1
102
RTVSPropertyOp0
 70
     1
102
RTVSPropertyOp1
 70
     1
102
RTVSPropertyOp2
 70
     1
102
RTVSPropertyOp3
 70
     1
102
RTVSPropertyOp4
 70
     1
102
RTVSPropertyOp5
 70
     1
102
RTVSPropertyOp6
 70
     1
102
RTVSPropertyOp7
 70
     1
102
RTVSPropertyOp8
 70
     1
102
RTVSPropertyOp9
 70
     1
102
RTVSPropertyOp10
 70
     1
102
RTVSPropertyOp11
 70
     1
102
RTVSPropertyOp12
 70
     1
102
RTVSPropertyOp13
 70
     1
102
RTVSPropertyOp14
 70
     1
102
RTVSPropertyOp15
 70
     1
102
RTVSPropertyOp16
 70
     1
102
RTVSPropertyOp17
 70
     1
102
RTVSPropertyOp18
 70
     1
102
RTVSPropertyOp19
 70
     1
102
RTVSPropertyOp20
 70
     1
102
RTVSPropertyOp21
 70
     1
102
RTVSPropertyOp22
 70
     1
102
RTVSPropertyOp23
 70
     1
102
RTVSPropertyOp24
 70
     1
102
RTVSPropertyOp25
 70
     1
102
RTVSPropertyOp26
 70
     1
102
RTVSPropertyOp27
 70
     1
  0
XRECORD
  5
20A1
102
{ACAD_REACTORS
330
20A0
102
}
330
20A0
100
AcDbXrecord
280
     1
102
RTVSPropertyOp0
 70
     0
102
RTVSPropertyOp1
 70
     0
102
RTVSPropertyOp2
 70
     0
102
RTVSPropertyOp3
 70
     0
102
RTVSPropertyOp4
 70
     0
102
RTVSPropertyOp5
 70
     0
102
RTVSPropertyOp6
 70
     0
102
RTVSPropertyOp7
 70
     0
102
RTVSPropertyOp8
 70
     0
102
RTVSPropertyOp9
 70
     0
102
RTVSPropertyOp10
 70
     0
102
RTVSPropertyOp11
 70
     0
102
RTVSPropertyOp12
 70
     0
102
RTVSPropertyOp13
 70
     0
102
RTVSPropertyOp14
 70
     2
102
RTVSPropertyOp15
 70
     0
102
RTVSPropertyOp16
 70
     0
102
RTVSPropertyOp17
 70
     0
102
RTVSPropertyOp18
 70
     0
102
RTVSPropertyOp19
 70
     0
102
RTVSPropertyOp20
 70
     0
102
RTVSPropertyOp21
 70
     0
102
RTVSPropertyOp22
 70
     0
102
RTVSPropertyOp23
 70
     0
102
RTVSPropertyOp24
 70
     0
102
RTVSPropertyOp25
 70
     0
102
RTVSPropertyOp26
 70
     0
102
RTVSPropertyOp27
 70
     0
  0
XRECORD
  5
2091
102
{ACAD_REACTORS
330
2090
102
}
330
2090
100
AcDbXrecord
280
     1
102
RTVSPropertyOp0
 70
     1
102
RTVSPropertyOp1
 70
     1
102
RTVSPropertyOp2
 70
     1
102
RTVSPropertyOp3
 70
     1
102
RTVSPropertyOp4
 70
     1
102
RTVSPropertyOp5
 70
     1
102
RTVSPropertyOp6
 70
     1
102
RTVSPropertyOp7
 70
     1
102
RTVSPropertyOp8
 70
     1
102
RTVSPropertyOp9
 70
     1
102
RTVSPropertyOp10
 70
     1
102
RTVSPropertyOp11
 70
     1
102
RTVSPropertyOp12
 70
     1
102
RTVSPropertyOp13
 70
     1
102
RTVSPropertyOp14
 70
     1
102
RTVSPropertyOp15
 70
     1
102
RTVSPropertyOp16
 70
     1
102
RTVSPropertyOp17
 70
     1
102
RTVSPropertyOp18
 70
     1
102
RTVSPropertyOp19
 70
     1
102
RTVSPropertyOp20
 70
     1
102
RTVSPropertyOp21
 70
     1
102
RTVSPropertyOp22
 70
     1
102
RTVSPropertyOp23
 70
     1
102
RTVSPropertyOp24
 70
     1
102
RTVSPropertyOp25
 70
     1
102
RTVSPropertyOp26
 70
     1
102
RTVSPropertyOp27
 70
     1
  0
XRECORD
  5
2097
102
{ACAD_REACTORS
330
2096
102
}
330
2096
100
AcDbXrecord
280
     1
102
RTVSPropertyOp0
 70
     1
102
RTVSPropertyOp1
 70
     1
102
RTVSPropertyOp2
 70
     1
102
RTVSPropertyOp3
 70
     1
102
RTVSPropertyOp4
 70
     1
102
RTVSPropertyOp5
 70
     1
102
RTVSPropertyOp6
 70
     1
102
RTVSPropertyOp7
 70
     1
102
RTVSPropertyOp8
 70
     1
102
RTVSPropertyOp9
 70
     1
102
RTVSPropertyOp10
 70
     1
102
RTVSPropertyOp11
 70
     1
102
RTVSPropertyOp12
 70
     1
102
RTVSPropertyOp13
 70
     1
102
RTVSPropertyOp14
 70
     1
102
RTVSPropertyOp15
 70
     1
102
RTVSPropertyOp16
 70
     1
102
RTVSPropertyOp17
 70
     1
102
RTVSPropertyOp18
 70
     1
102
RTVSPropertyOp19
 70
     1
102
RTVSPropertyOp20
 70
     1
102
RTVSPropertyOp21
 70
     1
102
RTVSPropertyOp22
 70
     1
102
RTVSPropertyOp23
 70
     1
102
RTVSPropertyOp24
 70
     1
102
RTVSPropertyOp25
 70
     1
102
RTVSPropertyOp26
 70
     1
102
RTVSPropertyOp27
 70
     1
  0
ENDSEC
  0
EOF
