  0
SECTION
  2
HEADER
  9
$ACADVER
  1
AC1015
  9
$ACADMAINTVER
 70
     6
  9
$DWGCODEPAGE
  3
ANSI_936
  9
$INSBASE
 10
0.0
 20
0.0
 30
0.0
  9
$EXTMIN
 10
1643.843086854253
 20
90.57469565813875
 30
0.0
  9
$EXTMAX
 10
2836.855801320022
 20
934.2051151732198
 30
0.0
  9
$LIMMIN
 10
0.0
 20
0.0
  9
$LIMMAX
 10
12.0
 20
9.0
  9
$ORTHOMODE
 70
     0
  9
$REGENMODE
 70
     1
  9
$FILLMODE
 70
     1
  9
$QTEXTMODE
 70
     0
  9
$MIRRTEXT
 70
     1
  9
$LTSCALE
 40
1.0
  9
$ATTMODE
 70
     1
  9
$TEXTSIZE
 40
0.2
  9
$TRACEWID
 40
0.05
  9
$TEXTSTYLE
  7
Standard
  9
$CLAYER
  8
0
  9
$CELTYPE
  6
ByLayer
  9
$CECOLOR
 62
   256
  9
$CELTSCALE
 40
1.0
  9
$DISPSILH
 70
     0
  9
$DIMSCALE
 40
1.0
  9
$DIMASZ
 40
0.18
  9
$DIMEXO
 40
0.0625
  9
$DIMDLI
 40
0.38
  9
$DIMRND
 40
0.0
  9
$DIMDLE
 40
0.0
  9
$DIMEXE
 40
0.18
  9
$DIMTP
 40
0.0
  9
$DIMTM
 40
0.0
  9
$DIMTXT
 40
0.18
  9
$DIMCEN
 40
0.09
  9
$DIMTSZ
 40
0.0
  9
$DIMTOL
 70
     0
  9
$DIMLIM
 70
     0
  9
$DIMTIH
 70
     1
  9
$DIMTOH
 70
     1
  9
$DIMSE1
 70
     0
  9
$DIMSE2
 70
     0
  9
$DIMTAD
 70
     0
  9
$DIMZIN
 70
     0
  9
$DIMBLK
  1

  9
$DIMASO
 70
     1
  9
$DIMSHO
 70
     1
  9
$DIMPOST
  1

  9
$DIMAPOST
  1

  9
$DIMALT
 70
     0
  9
$DIMALTD
 70
     2
  9
$DIMALTF
 40
25.4
  9
$DIMLFAC
 40
1.0
  9
$DIMTOFL
 70
     0
  9
$DIMTVP
 40
0.0
  9
$DIMTIX
 70
     0
  9
$DIMSOXD
 70
     0
  9
$DIMSAH
 70
     0
  9
$DIMBLK1
  1

  9
$DIMBLK2
  1

  9
$DIMSTYLE
  2
Standard
  9
$DIMCLRD
 70
     0
  9
$DIMCLRE
 70
     0
  9
$DIMCLRT
 70
     0
  9
$DIMTFAC
 40
1.0
  9
$DIMGAP
 40
0.09
  9
$DIMJUST
 70
     0
  9
$DIMSD1
 70
     0
  9
$DIMSD2
 70
     0
  9
$DIMTOLJ
 70
     1
  9
$DIMTZIN
 70
     0
  9
$DIMALTZ
 70
     0
  9
$DIMALTTZ
 70
     0
  9
$DIMUPT
 70
     0
  9
$DIMDEC
 70
     4
  9
$DIMTDEC
 70
     4
  9
$DIMALTU
 70
     2
  9
$DIMALTTD
 70
     2
  9
$DIMTXSTY
  7
Standard
  9
$DIMAUNIT
 70
     0
  9
$DIMADEC
 70
     0
  9
$DIMALTRND
 40
0.0
  9
$DIMAZIN
 70
     0
  9
$DIMDSEP
 70
    46
  9
$DIMATFIT
 70
     3
  9
$DIMFRAC
 70
     0
  9
$DIMLDRBLK
  1

  9
$DIMLUNIT
 70
     2
  9
$DIMLWD
 70
    -2
  9
$DIMLWE
 70
    -2
  9
$DIMTMOVE
 70
     0
  9
$LUNITS
 70
     2
  9
$LUPREC
 70
     4
  9
$SKETCHINC
 40
0.1
  9
$FILLETRAD
 40
0.0
  9
$AUNITS
 70
     0
  9
$AUPREC
 70
     0
  9
$MENU
  1
.
  9
$ELEVATION
 40
0.0
  9
$PELEVATION
 40
0.0
  9
$THICKNESS
 40
0.0
  9
$LIMCHECK
 70
     0
  9
$CHAMFERA
 40
0.5
  9
$CHAMFERB
 40
0.5
  9
$CHAMFERC
 40
1.0
  9
$CHAMFERD
 40
0.0
  9
$SKPOLY
 70
     0
  9
$TDCREATE
 40
2455841.60680022
  9
$TDUCREATE
 40
2455841.273466886
  9
$TDUPDATE
 40
2458486.913032037
  9
$TDUUPDATE
 40
2458486.579698704
  9
$TDINDWG
 40
0.0300887847
  9
$TDUSRTIMER
 40
0.0300887847
  9
$USRTIMER
 70
     1
  9
$ANGBASE
 50
0.0
  9
$ANGDIR
 70
     0
  9
$PDMODE
 70
     0
  9
$PDSIZE
 40
0.0
  9
$PLINEWID
 40
0.0
  9
$SPLFRAME
 70
     0
  9
$SPLINETYPE
 70
     6
  9
$SPLINESEGS
 70
     8
  9
$HANDSEED
  5
4CB8
  9
$SURFTAB1
 70
     6
  9
$SURFTAB2
 70
     6
  9
$SURFTYPE
 70
     6
  9
$SURFU
 70
     6
  9
$SURFV
 70
     6
  9
$UCSBASE
  2

  9
$UCSNAME
  2

  9
$UCSORG
 10
0.0
 20
0.0
 30
0.0
  9
$UCSXDIR
 10
1.0
 20
0.0
 30
0.0
  9
$UCSYDIR
 10
0.0
 20
1.0
 30
0.0
  9
$UCSORTHOREF
  2

  9
$UCSORTHOVIEW
 70
     0
  9
$UCSORGTOP
 10
0.0
 20
0.0
 30
0.0
  9
$UCSORGBOTTOM
 10
0.0
 20
0.0
 30
0.0
  9
$UCSORGLEFT
 10
0.0
 20
0.0
 30
0.0
  9
$UCSORGRIGHT
 10
0.0
 20
0.0
 30
0.0
  9
$UCSORGFRONT
 10
0.0
 20
0.0
 30
0.0
  9
$UCSORGBACK
 10
0.0
 20
0.0
 30
0.0
  9
$PUCSBASE
  2

  9
$PUCSNAME
  2

  9
$PUCSORG
 10
0.0
 20
0.0
 30
0.0
  9
$PUCSXDIR
 10
1.0
 20
0.0
 30
0.0
  9
$PUCSYDIR
 10
0.0
 20
1.0
 30
0.0
  9
$PUCSORTHOREF
  2

  9
$PUCSORTHOVIEW
 70
     0
  9
$PUCSORGTOP
 10
0.0
 20
0.0
 30
0.0
  9
$PUCSORGBOTTOM
 10
0.0
 20
0.0
 30
0.0
  9
$PUCSORGLEFT
 10
0.0
 20
0.0
 30
0.0
  9
$PUCSORGRIGHT
 10
0.0
 20
0.0
 30
0.0
  9
$PUCSORGFRONT
 10
0.0
 20
0.0
 30
0.0
  9
$PUCSORGBACK
 10
0.0
 20
0.0
 30
0.0
  9
$USERI1
 70
     0
  9
$USERI2
 70
     0
  9
$USERI3
 70
     0
  9
$USERI4
 70
     0
  9
$USERI5
 70
     0
  9
$USERR1
 40
0.0
  9
$USERR2
 40
0.0
  9
$USERR3
 40
0.0
  9
$USERR4
 40
0.0
  9
$USERR5
 40
0.0
  9
$WORLDVIEW
 70
     1
  9
$SHADEDGE
 70
     3
  9
$SHADEDIF
 70
    70
  9
$TILEMODE
 70
     1
  9
$MAXACTVP
 70
    64
  9
$PINSBASE
 10
0.0
 20
0.0
 30
0.0
  9
$PLIMCHECK
 70
     0
  9
$PEXTMIN
 10
1.000000000000000E+20
 20
1.000000000000000E+20
 30
1.000000000000000E+20
  9
$PEXTMAX
 10
-1.000000000000000E+20
 20
-1.000000000000000E+20
 30
-1.000000000000000E+20
  9
$PLIMMIN
 10
0.0
 20
0.0
  9
$PLIMMAX
 10
12.0
 20
9.0
  9
$UNITMODE
 70
     0
  9
$VISRETAIN
 70
     1
  9
$PLINEGEN
 70
     0
  9
$PSLTSCALE
 70
     1
  9
$TREEDEPTH
 70
  3020
  9
$CMLSTYLE
  2
Standard
  9
$CMLJUST
 70
     0
  9
$CMLSCALE
 40
1.0
  9
$PROXYGRAPHICS
 70
     1
  9
$MEASUREMENT
 70
     0
  9
$CELWEIGHT
370
    -1
  9
$ENDCAPS
280
     0
  9
$JOINSTYLE
280
     0
  9
$LWDISPLAY
290
     0
  9
$INSUNITS
 70
     1
  9
$HYPERLINKBASE
  1

  9
$STYLESHEET
  1
Monochrome.ctb
  9
$XEDIT
290
     1
  9
$CEPSNTYPE
380
     0
  9
$PSTYLEMODE
290
     1
  9
$FINGERPRINTGUID
  2
{168A8766-4015-4ABD-915A-AD1ECBE2E3C2}
  9
$VERSIONGUID
  2
{B9A66168-0982-4F06-8555-2860080710D9}
  9
$EXTNAMES
290
     1
  9
$PSVPSCALE
 40
0.0
  9
$OLESTARTUP
290
     0
  0
ENDSEC
  0
SECTION
  2
CLASSES
  0
CLASS
  1
ACDBDICTIONARYWDFLT
  2
AcDbDictionaryWithDefault
  3
ObjectDBX Classes
 90
        0
280
     0
281
     0
  0
CLASS
  1
VISUALSTYLE
  2
AcDbVisualStyle
  3
ObjectDBX Classes
 90
     4095
280
     0
281
     0
  0
CLASS
  1
DIMASSOC
  2
AcDbDimAssoc
  3
"AcDbDimAssoc|Product Desc:     AcDim ARX App For Dimension|Company:          Autodesk, Inc.|WEB Address:      www.autodesk.com"
 90
        0
280
     0
281
     0
  0
CLASS
  1
MATERIAL
  2
AcDbMaterial
  3
ObjectDBX Classes
 90
     1024
280
     0
281
     0
  0
CLASS
  1
TABLESTYLE
  2
AcDbTableStyle
  3
ObjectDBX Classes
 90
     4095
280
     0
281
     0
  0
CLASS
  1
DICTIONARYVAR
  2
AcDbDictionaryVar
  3
ObjectDBX Classes
 90
        0
280
     0
281
     0
  0
CLASS
  1
SORTENTSTABLE
  2
AcDbSortentsTable
  3
ObjectDBX Classes
 90
        0
280
     0
281
     0
  0
CLASS
  1
ACDBPLACEHOLDER
  2
AcDbPlaceHolder
  3
ObjectDBX Classes
 90
        0
280
     0
281
     0
  0
CLASS
  1
LAYOUT
  2
AcDbLayout
  3
ObjectDBX Classes
 90
        0
280
     0
281
     0
  0
ENDSEC
  0
SECTION
  2
TABLES
  0
TABLE
  2
VPORT
  5
8
102
{ACAD_XDICTIONARY
360
4CB6
102
}
330
0
100
AcDbSymbolTable
 70
     1
  0
VPORT
  5
27
330
8
100
AcDbSymbolTableRecord
100
AcDbViewportTableRecord
  2
*Active
 70
     0
 10
0.0
 20
0.0
 11
1.0
 21
1.0
 12
2278.833134547877
 22
507.5837293889129
 13
0.0
 23
0.0
 14
0.5
 24
0.5
 15
0.5
 25
0.5
 16
0.0
 26
0.0
 36
1.0
 17
0.0
 27
0.0
 37
0.0
 40
996.4004273505794
 41
4.319576435584933
 42
50.0
 43
0.0
 44
0.0
 50
0.0
 51
0.0
 71
     0
 72
   100
 73
     1
 74
     3
 75
     1
 76
     0
 77
     0
 78
     0
281
     0
 65
     1
110
0.0
120
0.0
130
0.0
111
1.0
121
0.0
131
0.0
112
0.0
122
1.0
132
0.0
 79
     0
146
0.0
  0
ENDTAB
  0
TABLE
  2
STYLE
  5
3
330
0
100
AcDbSymbolTable
 70
     5
  0
STYLE
  5
11
330
3
100
AcDbSymbolTableRecord
100
AcDbTextStyleTableRecord
  2
Standard
 70
     0
 40
0.0
 41
1.0
 50
0.0
 71
     0
 42
0.2
  3
txt
  4

  0
STYLE
  5
5A
330
3
100
AcDbSymbolTableRecord
100
AcDbTextStyleTableRecord
  2
样式 8
 70
     0
 40
10.0
 41
0.7
 50
0.0
 71
     0
 42
10.0
  3
txt.shx
  4
gbcbig.shx
  0
STYLE
  5
117
330
3
100
AcDbSymbolTableRecord
100
AcDbTextStyleTableRecord
  2
样式 1
 70
     0
 40
5.0
 41
1.0
 50
0.0
 71
     0
 42
5.0
  3
txt.shx
  4
gbcbig.shx
  0
STYLE
  5
356
330
3
100
AcDbSymbolTableRecord
100
AcDbTextStyleTableRecord
  2
样式 2
 70
     0
 40
0.0
 41
0.35
 50
0.0
 71
     0
 42
2.5
  3
txt.shx
  4
gbcbig.shx
  0
STYLE
  5
4E6
330
3
100
AcDbSymbolTableRecord
100
AcDbTextStyleTableRecord
  2
样式 3
 70
     0
 40
3.5
 41
0.7
 50
0.0
 71
     0
 42
5.0
  3
txt.shx
  4
gbcbig.shx
  0
ENDTAB
  0
TABLE
  2
LTYPE
  5
5
330
0
100
AcDbSymbolTable
 70
     6
  0
LTYPE
  5
14
330
5
100
AcDbSymbolTableRecord
100
AcDbLinetypeTableRecord
  2
ByBlock
 70
     0
  3

 72
    65
 73
     0
 40
0.0
  0
LTYPE
  5
15
330
5
100
AcDbSymbolTableRecord
100
AcDbLinetypeTableRecord
  2
ByLayer
 70
     0
  3

 72
    65
 73
     0
 40
0.0
  0
LTYPE
  5
16
330
5
100
AcDbSymbolTableRecord
100
AcDbLinetypeTableRecord
  2
Continuous
 70
     0
  3
Solid line
 72
    65
 73
     0
 40
0.0
  0
LTYPE
  5
5B
330
5
100
AcDbSymbolTableRecord
100
AcDbLinetypeTableRecord
  2
CENTERX2
 70
     0
  3
Center (2x) ________  __  ________  __  _____
 72
    65
 73
     4
 40
101.6
 49
63.5
 74
     4
 75
     0
340
0
 46
1.0
 50
0.0
 44
0.0
 45
0.0
 49
-12.7
 74
     4
 75
     0
340
0
 46
1.0
 50
0.0
 44
0.0
 45
0.0
 49
12.7
 74
     4
 75
     0
340
0
 46
1.0
 50
0.0
 44
0.0
 45
0.0
 49
-12.7
 74
     4
 75
     0
340
0
 46
1.0
 50
0.0
 44
0.0
 45
0.0
  0
LTYPE
  5
192
330
5
100
AcDbSymbolTableRecord
100
AcDbLinetypeTableRecord
  2
CENTER
 70
     0
  3
Center ____ _ ____ _ ____ _ ____ _ ____ _ ____
 72
    65
 73
     4
 40
50.8
 49
31.75
 74
     4
 75
     0
340
0
 46
1.0
 50
0.0
 44
0.0
 45
0.0
 49
-6.35
 74
     4
 75
     0
340
0
 46
1.0
 50
0.0
 44
0.0
 45
0.0
 49
6.35
 74
     4
 75
     0
340
0
 46
1.0
 50
0.0
 44
0.0
 45
0.0
 49
-6.35
 74
     4
 75
     0
340
0
 46
1.0
 50
0.0
 44
0.0
 45
0.0
  0
LTYPE
  5
112E
330
5
100
AcDbSymbolTableRecord
100
AcDbLinetypeTableRecord
  2
DASHED
 70
     0
  3
Dashed __ __ __ __ __ __ __ __ __ __ __ __ __ _
 72
    65
 73
     2
 40
19.05
 49
12.7
 74
     4
 75
     0
340
0
 46
1.0
 50
0.0
 44
0.0
 45
0.0
 49
-6.35
 74
     4
 75
     0
340
0
 46
1.0
 50
0.0
 44
0.0
 45
0.0
  0
LTYPE
  5
121B
330
5
100
AcDbSymbolTableRecord
100
AcDbLinetypeTableRecord
  2
ACAD_ISO02W100
 70
     0
  3
ISO dash __ __ __ __ __ __ __ __ __ __ __ __ __
 72
    65
 73
     2
 40
15.0
 49
12.0
 74
     4
 75
     0
340
0
 46
1.0
 50
0.0
 44
0.0
 45
0.0
 49
-3.0
 74
     4
 75
     0
340
0
 46
1.0
 50
0.0
 44
0.0
 45
0.0
  0
LTYPE
  5
121C
330
5
100
AcDbSymbolTableRecord
100
AcDbLinetypeTableRecord
  2
DIVIDE
 70
     0
  3
Divide ____ . . ____ . . ____ . . ____ . . ____
 72
    65
 73
     6
 40
31.75
 49
12.7
 74
     4
 75
     0
340
0
 46
1.0
 50
0.0
 44
0.0
 45
0.0
 49
-6.35
 74
     4
 75
     0
340
0
 46
1.0
 50
0.0
 44
0.0
 45
0.0
 49
0.0
 74
     4
 75
     0
340
0
 46
1.0
 50
0.0
 44
0.0
 45
0.0
 49
-6.35
 74
     4
 75
     0
340
0
 46
1.0
 50
0.0
 44
0.0
 45
0.0
 49
0.0
 74
     4
 75
     0
340
0
 46
1.0
 50
0.0
 44
0.0
 45
0.0
 49
-6.35
 74
     4
 75
     0
340
0
 46
1.0
 50
0.0
 44
0.0
 45
0.0
  0
ENDTAB
  0
TABLE
  2
LAYER
  5
2
102
{ACAD_XDICTIONARY
360
36E2
102
}
330
0
100
AcDbSymbolTable
 70
    18
  0
LAYER
  5
10
330
2
100
AcDbSymbolTableRecord
100
AcDbLayerTableRecord
  2
0
 70
     0
 62
     7
  6
Continuous
370
    -3
390
F
  0
LAYER
  5
5C
330
2
100
AcDbSymbolTableRecord
100
AcDbLayerTableRecord
  2
粗实线
 70
     0
 62
     7
  6
Continuous
370
    30
390
F
1001
AcAecLayerStandard
1000

1000

  0
LAYER
  5
5D
330
2
100
AcDbSymbolTableRecord
100
AcDbLayerTableRecord
  2
中心线
 70
     0
 62
     1
  6
CENTERX2
370
    15
390
F
1001
AcAecLayerStandard
1000

1000

  0
LAYER
  5
5E
330
2
100
AcDbSymbolTableRecord
100
AcDbLayerTableRecord
  2
标注
 70
     0
 62
     4
  6
Continuous
370
    15
390
F
1001
AcAecLayerStandard
1000

1000

  0
LAYER
  5
5F
330
2
100
AcDbSymbolTableRecord
100
AcDbLayerTableRecord
  2
Defpoints
 70
     0
 62
     7
  6
Continuous
290
     0
370
    -3
390
F
  0
LAYER
  5
118
330
2
100
AcDbSymbolTableRecord
100
AcDbLayerTableRecord
  2
图层1粗线
 70
     0
 62
     7
  6
Continuous
370
    -3
390
F
1001
AcAecLayerStandard
1000

1000

  0
LAYER
  5
193
330
2
100
AcDbSymbolTableRecord
100
AcDbLayerTableRecord
  2
细实线
 70
     0
 62
     3
  6
Continuous
370
    15
390
F
1001
AcAecLayerStandard
1000

1000

  0
LAYER
  5
357
330
2
100
AcDbSymbolTableRecord
100
AcDbLayerTableRecord
  2
图层2
 70
     0
 62
     7
  6
Continuous
370
    30
390
F
1001
AcAecLayerStandard
1000

1000

  0
LAYER
  5
358
330
2
100
AcDbSymbolTableRecord
100
AcDbLayerTableRecord
  2
图层3
 70
     0
 62
     7
  6
Continuous
370
    18
390
F
1001
AcAecLayerStandard
1000

1000

  0
LAYER
  5
4E7
330
2
100
AcDbSymbolTableRecord
100
AcDbLayerTableRecord
  2
文字
 70
     0
 62
     1
  6
Continuous
370
    15
390
F
1001
AcAecLayerStandard
1000

1000

  0
LAYER
  5
4E8
330
2
100
AcDbSymbolTableRecord
100
AcDbLayerTableRecord
  2
不可见
 70
     0
 62
     2
  6
Continuous
290
     0
370
    15
390
F
1001
AcAecLayerStandard
1000

1000

  0
LAYER
  5
4E9
330
2
100
AcDbSymbolTableRecord
100
AcDbLayerTableRecord
  2
图层2细线
 70
     0
 62
     3
  6
Continuous
370
    -3
390
F
1001
AcAecLayerStandard
1000

1000

  0
LAYER
  5
4EA
330
2
100
AcDbSymbolTableRecord
100
AcDbLayerTableRecord
  2
图框线
 70
     0
 62
     7
  6
Continuous
370
    13
390
F
1001
AcAecLayerStandard
1000

1000

  0
LAYER
  5
4EB
330
2
100
AcDbSymbolTableRecord
100
AcDbLayerTableRecord
  2
图层 1
 70
     0
 62
     7
  6
Continuous
370
    -3
390
F
  0
LAYER
  5
112F
330
2
100
AcDbSymbolTableRecord
100
AcDbLayerTableRecord
  2
图层1
 70
     0
 62
     7
  6
DASHED
370
    25
390
F
1001
AcAecLayerStandard
1000

1000

  0
LAYER
  5
121D
330
2
100
AcDbSymbolTableRecord
100
AcDbLayerTableRecord
  2
虚线
 70
     0
 62
     2
  6
ACAD_ISO02W100
370
    15
390
F
1001
AcAecLayerStandard
1000

1000

  0
LAYER
  5
121E
330
2
100
AcDbSymbolTableRecord
100
AcDbLayerTableRecord
  2
剖切线
 70
     0
 62
   241
  6
Continuous
370
    15
390
F
1001
AcAecLayerStandard
1000

1000

  0
LAYER
  5
3D01
330
2
100
AcDbSymbolTableRecord
100
AcDbLayerTableRecord
  2
Layer 1
 70
     0
 62
     7
  6
Continuous
370
    -3
390
F
  0
ENDTAB
  0
TABLE
  2
VIEW
  5
6
330
0
100
AcDbSymbolTable
 70
     0
  0
ENDTAB
  0
TABLE
  2
UCS
  5
7
330
0
100
AcDbSymbolTable
 70
     0
  0
ENDTAB
  0
TABLE
  2
APPID
  5
9
330
0
100
AcDbSymbolTable
 70
    55
  0
APPID
  5
12
330
9
100
AcDbSymbolTableRecord
100
AcDbRegAppTableRecord
  2
ACAD
 70
     0
  0
APPID
  5
3B
330
9
100
AcDbSymbolTableRecord
100
AcDbRegAppTableRecord
  2
ACAD_PSEXT
 70
     0
  0
APPID
  5
3C
330
9
100
AcDbSymbolTableRecord
100
AcDbRegAppTableRecord
  2
AcAecLayerStandard
 70
     0
  0
APPID
  5
3D
330
9
100
AcDbSymbolTableRecord
100
AcDbRegAppTableRecord
  2
ACAD_DSTYLE_DIMTEXT_FILL
 70
     0
  0
APPID
  5
3E
330
9
100
AcDbSymbolTableRecord
100
AcDbRegAppTableRecord
  2
DCO15
 70
     0
  0
APPID
  5
3F
330
9
100
AcDbSymbolTableRecord
100
AcDbRegAppTableRecord
  2
ACAD_DSTYLE_DIMEXT_LENGTH
 70
     0
  0
APPID
  5
40
330
9
100
AcDbSymbolTableRecord
100
AcDbRegAppTableRecord
  2
ACAD_DSTYLE_DIMEXT_ENABLED
 70
     0
  0
APPID
  5
41
330
9
100
AcDbSymbolTableRecord
100
AcDbRegAppTableRecord
  2
ACAD_DSTYLE_DIM_LINETYPE
 70
     0
  0
APPID
  5
42
330
9
100
AcDbSymbolTableRecord
100
AcDbRegAppTableRecord
  2
ACAD_DSTYLE_DIM_EXT1_LINETYPE
 70
     0
  0
APPID
  5
43
330
9
100
AcDbSymbolTableRecord
100
AcDbRegAppTableRecord
  2
ACAD_DSTYLE_DIM_EXT2_LINETYPE
 70
     0
  0
APPID
  5
44
330
9
100
AcDbSymbolTableRecord
100
AcDbRegAppTableRecord
  2
ACAD_EXEMPT_FROM_CAD_STANDARDS
 70
     0
  0
APPID
  5
45
330
9
100
AcDbSymbolTableRecord
100
AcDbRegAppTableRecord
  2
AcadAnnoPO
 70
     0
  0
APPID
  5
46
330
9
100
AcDbSymbolTableRecord
100
AcDbRegAppTableRecord
  2
AcadAnnotative
 70
     0
  0
APPID
  5
47
330
9
100
AcDbSymbolTableRecord
100
AcDbRegAppTableRecord
  2
ACAD_DSTYLE_DIMJAG
 70
     0
  0
APPID
  5
48
330
9
100
AcDbSymbolTableRecord
100
AcDbRegAppTableRecord
  2
ACAD_DSTYLE_DIMTALN
 70
     0
  0
APPID
  5
49
330
9
100
AcDbSymbolTableRecord
100
AcDbRegAppTableRecord
  2
ACAD_MLEADERVER
 70
     0
  0
APPID
  5
4A
330
9
100
AcDbSymbolTableRecord
100
AcDbRegAppTableRecord
  2
ACAD_DSTYLE_DIMRADIAL_EXTENSION
 70
     0
  0
APPID
  5
4B
330
9
100
AcDbSymbolTableRecord
100
AcDbRegAppTableRecord
  2
ACAD_DSTYLE_DIMBREAK
 70
     0
  0
APPID
  5
4C
330
9
100
AcDbSymbolTableRecord
100
AcDbRegAppTableRecord
  2
ACAD_DSTYLE_DIMARC_LENGTH_SYMBOL
 70
     0
  0
APPID
  5
4D
330
9
100
AcDbSymbolTableRecord
100
AcDbRegAppTableRecord
  2
ACAD_DSTYLE_DIMJOGGED_JOGANGLE_SYMBOL
 70
     0
  0
APPID
  5
4E
330
9
100
AcDbSymbolTableRecord
100
AcDbRegAppTableRecord
  2
MCAD_NO_VIS
 70
     0
  0
APPID
  5
4F
330
9
100
AcDbSymbolTableRecord
100
AcDbRegAppTableRecord
  2
ACAD_TEMP_GRAPHIC
 70
     0
  0
APPID
  5
50
330
9
100
AcDbSymbolTableRecord
100
AcDbRegAppTableRecord
  2
AD_DRAW
 70
     0
  0
APPID
  5
51
330
9
100
AcDbSymbolTableRecord
100
AcDbRegAppTableRecord
  2
ACATTRIBSERVICES
 70
     0
  0
APPID
  5
52
330
9
100
AcDbSymbolTableRecord
100
AcDbRegAppTableRecord
  2
DESIGNERASSEMBLIES
 70
     0
  0
APPID
  5
53
330
9
100
AcDbSymbolTableRecord
100
AcDbRegAppTableRecord
  2
ACADM_DIM_EDIT
 70
     0
  0
APPID
  5
54
330
9
100
AcDbSymbolTableRecord
100
AcDbRegAppTableRecord
  2
AMDT_DM_ADJ
 70
     0
  0
APPID
  5
55
330
9
100
AcDbSymbolTableRecord
100
AcDbRegAppTableRecord
  2
GENIUS_GENODEF_13
 70
     0
  0
APPID
  5
56
330
9
100
AcDbSymbolTableRecord
100
AcDbRegAppTableRecord
  2
GENIUS_GENOBJ-N-FIL_13
 70
     0
  0
APPID
  5
57
330
9
100
AcDbSymbolTableRecord
100
AcDbRegAppTableRecord
  2
ACAD_DIMASSOC_CALC_DIMLFAC
 70
     0
  0
APPID
  5
58
330
9
100
AcDbSymbolTableRecord
100
AcDbRegAppTableRecord
  2
ACAD_DIMASSOC_DIMLFAC
 70
     0
  0
APPID
  5
59
330
9
100
AcDbSymbolTableRecord
100
AcDbRegAppTableRecord
  2
ACAD_DIMASSOC_OVERRIDDEN_DIMLFAC
 70
     0
  0
APPID
  5
4E5
330
9
100
AcDbSymbolTableRecord
100
AcDbRegAppTableRecord
  2
CAXA
 70
     0
  0
APPID
  5
1BF7
330
9
100
AcDbSymbolTableRecord
100
AcDbRegAppTableRecord
  2
AVE_RENDER
 70
     0
  0
APPID
  5
1BF8
330
9
100
AcDbSymbolTableRecord
100
AcDbRegAppTableRecord
  2
AVE_ENTITY_MATERIAL
 70
     0
  0
APPID
  5
1BF9
330
9
100
AcDbSymbolTableRecord
100
AcDbRegAppTableRecord
  2
AVE_FINISH
 70
     0
  0
APPID
  5
1BFA
330
9
100
AcDbSymbolTableRecord
100
AcDbRegAppTableRecord
  2
AVE_MATERIAL
 70
     0
  0
APPID
  5
1BFB
330
9
100
AcDbSymbolTableRecord
100
AcDbRegAppTableRecord
  2
AVE_GLOBAL
 70
     0
  0
APPID
  5
1BFC
330
9
100
AcDbSymbolTableRecord
100
AcDbRegAppTableRecord
  2
GENIUS_GENBLLY_14
 70
     0
  0
APPID
  5
1BFD
330
9
100
AcDbSymbolTableRecord
100
AcDbRegAppTableRecord
  2
ODA
 70
     0
  0
APPID
  5
1BFE
330
9
100
AcDbSymbolTableRecord
100
AcDbRegAppTableRecord
  2
RAK
 70
     0
  0
APPID
  5
1BFF
330
9
100
AcDbSymbolTableRecord
100
AcDbRegAppTableRecord
  2
AcDbDynamicBlockGUID
 70
     0
  0
APPID
  5
1C00
330
9
100
AcDbSymbolTableRecord
100
AcDbRegAppTableRecord
  2
AcDbBlockRepETag
 70
     0
  0
APPID
  5
1C01
330
9
100
AcDbSymbolTableRecord
100
AcDbRegAppTableRecord
  2
ACAUTHENVIRON
 70
     0
  0
APPID
  5
1C02
330
9
100
AcDbSymbolTableRecord
100
AcDbRegAppTableRecord
  2
AcDbDynamicBlockTrueName
 70
     0
  0
APPID
  5
4164
330
9
100
AcDbSymbolTableRecord
100
AcDbRegAppTableRecord
  2
AcDbAttr
 70
     0
  0
APPID
  5
4165
330
9
100
AcDbSymbolTableRecord
100
AcDbRegAppTableRecord
  2
AcDbBlockRepBTag
 70
     0
  0
APPID
  5
4166
330
9
100
AcDbSymbolTableRecord
100
AcDbRegAppTableRecord
  2
AcadStringInfo
 70
     0
  0
APPID
  5
4C26
330
9
100
AcDbSymbolTableRecord
100
AcDbRegAppTableRecord
  2
ACAD_NAV_VCDISPLAY
 70
     0
  0
APPID
  5
4C27
330
9
100
AcDbSymbolTableRecord
100
AcDbRegAppTableRecord
  2
ACAD_DSTYLE_DIMANGULAR_EXT
 70
     0
  0
APPID
  5
4C28
330
9
100
AcDbSymbolTableRecord
100
AcDbRegAppTableRecord
  2
ACAD_DSTYLE_DIMFLIPARROW_W
 70
     0
  0
APPID
  5
4C29
330
9
100
AcDbSymbolTableRecord
100
AcDbRegAppTableRecord
  2
ACAD_DSTYLE_DIMJOGGED_JOGA
 70
     0
  0
APPID
  5
4C2A
330
9
100
AcDbSymbolTableRecord
100
AcDbRegAppTableRecord
  2
ACAD_DSTYLE_DIMINSPECT
 70
     0
  0
APPID
  5
4C2B
330
9
100
AcDbSymbolTableRecord
100
AcDbRegAppTableRecord
  2
GENIUS_GENOREF_13
 70
     0
  0
APPID
  5
4C2C
330
9
100
AcDbSymbolTableRecord
100
AcDbRegAppTableRecord
  2
ACADANNOMONITORALERTICONDI
 70
     0
  0
ENDTAB
  0
TABLE
  2
DIMSTYLE
  5
A
330
0
100
AcDbSymbolTable
 70
     6
100
AcDbDimStyleTable
  0
DIMSTYLE
105
25
330
A
100
AcDbSymbolTableRecord
100
AcDbDimStyleTableRecord
  2
Standard
 70
     0
340
11
  0
DIMSTYLE
105
60
330
A
100
AcDbSymbolTableRecord
100
AcDbDimStyleTableRecord
  2
副本 (3) ISO-25 4
 70
     0
 41
14.0
 42
0.0
 43
10.0
 44
6.0
 73
     0
 74
     0
 77
     1
 78
     8
140
20.0
141
7.5
143
0.03937007874016
147
1.5
171
     3
172
     1
271
     1
272
     1
274
     3
283
     0
284
     8
340
11
  0
DIMSTYLE
105
119
330
A
100
AcDbSymbolTableRecord
100
AcDbDimStyleTableRecord
  2
副本 ISO-25
 70
     0
 41
12.0
 42
0.0
 43
10.0
 44
5.0
 73
     0
 74
     0
 77
     1
 78
     8
140
18.0
141
1.5
143
0.03937007874016
147
1.5
171
     3
172
     1
271
     1
272
     1
274
     3
278
    44
283
     0
284
     8
340
11
  0
DIMSTYLE
105
359
330
A
100
AcDbSymbolTableRecord
100
AcDbDimStyleTableRecord
  2
ISO-25
 70
     0
 41
17.0
 42
3.0
 43
3.75
 44
1.25
 73
     0
 77
     1
 78
     8
140
19.0
141
80.0
143
0.03937007874016
147
7.0
170
     1
171
     3
172
     1
271
     2
272
     2
273
     7
274
     3
283
     0
284
     8
340
11
  0
DIMSTYLE
105
4EC
330
A
100
AcDbSymbolTableRecord
100
AcDbDimStyleTableRecord
  2
英寸
 70
     0
 41
12.0
 42
0.0
 43
10.0
 44
3.75
 73
     0
 74
     0
 77
     1
 78
     8
140
16.0
141
7.5
143
0.03937007874016
147
2.0
170
     1
171
     3
172
     1
179
     1
271
     1
272
     1
273
     7
274
     3
283
     0
284
     8
340
11
  0
DIMSTYLE
105
4167
330
A
100
AcDbSymbolTableRecord
100
AcDbDimStyleTableRecord
  2
LXF
 70
     0
 41
18.0
 42
0.0
 43
10.0
 44
2.5
 73
     0
 74
     0
 77
     1
 78
     8
140
20.0
141
0.0
143
0.03937007874016
147
3.0
171
     3
172
     1
178
     6
179
     1
271
     1
272
     1
274
     3
283
     0
284
     8
340
11
  0
ENDTAB
  0
TABLE
  2
BLOCK_RECORD
  5
1
330
0
100
AcDbSymbolTable
 70
    75
  0
BLOCK_RECORD
  5
1F
330
1
100
AcDbSymbolTableRecord
100
AcDbBlockTableRecord
  2
*Model_Space
340
22
  0
BLOCK_RECORD
  5
1B
330
1
100
AcDbSymbolTableRecord
100
AcDbBlockTableRecord
  2
*Paper_Space
340
1E
  0
BLOCK_RECORD
  5
23
330
1
100
AcDbSymbolTableRecord
100
AcDbBlockTableRecord
  2
*Paper_Space0
340
24
  0
BLOCK_RECORD
  5
3AB0
330
1
100
AcDbSymbolTableRecord
100
AcDbBlockTableRecord
  2
*D9
340
0
  0
BLOCK_RECORD
  5
3ABD
330
1
100
AcDbSymbolTableRecord
100
AcDbBlockTableRecord
  2
*D10
340
0
  0
BLOCK_RECORD
  5
3B13
330
1
100
AcDbSymbolTableRecord
100
AcDbBlockTableRecord
  2
*D11
340
0
  0
BLOCK_RECORD
  5
3B22
330
1
100
AcDbSymbolTableRecord
100
AcDbBlockTableRecord
  2
*D12
340
0
  0
BLOCK_RECORD
  5
3B9B
330
1
100
AcDbSymbolTableRecord
100
AcDbBlockTableRecord
  2
*D13
340
0
  0
BLOCK_RECORD
  5
3BA8
330
1
100
AcDbSymbolTableRecord
100
AcDbBlockTableRecord
  2
*D14
340
0
  0
BLOCK_RECORD
  5
3BB6
330
1
100
AcDbSymbolTableRecord
100
AcDbBlockTableRecord
  2
*D15
340
0
  0
BLOCK_RECORD
  5
3BC3
330
1
100
AcDbSymbolTableRecord
100
AcDbBlockTableRecord
  2
*D16
340
0
  0
BLOCK_RECORD
  5
3D85
330
1
100
AcDbSymbolTableRecord
100
AcDbBlockTableRecord
  2
WMF0
340
0
  0
BLOCK_RECORD
  5
3E4E
330
1
100
AcDbSymbolTableRecord
100
AcDbBlockTableRecord
  2
AN-3206 drawing
340
0
  0
ENDTAB
  0
ENDSEC
  0
SECTION
  2
BLOCKS
  0
BLOCK
  5
20
330
1F
100
AcDbEntity
  8
0
370
    -1
100
AcDbBlockBegin
  2
*Model_Space
 70
     0
 71
     0
 10
0.0
 20
0.0
 30
0.0
  3
*Model_Space
  1

  0
ENDBLK
  5
21
330
1F
100
AcDbEntity
  8
0
370
    -1
100
AcDbBlockEnd
  0
BLOCK
  5
1C
330
1B
100
AcDbEntity
 67
     1
  8
0
370
    -1
100
AcDbBlockBegin
  2
*Paper_Space
 70
     0
 71
     0
 10
0.0
 20
0.0
 30
0.0
  3
*Paper_Space
  1

  0
ENDBLK
  5
1D
330
1B
100
AcDbEntity
 67
     1
  8
0
370
    -1
100
AcDbBlockEnd
  0
BLOCK
  5
39
330
23
100
AcDbEntity
  8
0
370
    -1
100
AcDbBlockBegin
  2
*Paper_Space0
 70
     0
 71
     0
 10
0.0
 20
0.0
 30
0.0
  3
*Paper_Space0
  1

  0
ENDBLK
  5
3A
330
23
100
AcDbEntity
  8
0
370
    -1
100
AcDbBlockEnd
  0
BLOCK
  5
3AB1
330
3AB0
100
AcDbEntity
  8
0
370
    -1
100
AcDbBlockBegin
  2
*D9
 70
     1
 71
     0
 10
0.0
 20
0.0
 30
0.0
  3
*D9
  1

  0
LINE
  5
3AB2
330
3AB0
100
AcDbEntity
  8
标注
 62
     0
370
    -2
100
AcDbLine
 10
2648.806849118525
 20
752.4746915427629
 30
0.0
 11
2648.806849118525
 21
818.2246915427629
 31
0.0
  0
LINE
  5
3AB3
330
3AB0
100
AcDbEntity
  8
标注
 62
     0
370
    -2
100
AcDbLine
 10
1900.806849118525
 20
761.9746915427629
 30
0.0
 11
1900.806849118525
 21
818.2246915427629
 31
0.0
  0
LINE
  5
3AB4
330
3AB0
100
AcDbEntity
  8
标注
 62
     0
370
    -2
100
AcDbLine
 10
2640.806849118525
 20
814.4746915427629
 30
0.0
 11
1908.806849118525
 21
814.4746915427629
 31
0.0
  0
SOLID
  5
3AB5
330
3AB0
100
AcDbEntity
  8
标注
 62
     0
370
    -1
100
AcDbTrace
 10
2640.806849118525
 20
815.8080248760963
 30
0.0
 11
2640.806849118525
 21
813.1413582094295
 31
0.0
 12
2648.806849118525
 22
814.4746915427629
 32
0.0
 13
2648.806849118525
 23
814.4746915427629
 33
0.0
  0
SOLID
  5
3AB6
330
3AB0
100
AcDbEntity
  8
标注
 62
     0
370
    -1
100
AcDbTrace
 10
1908.806849118525
 20
815.8080248760963
 30
0.0
 11
1908.806849118525
 21
813.1413582094295
 31
0.0
 12
1900.806849118525
 22
814.4746915427629
 32
0.0
 13
1900.806849118525
 23
814.4746915427629
 33
0.0
  0
MTEXT
  5
3AB7
330
3AB0
100
AcDbEntity
  8
标注
 62
     0
370
    -1
100
AcDbMText
 10
2274.806849118525
 20
826.8321267405801
 30
0.0
 40
16.0
 41
0.0
 71
     5
 72
     1
  1
{\fArial|b0|i0|c0|p34;748 [29 1/2]}
 73
     1
 44
1.0
  0
POINT
  5
3AB8
330
3AB0
100
AcDbEntity
  8
Defpoints
 62
     0
370
    -1
100
AcDbPoint
 10
2648.806849118525
 20
752.4746915427629
 30
0.0
  0
POINT
  5
3AB9
330
3AB0
100
AcDbEntity
  8
Defpoints
 62
     0
370
    -1
100
AcDbPoint
 10
1900.806849118525
 20
761.9746915427629
 30
0.0
  0
POINT
  5
3ABA
330
3AB0
100
AcDbEntity
  8
Defpoints
 62
     0
370
    -1
100
AcDbPoint
 10
1900.806849118525
 20
814.4746915427629
 30
0.0
  0
ENDBLK
  5
3ABB
330
3AB0
100
AcDbEntity
  8
0
370
    -1
100
AcDbBlockEnd
  0
BLOCK
  5
3ABE
330
3ABD
100
AcDbEntity
  8
0
370
    -1
100
AcDbBlockBegin
  2
*D10
 70
     1
 71
     0
 10
0.0
 20
0.0
 30
0.0
  3
*D10
  1

  0
LINE
  5
3ABF
330
3ABD
100
AcDbEntity
  8
标注
 62
     0
370
    -2
100
AcDbLine
 10
1901.04307868329
 20
748.6021242117974
 30
0.0
 11
1827.29307868329
 21
748.6021242117974
 31
0.0
  0
LINE
  5
3AC0
330
3ABD
100
AcDbEntity
  8
标注
 62
     0
370
    -2
100
AcDbLine
 10
1892.54307868329
 20
335.6021242117965
 30
0.0
 11
1827.29307868329
 21
335.6021242117965
 31
0.0
  0
LINE
  5
3AC1
330
3ABD
100
AcDbEntity
  8
标注
 62
     0
370
    -2
100
AcDbLine
 10
1831.04307868329
 20
740.6021242117974
 30
0.0
 11
1831.04307868329
 21
343.6021242117965
 31
0.0
  0
SOLID
  5
3AC2
330
3ABD
100
AcDbEntity
  8
标注
 62
     0
370
    -1
100
AcDbTrace
 10
1829.709745349957
 20
740.6021242117974
 30
0.0
 11
1832.376412016624
 21
740.6021242117974
 31
0.0
 12
1831.04307868329
 22
748.6021242117974
 32
0.0
 13
1831.04307868329
 23
748.6021242117974
 33
0.0
  0
SOLID
  5
3AC3
330
3ABD
100
AcDbEntity
  8
标注
 62
     0
370
    -1
100
AcDbTrace
 10
1829.709745349957
 20
343.6021242117965
 30
0.0
 11
1832.376412016624
 21
343.6021242117965
 31
0.0
 12
1831.04307868329
 22
335.6021242117965
 32
0.0
 13
1831.04307868329
 23
335.6021242117965
 33
0.0
  0
MTEXT
  5
3AC4
330
3ABD
100
AcDbEntity
  8
标注
 62
     0
370
    -1
100
AcDbMText
 10
1818.685643485473
 20
542.102124211797
 30
0.0
 40
16.0
 41
0.0
 71
     5
 72
     1
  1
{\fArial|b0|i0|c0|p34;413 [16 1/4]}
 11
6.123233995736766E-17
 21
1.0
 31
0.0
 73
     1
 44
1.0
  0
POINT
  5
3AC5
330
3ABD
100
AcDbEntity
  8
Defpoints
 62
     0
370
    -1
100
AcDbPoint
 10
1901.04307868329
 20
748.6021242117974
 30
0.0
  0
POINT
  5
3AC6
330
3ABD
100
AcDbEntity
  8
Defpoints
 62
     0
370
    -1
100
AcDbPoint
 10
1892.54307868329
 20
335.6021242117965
 30
0.0
  0
POINT
  5
3AC7
330
3ABD
100
AcDbEntity
  8
Defpoints
 62
     0
370
    -1
100
AcDbPoint
 10
1831.04307868329
 20
335.6021242117965
 30
0.0
  0
ENDBLK
  5
3AC8
330
3ABD
100
AcDbEntity
  8
0
370
    -1
100
AcDbBlockEnd
  0
BLOCK
  5
3B14
330
3B13
100
AcDbEntity
  8
0
370
    -1
100
AcDbBlockBegin
  2
*D11
 70
     1
 71
     0
 10
0.0
 20
0.0
 30
0.0
  3
*D11
  1

  0
LINE
  5
3B15
330
3B13
100
AcDbEntity
  8
标注
 62
     0
370
    -2
100
AcDbLine
 10
2642.456849118519
 20
542.1021183985647
 30
0.0
 11
2642.456849118519
 21
502.2246915427629
 31
0.0
  0
LINE
  5
3B16
330
3B13
100
AcDbEntity
  8
标注
 62
     0
370
    -2
100
AcDbLine
 10
2648.806849118521
 20
542.1021183985574
 30
0.0
 11
2648.806849118521
 21
502.2246915427629
 31
0.0
  0
LINE
  5
3B17
330
3B13
100
AcDbEntity
  8
标注
 62
     0
370
    -2
100
AcDbLine
 10
2656.806849118521
 20
505.9746915427629
 30
0.0
 11
2664.806849118521
 21
505.9746915427629
 31
0.0
  0
LINE
  5
3B18
330
3B13
100
AcDbEntity
  8
标注
 62
     0
370
    -2
100
AcDbLine
 10
2634.456849118519
 20
505.9746915427629
 30
0.0
 11
2527.215375721521
 21
505.9746915427629
 31
0.0
  0
LINE
  5
3B19
330
3B13
100
AcDbEntity
  8
标注
 62
     0
370
    -2
100
AcDbLine
 10
2648.806849118521
 20
505.9746915427629
 30
0.0
 11
2642.456849118519
 21
505.9746915427629
 31
0.0
  0
SOLID
  5
3B1A
330
3B13
100
AcDbEntity
  8
标注
 62
     0
370
    -1
100
AcDbTrace
 10
2656.806849118521
 20
507.3080248760962
 30
0.0
 11
2656.806849118521
 21
504.6413582094296
 31
0.0
 12
2648.806849118521
 22
505.9746915427629
 32
0.0
 13
2648.806849118521
 23
505.9746915427629
 33
0.0
  0
SOLID
  5
3B1B
330
3B13
100
AcDbEntity
  8
标注
 62
     0
370
    -1
100
AcDbTrace
 10
2634.456849118519
 20
507.3080248760962
 30
0.0
 11
2634.456849118519
 21
504.6413582094296
 31
0.0
 12
2642.456849118519
 22
505.9746915427629
 32
0.0
 13
2642.456849118519
 23
505.9746915427629
 33
0.0
  0
MTEXT
  5
3B1C
330
3B13
100
AcDbEntity
  8
标注
 62
     0
370
    -1
100
AcDbMText
 10
2568.456849118519
 20
518.3321267405801
 30
0.0
 40
16.0
 41
0.0
 71
     5
 72
     1
  1
{\fArial|b0|i0|c0|p34;6.4 [1/4]}
 73
     1
 44
1.0
  0
POINT
  5
3B1D
330
3B13
100
AcDbEntity
  8
Defpoints
 62
     0
370
    -1
100
AcDbPoint
 10
2642.456849118519
 20
542.1021183985647
 30
0.0
  0
POINT
  5
3B1E
330
3B13
100
AcDbEntity
  8
Defpoints
 62
     0
370
    -1
100
AcDbPoint
 10
2648.806849118521
 20
542.1021183985574
 30
0.0
  0
POINT
  5
3B1F
330
3B13
100
AcDbEntity
  8
Defpoints
 62
     0
370
    -1
100
AcDbPoint
 10
2648.806849118521
 20
505.9746915427629
 30
0.0
  0
ENDBLK
  5
3B20
330
3B13
100
AcDbEntity
  8
0
370
    -1
100
AcDbBlockEnd
  0
BLOCK
  5
3B23
330
3B22
100
AcDbEntity
  8
0
370
    -1
100
AcDbBlockBegin
  2
*D12
 70
     1
 71
     0
 10
0.0
 20
0.0
 30
0.0
  3
*D12
  1

  0
LINE
  5
3B24
330
3B22
100
AcDbEntity
  8
标注
 62
     0
370
    -2
100
AcDbLine
 10
2648.806849118521
 20
542.1021183985574
 30
0.0
 11
2648.806849118521
 21
465.8253419123791
 31
0.0
  0
LINE
  5
3B25
330
3B22
100
AcDbEntity
  8
标注
 62
     0
370
    -2
100
AcDbLine
 10
2655.156849118523
 20
542.1021183985647
 30
0.0
 11
2655.156849118523
 21
465.8253419123791
 31
0.0
  0
LINE
  5
3B26
330
3B22
100
AcDbEntity
  8
标注
 62
     0
370
    -2
100
AcDbLine
 10
2663.156849118523
 20
469.5753419123791
 30
0.0
 11
2671.156849118523
 21
469.5753419123791
 31
0.0
  0
LINE
  5
3B27
330
3B22
100
AcDbEntity
  8
标注
 62
     0
370
    -2
100
AcDbLine
 10
2640.806849118521
 20
469.5753419123791
 30
0.0
 11
2533.565375721523
 21
469.5753419123791
 31
0.0
  0
LINE
  5
3B28
330
3B22
100
AcDbEntity
  8
标注
 62
     0
370
    -2
100
AcDbLine
 10
2655.156849118523
 20
469.5753419123791
 30
0.0
 11
2648.806849118521
 21
469.5753419123791
 31
0.0
  0
SOLID
  5
3B29
330
3B22
100
AcDbEntity
  8
标注
 62
     0
370
    -1
100
AcDbTrace
 10
2663.156849118523
 20
470.9086752457125
 30
0.0
 11
2663.156849118523
 21
468.2420085790458
 31
0.0
 12
2655.156849118523
 22
469.5753419123791
 32
0.0
 13
2655.156849118523
 23
469.5753419123791
 33
0.0
  0
SOLID
  5
3B2A
330
3B22
100
AcDbEntity
  8
标注
 62
     0
370
    -1
100
AcDbTrace
 10
2640.806849118521
 20
470.9086752457125
 30
0.0
 11
2640.806849118521
 21
468.2420085790458
 31
0.0
 12
2648.806849118521
 22
469.5753419123791
 32
0.0
 13
2648.806849118521
 23
469.5753419123791
 33
0.0
  0
MTEXT
  5
3B2B
330
3B22
100
AcDbEntity
  8
标注
 62
     0
370
    -1
100
AcDbMText
 10
2574.806849118521
 20
481.9327771101964
 30
0.0
 40
16.0
 41
0.0
 71
     5
 72
     1
  1
{\fArial|b0|i0|c0|p34;6.4 [1/4]}
 73
     1
 44
1.0
  0
POINT
  5
3B2C
330
3B22
100
AcDbEntity
  8
Defpoints
 62
     0
370
    -1
100
AcDbPoint
 10
2648.806849118521
 20
542.1021183985574
 30
0.0
  0
POINT
  5
3B2D
330
3B22
100
AcDbEntity
  8
Defpoints
 62
     0
370
    -1
100
AcDbPoint
 10
2655.156849118523
 20
542.1021183985647
 30
0.0
  0
POINT
  5
3B2E
330
3B22
100
AcDbEntity
  8
Defpoints
 62
     0
370
    -1
100
AcDbPoint
 10
2655.156849118523
 20
469.5753419123791
 30
0.0
  0
ENDBLK
  5
3B2F
330
3B22
100
AcDbEntity
  8
0
370
    -1
100
AcDbBlockEnd
  0
BLOCK
  5
3B9C
330
3B9B
100
AcDbEntity
  8
0
370
    -1
100
AcDbBlockBegin
  2
*D13
 70
     1
 71
     0
 10
0.0
 20
0.0
 30
0.0
  3
*D13
  1

  0
LINE
  5
3B9D
330
3B9B
100
AcDbEntity
  8
标注
 62
     0
370
    -2
100
AcDbLine
 10
2655.156849118524
 20
751.9746915427629
 30
0.0
 11
2655.156849118524
 21
851.7246915427629
 31
0.0
  0
LINE
  5
3B9E
330
3B9B
100
AcDbEntity
  8
标注
 62
     0
370
    -2
100
AcDbLine
 10
1894.456849118525
 20
762.9746915427629
 30
0.0
 11
1894.456849118525
 21
851.7246915427629
 31
0.0
  0
LINE
  5
3B9F
330
3B9B
100
AcDbEntity
  8
标注
 62
     0
370
    -2
100
AcDbLine
 10
2647.156849118524
 20
847.9746915427629
 30
0.0
 11
1902.456849118525
 21
847.9746915427629
 31
0.0
  0
SOLID
  5
3BA0
330
3B9B
100
AcDbEntity
  8
标注
 62
     0
370
    -1
100
AcDbTrace
 10
2647.156849118524
 20
849.3080248760963
 30
0.0
 11
2647.156849118524
 21
846.6413582094295
 31
0.0
 12
2655.156849118524
 22
847.9746915427629
 32
0.0
 13
2655.156849118524
 23
847.9746915427629
 33
0.0
  0
SOLID
  5
3BA1
330
3B9B
100
AcDbEntity
  8
标注
 62
     0
370
    -1
100
AcDbTrace
 10
1902.456849118525
 20
849.3080248760963
 30
0.0
 11
1902.456849118525
 21
846.6413582094295
 31
0.0
 12
1894.456849118525
 22
847.9746915427629
 32
0.0
 13
1894.456849118525
 23
847.9746915427629
 33
0.0
  0
MTEXT
  5
3BA2
330
3B9B
100
AcDbEntity
  8
标注
 62
     0
370
    -1
100
AcDbMText
 10
2274.806849118525
 20
860.2284432480835
 30
0.0
 40
16.0
 41
0.0
 71
     5
 72
     1
  1
{\fArial|b0|i0|c0|p34;760.7 [30]}
 73
     1
 44
1.0
  0
POINT
  5
3BA3
330
3B9B
100
AcDbEntity
  8
Defpoints
 62
     0
370
    -1
100
AcDbPoint
 10
2655.156849118524
 20
751.9746915427629
 30
0.0
  0
POINT
  5
3BA4
330
3B9B
100
AcDbEntity
  8
Defpoints
 62
     0
370
    -1
100
AcDbPoint
 10
1894.456849118525
 20
762.9746915427629
 30
0.0
  0
POINT
  5
3BA5
330
3B9B
100
AcDbEntity
  8
Defpoints
 62
     0
370
    -1
100
AcDbPoint
 10
1894.456849118525
 20
847.9746915427629
 30
0.0
  0
ENDBLK
  5
3BA6
330
3B9B
100
AcDbEntity
  8
0
370
    -1
100
AcDbBlockEnd
  0
BLOCK
  5
3BA9
330
3BA8
100
AcDbEntity
  8
0
370
    -1
100
AcDbBlockBegin
  2
*D14
 70
     1
 71
     0
 10
0.0
 20
0.0
 30
0.0
  3
*D14
  1

  0
LINE
  5
3BAA
330
3BA8
100
AcDbEntity
  8
标注
 62
     0
370
    -2
100
AcDbLine
 10
1901.54307868329
 20
754.9521242117976
 30
0.0
 11
1796.29307868329
 21
754.9521242117976
 31
0.0
  0
LINE
  5
3BAB
330
3BA8
100
AcDbEntity
  8
标注
 62
     0
370
    -2
100
AcDbLine
 10
1894.04307868329
 20
329.252124211798
 30
0.0
 11
1796.29307868329
 21
329.252124211798
 31
0.0
  0
LINE
  5
3BAC
330
3BA8
100
AcDbEntity
  8
标注
 62
     0
370
    -2
100
AcDbLine
 10
1800.04307868329
 20
746.9521242117976
 30
0.0
 11
1800.04307868329
 21
337.252124211798
 31
0.0
  0
SOLID
  5
3BAD
330
3BA8
100
AcDbEntity
  8
标注
 62
     0
370
    -1
100
AcDbTrace
 10
1798.709745349957
 20
746.9521242117976
 30
0.0
 11
1801.376412016624
 21
746.9521242117976
 31
0.0
 12
1800.04307868329
 22
754.9521242117976
 32
0.0
 13
1800.04307868329
 23
754.9521242117976
 33
0.0
  0
SOLID
  5
3BAE
330
3BA8
100
AcDbEntity
  8
标注
 62
     0
370
    -1
100
AcDbTrace
 10
1798.709745349957
 20
337.252124211798
 30
0.0
 11
1801.376412016624
 21
337.252124211798
 31
0.0
 12
1800.04307868329
 22
329.252124211798
 32
0.0
 13
1800.04307868329
 23
329.252124211798
 33
0.0
  0
MTEXT
  5
3BAF
330
3BA8
100
AcDbEntity
  8
标注
 62
     0
370
    -1
100
AcDbMText
 10
1787.685643485473
 20
542.1021242117981
 30
0.0
 40
16.0
 41
0.0
 71
     5
 72
     1
  1
{\fArial|b0|i0|c0|p34;425.7 [16 3/4]}
 11
6.123233995736766E-17
 21
1.0
 31
0.0
 73
     1
 44
1.0
  0
POINT
  5
3BB0
330
3BA8
100
AcDbEntity
  8
Defpoints
 62
     0
370
    -1
100
AcDbPoint
 10
1901.54307868329
 20
754.9521242117976
 30
0.0
  0
POINT
  5
3BB1
330
3BA8
100
AcDbEntity
  8
Defpoints
 62
     0
370
    -1
100
AcDbPoint
 10
1894.04307868329
 20
329.252124211798
 30
0.0
  0
POINT
  5
3BB2
330
3BA8
100
AcDbEntity
  8
Defpoints
 62
     0
370
    -1
100
AcDbPoint
 10
1800.04307868329
 20
329.252124211798
 30
0.0
  0
ENDBLK
  5
3BB3
330
3BA8
100
AcDbEntity
  8
0
370
    -1
100
AcDbBlockEnd
  0
BLOCK
  5
3BB7
330
3BB6
100
AcDbEntity
  8
0
370
    -1
100
AcDbBlockBegin
  2
*D15
 70
     1
 71
     0
 10
0.0
 20
0.0
 30
0.0
  3
*D15
  1

  0
LINE
  5
3BB8
330
3BB6
100
AcDbEntity
  8
标注
 62
     0
370
    -2
100
AcDbLine
 10
2642.456849118519
 20
752.4746915427629
 30
0.0
 11
2642.456849118519
 21
787.2246915427629
 31
0.0
  0
LINE
  5
3BB9
330
3BB6
100
AcDbEntity
  8
标注
 62
     0
370
    -2
100
AcDbLine
 10
1907.156849118526
 20
762.4746915427629
 30
0.0
 11
1907.156849118526
 21
787.2246915427629
 31
0.0
  0
LINE
  5
3BBA
330
3BB6
100
AcDbEntity
  8
标注
 62
     0
370
    -2
100
AcDbLine
 10
2634.456849118519
 20
783.4746915427629
 30
0.0
 11
1915.156849118526
 21
783.4746915427629
 31
0.0
  0
SOLID
  5
3BBB
330
3BB6
100
AcDbEntity
  8
标注
 62
     0
370
    -1
100
AcDbTrace
 10
2634.456849118519
 20
784.8080248760963
 30
0.0
 11
2634.456849118519
 21
782.1413582094295
 31
0.0
 12
2642.456849118519
 22
783.4746915427629
 32
0.0
 13
2642.456849118519
 23
783.4746915427629
 33
0.0
  0
SOLID
  5
3BBC
330
3BB6
100
AcDbEntity
  8
标注
 62
     0
370
    -1
100
AcDbTrace
 10
1915.156849118526
 20
784.8080248760963
 30
0.0
 11
1915.156849118526
 21
782.1413582094295
 31
0.0
 12
1907.156849118526
 22
783.4746915427629
 32
0.0
 13
1907.156849118526
 23
783.4746915427629
 33
0.0
  0
MTEXT
  5
3BBD
330
3BB6
100
AcDbEntity
  8
标注
 62
     0
370
    -1
100
AcDbMText
 10
2274.806849118522
 20
795.7284432480835
 30
0.0
 40
16.0
 41
0.0
 71
     5
 72
     1
  1
{\fArial|b0|i0|c0|p34;735.3 [29]}
 73
     1
 44
1.0
  0
POINT
  5
3BBE
330
3BB6
100
AcDbEntity
  8
Defpoints
 62
     0
370
    -1
100
AcDbPoint
 10
2642.456849118519
 20
752.4746915427629
 30
0.0
  0
POINT
  5
3BBF
330
3BB6
100
AcDbEntity
  8
Defpoints
 62
     0
370
    -1
100
AcDbPoint
 10
1907.156849118526
 20
762.4746915427629
 30
0.0
  0
POINT
  5
3BC0
330
3BB6
100
AcDbEntity
  8
Defpoints
 62
     0
370
    -1
100
AcDbPoint
 10
1907.156849118526
 20
783.4746915427629
 30
0.0
  0
ENDBLK
  5
3BC1
330
3BB6
100
AcDbEntity
  8
0
370
    -1
100
AcDbBlockEnd
  0
BLOCK
  5
3BC4
330
3BC3
100
AcDbEntity
  8
0
370
    -1
100
AcDbBlockBegin
  2
*D16
 70
     1
 71
     0
 10
0.0
 20
0.0
 30
0.0
  3
*D16
  1

  0
LINE
  5
3BC5
330
3BC3
100
AcDbEntity
  8
标注
 62
     0
370
    -2
100
AcDbLine
 10
1901.04307868329
 20
742.2521242117962
 30
0.0
 11
1855.29307868329
 21
742.2521242117962
 31
0.0
  0
LINE
  5
3BC6
330
3BC3
100
AcDbEntity
  8
标注
 62
     0
370
    -2
100
AcDbLine
 10
1895.04307868329
 20
341.9521242117968
 30
0.0
 11
1855.29307868329
 21
341.9521242117969
 31
0.0
  0
LINE
  5
3BC7
330
3BC3
100
AcDbEntity
  8
标注
 62
     0
370
    -2
100
AcDbLine
 10
1859.04307868329
 20
734.2521242117962
 30
0.0
 11
1859.04307868329
 21
349.9521242117969
 31
0.0
  0
SOLID
  5
3BC8
330
3BC3
100
AcDbEntity
  8
标注
 62
     0
370
    -1
100
AcDbTrace
 10
1857.709745349957
 20
734.2521242117962
 30
0.0
 11
1860.376412016624
 21
734.2521242117962
 31
0.0
 12
1859.04307868329
 22
742.2521242117962
 32
0.0
 13
1859.04307868329
 23
742.2521242117962
 33
0.0
  0
SOLID
  5
3BC9
330
3BC3
100
AcDbEntity
  8
标注
 62
     0
370
    -1
100
AcDbTrace
 10
1857.709745349957
 20
349.9521242117969
 30
0.0
 11
1860.376412016624
 21
349.9521242117969
 31
0.0
 12
1859.04307868329
 22
341.9521242117969
 32
0.0
 13
1859.04307868329
 23
341.9521242117969
 33
0.0
  0
MTEXT
  5
3BCA
330
3BC3
100
AcDbEntity
  8
标注
 62
     0
370
    -1
100
AcDbMText
 10
1846.685643485473
 20
542.2821242117965
 30
0.0
 40
16.0
 41
0.0
 71
     5
 72
     1
  1
{\fArial|b0|i0|c0|p34;400.3 [15 3/4]}
 11
6.123233995736766E-17
 21
1.0
 31
0.0
 73
     1
 44
1.0
  0
POINT
  5
3BCB
330
3BC3
100
AcDbEntity
  8
Defpoints
 62
     0
370
    -1
100
AcDbPoint
 10
1901.04307868329
 20
742.2521242117962
 30
0.0
  0
POINT
  5
3BCC
330
3BC3
100
AcDbEntity
  8
Defpoints
 62
     0
370
    -1
100
AcDbPoint
 10
1895.04307868329
 20
341.9521242117968
 30
0.0
  0
POINT
  5
3BCD
330
3BC3
100
AcDbEntity
  8
Defpoints
 62
     0
370
    -1
100
AcDbPoint
 10
1859.04307868329
 20
341.9521242117969
 30
0.0
  0
ENDBLK
  5
3BCE
330
3BC3
100
AcDbEntity
  8
0
370
    -1
100
AcDbBlockEnd
  0
BLOCK
  5
3D86
330
3D85
100
AcDbEntity
  8
0
370
    -1
100
AcDbBlockBegin
  2
WMF0
 70
     0
 71
     0
 10
0.0
 20
0.0
 30
0.0
  3
WMF0
  1

  0
LWPOLYLINE
  5
3D77
330
3D85
100
AcDbEntity
  8
0
 62
     7
370
     0
100
AcDbPolyline
 90
       75
 70
     1
 43
0.0
 10
443.9386306188621
 20
2020.315222057084
 10
453.9792458509528
 20
2020.315222057084
 10
459.7167402692901
 20
2005.97148601124
 10
459.7167402692901
 20
2005.97148601124
 10
486.9698387563933
 20
1944.293421014112
 10
503.4651352091136
 20
1907.716894097211
 10
509.9198164297432
 20
1894.807531655951
 10
513.5057504412039
 20
1886.918476830737
 10
513.5057504412039
 20
1886.918476830737
 10
515.6573108480806
 20
1884.766916423861
 10
517.8088712549572
 20
1883.332542819276
 10
519.9604316618338
 20
1881.898169214692
 10
522.8291788710023
 20
1881.898169214692
 10
522.8291788710023
 20
1881.898169214692
 10
524.980739277879
 20
1881.1809824124
 10
527.1322996847556
 20
1881.1809824124
 10
527.8494864870476
 20
1880.463795610108
 10
527.8494864870476
 20
1879.029422005523
 10
527.8494864870476
 20
1876.160674796355
 10
527.8494864870476
 20
1876.160674796355
 10
527.8494864870476
 20
1874.72630119177
 10
527.1322996847556
 20
1874.009114389478
 10
524.980739277879
 20
1873.291927587186
 10
468.3229818967965
 20
1873.291927587186
 10
468.3229818967965
 20
1873.291927587186
 10
467.6057950945041
 20
1874.009114389478
 10
466.1714214899197
 20
1876.160674796355
 10
466.8886082922121
 20
1879.746608807815
 10
466.8886082922121
 20
1879.746608807815
 10
467.6057950945041
 20
1881.1809824124
 10
468.3229818967965
 20
1881.898169214692
 10
474.7776631174261
 20
1881.898169214692
 10
474.7776631174261
 20
1881.898169214692
 10
479.0807839311792
 20
1881.898169214692
 10
482.6667179426401
 20
1883.332542819276
 10
484.8182783495166
 20
1885.484103226153
 10
485.5354651518086
 20
1889.070037237614
 10
485.5354651518086
 20
1889.070037237614
 10
484.8182783495166
 20
1892.655971249075
 10
482.6667179426401
 20
1898.393465667412
 10
474.0604763151337
 20
1919.909069736178
 10
410.9480377134216
 20
1919.909069736178
 10
400.9074224813311
 20
1894.807531655951
 10
400.9074224813311
 20
1894.807531655951
 10
400.1902356790388
 20
1891.938784446782
 10
399.4730488767467
 20
1889.070037237614
 10
399.4730488767467
 20
1889.070037237614
 10
400.1902356790388
 20
1886.201290028445
 10
402.3417960859155
 20
1883.332542819276
 10
405.2105432950843
 20
1881.898169214692
 10
409.5136641088371
 20
1881.898169214692
 10
415.2511585271748
 20
1881.898169214692
 10
415.2511585271748
 20
1881.898169214692
 10
416.6855321317592
 20
1881.1809824124
 10
417.402718934051
 20
1879.029422005523
 10
417.402718934051
 20
1875.443487994061
 10
417.402718934051
 20
1875.443487994061
 10
416.6855321317592
 20
1874.009114389478
 10
415.968345329467
 20
1873.291927587186
 10
368.6340163781828
 20
1873.291927587186
 10
368.6340163781828
 20
1873.291927587186
 10
367.1996427735985
 20
1874.009114389478
 10
366.4824559713063
 20
1876.160674796355
 10
366.4824559713063
 20
1879.746608807815
 10
366.4824559713063
 20
1879.746608807815
 10
367.1996427735985
 20
1881.1809824124
 10
368.6340163781828
 20
1881.898169214692
 10
368.6340163781828
 20
1881.898169214692
 10
373.6543239942282
 20
1881.898169214692
 10
375.8058844011046
 20
1882.615356016984
 10
377.9574448079813
 20
1884.049729621569
 10
380.1090052148578
 20
1886.201290028445
 10
382.2605656217344
 20
1889.787224039906
 10
388.715246842364
 20
1901.262212876581
 10
443.9386306188621
 20
2020.315222057084
  0
LWPOLYLINE
  5
3D78
330
3D85
100
AcDbEntity
  8
0
 62
     7
370
     0
100
AcDbPolyline
 90
        4
 70
     1
 43
0.0
 10
443.22144381657
 20
1993.062123569981
 10
414.5339717248826
 20
1928.515311363684
 10
470.474542303673
 20
1928.515311363684
 10
443.22144381657
 20
1993.062123569981
  0
LWPOLYLINE
  5
3D79
330
3D85
100
AcDbEntity
  8
0
 62
     7
370
     0
100
AcDbPolyline
 90
      104
 70
     1
 43
0.0
 10
703.5602530486328
 20
2011.708980429578
 10
703.5602530486328
 20
2011.708980429578
 10
702.8430662463408
 20
2010.274606824993
 10
702.1258794440488
 20
2010.274606824993
 10
697.8227586302955
 20
2009.557420022701
 10
697.8227586302955
 20
2009.557420022701
 10
692.8024510142502
 20
2009.557420022701
 10
688.4993302004971
 20
2009.557420022701
 10
685.6305829913282
 20
2008.123046418117
 10
683.4790225844519
 20
2006.688672813532
 10
682.7618357821596
 20
2003.819925604364
 10
682.0446489798674
 20
1999.51680479061
 10
682.0446489798674
 20
1985.173068744767
 10
682.0446489798674
 20
1874.009114389478
 10
682.0446489798674
 20
1874.009114389478
 10
681.3274621775751
 20
1872.574740784894
 10
679.8930885729909
 20
1871.857553982601
 10
671.2868469454847
 20
1871.857553982601
 10
655.5087372950564
 20
1894.090344853659
 10
592.3962986933442
 20
1975.849640314968
 10
592.3962986933442
 20
1975.849640314968
 10
583.7900570658381
 20
1986.607442349351
 10
575.1838154383317
 20
1995.213683976857
 10
575.1838154383317
 20
1912.020014910964
 10
575.1838154383317
 20
1912.020014910964
 10
575.9010022406243
 20
1894.807531655951
 10
576.6181890429162
 20
1889.787224039906
 10
578.0525626475007
 20
1885.484103226153
 10
580.2041230543771
 20
1883.332542819276
 10
583.0728702635457
 20
1881.898169214692
 10
587.375991077299
 20
1881.1809824124
 10
593.1134854956366
 20
1881.1809824124
 10
593.1134854956366
 20
1881.1809824124
 10
598.1337931116819
 20
1881.1809824124
 10
598.850979913974
 20
1880.463795610108
 10
598.850979913974
 20
1879.029422005523
 10
598.850979913974
 20
1874.72630119177
 10
598.850979913974
 20
1874.72630119177
 10
598.850979913974
 20
1874.009114389478
 10
597.4166063093897
 20
1873.291927587186
 10
542.9104093351837
 20
1873.291927587186
 10
542.9104093351837
 20
1873.291927587186
 10
541.4760357305993
 20
1873.291927587186
 10
541.4760357305993
 20
1874.009114389478
 10
540.758848928307
 20
1875.443487994061
 10
540.758848928307
 20
1875.443487994061
 10
540.758848928307
 20
1879.029422005523
 10
541.4760357305993
 20
1880.463795610108
 10
542.1932225328914
 20
1881.1809824124
 10
544.344782939768
 20
1881.1809824124
 10
544.344782939768
 20
1881.1809824124
 10
550.0822773581054
 20
1881.1809824124
 10
554.3853981718585
 20
1881.898169214692
 10
557.9713321833194
 20
1882.615356016984
 10
560.1228925901961
 20
1884.049729621569
 10
562.2744529970724
 20
1886.918476830737
 10
562.9916397993647
 20
1890.504410842198
 10
563.708826601657
 20
1895.524718458243
 10
563.708826601657
 20
1901.979399678873
 10
563.708826601657
 20
1985.173068744767
 10
563.708826601657
 20
1985.173068744767
 10
563.708826601657
 20
1998.799617988318
 10
562.9916397993647
 20
2003.102738802072
 10
561.5572661947805
 20
2005.97148601124
 10
559.4057057879039
 20
2008.123046418117
 10
556.5369585787352
 20
2008.840233220409
 10
552.2338377649821
 20
2009.557420022701
 10
546.4963433466444
 20
2009.557420022701
 10
546.4963433466444
 20
2009.557420022701
 10
542.1932225328914
 20
2010.274606824993
 10
541.4760357305993
 20
2010.991793627285
 10
540.758848928307
 20
2011.708980429578
 10
540.758848928307
 20
2011.708980429578
 10
541.4760357305993
 20
2016.729288045623
 10
541.4760357305993
 20
2017.446474847915
 10
542.1932225328914
 20
2017.446474847915
 10
587.375991077299
 20
2017.446474847915
 10
587.375991077299
 20
2017.446474847915
 10
600.2853535185582
 20
1999.51680479061
 10
651.9228032835957
 20
1932.101245375145
 10
651.9228032835957
 20
1932.101245375145
 10
669.8524733409002
 20
1909.868454504087
 10
669.8524733409002
 20
1985.173068744767
 10
669.8524733409002
 20
1985.173068744767
 10
669.8524733409002
 20
1999.51680479061
 10
668.4180997363158
 20
2003.819925604364
 10
666.9837261317316
 20
2006.688672813532
 10
664.8321657248549
 20
2008.123046418117
 10
661.2462317133941
 20
2009.557420022701
 10
656.943110899641
 20
2009.557420022701
 10
651.2056164813035
 20
2009.557420022701
 10
651.2056164813035
 20
2009.557420022701
 10
646.185308865258
 20
2010.274606824993
 10
645.468122062966
 20
2010.991793627285
 10
645.468122062966
 20
2011.708980429578
 10
645.468122062966
 20
2016.01210124333
 10
645.468122062966
 20
2016.01210124333
 10
646.185308865258
 20
2017.446474847915
 10
648.3368692721348
 20
2017.446474847915
 10
701.4086926417564
 20
2017.446474847915
 10
701.4086926417564
 20
2017.446474847915
 10
702.8430662463408
 20
2016.729288045623
 10
703.5602530486328
 20
2016.01210124333
 10
703.5602530486328
 20
2011.708980429578
  0
LWPOLYLINE
  5
3D7A
330
3D85
100
AcDbEntity
  8
0
 62
     7
370
     0
100
AcDbPolyline
 90
      122
 70
     1
 43
0.0
 10
831.2195038566416
 20
1971.546519501215
 10
831.2195038566416
 20
1971.546519501215
 10
829.7851302520575
 20
1972.263706303508
 10
829.0679434497652
 20
1972.980893105799
 10
828.350756647473
 20
1976.566827117261
 10
828.350756647473
 20
1976.566827117261
 10
826.9163830428889
 20
1983.738695140182
 10
824.04763583372
 20
1990.910563163104
 10
820.461701822259
 20
1996.648057581441
 10
815.4413942062135
 20
2001.668365197487
 10
809.7038997878765
 20
2005.97148601124
 10
803.9664053695387
 20
2009.557420022701
 10
797.5117241489091
 20
2010.991793627285
 10
790.3398561259872
 20
2011.708980429578
 10
790.3398561259872
 20
2011.708980429578
 10
785.319548509942
 20
2011.708980429578
 10
780.2992408938968
 20
2010.991793627285
 10
775.9961200801434
 20
2009.557420022701
 10
770.9758124640982
 20
2007.405859615825
 10
766.6726916503453
 20
2005.254299208948
 10
763.0867576388843
 20
2001.668365197487
 10
759.5008236274233
 20
1998.799617988318
 10
755.9148896159626
 20
1994.496497174565
 10
753.0461424067937
 20
1990.193376360812
 10
750.1773951976248
 20
1985.173068744767
 10
748.0258347907485
 20
1980.152761128722
 10
745.8742743838719
 20
1975.132453512676
 10
744.4399007792875
 20
1969.394959094339
 10
743.7227139769952
 20
1962.940277873709
 10
743.005527174703
 20
1956.485596653079
 10
742.2883403724107
 20
1950.030915432449
 10
742.2883403724107
 20
1950.030915432449
 10
743.005527174703
 20
1942.859047409528
 10
743.7227139769952
 20
1936.404366188898
 10
744.4399007792875
 20
1929.949684968268
 10
746.5914611861641
 20
1924.212190549931
 10
748.7430215930403
 20
1917.757509329301
 10
750.8945819999171
 20
1912.737201713255
 10
753.7633292090859
 20
1907.716894097211
 10
756.6320764182547
 20
1902.696586481164
 10
760.2180104297156
 20
1899.110652469704
 10
763.8039444411766
 20
1894.807531655951
 10
768.1070652549292
 20
1891.938784446782
 10
772.4101860686827
 20
1889.070037237614
 10
777.4304936847279
 20
1886.918476830737
 10
781.7336144984807
 20
1885.484103226153
 10
787.4711089168187
 20
1884.049729621569
 10
792.4914165328639
 20
1884.049729621569
 10
792.4914165328639
 20
1884.049729621569
 10
797.5117241489091
 20
1884.049729621569
 10
802.5320317649542
 20
1885.484103226153
 10
806.8351525787074
 20
1886.918476830737
 10
811.8554601947527
 20
1888.352850435322
 10
816.1585810085058
 20
1890.504410842198
 10
820.461701822259
 20
1893.373158051367
 10
824.04763583372
 20
1896.959092062828
 10
827.6335698451807
 20
1900.545026074289
 10
827.6335698451807
 20
1900.545026074289
 10
829.7851302520575
 20
1903.413773283457
 10
831.2195038566416
 20
1904.13096008575
 10
831.936690658934
 20
1903.413773283457
 10
836.2398114726872
 20
1900.545026074289
 10
836.2398114726872
 20
1900.545026074289
 10
836.9569982749792
 20
1900.545026074289
 10
836.9569982749792
 20
1899.110652469704
 10
836.9569982749792
 20
1899.110652469704
 10
836.2398114726872
 20
1896.959092062828
 10
834.0882510658106
 20
1893.373158051367
 10
829.7851302520575
 20
1888.352850435322
 10
824.7648226360124
 20
1883.332542819276
 10
816.8757678107982
 20
1879.029422005523
 10
812.572646997045
 20
1876.877861598647
 10
808.269526183292
 20
1874.72630119177
 10
802.5320317649542
 20
1872.574740784894
 10
796.7945373466168
 20
1871.857553982601
 10
790.3398561259872
 20
1871.140367180309
 10
783.8851749053576
 20
1870.423180378017
 10
783.8851749053576
 20
1870.423180378017
 10
776.7133068824357
 20
1871.140367180309
 10
770.2586256618061
 20
1871.857553982601
 10
763.8039444411766
 20
1873.291927587186
 10
757.3492632205467
 20
1876.160674796355
 10
751.6117688022093
 20
1879.029422005523
 10
746.5914611861641
 20
1882.615356016984
 10
741.5711535701186
 20
1886.201290028445
 10
736.5508459540732
 20
1891.221597644491
 10
732.2477251403204
 20
1896.241905260536
 10
728.6617911288592
 20
1901.262212876581
 10
725.7930439196907
 20
1907.716894097211
 10
722.924296710522
 20
1914.17157531784
 10
720.7727363036452
 20
1920.62625653847
 10
719.3383626990611
 20
1927.798124561392
 10
718.6211758967687
 20
1935.687179386606
 10
717.9039890944767
 20
1942.859047409528
 10
717.9039890944767
 20
1942.859047409528
 10
718.6211758967687
 20
1951.465289037034
 10
720.0555495013531
 20
1960.07153066454
 10
721.4899231059376
 20
1967.960585489754
 10
723.6414835128141
 20
1975.132453512676
 10
727.2274175242751
 20
1981.587134733306
 10
730.8133515357359
 20
1988.041815953935
 10
735.1164723494887
 20
1994.496497174565
 10
740.1367799655344
 20
1999.51680479061
 10
745.8742743838719
 20
2004.537112406656
 10
751.6117688022093
 20
2008.840233220409
 10
758.066450022839
 20
2012.42616723187
 10
765.2383180457608
 20
2015.294914441039
 10
773.1273728709749
 20
2017.446474847915
 10
781.0164276961887
 20
2019.598035254792
 10
789.622669323695
 20
2020.315222057084
 10
798.2289109512013
 20
2021.032408859376
 10
798.2289109512013
 20
2021.032408859376
 10
807.5523393809998
 20
2020.315222057084
 10
816.1585810085058
 20
2018.8808484525
 10
825.4820094383044
 20
2016.729288045623
 10
835.5226246703947
 20
2013.143354034162
 10
836.9569982749792
 20
1980.869947931014
 10
836.9569982749792
 20
1980.869947931014
 10
836.9569982749792
 20
1972.980893105799
 10
836.2398114726872
 20
1972.263706303508
 10
835.5226246703947
 20
1971.546519501215
 10
831.2195038566416
 20
1971.546519501215
  0
LWPOLYLINE
  5
3D7B
330
3D85
100
AcDbEntity
  8
0
 62
     7
370
     0
100
AcDbPolyline
 90
       70
 70
     1
 43
0.0
 10
998.3240287907207
 20
1946.444981420989
 10
998.3240287907207
 20
1946.444981420989
 10
997.6068419884288
 20
1938.555926595775
 10
996.8896551861362
 20
1930.66687177056
 10
994.7380947792597
 20
1922.777816945347
 10
992.5865343723835
 20
1916.323135724717
 10
989.7177871632147
 20
1909.151267701795
 10
986.1318531517538
 20
1902.696586481164
 10
981.8287323380003
 20
1896.959092062828
 10
977.5256115242476
 20
1891.938784446782
 10
972.5053039082022
 20
1886.918476830737
 10
966.7678094898647
 20
1882.615356016984
 10
961.0303150715273
 20
1879.029422005523
 10
954.5756338508978
 20
1876.160674796355
 10
947.4037658279755
 20
1874.009114389478
 10
940.2318978050541
 20
1871.857553982601
 10
933.060029782132
 20
1871.140367180309
 10
925.170974956918
 20
1870.423180378017
 10
925.170974956918
 20
1870.423180378017
 10
917.2819201317039
 20
1871.140367180309
 10
910.8272389110743
 20
1871.857553982601
 10
903.6553708881523
 20
1873.291927587186
 10
897.2006896675226
 20
1876.160674796355
 10
891.4631952491854
 20
1879.029422005523
 10
885.7257008308479
 20
1881.898169214692
 10
879.98820641251
 20
1886.201290028445
 10
875.6850855987572
 20
1890.504410842198
 10
871.3819647850042
 20
1895.524718458243
 10
867.0788439712511
 20
1901.262212876581
 10
864.2100967620821
 20
1906.999707294918
 10
861.3413495529135
 20
1913.454388515548
 10
859.1897891460366
 20
1919.909069736178
 10
857.7554155414526
 20
1927.0809377591
 10
856.3210419368683
 20
1934.969992584314
 10
856.3210419368683
 20
1942.141860607236
 10
856.3210419368683
 20
1942.141860607236
 10
856.3210419368683
 20
1950.748102234742
 10
857.7554155414526
 20
1958.637157059956
 10
859.1897891460366
 20
1966.52621188517
 10
861.3413495529135
 20
1973.698079908092
 10
864.2100967620821
 20
1980.869947931014
 10
867.7960307735432
 20
1987.324629151643
 10
872.0991515872963
 20
1993.062123569981
 10
877.1194592033416
 20
1998.799617988318
 10
882.1397668193869
 20
2003.819925604364
 10
887.8772612377243
 20
2008.123046418117
 10
893.6147556560619
 20
2011.708980429578
 10
900.0694368766916
 20
2014.577727638746
 10
907.2413048996134
 20
2017.446474847915
 10
914.4131729225353
 20
2018.8808484525
 10
922.302227747749
 20
2020.315222057084
 10
930.1912825729631
 20
2020.315222057084
 10
930.1912825729631
 20
2020.315222057084
 10
937.3631505958853
 20
2020.315222057084
 10
944.535018618807
 20
2018.8808484525
 10
951.7068866417288
 20
2017.446474847915
 10
958.1615678623585
 20
2015.294914441039
 10
963.899062280696
 20
2012.42616723187
 10
969.6365566990337
 20
2008.840233220409
 10
974.6568643150787
 20
2004.537112406656
 10
979.6771719311239
 20
2000.233991592903
 10
983.980292744877
 20
1995.213683976857
 10
987.5662267563381
 20
1989.476189558519
 10
990.4349739655067
 20
1983.738695140182
 10
993.3037211746755
 20
1976.566827117261
 10
995.4552815815518
 20
1970.112145896631
 10
996.8896551861362
 20
1962.223091071417
 10
997.6068419884288
 20
1954.334036246203
 10
998.3240287907207
 20
1946.444981420989
 10
998.3240287907207
 20
1946.444981420989
  0
LWPOLYLINE
  5
3D7C
330
3D85
100
AcDbEntity
  8
0
 62
     7
370
     0
100
AcDbPolyline
 90
       68
 70
     1
 43
0.0
 10
881.4225800170944
 20
1945.727794618697
 10
881.4225800170944
 20
1945.727794618697
 10
881.4225800170944
 20
1938.555926595775
 10
882.1397668193869
 20
1931.384058572852
 10
883.5741404239714
 20
1924.929377352223
 10
885.0085140285557
 20
1918.474696131594
 10
886.44288763314
 20
1912.737201713255
 10
888.5944480400167
 20
1906.999707294918
 10
891.4631952491854
 20
1901.979399678873
 10
894.331942458354
 20
1896.959092062828
 10
897.2006896675226
 20
1893.373158051367
 10
900.7866236789835
 20
1889.787224039906
 10
905.0897444927368
 20
1886.201290028445
 10
908.6756785041977
 20
1883.332542819276
 10
912.9787993179505
 20
1881.898169214692
 10
917.999106933996
 20
1879.746608807815
 10
922.302227747749
 20
1879.029422005523
 10
927.3225353637943
 20
1879.029422005523
 10
927.3225353637943
 20
1879.029422005523
 10
932.3428429798395
 20
1879.029422005523
 10
937.3631505958853
 20
1879.746608807815
 10
941.6662714096382
 20
1881.1809824124
 10
945.9693922233913
 20
1883.332542819276
 10
950.2725130371443
 20
1886.201290028445
 10
953.8584470486052
 20
1889.070037237614
 10
957.4443810600663
 20
1892.655971249075
 10
960.3131282692347
 20
1896.959092062828
 10
963.1818754784038
 20
1901.262212876581
 10
966.0506226875723
 20
1906.282520492626
 10
968.202183094449
 20
1912.020014910964
 10
969.6365566990337
 20
1917.757509329301
 10
971.0709303036175
 20
1924.212190549931
 10
971.7881171059101
 20
1930.66687177056
 10
972.5053039082022
 20
1945.010607816404
 10
972.5053039082022
 20
1945.010607816404
 10
971.7881171059101
 20
1959.354343862248
 10
971.0709303036175
 20
1965.809025082878
 10
969.6365566990337
 20
1972.263706303508
 10
967.4849962921566
 20
1978.001200721845
 10
966.0506226875723
 20
1983.738695140182
 10
963.1818754784038
 20
1988.759002756227
 10
960.3131282692347
 20
1993.779310372273
 10
957.4443810600663
 20
1998.082431186026
 10
953.8584470486052
 20
2001.668365197487
 10
950.2725130371443
 20
2004.537112406656
 10
946.6865790256836
 20
2007.405859615825
 10
942.3834582119302
 20
2009.557420022701
 10
938.0803373981771
 20
2010.991793627285
 10
933.060029782132
 20
2012.42616723187
 10
928.0397221660866
 20
2012.42616723187
 10
928.0397221660866
 20
2012.42616723187
 10
923.0194145500413
 20
2012.42616723187
 10
917.999106933996
 20
2010.991793627285
 10
912.9787993179505
 20
2009.557420022701
 10
908.6756785041977
 20
2008.123046418117
 10
904.3725576904446
 20
2005.254299208948
 10
900.7866236789835
 20
2002.385551999779
 10
897.2006896675226
 20
1998.799617988318
 10
894.331942458354
 20
1994.496497174565
 10
891.4631952491854
 20
1990.193376360812
 10
888.5944480400167
 20
1985.173068744767
 10
886.44288763314
 20
1979.435574326429
 10
885.0085140285557
 20
1973.698079908092
 10
883.5741404239714
 20
1967.243398687462
 10
882.1397668193869
 20
1960.07153066454
 10
881.4225800170944
 20
1952.899662641618
 10
881.4225800170944
 20
1945.727794618697
 10
881.4225800170944
 20
1945.727794618697
  0
LWPOLYLINE
  5
3D7D
330
3D85
100
AcDbEntity
  8
0
 62
     7
370
     0
100
AcDbPolyline
 90
      104
 70
     1
 43
0.0
 10
1176.903542561475
 20
2011.708980429578
 10
1176.903542561475
 20
2011.708980429578
 10
1176.186355759182
 20
2010.274606824993
 10
1175.46916895689
 20
2010.274606824993
 10
1171.166048143137
 20
2009.557420022701
 10
1171.166048143137
 20
2009.557420022701
 10
1166.145740527092
 20
2009.557420022701
 10
1161.842619713339
 20
2009.557420022701
 10
1158.97387250417
 20
2008.123046418117
 10
1156.822312097293
 20
2006.688672813532
 10
1156.105125295001
 20
2003.819925604364
 10
1155.387938492709
 20
1999.51680479061
 10
1155.387938492709
 20
1985.173068744767
 10
1155.387938492709
 20
1874.009114389478
 10
1155.387938492709
 20
1874.009114389478
 10
1154.670751690417
 20
1872.574740784894
 10
1153.236378085833
 20
1871.857553982601
 10
1144.630136458326
 20
1871.857553982601
 10
1128.852026807898
 20
1894.090344853659
 10
1065.739588206186
 20
1975.849640314968
 10
1065.739588206186
 20
1975.849640314968
 10
1057.13334657868
 20
1986.607442349351
 10
1048.527104951173
 20
1995.213683976857
 10
1048.527104951173
 20
1912.020014910964
 10
1048.527104951173
 20
1912.020014910964
 10
1049.244291753466
 20
1894.807531655951
 10
1049.961478555758
 20
1889.787224039906
 10
1051.395852160342
 20
1885.484103226153
 10
1053.547412567219
 20
1883.332542819276
 10
1056.416159776388
 20
1881.898169214692
 10
1060.719280590141
 20
1881.1809824124
 10
1066.456775008478
 20
1881.1809824124
 10
1066.456775008478
 20
1881.1809824124
 10
1071.477082624523
 20
1881.1809824124
 10
1072.194269426816
 20
1880.463795610108
 10
1072.194269426816
 20
1879.029422005523
 10
1072.194269426816
 20
1874.72630119177
 10
1072.194269426816
 20
1874.72630119177
 10
1072.194269426816
 20
1874.009114389478
 10
1070.759895822231
 20
1873.291927587186
 10
1016.253698848025
 20
1873.291927587186
 10
1016.253698848025
 20
1873.291927587186
 10
1015.536512045733
 20
1873.291927587186
 10
1014.819325243441
 20
1874.009114389478
 10
1014.102138441149
 20
1875.443487994061
 10
1014.102138441149
 20
1875.443487994061
 10
1014.102138441149
 20
1879.029422005523
 10
1014.819325243441
 20
1880.463795610108
 10
1015.536512045733
 20
1881.1809824124
 10
1017.68807245261
 20
1881.1809824124
 10
1017.68807245261
 20
1881.1809824124
 10
1023.425566870947
 20
1881.1809824124
 10
1027.7286876847
 20
1881.898169214692
 10
1031.314621696161
 20
1882.615356016984
 10
1033.466182103038
 20
1884.049729621569
 10
1035.617742509914
 20
1886.918476830737
 10
1036.334929312206
 20
1890.504410842198
 10
1037.052116114499
 20
1895.524718458243
 10
1037.052116114499
 20
1901.979399678873
 10
1037.052116114499
 20
1985.173068744767
 10
1037.052116114499
 20
1985.173068744767
 10
1037.052116114499
 20
1998.799617988318
 10
1036.334929312206
 20
2003.102738802072
 10
1034.900555707622
 20
2005.97148601124
 10
1032.748995300746
 20
2008.123046418117
 10
1029.880248091577
 20
2008.840233220409
 10
1025.577127277824
 20
2009.557420022701
 10
1019.839632859486
 20
2009.557420022701
 10
1019.839632859486
 20
2009.557420022701
 10
1015.536512045733
 20
2010.274606824993
 10
1014.819325243441
 20
2010.991793627285
 10
1014.102138441149
 20
2011.708980429578
 10
1014.102138441149
 20
2011.708980429578
 10
1014.819325243441
 20
2016.729288045623
 10
1014.819325243441
 20
2017.446474847915
 10
1015.536512045733
 20
2017.446474847915
 10
1060.719280590141
 20
2017.446474847915
 10
1060.719280590141
 20
2017.446474847915
 10
1073.6286430314
 20
1999.51680479061
 10
1125.266092796437
 20
1932.101245375145
 10
1125.266092796437
 20
1932.101245375145
 10
1143.195762853742
 20
1909.868454504087
 10
1143.195762853742
 20
1985.173068744767
 10
1143.195762853742
 20
1985.173068744767
 10
1143.195762853742
 20
1999.51680479061
 10
1141.761389249158
 20
2003.819925604364
 10
1140.327015644573
 20
2006.688672813532
 10
1138.175455237697
 20
2008.123046418117
 10
1134.589521226236
 20
2009.557420022701
 10
1130.286400412483
 20
2009.557420022701
 10
1124.548905994145
 20
2009.557420022701
 10
1124.548905994145
 20
2009.557420022701
 10
1119.5285983781
 20
2010.274606824993
 10
1118.811411575808
 20
2010.991793627285
 10
1118.811411575808
 20
2011.708980429578
 10
1118.811411575808
 20
2016.01210124333
 10
1118.811411575808
 20
2016.01210124333
 10
1119.5285983781
 20
2017.446474847915
 10
1121.680158784976
 20
2017.446474847915
 10
1174.751982154598
 20
2017.446474847915
 10
1174.751982154598
 20
2017.446474847915
 10
1176.186355759182
 20
2016.729288045623
 10
1176.903542561475
 20
2016.01210124333
 10
1176.903542561475
 20
2011.708980429578
  0
LWPOLYLINE
  5
3D7E
330
3D85
100
AcDbEntity
  8
0
 62
     7
370
     0
100
AcDbPolyline
 90
       75
 70
     1
 43
0.0
 10
1255.794090813615
 20
2020.315222057084
 10
1265.117519243413
 20
2020.315222057084
 10
1271.572200464043
 20
2005.97148601124
 10
1271.572200464043
 20
2005.97148601124
 10
1298.825298951146
 20
1944.293421014112
 10
1315.320595403866
 20
1907.716894097211
 10
1321.775276624496
 20
1894.807531655951
 10
1325.361210635957
 20
1886.918476830737
 10
1325.361210635957
 20
1886.918476830737
 10
1327.512771042833
 20
1884.766916423861
 10
1329.66433144971
 20
1883.332542819276
 10
1331.815891856586
 20
1881.898169214692
 10
1333.967452263463
 20
1881.898169214692
 10
1333.967452263463
 20
1881.898169214692
 10
1336.836199472632
 20
1881.1809824124
 10
1338.987759879508
 20
1881.1809824124
 10
1339.7049466818
 20
1880.463795610108
 10
1339.7049466818
 20
1879.029422005523
 10
1339.7049466818
 20
1876.160674796355
 10
1339.7049466818
 20
1876.160674796355
 10
1339.7049466818
 20
1874.72630119177
 10
1338.987759879508
 20
1874.009114389478
 10
1336.836199472632
 20
1873.291927587186
 10
1280.178442091549
 20
1873.291927587186
 10
1280.178442091549
 20
1873.291927587186
 10
1278.744068486965
 20
1874.009114389478
 10
1278.026881684673
 20
1876.160674796355
 10
1278.744068486965
 20
1879.746608807815
 10
1278.744068486965
 20
1879.746608807815
 10
1278.744068486965
 20
1881.1809824124
 10
1280.178442091549
 20
1881.898169214692
 10
1285.915936509887
 20
1881.898169214692
 10
1285.915936509887
 20
1881.898169214692
 10
1290.936244125932
 20
1881.898169214692
 10
1294.522178137393
 20
1883.332542819276
 10
1295.956551741977
 20
1885.484103226153
 10
1296.673738544269
 20
1889.070037237614
 10
1296.673738544269
 20
1889.070037237614
 10
1296.673738544269
 20
1892.655971249075
 10
1294.522178137393
 20
1898.393465667412
 10
1285.915936509887
 20
1919.909069736178
 10
1222.803497908174
 20
1919.909069736178
 10
1212.762882676084
 20
1894.807531655951
 10
1212.762882676084
 20
1894.807531655951
 10
1212.045695873792
 20
1891.938784446782
 10
1211.328509071499
 20
1889.070037237614
 10
1211.328509071499
 20
1889.070037237614
 10
1212.045695873792
 20
1886.201290028445
 10
1214.197256280668
 20
1883.332542819276
 10
1217.066003489837
 20
1881.898169214692
 10
1221.36912430359
 20
1881.898169214692
 10
1227.106618721928
 20
1881.898169214692
 10
1227.106618721928
 20
1881.898169214692
 10
1228.540992326512
 20
1881.1809824124
 10
1229.258179128804
 20
1879.029422005523
 10
1229.258179128804
 20
1875.443487994061
 10
1229.258179128804
 20
1875.443487994061
 10
1228.540992326512
 20
1874.009114389478
 10
1227.82380552422
 20
1873.291927587186
 10
1179.772289770643
 20
1873.291927587186
 10
1179.772289770643
 20
1873.291927587186
 10
1179.055102968351
 20
1874.009114389478
 10
1178.337916166059
 20
1876.160674796355
 10
1178.337916166059
 20
1879.746608807815
 10
1178.337916166059
 20
1879.746608807815
 10
1179.055102968351
 20
1881.1809824124
 10
1180.489476572935
 20
1881.898169214692
 10
1180.489476572935
 20
1881.898169214692
 10
1185.509784188981
 20
1881.898169214692
 10
1187.661344595857
 20
1882.615356016984
 10
1189.812905002734
 20
1884.049729621569
 10
1191.96446540961
 20
1886.201290028445
 10
1194.116025816487
 20
1889.787224039906
 10
1200.570707037116
 20
1901.262212876581
 10
1255.794090813615
 20
2020.315222057084
  0
LWPOLYLINE
  5
3D7F
330
3D85
100
AcDbEntity
  8
0
 62
     7
370
     0
100
AcDbPolyline
 90
        4
 70
     1
 43
0.0
 10
1255.076904011323
 20
1993.062123569981
 10
1226.389431919636
 20
1928.515311363684
 10
1282.330002498426
 20
1928.515311363684
 10
1255.076904011323
 20
1993.062123569981
  0
LWPOLYLINE
  5
3D80
330
3D85
100
AcDbEntity
  8
0
 62
     7
370
     0
100
AcDbPolyline
 90
       46
 70
     1
 10
908.6756785041977
 20
1802.29043416026
 40
2.868747209168738
 41
2.868747209168738
 10
908.6756785041977
 20
1802.29043416026
 40
2.868747209168738
 41
2.868747209168738
 10
908.6756785041977
 20
1802.29043416026
 40
2.868747209168738
 41
2.868747209168738
 10
908.6756785041977
 20
1802.29043416026
 40
2.868747209168738
 41
2.868747209168738
 10
900.7866236789835
 20
1802.29043416026
 40
2.868747209168738
 41
2.868747209168738
 10
892.1803820514774
 20
1803.007620962552
 40
2.868747209168738
 41
2.868747209168738
 10
882.8569536216789
 20
1805.159181369428
 40
2.868747209168738
 41
2.868747209168738
 10
872.8163383895886
 20
1807.310741776305
 40
2.868747209168738
 41
2.868747209168738
 10
849.8663607162384
 20
1814.482609799227
 40
2.868747209168738
 41
2.868747209168738
 10
824.7648226360124
 20
1823.806038229025
 40
2.868747209168738
 41
2.868747209168738
 10
798.2289109512013
 20
1834.563840263408
 40
2.868747209168738
 41
2.868747209168738
 10
769.5414388595137
 20
1846.756015902375
 40
2.868747209168738
 41
2.868747209168738
 10
709.2977474669702
 20
1873.291927587186
 40
2.868747209168738
 41
2.868747209168738
 10
709.2977474669702
 20
1873.291927587186
 40
2.868747209168738
 41
2.868747209168738
 10
650.4884296790112
 20
1899.827839271997
 40
2.868747209168738
 41
2.868747209168738
 10
622.518144389616
 20
1911.302828108672
 40
2.868747209168738
 41
2.868747209168738
 10
595.2650459025131
 20
1922.060630143054
 40
2.868747209168738
 41
2.868747209168738
 10
570.1635078222866
 20
1931.384058572852
 40
2.868747209168738
 41
2.868747209168738
 10
547.9307169512289
 20
1938.555926595775
 40
2.868747209168738
 41
2.868747209168738
 10
537.8901017191384
 20
1940.707487002651
 40
2.868747209168738
 41
2.868747209168738
 10
528.5666732893401
 20
1942.859047409528
 40
2.868747209168738
 41
2.868747209168738
 10
519.9604316618338
 20
1944.293421014112
 40
2.868747209168738
 41
2.868747209168738
 10
512.0713768366197
 20
1944.293421014112
 40
2.868747209168738
 41
2.868747209168738
 10
512.0713768366197
 20
1946.444981420989
 40
2.868747209168738
 41
2.868747209168738
 10
512.0713768366197
 20
1946.444981420989
 40
2.868747209168738
 41
2.868747209168738
 10
519.9604316618338
 20
1946.444981420989
 40
2.868747209168738
 41
2.868747209168738
 10
528.5666732893401
 20
1945.010607816404
 40
2.868747209168738
 41
2.868747209168738
 10
537.8901017191384
 20
1942.859047409528
 40
2.868747209168738
 41
2.868747209168738
 10
547.9307169512289
 20
1940.707487002651
 40
2.868747209168738
 41
2.868747209168738
 10
570.8806946245788
 20
1933.535618979729
 40
2.868747209168738
 41
2.868747209168738
 10
595.9822327048053
 20
1924.212190549931
 40
2.868747209168738
 41
2.868747209168738
 10
623.2353311919084
 20
1913.454388515548
 40
2.868747209168738
 41
2.868747209168738
 10
651.2056164813035
 20
1901.262212876581
 40
2.868747209168738
 41
2.868747209168738
 10
710.7321210715547
 20
1875.443487994061
 40
2.868747209168738
 41
2.868747209168738
 10
710.7321210715547
 20
1875.443487994061
 40
2.868747209168738
 41
2.868747209168738
 10
770.2586256618061
 20
1848.907576309252
 40
2.868747209168738
 41
2.868747209168738
 10
798.9460977534935
 20
1836.715400670284
 40
2.868747209168738
 41
2.868747209168738
 10
825.4820094383044
 20
1825.957598635902
 40
2.868747209168738
 41
2.868747209168738
 10
850.5835475185308
 20
1816.634170206103
 40
2.868747209168738
 41
2.868747209168738
 10
872.8163383895886
 20
1809.462302183181
 40
2.868747209168738
 41
2.868747209168738
 10
882.8569536216789
 20
1807.310741776305
 40
2.868747209168738
 41
2.868747209168738
 10
892.1803820514774
 20
1805.87636817172
 40
2.868747209168738
 41
2.868747209168738
 10
900.7866236789835
 20
1804.441994567136
 40
2.868747209168738
 41
2.868747209168738
 10
907.9584917019056
 20
1804.441994567136
 40
2.868747209168738
 41
2.868747209168738
 10
908.6756785041977
 20
1804.441994567136
 40
2.868747209168738
 41
2.868747209168738
 10
908.6756785041977
 20
1802.29043416026
 40
2.868747209168738
 41
2.868747209168738
  0
LWPOLYLINE
  5
3D81
330
3D85
100
AcDbEntity
  8
0
 62
     7
370
     0
100
AcDbPolyline
 90
      134
 70
     1
 10
953.8584470486052
 20
1830.260719449655
 40
2.868747209168738
 41
2.868747209168738
 10
953.8584470486052
 20
1830.260719449655
 40
2.868747209168738
 41
2.868747209168738
 10
953.8584470486052
 20
1830.260719449655
 40
2.868747209168738
 41
2.868747209168738
 10
945.9693922233913
 20
1831.695093054239
 40
2.868747209168738
 41
2.868747209168738
 10
938.0803373981771
 20
1833.129466658824
 40
2.868747209168738
 41
2.868747209168738
 10
938.0803373981771
 20
1833.129466658824
 40
2.868747209168738
 41
2.868747209168738
 10
930.9084693752555
 20
1835.2810270657
 40
2.868747209168738
 41
2.868747209168738
 10
923.7366013523337
 20
1837.432587472576
 40
2.868747209168738
 41
2.868747209168738
 10
923.7366013523337
 20
1837.432587472576
 40
2.868747209168738
 41
2.868747209168738
 10
915.1303597248274
 20
1841.73570828633
 40
2.868747209168738
 41
2.868747209168738
 10
906.5241180973213
 20
1846.038829100083
 40
2.868747209168738
 41
2.868747209168738
 10
898.6350632721071
 20
1851.77632351842
 40
2.868747209168738
 41
2.868747209168738
 10
890.7460084468931
 20
1857.513817936758
 40
2.868747209168738
 41
2.868747209168738
 10
883.5741404239714
 20
1863.968499157387
 40
2.868747209168738
 41
2.868747209168738
 10
877.1194592033416
 20
1871.140367180309
 40
2.868747209168738
 41
2.868747209168738
 10
870.664777982712
 20
1879.029422005523
 40
2.868747209168738
 41
2.868747209168738
 10
865.6444703666666
 20
1887.635663633029
 40
2.868747209168738
 41
2.868747209168738
 10
865.6444703666666
 20
1887.635663633029
 40
2.868747209168738
 41
2.868747209168738
 10
865.6444703666666
 20
1887.635663633029
 40
2.868747209168738
 41
2.868747209168738
 10
865.6444703666666
 20
1887.635663633029
 40
2.868747209168738
 41
2.868747209168738
 10
865.6444703666666
 20
1887.635663633029
 40
2.868747209168738
 41
2.868747209168738
 10
859.1897891460366
 20
1899.827839271997
 40
2.868747209168738
 41
2.868747209168738
 10
854.886668332284
 20
1912.020014910964
 40
2.868747209168738
 41
2.868747209168738
 10
854.886668332284
 20
1912.020014910964
 40
2.868747209168738
 41
2.868747209168738
 10
852.0179211231152
 20
1924.212190549931
 40
2.868747209168738
 41
2.868747209168738
 10
849.8663607162384
 20
1936.404366188898
 40
2.868747209168738
 41
2.868747209168738
 10
849.8663607162384
 20
1936.404366188898
 40
2.868747209168738
 41
2.868747209168738
 10
849.8663607162384
 20
1945.010607816404
 40
2.868747209168738
 41
2.868747209168738
 10
849.8663607162384
 20
1952.899662641618
 40
2.868747209168738
 41
2.868747209168738
 10
850.5835475185308
 20
1960.788717466832
 40
2.868747209168738
 41
2.868747209168738
 10
852.0179211231152
 20
1968.677772292046
 40
2.868747209168738
 41
2.868747209168738
 10
854.1694815299917
 20
1976.566827117261
 40
2.868747209168738
 41
2.868747209168738
 10
856.3210419368683
 20
1984.455881942475
 40
2.868747209168738
 41
2.868747209168738
 10
859.1897891460366
 20
1991.627749965396
 40
2.868747209168738
 41
2.868747209168738
 10
862.775723157498
 20
1998.799617988318
 40
2.868747209168738
 41
2.868747209168738
 10
866.3616571689589
 20
2005.97148601124
 40
2.868747209168738
 41
2.868747209168738
 10
870.664777982712
 20
2013.143354034162
 40
2.868747209168738
 41
2.868747209168738
 10
875.6850855987572
 20
2019.598035254792
 40
2.868747209168738
 41
2.868747209168738
 10
881.4225800170944
 20
2025.335529673129
 40
2.868747209168738
 41
2.868747209168738
 10
887.1600744354322
 20
2031.790210893759
 40
2.868747209168738
 41
2.868747209168738
 10
893.6147556560619
 20
2036.810518509804
 40
2.868747209168738
 41
2.868747209168738
 10
900.0694368766916
 20
2041.830826125849
 40
2.868747209168738
 41
2.868747209168738
 10
907.2413048996134
 20
2046.851133741895
 40
2.868747209168738
 41
2.868747209168738
 10
907.2413048996134
 20
2046.851133741895
 40
2.868747209168738
 41
2.868747209168738
 10
907.2413048996134
 20
2046.851133741895
 40
2.868747209168738
 41
2.868747209168738
 10
907.2413048996134
 20
2046.851133741895
 40
2.868747209168738
 41
2.868747209168738
 10
907.2413048996134
 20
2046.851133741895
 40
2.868747209168738
 41
2.868747209168738
 10
917.999106933996
 20
2051.87144135794
 40
2.868747209168738
 41
2.868747209168738
 10
928.756908968379
 20
2056.174562171694
 40
2.868747209168738
 41
2.868747209168738
 10
928.756908968379
 20
2056.174562171694
 40
2.868747209168738
 41
2.868747209168738
 10
939.5147110027616
 20
2059.043309380862
 40
2.868747209168738
 41
2.868747209168738
 10
950.2725130371443
 20
2061.194869787739
 40
2.868747209168738
 41
2.868747209168738
 10
950.2725130371443
 20
2061.194869787739
 40
2.868747209168738
 41
2.868747209168738
 10
957.4443810600663
 20
2061.91205659003
 40
2.868747209168738
 41
2.868747209168738
 10
964.616249082988
 20
2062.629243392323
 40
2.868747209168738
 41
2.868747209168738
 10
971.7881171059101
 20
2061.91205659003
 40
2.868747209168738
 41
2.868747209168738
 10
978.9599851288318
 20
2061.91205659003
 40
2.868747209168738
 41
2.868747209168738
 10
985.4146663494615
 20
2060.477682985446
 40
2.868747209168738
 41
2.868747209168738
 10
992.5865343723835
 20
2059.043309380862
 40
2.868747209168738
 41
2.868747209168738
 10
999.7584023953052
 20
2057.608935776277
 40
2.868747209168738
 41
2.868747209168738
 10
1006.213083615935
 20
2055.457375369401
 40
2.868747209168738
 41
2.868747209168738
 10
1012.667764836564
 20
2052.588628160232
 40
2.868747209168738
 41
2.868747209168738
 10
1019.122446057194
 20
2049.002694148772
 40
2.868747209168738
 41
2.868747209168738
 10
1025.577127277824
 20
2046.133946939603
 40
2.868747209168738
 41
2.868747209168738
 10
1031.314621696161
 20
2041.830826125849
 40
2.868747209168738
 41
2.868747209168738
 10
1037.769302916791
 20
2037.527705312097
 40
2.868747209168738
 41
2.868747209168738
 10
1042.789610532836
 20
2033.224584498343
 40
2.868747209168738
 41
2.868747209168738
 10
1048.527104951173
 20
2028.204276882298
 40
2.868747209168738
 41
2.868747209168738
 10
1053.547412567219
 20
2022.46678246396
 40
2.868747209168738
 41
2.868747209168738
 10
1052.113038962634
 20
2021.032408859376
 40
2.868747209168738
 41
2.868747209168738
 10
1052.113038962634
 20
2021.032408859376
 40
2.868747209168738
 41
2.868747209168738
 10
1047.092731346589
 20
2026.769903277713
 40
2.868747209168738
 41
2.868747209168738
 10
1041.355236928252
 20
2031.790210893759
 40
2.868747209168738
 41
2.868747209168738
 10
1036.334929312206
 20
2036.093331707512
 40
2.868747209168738
 41
2.868747209168738
 10
1030.597434893869
 20
2040.396452521265
 40
2.868747209168738
 41
2.868747209168738
 10
1024.142753673239
 20
2043.982386532726
 40
2.868747209168738
 41
2.868747209168738
 10
1018.405259254902
 20
2047.568320544187
 40
2.868747209168738
 41
2.868747209168738
 10
1011.950578034272
 20
2050.437067753356
 40
2.868747209168738
 41
2.868747209168738
 10
1005.495896813642
 20
2053.305814962524
 40
2.868747209168738
 41
2.868747209168738
 10
991.8693475700912
 20
2056.891748973985
 40
2.868747209168738
 41
2.868747209168738
 10
978.2427983265396
 20
2059.043309380862
 40
2.868747209168738
 41
2.868747209168738
 10
964.616249082988
 20
2059.760496183154
 40
2.868747209168738
 41
2.868747209168738
 10
950.9896998394363
 20
2059.043309380862
 40
2.868747209168738
 41
2.868747209168738
 10
950.9896998394363
 20
2059.043309380862
 40
2.868747209168738
 41
2.868747209168738
 10
940.2318978050541
 20
2056.891748973985
 40
2.868747209168738
 41
2.868747209168738
 10
929.4740957706713
 20
2054.023001764816
 40
2.868747209168738
 41
2.868747209168738
 10
929.4740957706713
 20
2054.023001764816
 40
2.868747209168738
 41
2.868747209168738
 10
918.7162937362883
 20
2049.719880951063
 40
2.868747209168738
 41
2.868747209168738
 10
908.6756785041977
 20
2044.699573335018
 40
2.868747209168738
 41
2.868747209168738
 10
908.6756785041977
 20
2044.699573335018
 40
2.868747209168738
 41
2.868747209168738
 10
908.6756785041977
 20
2044.699573335018
 40
2.868747209168738
 41
2.868747209168738
 10
908.6756785041977
 20
2044.699573335018
 40
2.868747209168738
 41
2.868747209168738
 10
908.6756785041977
 20
2044.699573335018
 40
2.868747209168738
 41
2.868747209168738
 10
901.5038104812759
 20
2040.396452521265
 40
2.868747209168738
 41
2.868747209168738
 10
895.049129260646
 20
2035.37614490522
 40
2.868747209168738
 41
2.868747209168738
 10
888.5944480400167
 20
2029.638650486882
 40
2.868747209168738
 41
2.868747209168738
 10
882.8569536216789
 20
2023.901156068545
 40
2.868747209168738
 41
2.868747209168738
 10
877.8366460056338
 20
2018.163661650207
 40
2.868747209168738
 41
2.868747209168738
 10
872.8163383895886
 20
2011.708980429578
 40
2.868747209168738
 41
2.868747209168738
 10
868.5132175758353
 20
2005.254299208948
 40
2.868747209168738
 41
2.868747209168738
 10
864.9272835643746
 20
1998.082431186026
 40
2.868747209168738
 41
2.868747209168738
 10
861.3413495529135
 20
1990.910563163104
 40
2.868747209168738
 41
2.868747209168738
 10
858.4726023437449
 20
1983.738695140182
 40
2.868747209168738
 41
2.868747209168738
 10
856.3210419368683
 20
1975.849640314968
 40
2.868747209168738
 41
2.868747209168738
 10
854.1694815299917
 20
1968.677772292046
 40
2.868747209168738
 41
2.868747209168738
 10
852.7351079254074
 20
1960.788717466832
 40
2.868747209168738
 41
2.868747209168738
 10
852.0179211231152
 20
1952.899662641618
 40
2.868747209168738
 41
2.868747209168738
 10
852.0179211231152
 20
1945.010607816404
 40
2.868747209168738
 41
2.868747209168738
 10
852.0179211231152
 20
1937.12155299119
 40
2.868747209168738
 41
2.868747209168738
 10
852.0179211231152
 20
1937.12155299119
 40
2.868747209168738
 41
2.868747209168738
 10
854.1694815299917
 20
1924.929377352223
 40
2.868747209168738
 41
2.868747209168738
 10
857.0382287391604
 20
1912.737201713255
 40
2.868747209168738
 41
2.868747209168738
 10
857.0382287391604
 20
1912.737201713255
 40
2.868747209168738
 41
2.868747209168738
 10
861.3413495529135
 20
1900.545026074289
 40
2.868747209168738
 41
2.868747209168738
 10
867.0788439712511
 20
1889.070037237614
 40
2.868747209168738
 41
2.868747209168738
 10
867.0788439712511
 20
1889.070037237614
 40
2.868747209168738
 41
2.868747209168738
 10
867.0788439712511
 20
1889.070037237614
 40
2.868747209168738
 41
2.868747209168738
 10
867.0788439712511
 20
1889.070037237614
 40
2.868747209168738
 41
2.868747209168738
 10
867.0788439712511
 20
1889.070037237614
 40
2.868747209168738
 41
2.868747209168738
 10
872.8163383895886
 20
1880.463795610108
 40
2.868747209168738
 41
2.868747209168738
 10
878.553832807926
 20
1872.574740784894
 40
2.868747209168738
 41
2.868747209168738
 10
885.0085140285557
 20
1865.402872761972
 40
2.868747209168738
 41
2.868747209168738
 10
892.1803820514774
 20
1858.948191541342
 40
2.868747209168738
 41
2.868747209168738
 10
899.3522500743994
 20
1853.210697123005
 40
2.868747209168738
 41
2.868747209168738
 10
907.2413048996134
 20
1848.190389506959
 40
2.868747209168738
 41
2.868747209168738
 10
915.8475465271194
 20
1843.170081890914
 40
2.868747209168738
 41
2.868747209168738
 10
924.453788154626
 20
1839.584147879453
 40
2.868747209168738
 41
2.868747209168738
 10
924.453788154626
 20
1839.584147879453
 40
2.868747209168738
 41
2.868747209168738
 10
931.6256561775476
 20
1837.432587472576
 40
2.868747209168738
 41
2.868747209168738
 10
938.7975242004696
 20
1835.2810270657
 40
2.868747209168738
 41
2.868747209168738
 10
938.7975242004696
 20
1835.2810270657
 40
2.868747209168738
 41
2.868747209168738
 10
953.8584470486052
 20
1832.412279856531
 40
2.868747209168738
 41
2.868747209168738
 10
953.8584470486052
 20
1832.412279856531
 40
2.868747209168738
 41
2.868747209168738
 10
953.8584470486052
 20
1830.260719449655
 40
2.868747209168738
 41
2.868747209168738
  0
LWPOLYLINE
  5
3D82
330
3D85
100
AcDbEntity
  8
0
 62
     7
370
     0
100
AcDbPolyline
 90
      164
 70
     1
 10
973.9396775127866
 20
1833.129466658824
 40
2.868747209168738
 41
2.868747209168738
 10
973.9396775127866
 20
1833.129466658824
 40
2.868747209168738
 41
2.868747209168738
 10
966.7678094898647
 20
1837.432587472576
 40
2.868747209168738
 41
2.868747209168738
 10
961.0303150715273
 20
1841.73570828633
 40
2.868747209168738
 41
2.868747209168738
 10
961.0303150715273
 20
1841.73570828633
 40
2.868747209168738
 41
2.868747209168738
 10
956.727194257774
 20
1846.756015902375
 40
2.868747209168738
 41
2.868747209168738
 10
953.1412602463133
 20
1851.77632351842
 40
2.868747209168738
 41
2.868747209168738
 10
951.7068866417288
 20
1857.513817936758
 40
2.868747209168738
 41
2.868747209168738
 10
950.9896998394363
 20
1863.251312355094
 40
2.868747209168738
 41
2.868747209168738
 10
950.9896998394363
 20
1863.251312355094
 40
2.868747209168738
 41
2.868747209168738
 10
950.2725130371443
 20
1868.271619971141
 40
2.868747209168738
 41
2.868747209168738
 10
950.9896998394363
 20
1873.291927587186
 40
2.868747209168738
 41
2.868747209168738
 10
952.424073444021
 20
1878.312235203231
 40
2.868747209168738
 41
2.868747209168738
 10
953.8584470486052
 20
1882.615356016984
 40
2.868747209168738
 41
2.868747209168738
 10
953.8584470486052
 20
1882.615356016984
 40
2.868747209168738
 41
2.868747209168738
 10
956.727194257774
 20
1887.635663633029
 40
2.868747209168738
 41
2.868747209168738
 10
960.3131282692347
 20
1891.938784446782
 40
2.868747209168738
 41
2.868747209168738
 10
960.3131282692347
 20
1891.938784446782
 40
2.868747209168738
 41
2.868747209168738
 10
963.899062280696
 20
1895.524718458243
 40
2.868747209168738
 41
2.868747209168738
 10
968.202183094449
 20
1899.110652469704
 40
2.868747209168738
 41
2.868747209168738
 10
972.5053039082022
 20
1901.979399678873
 40
2.868747209168738
 41
2.868747209168738
 10
976.0912379196632
 20
1904.13096008575
 40
2.868747209168738
 41
2.868747209168738
 10
980.3943587334163
 20
1905.565333690334
 40
2.868747209168738
 41
2.868747209168738
 10
984.6974795471693
 20
1906.999707294918
 40
2.868747209168738
 41
2.868747209168738
 10
989.0006003609224
 20
1907.716894097211
 40
2.868747209168738
 41
2.868747209168738
 10
993.3037211746755
 20
1907.716894097211
 40
2.868747209168738
 41
2.868747209168738
 10
993.3037211746755
 20
1907.716894097211
 40
2.868747209168738
 41
2.868747209168738
 10
1000.475589197597
 20
1906.999707294918
 40
2.868747209168738
 41
2.868747209168738
 10
1006.930270418227
 20
1904.848146888042
 40
2.868747209168738
 41
2.868747209168738
 10
1006.930270418227
 20
1904.848146888042
 40
2.868747209168738
 41
2.868747209168738
 10
1010.516204429688
 20
1903.413773283457
 40
2.868747209168738
 41
2.868747209168738
 10
1013.384951638856
 20
1901.262212876581
 40
2.868747209168738
 41
2.868747209168738
 10
1019.122446057194
 20
1896.959092062828
 40
2.868747209168738
 41
2.868747209168738
 10
1019.122446057194
 20
1896.959092062828
 40
2.868747209168738
 41
2.868747209168738
 10
1022.708380068655
 20
1894.090344853659
 40
2.868747209168738
 41
2.868747209168738
 10
1025.577127277824
 20
1890.504410842198
 40
2.868747209168738
 41
2.868747209168738
 10
1027.7286876847
 20
1886.918476830737
 40
2.868747209168738
 41
2.868747209168738
 10
1029.880248091577
 20
1882.615356016984
 40
2.868747209168738
 41
2.868747209168738
 10
1031.314621696161
 20
1878.312235203231
 40
2.868747209168738
 41
2.868747209168738
 10
1032.748995300746
 20
1874.009114389478
 40
2.868747209168738
 41
2.868747209168738
 10
1033.466182103038
 20
1869.705993575725
 40
2.868747209168738
 41
2.868747209168738
 10
1033.466182103038
 20
1864.685685959679
 40
2.868747209168738
 41
2.868747209168738
 10
1033.466182103038
 20
1864.685685959679
 40
2.868747209168738
 41
2.868747209168738
 10
1033.466182103038
 20
1864.685685959679
 40
2.868747209168738
 41
2.868747209168738
 10
1033.466182103038
 20
1864.685685959679
 40
2.868747209168738
 41
2.868747209168738
 10
1032.748995300746
 20
1855.362257529881
 40
2.868747209168738
 41
2.868747209168738
 10
1031.314621696161
 20
1846.038829100083
 40
2.868747209168738
 41
2.868747209168738
 10
1031.314621696161
 20
1846.038829100083
 40
2.868747209168738
 41
2.868747209168738
 10
1029.880248091577
 20
1841.018521484037
 40
2.868747209168738
 41
2.868747209168738
 10
1027.7286876847
 20
1835.998213867992
 40
2.868747209168738
 41
2.868747209168738
 10
1027.7286876847
 20
1835.998213867992
 40
2.868747209168738
 41
2.868747209168738
 10
1024.142753673239
 20
1830.260719449655
 40
2.868747209168738
 41
2.868747209168738
 10
1019.839632859486
 20
1824.523225031317
 40
2.868747209168738
 41
2.868747209168738
 10
1014.102138441149
 20
1819.502917415272
 40
2.868747209168738
 41
2.868747209168738
 10
1008.364644022811
 20
1815.199796601518
 40
2.868747209168738
 41
2.868747209168738
 10
1001.192775999889
 20
1810.896675787766
 40
2.868747209168738
 41
2.868747209168738
 10
992.5865343723835
 20
1808.027928578597
 40
2.868747209168738
 41
2.868747209168738
 10
983.263105942585
 20
1805.159181369428
 40
2.868747209168738
 41
2.868747209168738
 10
973.2224907104944
 20
1803.007620962552
 40
2.868747209168738
 41
2.868747209168738
 10
973.2224907104944
 20
1803.007620962552
 40
2.868747209168738
 41
2.868747209168738
 10
973.2224907104944
 20
1803.007620962552
 40
2.868747209168738
 41
2.868747209168738
 10
963.899062280696
 20
1802.29043416026
 40
2.868747209168738
 41
2.868747209168738
 10
953.1412602463133
 20
1802.29043416026
 40
2.868747209168738
 41
2.868747209168738
 10
941.6662714096382
 20
1804.441994567136
 40
2.868747209168738
 41
2.868747209168738
 10
929.4740957706713
 20
1806.593554974013
 40
2.868747209168738
 41
2.868747209168738
 10
915.8475465271194
 20
1810.179488985474
 40
2.868747209168738
 41
2.868747209168738
 10
902.220997283568
 20
1815.199796601518
 40
2.868747209168738
 41
2.868747209168738
 10
887.1600744354322
 20
1820.220104217564
 40
2.868747209168738
 41
2.868747209168738
 10
871.3819647850042
 20
1826.674785438194
 40
2.868747209168738
 41
2.868747209168738
 10
838.3913718795637
 20
1841.018521484037
 40
2.868747209168738
 41
2.868747209168738
 10
803.9664053695387
 20
1857.513817936758
 40
2.868747209168738
 41
2.868747209168738
 10
768.1070652549292
 20
1875.443487994061
 40
2.868747209168738
 41
2.868747209168738
 10
731.5305383380282
 20
1893.373158051367
 40
2.868747209168738
 41
2.868747209168738
 10
731.5305383380282
 20
1893.373158051367
 40
2.868747209168738
 41
2.868747209168738
 10
669.8524733409002
 20
1924.212190549931
 40
2.868747209168738
 41
2.868747209168738
 10
639.7306276446286
 20
1938.555926595775
 40
2.868747209168738
 41
2.868747209168738
 10
610.325968750649
 20
1952.182475839325
 40
2.868747209168738
 41
2.868747209168738
 10
582.3556834612539
 20
1963.657464676001
 40
2.868747209168738
 41
2.868747209168738
 10
555.8197717764428
 20
1973.698079908092
 40
2.868747209168738
 41
2.868747209168738
 10
543.6275961374758
 20
1978.001200721845
 40
2.868747209168738
 41
2.868747209168738
 10
532.1526073008008
 20
1981.587134733306
 40
2.868747209168738
 41
2.868747209168738
 10
520.677618464126
 20
1984.455881942475
 40
2.868747209168738
 41
2.868747209168738
 10
509.9198164297432
 20
1986.607442349351
 40
2.868747209168738
 41
2.868747209168738
 10
510.6370032320354
 20
1988.041815953935
 40
2.868747209168738
 41
2.868747209168738
 10
510.6370032320354
 20
1988.041815953935
 40
2.868747209168738
 41
2.868747209168738
 10
521.3948052664181
 20
1986.607442349351
 40
2.868747209168738
 41
2.868747209168738
 10
532.1526073008008
 20
1983.738695140182
 40
2.868747209168738
 41
2.868747209168738
 10
544.344782939768
 20
1980.152761128722
 40
2.868747209168738
 41
2.868747209168738
 10
556.5369585787352
 20
1975.849640314968
 40
2.868747209168738
 41
2.868747209168738
 10
583.0728702635457
 20
1965.809025082878
 40
2.868747209168738
 41
2.868747209168738
 10
611.0431555529412
 20
1954.334036246203
 40
2.868747209168738
 41
2.868747209168738
 10
640.4478144469208
 20
1940.707487002651
 40
2.868747209168738
 41
2.868747209168738
 10
670.5696601431926
 20
1926.363750956807
 40
2.868747209168738
 41
2.868747209168738
 10
732.2477251403204
 20
1895.524718458243
 40
2.868747209168738
 41
2.868747209168738
 10
732.2477251403204
 20
1895.524718458243
 40
2.868747209168738
 41
2.868747209168738
 10
804.683592171831
 20
1859.665378343634
 40
2.868747209168738
 41
2.868747209168738
 10
839.1085586818558
 20
1843.170081890914
 40
2.868747209168738
 41
2.868747209168738
 10
872.0991515872963
 20
1828.826345845071
 40
2.868747209168738
 41
2.868747209168738
 10
887.1600744354322
 20
1823.088851426733
 40
2.868747209168738
 41
2.868747209168738
 10
902.220997283568
 20
1817.351357008395
 40
2.868747209168738
 41
2.868747209168738
 10
916.5647333294119
 20
1812.33104939235
 40
2.868747209168738
 41
2.868747209168738
 10
929.4740957706713
 20
1808.745115380889
 40
2.868747209168738
 41
2.868747209168738
 10
941.6662714096382
 20
1806.593554974013
 40
2.868747209168738
 41
2.868747209168738
 10
953.1412602463133
 20
1804.441994567136
 40
2.868747209168738
 41
2.868747209168738
 10
963.899062280696
 20
1804.441994567136
 40
2.868747209168738
 41
2.868747209168738
 10
972.5053039082022
 20
1805.159181369428
 40
2.868747209168738
 41
2.868747209168738
 10
972.5053039082022
 20
1805.159181369428
 40
2.868747209168738
 41
2.868747209168738
 10
972.5053039082022
 20
1805.159181369428
 40
2.868747209168738
 41
2.868747209168738
 10
982.5459191402927
 20
1807.310741776305
 40
2.868747209168738
 41
2.868747209168738
 10
991.8693475700912
 20
1809.462302183181
 40
2.868747209168738
 41
2.868747209168738
 10
999.7584023953052
 20
1813.048236194642
 40
2.868747209168738
 41
2.868747209168738
 10
1006.930270418227
 20
1816.634170206103
 40
2.868747209168738
 41
2.868747209168738
 10
1012.667764836564
 20
1820.937291019856
 40
2.868747209168738
 41
2.868747209168738
 10
1017.68807245261
 20
1825.957598635902
 40
2.868747209168738
 41
2.868747209168738
 10
1021.991193266363
 20
1831.695093054239
 40
2.868747209168738
 41
2.868747209168738
 10
1024.859940475531
 20
1836.715400670284
 40
2.868747209168738
 41
2.868747209168738
 10
1024.859940475531
 20
1836.715400670284
 40
2.868747209168738
 41
2.868747209168738
 10
1027.011500882408
 20
1841.73570828633
 40
2.868747209168738
 41
2.868747209168738
 10
1029.163061289285
 20
1846.756015902375
 40
2.868747209168738
 41
2.868747209168738
 10
1029.163061289285
 20
1846.756015902375
 40
2.868747209168738
 41
2.868747209168738
 10
1030.597434893869
 20
1855.362257529881
 40
2.868747209168738
 41
2.868747209168738
 10
1031.314621696161
 20
1864.685685959679
 40
2.868747209168738
 41
2.868747209168738
 10
1031.314621696161
 20
1864.685685959679
 40
2.868747209168738
 41
2.868747209168738
 10
1031.314621696161
 20
1864.685685959679
 40
2.868747209168738
 41
2.868747209168738
 10
1031.314621696161
 20
1864.685685959679
 40
2.868747209168738
 41
2.868747209168738
 10
1031.314621696161
 20
1868.988806773432
 40
2.868747209168738
 41
2.868747209168738
 10
1030.597434893869
 20
1873.291927587186
 40
2.868747209168738
 41
2.868747209168738
 10
1029.163061289285
 20
1877.595048400939
 40
2.868747209168738
 41
2.868747209168738
 10
1027.7286876847
 20
1881.898169214692
 40
2.868747209168738
 41
2.868747209168738
 10
1025.577127277824
 20
1885.484103226153
 40
2.868747209168738
 41
2.868747209168738
 10
1023.425566870947
 20
1889.070037237614
 40
2.868747209168738
 41
2.868747209168738
 10
1017.68807245261
 20
1895.524718458243
 40
2.868747209168738
 41
2.868747209168738
 10
1017.68807245261
 20
1895.524718458243
 40
2.868747209168738
 41
2.868747209168738
 10
1012.667764836564
 20
1899.827839271997
 40
2.868747209168738
 41
2.868747209168738
 10
1006.213083615935
 20
1902.696586481164
 40
2.868747209168738
 41
2.868747209168738
 10
1006.213083615935
 20
1902.696586481164
 40
2.868747209168738
 41
2.868747209168738
 10
999.7584023953052
 20
1904.848146888042
 40
2.868747209168738
 41
2.868747209168738
 10
993.3037211746755
 20
1905.565333690334
 40
2.868747209168738
 41
2.868747209168738
 10
993.3037211746755
 20
1905.565333690334
 40
2.868747209168738
 41
2.868747209168738
 10
989.0006003609224
 20
1905.565333690334
 40
2.868747209168738
 41
2.868747209168738
 10
985.4146663494615
 20
1904.848146888042
 40
2.868747209168738
 41
2.868747209168738
 10
981.1115455357082
 20
1903.413773283457
 40
2.868747209168738
 41
2.868747209168738
 10
977.5256115242476
 20
1901.979399678873
 40
2.868747209168738
 41
2.868747209168738
 10
973.2224907104944
 20
1899.827839271997
 40
2.868747209168738
 41
2.868747209168738
 10
969.6365566990337
 20
1896.959092062828
 40
2.868747209168738
 41
2.868747209168738
 10
965.3334358852802
 20
1894.090344853659
 40
2.868747209168738
 41
2.868747209168738
 10
961.7475018738195
 20
1889.787224039906
 40
2.868747209168738
 41
2.868747209168738
 10
961.7475018738195
 20
1889.787224039906
 40
2.868747209168738
 41
2.868747209168738
 10
958.8787546646507
 20
1886.201290028445
 40
2.868747209168738
 41
2.868747209168738
 10
956.727194257774
 20
1881.898169214692
 40
2.868747209168738
 41
2.868747209168738
 10
956.727194257774
 20
1881.898169214692
 40
2.868747209168738
 41
2.868747209168738
 10
954.5756338508978
 20
1877.595048400939
 40
2.868747209168738
 41
2.868747209168738
 10
953.1412602463133
 20
1872.574740784894
 40
2.868747209168738
 41
2.868747209168738
 10
953.1412602463133
 20
1868.271619971141
 40
2.868747209168738
 41
2.868747209168738
 10
953.1412602463133
 20
1863.251312355094
 40
2.868747209168738
 41
2.868747209168738
 10
953.1412602463133
 20
1863.251312355094
 40
2.868747209168738
 41
2.868747209168738
 10
953.8584470486052
 20
1858.23100473905
 40
2.868747209168738
 41
2.868747209168738
 10
955.2928206531897
 20
1853.210697123005
 40
2.868747209168738
 41
2.868747209168738
 10
958.1615678623585
 20
1848.190389506959
 40
2.868747209168738
 41
2.868747209168738
 10
962.4646886761116
 20
1843.170081890914
 40
2.868747209168738
 41
2.868747209168738
 10
962.4646886761116
 20
1843.170081890914
 40
2.868747209168738
 41
2.868747209168738
 10
968.202183094449
 20
1839.584147879453
 40
2.868747209168738
 41
2.868747209168738
 10
974.6568643150787
 20
1835.998213867992
 40
2.868747209168738
 41
2.868747209168738
 10
973.9396775127866
 20
1833.129466658824
 40
2.868747209168738
 41
2.868747209168738
  0
LWPOLYLINE
  5
3D83
330
3D85
100
AcDbEntity
  8
0
 62
     7
370
     0
100
AcDbPolyline
 90
       84
 70
     1
 10
808.269526183292
 20
1934.969992584314
 40
2.868747209168738
 41
2.868747209168738
 10
809.7038997878765
 20
1934.252805782022
 40
2.868747209168738
 41
2.868747209168738
 10
809.7038997878765
 20
1934.252805782022
 40
2.868747209168738
 41
2.868747209168738
 10
809.7038997878765
 20
1934.252805782022
 40
2.868747209168738
 41
2.868747209168738
 10
824.7648226360124
 20
1919.909069736178
 40
2.868747209168738
 41
2.868747209168738
 10
839.8257454841481
 20
1904.848146888042
 40
2.868747209168738
 41
2.868747209168738
 10
839.8257454841481
 20
1904.848146888042
 40
2.868747209168738
 41
2.868747209168738
 10
852.7351079254074
 20
1891.221597644491
 40
2.868747209168738
 41
2.868747209168738
 10
866.3616571689589
 20
1878.312235203231
 40
2.868747209168738
 41
2.868747209168738
 10
879.98820641251
 20
1866.120059564264
 40
2.868747209168738
 41
2.868747209168738
 10
894.331942458354
 20
1855.362257529881
 40
2.868747209168738
 41
2.868747209168738
 10
901.5038104812759
 20
1850.341949913836
 40
2.868747209168738
 41
2.868747209168738
 10
909.3928653064899
 20
1845.32164229779
 40
2.868747209168738
 41
2.868747209168738
 10
917.2819201317039
 20
1841.73570828633
 40
2.868747209168738
 41
2.868747209168738
 10
924.453788154626
 20
1838.149774274869
 40
2.868747209168738
 41
2.868747209168738
 10
933.060029782132
 20
1835.2810270657
 40
2.868747209168738
 41
2.868747209168738
 10
940.9490846073461
 20
1833.846653461116
 40
2.868747209168738
 41
2.868747209168738
 10
949.5553262348521
 20
1832.412279856531
 40
2.868747209168738
 41
2.868747209168738
 10
958.1615678623585
 20
1831.695093054239
 40
2.868747209168738
 41
2.868747209168738
 10
958.1615678623585
 20
1831.695093054239
 40
2.868747209168738
 41
2.868747209168738
 10
970.3537435013257
 20
1832.412279856531
 40
2.868747209168738
 41
2.868747209168738
 10
979.6771719311239
 20
1833.846653461116
 40
2.868747209168738
 41
2.868747209168738
 10
979.6771719311239
 20
1833.846653461116
 40
2.868747209168738
 41
2.868747209168738
 10
983.263105942585
 20
1834.563840263408
 40
2.868747209168738
 41
2.868747209168738
 10
986.1318531517538
 20
1836.715400670284
 40
2.868747209168738
 41
2.868747209168738
 10
992.5865343723835
 20
1840.301334681745
 40
2.868747209168738
 41
2.868747209168738
 10
992.5865343723835
 20
1840.301334681745
 40
2.868747209168738
 41
2.868747209168738
 10
995.4552815815518
 20
1843.887268693206
 40
2.868747209168738
 41
2.868747209168738
 10
997.6068419884288
 20
1847.473202704667
 40
2.868747209168738
 41
2.868747209168738
 10
998.3240287907207
 20
1851.77632351842
 40
2.868747209168738
 41
2.868747209168738
 10
997.6068419884288
 20
1855.362257529881
 40
2.868747209168738
 41
2.868747209168738
 10
997.6068419884288
 20
1855.362257529881
 40
2.868747209168738
 41
2.868747209168738
 10
996.8896551861362
 20
1858.23100473905
 40
2.868747209168738
 41
2.868747209168738
 10
995.4552815815518
 20
1860.382565145927
 40
2.868747209168738
 41
2.868747209168738
 10
995.4552815815518
 20
1860.382565145927
 40
2.868747209168738
 41
2.868747209168738
 10
993.3037211746755
 20
1861.816938750511
 40
2.868747209168738
 41
2.868747209168738
 10
991.8693475700912
 20
1863.251312355094
 40
2.868747209168738
 41
2.868747209168738
 10
991.8693475700912
 20
1863.251312355094
 40
2.868747209168738
 41
2.868747209168738
 10
989.7177871632147
 20
1863.251312355094
 40
2.868747209168738
 41
2.868747209168738
 10
987.5662267563381
 20
1863.251312355094
 40
2.868747209168738
 41
2.868747209168738
 10
985.4146663494615
 20
1862.534125552803
 40
2.868747209168738
 41
2.868747209168738
 10
983.980292744877
 20
1860.382565145927
 40
2.868747209168738
 41
2.868747209168738
 10
981.8287323380003
 20
1861.816938750511
 40
2.868747209168738
 41
2.868747209168738
 10
981.8287323380003
 20
1861.816938750511
 40
2.868747209168738
 41
2.868747209168738
 10
984.6974795471693
 20
1863.968499157387
 40
2.868747209168738
 41
2.868747209168738
 10
987.5662267563381
 20
1865.402872761972
 40
2.868747209168738
 41
2.868747209168738
 10
990.4349739655067
 20
1865.402872761972
 40
2.868747209168738
 41
2.868747209168738
 10
992.5865343723835
 20
1864.685685959679
 40
2.868747209168738
 41
2.868747209168738
 10
992.5865343723835
 20
1864.685685959679
 40
2.868747209168738
 41
2.868747209168738
 10
995.4552815815518
 20
1863.251312355094
 40
2.868747209168738
 41
2.868747209168738
 10
996.8896551861362
 20
1861.099751948219
 40
2.868747209168738
 41
2.868747209168738
 10
996.8896551861362
 20
1861.099751948219
 40
2.868747209168738
 41
2.868747209168738
 10
999.041215593013
 20
1858.948191541342
 40
2.868747209168738
 41
2.868747209168738
 10
999.7584023953052
 20
1856.079444332173
 40
2.868747209168738
 41
2.868747209168738
 10
999.7584023953052
 20
1856.079444332173
 40
2.868747209168738
 41
2.868747209168738
 10
1000.475589197597
 20
1851.77632351842
 40
2.868747209168738
 41
2.868747209168738
 10
999.7584023953052
 20
1847.473202704667
 40
2.868747209168738
 41
2.868747209168738
 10
997.6068419884288
 20
1842.452895088622
 40
2.868747209168738
 41
2.868747209168738
 10
994.0209079769676
 20
1838.866961077161
 40
2.868747209168738
 41
2.868747209168738
 10
994.0209079769676
 20
1838.866961077161
 40
2.868747209168738
 41
2.868747209168738
 10
987.5662267563381
 20
1834.563840263408
 40
2.868747209168738
 41
2.868747209168738
 10
980.3943587334163
 20
1831.695093054239
 40
2.868747209168738
 41
2.868747209168738
 10
980.3943587334163
 20
1831.695093054239
 40
2.868747209168738
 41
2.868747209168738
 10
971.0709303036175
 20
1830.260719449655
 40
2.868747209168738
 41
2.868747209168738
 10
958.1615678623585
 20
1829.543532647363
 40
2.868747209168738
 41
2.868747209168738
 10
958.1615678623585
 20
1829.543532647363
 40
2.868747209168738
 41
2.868747209168738
 10
948.83813943256
 20
1830.260719449655
 40
2.868747209168738
 41
2.868747209168738
 10
940.9490846073461
 20
1831.695093054239
 40
2.868747209168738
 41
2.868747209168738
 10
932.3428429798395
 20
1833.846653461116
 40
2.868747209168738
 41
2.868747209168738
 10
924.453788154626
 20
1836.715400670284
 40
2.868747209168738
 41
2.868747209168738
 10
915.8475465271194
 20
1839.584147879453
 40
2.868747209168738
 41
2.868747209168738
 10
908.6756785041977
 20
1843.887268693206
 40
2.868747209168738
 41
2.868747209168738
 10
900.7866236789835
 20
1848.190389506959
 40
2.868747209168738
 41
2.868747209168738
 10
893.6147556560619
 20
1853.210697123005
 40
2.868747209168738
 41
2.868747209168738
 10
879.2710196102182
 20
1864.685685959679
 40
2.868747209168738
 41
2.868747209168738
 10
864.9272835643746
 20
1876.877861598647
 40
2.868747209168738
 41
2.868747209168738
 10
851.3007343208229
 20
1889.787224039906
 40
2.868747209168738
 41
2.868747209168738
 10
838.3913718795637
 20
1903.413773283457
 40
2.868747209168738
 41
2.868747209168738
 10
838.3913718795637
 20
1903.413773283457
 40
2.868747209168738
 41
2.868747209168738
 10
823.3304490314277
 20
1918.474696131594
 40
2.868747209168738
 41
2.868747209168738
 10
808.269526183292
 20
1932.818432177437
 40
2.868747209168738
 41
2.868747209168738
 10
808.269526183292
 20
1932.818432177437
 40
2.868747209168738
 41
2.868747209168738
 10
806.8351525787074
 20
1933.535618979729
 40
2.868747209168738
 41
2.868747209168738
 10
808.269526183292
 20
1934.969992584314
 40
2.868747209168738
 41
2.868747209168738
  0
ENDBLK
  5
3D87
330
3D85
100
AcDbEntity
  8
0
370
    -1
100
AcDbBlockEnd
  0
BLOCK
  5
3E4F
330
3E4E
100
AcDbEntity
  8
0
370
    -1
100
AcDbBlockBegin
  2
AN-3206 drawing
 70
     0
 71
     0
 10
0.0
 20
0.0
 30
0.0
  3
AN-3206 drawing
  1

  0
LWPOLYLINE
  5
3D89
330
3E4E
100
AcDbEntity
  8
Layer 1
 62
     7
370
    13
100
AcDbPolyline
 90
        2
 70
     0
 43
0.0
 10
148.0819172806878
 20
66.84449868120555
 10
148.0819172806878
 20
61.63723685525043
  0
LWPOLYLINE
  5
3D8A
330
3E4E
100
AcDbEntity
  8
Layer 1
 62
     7
370
    13
100
AcDbPolyline
 90
        2
 70
     0
 43
0.0
 10
148.0819172806878
 20
68.66454262606302
 10
148.0819172806878
 20
67.77570799086858
  0
LWPOLYLINE
  5
3D8B
330
3E4E
100
AcDbEntity
  8
Layer 1
 62
     7
370
    13
100
AcDbPolyline
 90
        2
 70
     0
 43
0.0
 10
148.0819172806878
 20
74.04095864034393
 10
148.0819172806878
 20
69.55372177080602
  0
LWPOLYLINE
  5
3D8C
330
3E4E
100
AcDbEntity
  8
Layer 1
 62
     7
370
    13
100
AcDbPolyline
 90
        2
 70
     0
 43
0.0
 10
148.0819172806878
 20
75.86134709474993
 10
148.0819172806878
 20
74.97216795000695
  0
LWPOLYLINE
  5
3D8D
330
3E4E
100
AcDbEntity
  8
Layer 1
 62
     7
370
    13
100
AcDbPolyline
 90
        2
 70
     0
 43
0.0
 10
148.0819172806878
 20
81.23776310903085
 10
148.0819172806878
 20
76.75018172994442
  0
LWPOLYLINE
  5
3D8E
330
3E4E
100
AcDbEntity
  8
Layer 1
 62
     7
370
    13
100
AcDbPolyline
 90
        2
 70
     0
 43
0.0
 10
148.0819172806878
 20
83.05815156343682
 10
148.0819172806878
 20
82.16897241869387
  0
LWPOLYLINE
  5
3D8F
330
3E4E
100
AcDbEntity
  8
Layer 1
 62
     7
370
    13
100
AcDbPolyline
 90
        2
 70
     0
 43
0.0
 10
148.0819172806878
 20
88.43422306816925
 10
148.0819172806878
 20
83.94698619863134
  0
LWPOLYLINE
  5
3D90
330
3E4E
100
AcDbEntity
  8
Layer 1
 62
     7
370
    13
100
AcDbPolyline
 90
        2
 70
     0
 43
0.0
 10
148.0819172806878
 20
90.25461152257523
 10
148.0819172806878
 20
89.36577688738078
  0
LWPOLYLINE
  5
3D91
330
3E4E
100
AcDbEntity
  8
Layer 1
 62
     7
370
    13
100
AcDbPolyline
 90
        2
 70
     0
 43
0.0
 10
148.0819172806878
 20
95.63102753685614
 10
148.0819172806878
 20
91.14379066731823
  0
LWPOLYLINE
  5
3D92
330
3E4E
100
AcDbEntity
  8
Layer 1
 62
     7
370
    13
100
AcDbPolyline
 90
        2
 70
     0
 43
0.0
 10
148.0819172806878
 20
97.45141599126215
 10
148.0819172806878
 20
96.5198621720506
  0
LWPOLYLINE
  5
3D93
330
3E4E
100
AcDbEntity
  8
Layer 1
 62
     7
370
    13
100
AcDbPolyline
 90
        2
 70
     0
 43
0.0
 10
148.0819172806878
 20
102.827832005543
 10
148.0819172806878
 20
98.34025062645658
  0
LWPOLYLINE
  5
3D94
330
3E4E
100
AcDbEntity
  8
Layer 1
 62
     7
370
    13
100
AcDbPolyline
 90
        2
 70
     0
 43
0.0
 10
148.0819172806878
 20
104.6478759504005
 10
148.0819172806878
 20
103.7166666407375
  0
LWPOLYLINE
  5
3D95
330
3E4E
100
AcDbEntity
  8
Layer 1
 62
     7
370
    13
100
AcDbPolyline
 90
        2
 70
     0
 43
0.0
 10
148.0819172806878
 20
110.0242919646814
 10
148.0819172806878
 20
105.5370550951435
  0
LWPOLYLINE
  5
3D96
330
3E4E
100
AcDbEntity
  8
Layer 1
 62
     7
370
    13
100
AcDbPolyline
 90
        2
 70
     0
 43
0.0
 10
148.0819172806878
 20
111.8446804190874
 10
148.0819172806878
 20
110.9132988546501
  0
LWPOLYLINE
  5
3D97
330
3E4E
100
AcDbEntity
  8
Layer 1
 62
     7
370
    13
100
AcDbPolyline
 90
        2
 70
     0
 43
0.0
 10
148.0819172806878
 20
117.2209241785941
 10
148.0819172806878
 20
112.7336873090561
  0
LWPOLYLINE
  5
3D98
330
3E4E
100
AcDbEntity
  8
Layer 1
 62
     7
370
    13
100
AcDbPolyline
 90
        2
 70
     0
 43
0.0
 10
148.0819172806878
 20
119.0413126330001
 10
148.0819172806878
 20
118.1099310685628
  0
LWPOLYLINE
  5
3D99
330
3E4E
100
AcDbEntity
  8
Layer 1
 62
     7
370
    13
100
AcDbPolyline
 90
        2
 70
     0
 43
0.0
 10
148.0819172806878
 20
124.417728647281
 10
148.0819172806878
 20
119.9303195229688
  0
LWPOLYLINE
  5
3D9A
330
3E4E
100
AcDbEntity
  8
Layer 1
 62
     7
370
    13
100
AcDbPolyline
 90
        2
 70
     0
 43
0.0
 10
148.0819172806878
 20
126.2379448469127
 10
148.0819172806878
 20
125.3067355372497
  0
LWPOLYLINE
  5
3D9B
330
3E4E
100
AcDbEntity
  8
Layer 1
 62
     7
370
    13
100
AcDbPolyline
 90
        2
 70
     0
 43
0.0
 10
148.0819172806878
 20
132.3764159825309
 10
148.0819172806878
 20
127.1269517368814
  0
LWPOLYLINE
  5
3D9C
330
3E4E
100
AcDbEntity
  8
Layer 1
 62
     7
370
    13
100
AcDbPolyline
 90
        2
 70
     0
 43
0.0
 10
203.3694986470743
 20
96.98563908165637
 10
209.1265977124753
 20
96.98563908165637
  0
LWPOLYLINE
  5
3D9D
330
3E4E
100
AcDbEntity
  8
Layer 1
 62
     7
370
    13
100
AcDbPolyline
 90
        2
 70
     0
 43
0.0
 10
201.5914848671369
 20
96.98563908165637
 10
202.4803195023313
 20
96.98563908165637
  0
LWPOLYLINE
  5
3D9E
330
3E4E
100
AcDbEntity
  8
Layer 1
 62
     7
370
    13
100
AcDbPolyline
 90
        2
 70
     0
 43
0.0
 10
196.1726941783874
 20
96.98563908165637
 10
200.6599310479253
 20
96.98563908165637
  0
LWPOLYLINE
  5
3D9F
330
3E4E
100
AcDbEntity
  8
Layer 1
 62
     7
370
    13
100
AcDbPolyline
 90
        2
 70
     0
 43
0.0
 10
194.3946803984499
 20
96.98563908165637
 10
195.2835150336444
 20
96.98563908165637
  0
LWPOLYLINE
  5
3DA0
330
3E4E
100
AcDbEntity
  8
Layer 1
 62
     7
370
    13
100
AcDbPolyline
 90
        2
 70
     0
 43
0.0
 10
188.9758897097005
 20
96.98563908165637
 10
193.4634710887869
 20
96.98563908165637
  0
LWPOLYLINE
  5
3DA1
330
3E4E
100
AcDbEntity
  8
Layer 1
 62
     7
370
    13
100
AcDbPolyline
 90
        2
 70
     0
 43
0.0
 10
187.197875929763
 20
96.98563908165637
 10
188.087055074506
 20
96.98563908165637
  0
LWPOLYLINE
  5
3DA2
330
3E4E
100
AcDbEntity
  8
Layer 1
 62
     7
370
    13
100
AcDbPolyline
 90
        2
 70
     0
 43
0.0
 10
181.7794297505621
 20
96.98563908165637
 10
186.3090412945686
 20
96.98563908165637
  0
LWPOLYLINE
  5
3DA3
330
3E4E
100
AcDbEntity
  8
Layer 1
 62
     7
370
    13
100
AcDbPolyline
 90
        2
 70
     0
 43
0.0
 10
180.0014159706245
 20
96.98563908165637
 10
180.8902506058191
 20
96.98563908165637
  0
LWPOLYLINE
  5
3DA4
330
3E4E
100
AcDbEntity
  8
Layer 1
 62
     7
370
    13
100
AcDbPolyline
 90
        2
 70
     0
 43
0.0
 10
174.582625281875
 20
96.98563908165637
 10
179.1122368258815
 20
96.98563908165637
  0
LWPOLYLINE
  5
3DA5
330
3E4E
100
AcDbEntity
  8
Layer 1
 62
     7
370
    13
100
AcDbPolyline
 90
        2
 70
     0
 43
0.0
 10
172.8046115019376
 20
96.98563908165637
 10
173.6937906466806
 20
96.98563908165637
  0
LWPOLYLINE
  5
3DA6
330
3E4E
100
AcDbEntity
  8
Layer 1
 62
     7
370
    13
100
AcDbPolyline
 90
        2
 70
     0
 43
0.0
 10
167.3861653227366
 20
96.98563908165637
 10
171.9157768667433
 20
96.98563908165637
  0
LWPOLYLINE
  5
3DA7
330
3E4E
100
AcDbEntity
  8
Layer 1
 62
     7
370
    13
100
AcDbPolyline
 90
        2
 70
     0
 43
0.0
 10
165.6081515427993
 20
96.98563908165637
 10
166.4969861779938
 20
96.98563908165637
  0
LWPOLYLINE
  5
3DA8
330
3E4E
100
AcDbEntity
  8
Layer 1
 62
     7
370
    13
100
AcDbPolyline
 90
        2
 70
     0
 43
0.0
 10
160.1893608540499
 20
96.98563908165637
 10
164.7189723980563
 20
96.98563908165637
  0
LWPOLYLINE
  5
3DA9
330
3E4E
100
AcDbEntity
  8
Layer 1
 62
     7
370
    13
100
AcDbPolyline
 90
        2
 70
     0
 43
0.0
 10
158.4113470741124
 20
96.98563908165637
 10
159.3001817093069
 20
96.98563908165637
  0
LWPOLYLINE
  5
3DAA
330
3E4E
100
AcDbEntity
  8
Layer 1
 62
     7
370
    13
100
AcDbPolyline
 90
        2
 70
     0
 43
0.0
 10
152.9925563853629
 20
96.98563908165637
 10
157.5221679293694
 20
96.98563908165637
  0
LWPOLYLINE
  5
3DAB
330
3E4E
100
AcDbEntity
  8
Layer 1
 62
     7
370
    13
100
AcDbPolyline
 90
        2
 70
     0
 43
0.0
 10
151.2145426054255
 20
96.98563908165637
 10
152.1037217501685
 20
96.98563908165637
  0
LWPOLYLINE
  5
3DAC
330
3E4E
100
AcDbEntity
  8
Layer 1
 62
     7
370
    13
100
AcDbPolyline
 90
        2
 70
     0
 43
0.0
 10
145.8382988459189
 20
96.98563908165637
 10
150.3257079702311
 20
96.98563908165637
  0
LWPOLYLINE
  5
3DAD
330
3E4E
100
AcDbEntity
  8
Layer 1
 62
     7
370
    13
100
AcDbPolyline
 90
        2
 70
     0
 43
0.0
 10
144.0180826462871
 20
96.98563908165637
 10
144.9069172814816
 20
96.98563908165637
  0
LWPOLYLINE
  5
3DAE
330
3E4E
100
AcDbEntity
  8
Layer 1
 62
     7
370
    13
100
AcDbPolyline
 90
        2
 70
     0
 43
0.0
 10
138.6416666320062
 20
96.98563908165637
 10
143.1290757563184
 20
96.98563908165637
  0
LWPOLYLINE
  5
3DAF
330
3E4E
100
AcDbEntity
  8
Layer 1
 62
     7
370
    13
100
AcDbPolyline
 90
        2
 70
     0
 43
0.0
 10
136.8212781776002
 20
96.98563908165637
 10
137.7102850675689
 20
96.98563908165637
  0
LWPOLYLINE
  5
3DB0
330
3E4E
100
AcDbEntity
  8
Layer 1
 62
     7
370
    13
100
AcDbPolyline
 90
        2
 70
     0
 43
0.0
 10
131.4450344180936
 20
96.98563908165637
 10
135.9322712876315
 20
96.98563908165637
  0
LWPOLYLINE
  5
3DB1
330
3E4E
100
AcDbEntity
  8
Layer 1
 62
     7
370
    13
100
AcDbPolyline
 90
        2
 70
     0
 43
0.0
 10
129.6246459636876
 20
96.98563908165637
 10
130.5136528536563
 20
96.98563908165637
  0
LWPOLYLINE
  5
3DB2
330
3E4E
100
AcDbEntity
  8
Layer 1
 62
     7
370
    13
100
AcDbPolyline
 90
        2
 70
     0
 43
0.0
 10
124.2484022041809
 20
96.98563908165637
 10
128.7356390737189
 20
96.98563908165637
  0
LWPOLYLINE
  5
3DB3
330
3E4E
100
AcDbEntity
  8
Layer 1
 62
     7
370
    13
100
AcDbPolyline
 90
        2
 70
     0
 43
0.0
 10
122.4280137497749
 20
96.98563908165637
 10
123.3170206397436
 20
96.98563908165637
  0
LWPOLYLINE
  5
3DB4
330
3E4E
100
AcDbEntity
  8
Layer 1
 62
     7
370
    13
100
AcDbPolyline
 90
        2
 70
     0
 43
0.0
 10
117.051597735494
 20
96.98563908165637
 10
121.5390068598062
 20
96.98563908165637
  0
LWPOLYLINE
  5
3DB5
330
3E4E
100
AcDbEntity
  8
Layer 1
 62
     7
370
    13
100
AcDbPolyline
 90
        2
 70
     0
 43
0.0
 10
115.2313815358623
 20
96.98563908165637
 10
116.120388425831
 20
96.98563908165637
  0
LWPOLYLINE
  5
3DB6
330
3E4E
100
AcDbEntity
  8
Layer 1
 62
     7
370
    13
100
AcDbPolyline
 90
        2
 70
     0
 43
0.0
 10
109.8549655215814
 20
96.98563908165637
 10
114.3423746458936
 20
96.98563908165637
  0
LWPOLYLINE
  5
3DB7
330
3E4E
100
AcDbEntity
  8
Layer 1
 62
     7
370
    13
100
AcDbPolyline
 90
        2
 70
     0
 43
0.0
 10
108.0347493219496
 20
96.98563908165637
 10
108.9235839571441
 20
96.98563908165637
  0
LWPOLYLINE
  5
3DB8
330
3E4E
100
AcDbEntity
  8
Layer 1
 62
     7
370
    13
100
AcDbPolyline
 90
        2
 70
     0
 43
0.0
 10
102.6583333076687
 20
96.98563908165637
 10
107.1457424319809
 20
96.98563908165637
  0
LWPOLYLINE
  5
3DB9
330
3E4E
100
AcDbEntity
  8
Layer 1
 62
     7
370
    13
100
AcDbPolyline
 90
        2
 70
     0
 43
0.0
 10
100.8379448532627
 20
96.98563908165637
 10
101.7693264177
 20
96.98563908165637
  0
LWPOLYLINE
  5
3DBA
330
3E4E
100
AcDbEntity
  8
Layer 1
 62
     7
370
    13
100
AcDbPolyline
 90
        2
 70
     0
 43
0.0
 10
95.46170109375609
 20
96.98563908165637
 10
99.948937963294
 20
96.98563908165637
  0
LWPOLYLINE
  5
3DBB
330
3E4E
100
AcDbEntity
  8
Layer 1
 62
     7
370
    13
100
AcDbPolyline
 90
        2
 70
     0
 43
0.0
 10
93.64131263935008
 20
96.98563908165637
 10
94.5726942037874
 20
96.98563908165637
  0
LWPOLYLINE
  5
3DBC
330
3E4E
100
AcDbEntity
  8
Layer 1
 62
     7
370
    13
100
AcDbPolyline
 90
        2
 70
     0
 43
0.0
 10
86.99503442920609
 20
96.98563908165637
 10
92.75230574938136
 20
96.98563908165637
  0
LWPOLYLINE
  5
3DBD
330
3E4E
100
AcDbEntity
  8
Layer 1
 62
     7
370
    20
100
AcDbPolyline
 90
        4
 70
     0
 43
0.0
 10
200.787055071331
 20
82.16897241869387
 10
200.9985839341254
 20
92.03262530251268
 10
200.9985839341254
 20
101.9386528608
 10
200.787055071331
 20
111.8023057446189
  0
LWPOLYLINE
  5
3DBE
330
3E4E
100
AcDbEntity
  8
Layer 1
 62
     7
370
    20
100
AcDbPolyline
 90
       15
 70
     0
 43
0.0
 10
108.9659586316127
 20
125.4760619803497
 10
107.0186184085752
 20
125.2643608627811
 10
105.1560275344749
 20
124.7985839531753
 10
103.3780137545374
 20
124.0790757610809
 10
101.6847493235371
 20
123.1476941966436
 10
100.1606390808626
 20
121.9624090949434
 10
98.80602753606242
 20
120.6076252953689
 10
97.6629448540565
 20
119.0836873074687
 10
96.73173554439344
 20
117.3902506216941
 10
96.01205509752475
 20
115.6124090965309
 10
95.54627818791899
 20
113.7072712931878
 10
95.33474932512465
 20
111.8023057446189
 10
95.12304820755605
 20
101.9386528608
 10
95.12304820755605
 20
92.03262530251268
 10
95.33474932512465
 20
82.16897241869387
  0
LWPOLYLINE
  5
3DBF
330
3E4E
100
AcDbEntity
  8
Layer 1
 62
     7
370
    20
100
AcDbPolyline
 90
       12
 70
     0
 43
0.0
 10
95.33474932512465
 20
82.16897241869387
 10
95.54627818791899
 20
80.26383461535072
 10
96.01205509752475
 20
78.40141599602465
 10
96.73173554439344
 20
76.58102754161864
 10
97.6629448540565
 20
74.93013778508691
 10
98.80602753606242
 20
73.36365286794381
 10
100.1606390808626
 20
72.00904132314358
 10
101.6847493235371
 20
70.86595864113768
 10
103.3780137545374
 20
69.89237465700607
 10
105.1560275344749
 20
69.17269421013738
 10
107.0186184085752
 20
68.7069173005316
 10
108.9659586316127
 20
68.49538843773726
  0
LWPOLYLINE
  5
3DC0
330
3E4E
100
AcDbEntity
  8
Layer 1
 62
     7
370
    20
100
AcDbPolyline
 90
       12
 70
     0
 43
0.0
 10
187.197875929763
 20
68.49538843773726
 10
189.1030137331062
 20
68.7069173005316
 10
190.9657768619808
 20
69.17269421013738
 10
192.7437906419182
 20
69.89237465700607
 10
194.4370550729185
 20
70.86595864113768
 10
195.961165315593
 20
72.00904132314358
 10
197.3157768603933
 20
73.36365286794381
 10
198.4585150328507
 20
74.93013778508691
 10
199.4324435265308
 20
76.58102754161864
 10
200.1097492989309
 20
78.40141599602465
 10
200.5751816989882
 20
80.26383461535072
 10
200.787055071331
 20
82.16897241869387
  0
LWPOLYLINE
  5
3DC1
330
3E4E
100
AcDbEntity
  8
Layer 1
 62
     7
370
    20
100
AcDbPolyline
 90
       12
 70
     0
 43
0.0
 10
200.787055071331
 20
111.8023057446189
 10
200.5751816989882
 20
113.7072712931878
 10
200.1097492989309
 20
115.6124090965309
 10
199.4324435265308
 20
117.3902506216941
 10
198.4585150328507
 20
119.0836873074687
 10
197.3157768603933
 20
120.6076252953689
 10
195.961165315593
 20
121.9624090949434
 10
194.4370550729185
 20
123.1476941966436
 10
192.7437906419182
 20
124.0790757610809
 10
190.9657768619808
 20
124.7985839531753
 10
189.1030137331062
 20
125.2643608627811
 10
187.197875929763
 20
125.4760619803497
  0
LWPOLYLINE
  5
3DC2
330
3E4E
100
AcDbEntity
  8
Layer 1
 62
     7
370
    20
100
AcDbPolyline
 90
        6
 70
     0
 43
0.0
 10
108.9659586316127
 20
68.49538843773726
 10
124.587055090381
 20
68.02961152813145
 10
140.2503539688436
 20
67.77570799086858
 10
155.8712781728377
 20
67.77570799086858
 10
171.5347493060746
 20
68.02961152813145
 10
187.197875929763
 20
68.49538843773726
  0
LWPOLYLINE
  5
3DC3
330
3E4E
100
AcDbEntity
  8
Layer 1
 62
     7
370
    20
100
AcDbPolyline
 90
        6
 70
     0
 43
0.0
 10
187.197875929763
 20
125.4760619803497
 10
171.5347493060746
 20
125.9416666351812
 10
155.8712781728377
 20
126.1957424272184
 10
140.2503539688436
 20
126.1957424272184
 10
124.587055090381
 20
125.9416666351812
 10
108.9659586316127
 20
125.4760619803497
  0
LWPOLYLINE
  5
3DC4
330
3E4E
100
AcDbEntity
  8
Layer 1
 62
     7
370
    20
100
AcDbPolyline
 90
       14
 70
     0
 43
0.0
 10
186.859223043563
 20
64.0501817331194
 10
189.018264384169
 20
64.17730575652512
 10
191.1349310503065
 20
64.55833331719374
 10
193.2092230419755
 20
65.23563908959387
 10
195.1567355197872
 20
66.12481823433686
 10
197.0194986486618
 20
67.22518173232565
 10
198.7127630796621
 20
68.53776311220584
 10
200.2365288127881
 20
70.06152884533185
 10
201.5491101926683
 20
71.75513778588066
 10
202.6918483651257
 20
73.61755640520674
 10
203.5386528354
 20
75.56506888301845
 10
204.2159586078002
 20
77.63936087468738
 10
204.5969861684688
 20
79.75602754082489
 10
204.7241101918745
 20
81.91506888143095
  0
LWPOLYLINE
  5
3DC5
330
3E4E
100
AcDbEntity
  8
Layer 1
 62
     7
370
    20
100
AcDbPolyline
 90
       14
 70
     0
 43
0.0
 10
91.39769420458113
 20
81.91506888143095
 10
91.52464597321259
 20
79.75602754082489
 10
91.94804820834979
 20
77.63936087468738
 10
92.58297930628136
 20
75.56506888301845
 10
93.47198619625006
 20
73.61755640520674
 10
94.5726942037874
 20
71.75513778588066
 10
95.88493107411904
 20
70.06152884533185
 10
97.40904131679358
 20
68.53776311220584
 10
99.10230574779388
 20
67.22518173232565
 10
100.9650688766684
 20
66.12481823433686
 10
102.9124090997059
 20
65.23563908959387
 10
104.9867010913748
 20
64.55833331719374
 10
107.1033677575123
 20
64.17730575652512
 10
109.2624090981184
 20
64.0501817331194
  0
LWPOLYLINE
  5
3DC6
330
3E4E
100
AcDbEntity
  8
Layer 1
 62
     7
370
    20
100
AcDbPolyline
 90
       14
 70
     0
 43
0.0
 10
109.2624090981184
 20
129.9209241754191
 10
107.1033677575123
 20
129.7939724067876
 10
104.9867010913748
 20
129.412944846119
 10
102.9124090997059
 20
128.7780137481874
 10
100.9650688766684
 20
127.8890068582187
 10
99.10230574779388
 20
126.7459241762127
 10
97.40904131679358
 20
125.4336873058811
 10
95.88493107411904
 20
123.9097493179809
 10
94.5726942037874
 20
122.2163126322063
 10
93.47198619625006
 20
120.353721758106
 10
92.58297930628136
 20
118.4063815350685
 10
91.94804820834979
 20
116.3319172886253
 10
91.52464597321259
 20
114.2152506224878
 10
91.39769420458113
 20
112.056381536656
  0
LWPOLYLINE
  5
3DC7
330
3E4E
100
AcDbEntity
  8
Layer 1
 62
     7
370
    20
100
AcDbPolyline
 90
       15
 70
     0
 43
0.0
 10
109.2624090981184
 20
129.9209241754191
 10
186.859223043563
 20
129.9209241754191
 10
189.018264384169
 20
129.7939724067876
 10
191.1349310503065
 20
129.412944846119
 10
193.2092230419755
 20
128.7780137481874
 10
195.1567355197872
 20
127.8890068582187
 10
197.0194986486618
 20
126.7459241762127
 10
198.7127630796621
 20
125.4336873058811
 10
200.2365288127881
 20
123.9097493179809
 10
201.5491101926683
 20
122.2163126322063
 10
202.6918483651257
 20
120.353721758106
 10
203.5386528354
 20
118.4063815350685
 10
204.2159586078002
 20
116.3319172886253
 10
204.5969861684688
 20
114.2152506224878
 10
204.7241101918745
 20
112.056381536656
  0
LWPOLYLINE
  5
3DC8
330
3E4E
100
AcDbEntity
  8
Layer 1
 62
     7
370
    20
100
AcDbPolyline
 90
        2
 70
     0
 43
0.0
 10
109.2624090981184
 20
64.0501817331194
 10
186.859223043563
 20
64.0501817331194
  0
LWPOLYLINE
  5
3DC9
330
3E4E
100
AcDbEntity
  8
Layer 1
 62
     7
370
    20
100
AcDbPolyline
 90
        2
 70
     0
 43
0.0
 10
91.39769420458113
 20
112.056381536656
 10
91.39769420458113
 20
81.91506888143095
  0
LWPOLYLINE
  5
3DCA
330
3E4E
100
AcDbEntity
  8
Layer 1
 62
     7
370
    20
100
AcDbPolyline
 90
        2
 70
     0
 43
0.0
 10
204.7241101918745
 20
112.056381536656
 10
204.7241101918745
 20
81.91506888143095
  0
LWPOLYLINE
  5
3DCB
330
3E4E
100
AcDbEntity
  8
Layer 1
 62
     7
370
    13
100
AcDbPolyline
 90
        2
 70
     0
 43
0.0
 10
213.6138345820132
 20
124.2484022041809
 10
213.6138345820132
 20
69.72287595913178
  0
LWPOLYLINE
  5
3DCC
330
3E4E
100
AcDbEntity
  8
Layer 1
 62
     7
370
    13
100
AcDbPolyline
 90
        2
 70
     0
 43
0.0
 10
148.0819172806878
 20
67.7333333164
 10
214.4606390522876
 20
67.7333333164
  0
LWPOLYLINE
  5
3DCD
330
3E4E
100
AcDbEntity
  8
Layer 1
 62
     7
370
    13
100
AcDbPolyline
 90
        2
 70
     0
 43
0.0
 10
148.0819172806878
 20
126.2379448469127
 10
214.4606390522876
 20
126.2379448469127
  0
LWPOLYLINE
  5
3DCE
330
3E4E
100
AcDbEntity
  8
Layer 1
 62
     7
370
     0
100
AcDbPolyline
 90
        4
 70
     0
 43
0.0
 10
213.2751816958132
 20
124.2484022041809
 10
213.9528319777618
 20
124.2484022041809
 10
213.6138345820132
 20
126.2379448469127
 10
213.2751816958132
 20
124.2484022041809
  0
HATCH
  5
3DCF
330
3E4E
100
AcDbEntity
  8
Layer 1
 62
     7
370
    -1
100
AcDbHatch
 10
0.0
 20
0.0
 30
0.0
210
0.0
220
0.0
230
1.0
  2
SOLID
 70
     1
 71
     0
 91
        1
 92
        1
 93
        3
 72
     1
 10
213.2751816958132
 20
124.2484022041809
 11
213.9528319777618
 21
124.2484022041809
 72
     1
 10
213.9528319777618
 20
124.2484022041809
 11
213.6138345820132
 21
126.2379448469127
 72
     1
 10
213.6138345820132
 20
126.2379448469127
 11
213.2751816958132
 21
124.2484022041809
 97
        0
 75
     0
 76
     1
 98
        0
  0
LWPOLYLINE
  5
3DD0
330
3E4E
100
AcDbEntity
  8
Layer 1
 62
     7
370
     0
100
AcDbPolyline
 90
        4
 70
     0
 43
0.0
 10
213.2751816958132
 20
69.72287595913178
 10
213.9528319777618
 20
69.72287595913178
 10
213.6138345820132
 20
67.7333333164
 10
213.2751816958132
 20
69.72287595913178
  0
HATCH
  5
3DD1
330
3E4E
100
AcDbEntity
  8
Layer 1
 62
     7
370
    -1
100
AcDbHatch
 10
0.0
 20
0.0
 30
0.0
210
0.0
220
0.0
230
1.0
  2
SOLID
 70
     1
 71
     0
 91
        1
 92
        1
 93
        3
 72
     1
 10
213.2751816958132
 20
69.72287595913178
 11
213.9528319777618
 21
69.72287595913178
 72
     1
 10
213.9528319777618
 20
69.72287595913178
 11
213.6138345820132
 21
67.7333333164
 72
     1
 10
213.6138345820132
 20
67.7333333164
 11
213.2751816958132
 21
69.72287595913178
 97
        0
 75
     0
 76
     1
 98
        0
  0
LWPOLYLINE
  5
3DD2
330
3E4E
100
AcDbEntity
  8
Layer 1
 62
     7
370
    13
100
AcDbPolyline
 90
        2
 70
     0
 43
0.0
 10
220.6835150272944
 20
66.0400688853997
 10
220.6835150272944
 20
127.9313815326873
  0
LWPOLYLINE
  5
3DD3
330
3E4E
100
AcDbEntity
  8
Layer 1
 62
     7
370
    13
100
AcDbPolyline
 90
        2
 70
     0
 43
0.0
 10
148.0819172806878
 20
129.9209241754191
 10
221.5303194975688
 20
129.9209241754191
  0
LWPOLYLINE
  5
3DD4
330
3E4E
100
AcDbEntity
  8
Layer 1
 62
     7
370
    13
100
AcDbPolyline
 90
        2
 70
     0
 43
0.0
 10
148.0819172806878
 20
64.0501817331194
 10
221.5303194975688
 20
64.0501817331194
  0
LWPOLYLINE
  5
3DD5
330
3E4E
100
AcDbEntity
  8
Layer 1
 62
     7
370
    13
100
AcDbPolyline
 90
        6
 70
     0
 43
0.0
 10
212.0053194999501
 20
99.82198619466259
 10
212.4710964095558
 20
100.2877631042683
 10
212.9365288096131
 20
100.2877631042683
 10
213.4023057192189
 20
99.82198619466259
 10
213.4023057192189
 20
98.89077688499954
 10
212.9365288096131
 20
98.42499997539377
  0
LWPOLYLINE
  5
3DD6
330
3E4E
100
AcDbEntity
  8
Layer 1
 62
     7
370
    13
100
AcDbPolyline
 90
        7
 70
     0
 43
0.0
 10
211.0317355158185
 20
98.42499997539377
 10
210.5659586062127
 20
98.89077688499954
 10
210.5659586062127
 20
99.82198619466259
 10
211.0317355158185
 20
100.2877631042683
 10
211.5395425903443
 20
100.2877631042683
 10
212.0053194999501
 20
99.82198619466259
 10
212.0053194999501
 20
99.3562092850568
  0
LWPOLYLINE
  5
3DD7
330
3E4E
100
AcDbEntity
  8
Layer 1
 62
     7
370
    13
100
AcDbPolyline
 90
        3
 70
     0
 43
0.0
 10
213.4023057192189
 20
96.98563908165637
 10
210.5659586062127
 20
96.98563908165637
 10
211.0317355158185
 20
96.5198621720506
  0
LWPOLYLINE
  5
3DD8
330
3E4E
100
AcDbEntity
  8
Layer 1
 62
     7
370
    13
100
AcDbPolyline
 90
        2
 70
     0
 43
0.0
 10
213.4023057192189
 20
96.5198621720506
 10
213.4023057192189
 20
97.45141599126215
  0
LWPOLYLINE
  5
3DD9
330
3E4E
100
AcDbEntity
  8
Layer 1
 62
     7
370
    13
100
AcDbPolyline
 90
        4
 70
     0
 43
0.0
 10
213.4023057192189
 20
95.08050127831319
 10
210.5659586062127
 20
95.08050127831319
 10
212.4710964095558
 20
93.6835150590444
 10
212.4710964095558
 20
95.58865286238756
  0
LWPOLYLINE
  5
3DDA
330
3E4E
100
AcDbEntity
  8
Layer 1
 62
     7
370
     0
100
AcDbPolyline
 90
        4
 70
     0
 43
0.0
 10
220.3872368155629
 20
66.0400688853997
 10
221.0221679134944
 20
66.0400688853997
 10
220.6835150272944
 20
64.0501817331194
 10
220.3872368155629
 20
66.0400688853997
  0
HATCH
  5
3DDB
330
3E4E
100
AcDbEntity
  8
Layer 1
 62
     7
370
    -1
100
AcDbHatch
 10
0.0
 20
0.0
 30
0.0
210
0.0
220
0.0
230
1.0
  2
SOLID
 70
     1
 71
     0
 91
        1
 92
        1
 93
        3
 72
     1
 10
220.3872368155629
 20
66.0400688853997
 11
221.0221679134944
 21
66.0400688853997
 72
     1
 10
221.0221679134944
 20
66.0400688853997
 11
220.6835150272944
 21
64.0501817331194
 72
     1
 10
220.6835150272944
 20
64.0501817331194
 11
220.3872368155629
 21
66.0400688853997
 97
        0
 75
     0
 76
     1
 98
        0
  0
LWPOLYLINE
  5
3DDC
330
3E4E
100
AcDbEntity
  8
Layer 1
 62
     7
370
     0
100
AcDbPolyline
 90
        4
 70
     0
 43
0.0
 10
220.3872368155629
 20
127.9313815326873
 10
221.0221679134944
 20
127.9313815326873
 10
220.6835150272944
 20
129.9209241754191
 10
220.3872368155629
 20
127.9313815326873
  0
HATCH
  5
3DDD
330
3E4E
100
AcDbEntity
  8
Layer 1
 62
     7
370
    -1
100
AcDbHatch
 10
0.0
 20
0.0
 30
0.0
210
0.0
220
0.0
230
1.0
  2
SOLID
 70
     1
 71
     0
 91
        1
 92
        1
 93
        3
 72
     1
 10
220.3872368155629
 20
127.9313815326873
 11
221.0221679134944
 21
127.9313815326873
 72
     1
 10
221.0221679134944
 20
127.9313815326873
 11
220.6835150272944
 21
129.9209241754191
 72
     1
 10
220.6835150272944
 20
129.9209241754191
 11
220.3872368155629
 21
127.9313815326873
 97
        0
 75
     0
 76
     1
 98
        0
  0
LWPOLYLINE
  5
3DDE
330
3E4E
100
AcDbEntity
  8
Layer 1
 62
     7
370
    13
100
AcDbPolyline
 90
        2
 70
     0
 43
0.0
 10
199.0514159658621
 20
55.54148490364934
 10
97.07038843059351
 20
55.54148490364934
  0
LWPOLYLINE
  5
3DDF
330
3E4E
100
AcDbEntity
  8
Layer 1
 62
     7
370
    13
100
AcDbPolyline
 90
        2
 70
     0
 43
0.0
 10
95.08067353308748
 20
96.98563908165637
 10
95.08067353308748
 20
54.69468043337494
  0
LWPOLYLINE
  5
3DE0
330
3E4E
100
AcDbEntity
  8
Layer 1
 62
     7
370
    13
100
AcDbPolyline
 90
        2
 70
     0
 43
0.0
 10
201.0409586085939
 20
96.98563908165637
 10
201.0409586085939
 20
54.69468043337494
  0
LWPOLYLINE
  5
3DE1
330
3E4E
100
AcDbEntity
  8
Layer 1
 62
     7
370
    13
100
AcDbPolyline
 90
        9
 70
     0
 43
0.0
 10
220.0062092548943
 20
98.89077688499954
 10
220.4719861645001
 20
99.3562092850568
 10
220.4719861645001
 20
100.2877631042683
 10
220.0062092548943
 20
100.7531955043256
 10
219.0749999452313
 20
100.7531955043256
 10
218.6092230356255
 20
100.2877631042683
 10
218.6092230356255
 20
98.89077688499954
 10
217.6356390514939
 20
98.89077688499954
 10
217.6356390514939
 20
100.7531955043256
  0
LWPOLYLINE
  5
3DE2
330
3E4E
100
AcDbEntity
  8
Layer 1
 62
     7
370
    13
100
AcDbPolyline
 90
       10
 70
     0
 43
0.0
 10
219.0749999452313
 20
96.05442977199336
 10
219.0749999452313
 20
97.45141599126215
 10
219.5407768548371
 20
97.9168483913194
 10
220.0062092548943
 20
97.9168483913194
 10
220.4719861645001
 20
97.45141599126215
 10
220.4719861645001
 20
96.5198621720506
 10
220.0062092548943
 20
96.05442977199336
 10
218.6092230356255
 20
96.05442977199336
 10
217.6356390514939
 20
96.98563908165637
 10
217.6356390514939
 20
97.45141599126215
  0
LWPOLYLINE
  5
3DE3
330
3E4E
100
AcDbEntity
  8
Layer 1
 62
     7
370
    13
100
AcDbPolyline
 90
        4
 70
     0
 43
0.0
 10
220.4719861645001
 20
94.61506887825595
 10
217.6356390514939
 20
94.61506887825595
 10
219.5407768548371
 20
93.21808265898714
 10
219.5407768548371
 20
95.08050127831319
  0
LWPOLYLINE
  5
3DE4
330
3E4E
100
AcDbEntity
  8
Layer 1
 62
     7
370
     0
100
AcDbPolyline
 90
        4
 70
     0
 43
0.0
 10
199.0514159658621
 20
55.8801377898494
 10
199.0514159658621
 20
55.2028320174493
 10
201.0409586085939
 20
55.54148490364934
 10
199.0514159658621
 20
55.8801377898494
  0
HATCH
  5
3DE5
330
3E4E
100
AcDbEntity
  8
Layer 1
 62
     7
370
    -1
100
AcDbHatch
 10
0.0
 20
0.0
 30
0.0
210
0.0
220
0.0
230
1.0
  2
SOLID
 70
     1
 71
     0
 91
        1
 92
        1
 93
        3
 72
     1
 10
199.0514159658621
 20
55.8801377898494
 11
199.0514159658621
 21
55.2028320174493
 72
     1
 10
199.0514159658621
 20
55.2028320174493
 11
201.0409586085939
 21
55.54148490364934
 72
     1
 10
201.0409586085939
 20
55.54148490364934
 11
199.0514159658621
 21
55.8801377898494
 97
        0
 75
     0
 76
     1
 98
        0
  0
LWPOLYLINE
  5
3DE6
330
3E4E
100
AcDbEntity
  8
Layer 1
 62
     7
370
     0
100
AcDbPolyline
 90
        4
 70
     0
 43
0.0
 10
97.07038843059351
 20
55.8801377898494
 10
97.07038843059351
 20
55.2028320174493
 10
95.08067353308748
 20
55.54148490364934
 10
97.07038843059351
 20
55.8801377898494
  0
HATCH
  5
3DE7
330
3E4E
100
AcDbEntity
  8
Layer 1
 62
     7
370
    -1
100
AcDbHatch
 10
0.0
 20
0.0
 30
0.0
210
0.0
220
0.0
230
1.0
  2
SOLID
 70
     1
 71
     0
 91
        1
 92
        1
 93
        3
 72
     1
 10
97.07038843059351
 20
55.8801377898494
 11
97.07038843059351
 21
55.2028320174493
 72
     1
 10
97.07038843059351
 20
55.2028320174493
 11
95.08067353308748
 21
55.54148490364934
 72
     1
 10
95.08067353308748
 20
55.54148490364934
 11
97.07038843059351
 21
55.8801377898494
 97
        0
 75
     0
 76
     1
 98
        0
  0
LWPOLYLINE
  5
3DE8
330
3E4E
100
AcDbEntity
  8
Layer 1
 62
     7
370
    13
100
AcDbPolyline
 90
        2
 70
     0
 43
0.0
 10
93.38740910208718
 20
50.29184840322565
 10
202.7342230395942
 20
50.29184840322565
  0
LWPOLYLINE
  5
3DE9
330
3E4E
100
AcDbEntity
  8
Layer 1
 62
     7
370
    13
100
AcDbPolyline
 90
        2
 70
     0
 43
0.0
 10
204.7241101918745
 20
96.98563908165637
 10
204.7241101918745
 20
49.44538844249977
  0
LWPOLYLINE
  5
3DEA
330
3E4E
100
AcDbEntity
  8
Layer 1
 62
     7
370
    13
100
AcDbPolyline
 90
        2
 70
     0
 43
0.0
 10
91.39769420458113
 20
96.98563908165637
 10
91.39769420458113
 20
49.44538844249977
  0
LWPOLYLINE
  5
3DEB
330
3E4E
100
AcDbEntity
  8
Layer 1
 62
     7
370
    13
100
AcDbPolyline
 90
        4
 70
     0
 43
0.0
 10
150.4104573191682
 20
57.14999998571251
 10
149.9446804095624
 20
56.68422307610672
 10
149.9446804095624
 20
56.21879067604947
 10
150.4104573191682
 20
55.75301376644369
  0
LWPOLYLINE
  5
3DEC
330
3E4E
100
AcDbEntity
  8
Layer 1
 62
     7
370
    13
100
AcDbPolyline
 90
       13
 70
     0
 43
0.0
 10
150.4104573191682
 20
55.75301376644369
 10
151.3840413032998
 20
55.75301376644369
 10
151.8498182129056
 20
56.21879067604947
 10
151.8498182129056
 20
56.68422307610672
 10
151.3840413032998
 20
57.14999998571251
 10
150.4104573191682
 20
57.14999998571251
 10
149.9446804095624
 20
57.61577689531828
 10
149.9446804095624
 20
58.12358396984411
 10
150.4104573191682
 20
58.58936087944988
 10
151.3840413032998
 20
58.58936087944988
 10
151.8498182129056
 20
58.12358396984411
 10
151.8498182129056
 20
57.61577689531828
 10
151.3840413032998
 20
57.14999998571251
  0
LWPOLYLINE
  5
3DED
330
3E4E
100
AcDbEntity
  8
Layer 1
 62
     7
370
    13
100
AcDbPolyline
 90
        4
 70
     0
 43
0.0
 10
148.5476941902936
 20
55.75301376644369
 10
148.5476941902936
 20
58.58936087944988
 10
147.1083332965562
 20
56.68422307610672
 10
149.0134710998994
 20
56.68422307610672
  0
LWPOLYLINE
  5
3DEE
330
3E4E
100
AcDbEntity
  8
Layer 1
 62
     7
370
    13
100
AcDbPolyline
 90
        3
 70
     0
 43
0.0
 10
144.2719861835501
 20
58.58936087944988
 10
146.1769517321189
 20
58.58936087944988
 10
144.7799655128501
 20
55.75301376644369
  0
LWPOLYLINE
  5
3DEF
330
3E4E
100
AcDbEntity
  8
Layer 1
 62
     7
370
     0
100
AcDbPolyline
 90
        4
 70
     0
 43
0.0
 10
93.38740910208718
 20
50.6305012894257
 10
93.38740910208718
 20
49.95319551702559
 10
91.39769420458113
 20
50.29184840322565
 10
93.38740910208718
 20
50.6305012894257
  0
HATCH
  5
3DF0
330
3E4E
100
AcDbEntity
  8
Layer 1
 62
     7
370
    -1
100
AcDbHatch
 10
0.0
 20
0.0
 30
0.0
210
0.0
220
0.0
230
1.0
  2
SOLID
 70
     1
 71
     0
 91
        1
 92
        1
 93
        3
 72
     1
 10
93.38740910208718
 20
50.6305012894257
 11
93.38740910208718
 21
49.95319551702559
 72
     1
 10
93.38740910208718
 20
49.95319551702559
 11
91.39769420458113
 21
50.29184840322565
 72
     1
 10
91.39769420458113
 20
50.29184840322565
 11
93.38740910208718
 21
50.6305012894257
 97
        0
 75
     0
 76
     1
 98
        0
  0
LWPOLYLINE
  5
3DF1
330
3E4E
100
AcDbEntity
  8
Layer 1
 62
     7
370
     0
100
AcDbPolyline
 90
        4
 70
     0
 43
0.0
 10
202.7342230395942
 20
50.6305012894257
 10
202.7342230395942
 20
49.95319551702559
 10
204.7241101918745
 20
50.29184840322565
 10
202.7342230395942
 20
50.6305012894257
  0
HATCH
  5
3DF2
330
3E4E
100
AcDbEntity
  8
Layer 1
 62
     7
370
    -1
100
AcDbHatch
 10
0.0
 20
0.0
 30
0.0
210
0.0
220
0.0
230
1.0
  2
SOLID
 70
     1
 71
     0
 91
        1
 92
        1
 93
        3
 72
     1
 10
202.7342230395942
 20
50.6305012894257
 11
202.7342230395942
 21
49.95319551702559
 72
     1
 10
202.7342230395942
 20
49.95319551702559
 11
204.7241101918745
 21
50.29184840322565
 72
     1
 10
204.7241101918745
 20
50.29184840322565
 11
202.7342230395942
 21
50.6305012894257
 97
        0
 75
     0
 76
     1
 98
        0
  0
LWPOLYLINE
  5
3DF3
330
3E4E
100
AcDbEntity
  8
Layer 1
 62
     7
370
    13
100
AcDbPolyline
 90
        2
 70
     0
 43
0.0
 10
186.859223043563
 20
112.056381536656
 10
195.3682643825814
 20
127.7620550895872
  0
LWPOLYLINE
  5
3DF4
330
3E4E
100
AcDbEntity
  8
Layer 1
 62
     7
370
    13
100
AcDbPolyline
 90
       10
 70
     0
 43
0.0
 10
211.7514159626872
 20
134.9163126290313
 10
213.1907768564246
 20
134.9163126290313
 10
213.6562092564818
 20
134.4507079741998
 10
213.6562092564818
 20
133.984931064594
 10
213.1907768564246
 20
133.5193264097625
 10
212.2168483627444
 20
133.5193264097625
 10
211.7514159626872
 20
133.984931064594
 10
211.7514159626872
 20
135.3819172838628
 10
212.7249999468188
 20
136.3556735227687
 10
213.1907768564246
 20
136.3556735227687
  0
LWPOLYLINE
  5
3DF5
330
3E4E
100
AcDbEntity
  8
Layer 1
 62
     7
370
    13
100
AcDbPolyline
 90
       10
 70
     0
 43
0.0
 10
208.915068849681
 20
135.8476941934686
 10
209.4228759242068
 20
136.3556735227687
 10
210.3544297434183
 20
136.3556735227687
 10
210.8198621434756
 20
135.8476941934686
 10
210.8198621434756
 20
135.3819172838628
 10
210.3544297434183
 20
134.9163126290313
 10
209.4228759242068
 20
134.9163126290313
 10
208.915068849681
 20
134.4507079741998
 10
208.915068849681
 20
133.5193264097625
 10
210.8198621434756
 20
133.5193264097625
  0
LWPOLYLINE
  5
3DF6
330
3E4E
100
AcDbEntity
  8
Layer 1
 62
     7
370
    13
100
AcDbPolyline
 90
        3
 70
     0
 43
0.0
 10
207.5180826304122
 20
133.5193264097625
 10
207.5180826304122
 20
136.3556735227687
 10
207.0523057208064
 20
135.8476941934686
  0
LWPOLYLINE
  5
3DF7
330
3E4E
100
AcDbEntity
  8
Layer 1
 62
     7
370
    13
100
AcDbPolyline
 90
        2
 70
     0
 43
0.0
 10
207.0523057208064
 20
133.5193264097625
 10
207.9835150304694
 20
133.5193264097625
  0
LWPOLYLINE
  5
3DF8
330
3E4E
100
AcDbEntity
  8
Layer 1
 62
     7
370
    13
100
AcDbPolyline
 90
        2
 70
     0
 43
0.0
 10
204.681735517406
 20
134.9163126290313
 10
206.0787217366748
 20
133.5193264097625
  0
LWPOLYLINE
  5
3DF9
330
3E4E
100
AcDbEntity
  8
Layer 1
 62
     7
370
    13
100
AcDbPolyline
 90
        7
 70
     0
 43
0.0
 10
204.2159586078002
 20
133.5193264097625
 10
204.2159586078002
 20
136.3556735227687
 10
205.612944827069
 20
136.3556735227687
 10
206.0787217366748
 20
135.8476941934686
 10
206.0787217366748
 20
135.3819172838628
 10
205.612944827069
 20
134.9163126290313
 10
204.2159586078002
 20
134.9163126290313
  0
LWPOLYLINE
  5
3DFA
330
3E4E
100
AcDbEntity
  8
Layer 1
 62
     7
370
    13
100
AcDbPolyline
 90
        2
 70
     0
 43
0.0
 10
201.379611494794
 20
134.9163126290313
 10
203.2847492981372
 20
134.9163126290313
  0
LWPOLYLINE
  5
3DFB
330
3E4E
100
AcDbEntity
  8
Layer 1
 62
     7
370
    13
100
AcDbPolyline
 90
        4
 70
     0
 43
0.0
 10
199.9402506010566
 20
133.5193264097625
 10
199.9402506010566
 20
136.3556735227687
 10
198.5432643817878
 20
134.4507079741998
 10
200.448402185131
 20
134.4507079741998
  0
LWPOLYLINE
  5
3DFC
330
3E4E
100
AcDbEntity
  8
Layer 1
 62
     7
370
    13
100
AcDbPolyline
 90
        3
 70
     0
 43
0.0
 10
213.6562092564818
 20
133.3076252921939
 10
198.3317355189934
 20
133.3076252921939
 10
196.2998182017931
 20
129.5400688695247
  0
LWPOLYLINE
  5
3DFD
330
3E4E
100
AcDbEntity
  8
Layer 1
 62
     7
370
    13
100
AcDbPolyline
 90
        9
 70
     0
 43
0.0
 10
150.4104573191682
 20
50.50372177556852
 10
150.918264393694
 20
50.50372177556852
 10
151.3840413032998
 20
50.96949868517429
 10
151.3840413032998
 20
52.87429197896893
 10
150.918264393694
 20
53.3400688885747
 10
150.4104573191682
 20
53.3400688885747
 10
149.9446804095624
 20
52.87429197896893
 10
149.9446804095624
 20
50.96949868517429
 10
150.4104573191682
 20
50.50372177556852
  0
LWPOLYLINE
  5
3DFE
330
3E4E
100
AcDbEntity
  8
Layer 1
 62
     7
370
    13
100
AcDbPolyline
 90
        9
 70
     0
 43
0.0
 10
148.0819172806878
 20
50.50372177556852
 10
148.5476941902936
 20
50.50372177556852
 10
149.0134710998994
 20
50.96949868517429
 10
149.0134710998994
 20
52.87429197896893
 10
148.5476941902936
 20
53.3400688885747
 10
148.0819172806878
 20
53.3400688885747
 10
147.5739379513877
 20
52.87429197896893
 10
147.5739379513877
 20
50.96949868517429
 10
148.0819172806878
 20
50.50372177556852
  0
LWPOLYLINE
  5
3DFF
330
3E4E
100
AcDbEntity
  8
Layer 1
 62
     7
370
    13
100
AcDbPolyline
 90
        4
 70
     0
 43
0.0
 10
145.2457424224559
 20
51.90070799483732
 10
144.7799655128501
 20
51.43493108523154
 10
144.7799655128501
 20
50.96949868517429
 10
145.2457424224559
 20
50.50372177556852
  0
LWPOLYLINE
  5
3E00
330
3E4E
100
AcDbEntity
  8
Layer 1
 62
     7
370
    13
100
AcDbPolyline
 90
       13
 70
     0
 43
0.0
 10
145.2457424224559
 20
50.50372177556852
 10
146.1769517321189
 20
50.50372177556852
 10
146.6427286417247
 20
50.96949868517429
 10
146.6427286417247
 20
51.43493108523154
 10
146.1769517321189
 20
51.90070799483732
 10
145.2457424224559
 20
51.90070799483732
 10
144.7799655128501
 20
52.3664849044431
 10
144.7799655128501
 20
52.87429197896893
 10
145.2457424224559
 20
53.3400688885747
 10
146.1769517321189
 20
53.3400688885747
 10
146.6427286417247
 20
52.87429197896893
 10
146.6427286417247
 20
52.3664849044431
 10
146.1769517321189
 20
51.90070799483732
  0
LWPOLYLINE
  5
3E01
330
3E4E
100
AcDbEntity
  8
Layer 1
 62
     7
370
     0
100
AcDbPolyline
 90
        4
 70
     0
 43
0.0
 10
196.003195480513
 20
129.6670206381562
 10
196.5960964135246
 20
129.3707424264247
 10
195.3682643825814
 20
127.7620550895872
 10
196.003195480513
 20
129.6670206381562
  0
HATCH
  5
3E02
330
3E4E
100
AcDbEntity
  8
Layer 1
 62
     7
370
    -1
100
AcDbHatch
 10
0.0
 20
0.0
 30
0.0
210
0.0
220
0.0
230
1.0
  2
SOLID
 70
     1
 71
     0
 91
        1
 92
        1
 93
        3
 72
     1
 10
196.003195480513
 20
129.6670206381562
 11
196.5960964135246
 21
129.3707424264247
 72
     1
 10
196.5960964135246
 20
129.3707424264247
 11
195.3682643825814
 21
127.7620550895872
 72
     1
 10
195.3682643825814
 20
127.7620550895872
 11
196.003195480513
 21
129.6670206381562
 97
        0
 75
     0
 76
     1
 98
        0
  0
LWPOLYLINE
  5
3E03
330
3E4E
100
AcDbEntity
  8
Layer 1
 62
     7
370
    13
100
AcDbPolyline
 90
        2
 70
     0
 43
0.0
 10
146.0499999634875
 20
87.24911022124328
 10
148.0819172806878
 20
109.3469861922813
  0
LWPOLYLINE
  5
3E04
330
3E4E
100
AcDbEntity
  8
Layer 1
 62
     7
370
    30
100
AcDbPolyline
 90
       41
 70
     0
 43
0.0
 10
156.5485839452378
 20
96.98563908165637
 10
156.4638345963006
 20
98.29787595198805
 10
156.1675563845692
 20
99.6104573318682
 10
155.6173746355748
 20
100.8379448532627
 10
154.9400688631747
 20
101.9810275352686
 10
154.0932643929003
 20
102.9969861938688
 10
153.0773057343001
 20
103.8437906641432
 10
151.9342230522942
 20
104.5634711110119
 10
150.7067355308997
 20
105.0712781855377
 10
149.394498660568
 20
105.3677286520435
 10
148.0819172806878
 20
105.4946804206749
 10
146.7273057358876
 20
105.3677286520435
 10
145.4572712852503
 20
105.0712781855377
 10
144.1874090893872
 20
104.5634711110119
 10
143.0867010818498
 20
103.8437906641432
 10
142.0707424232496
 20
102.9969861938688
 10
141.1817355332809
 20
101.9810275352686
 10
140.5042575061066
 20
100.8379448532627
 10
139.9962781768065
 20
99.6104573318682
 10
139.6576252906064
 20
98.29787595198805
 10
139.5730481964435
 20
96.98563908165637
 10
139.6576252906064
 20
95.67340221132471
 10
139.9962781768065
 20
94.36116534099303
 10
140.5042575061066
 20
93.13333331004999
 10
141.1817355332809
 20
91.99025062804412
 10
142.0707424232496
 20
90.97429196944391
 10
143.0867010818498
 20
90.12783200871806
 10
144.1874090893872
 20
89.40815156184935
 10
145.4572712852503
 20
88.89999997777502
 10
146.7273057358876
 20
88.6037217660435
 10
148.0819172806878
 20
88.4765977426378
 10
149.394498660568
 20
88.6037217660435
 10
150.7067355308997
 20
88.89999997777502
 10
151.9342230522942
 20
89.40815156184935
 10
153.0773057343001
 20
90.12783200871806
 10
154.0932643929003
 20
90.97429196944391
 10
154.9400688631747
 20
91.99025062804412
 10
155.6173746355748
 20
93.13333331004999
 10
156.1675563845692
 20
94.36116534099303
 10
156.4638345963006
 20
95.67340221132471
 10
156.5485839452378
 20
96.98563908165637
  0
LWPOLYLINE
  5
3E05
330
3E4E
100
AcDbEntity
  8
Layer 1
 62
     7
370
    30
100
AcDbPolyline
 90
       37
 70
     0
 43
0.0
 10
155.8712781728377
 20
96.98563908165637
 10
155.7444986589805
 20
98.34025062645658
 10
155.405501263232
 20
99.65283200633681
 10
154.812944839769
 20
100.8803195277313
 10
154.0508897184317
 20
101.9810275352686
 10
153.0773057343001
 20
102.9546115194002
 10
151.9765977267628
 20
103.7166666407375
 10
150.7491102053682
 20
104.3092230642004
 10
149.4365288254881
 20
104.6478759504005
 10
148.0819172806878
 20
104.7749999738062
 10
146.7273057358876
 20
104.6478759504005
 10
145.4150688655559
 20
104.3092230642004
 10
144.1874090893872
 20
103.7166666407375
 10
143.0443264073812
 20
102.9546115194002
 10
142.112944842944
 20
101.9810275352686
 10
141.3086873019124
 20
100.8803195277313
 10
140.7583332981437
 20
99.65283200633681
 10
140.3773057374751
 20
98.34025062645658
 10
140.2927286433122
 20
96.98563908165637
 10
140.3773057374751
 20
95.63102753685614
 10
140.7583332981437
 20
94.31879066652449
 10
141.3086873019124
 20
93.09095863558143
 10
142.112944842944
 20
91.99025062804412
 10
143.0443264073812
 20
91.01666664391252
 10
144.1874090893872
 20
90.25461152257523
 10
145.4150688655559
 20
89.66205509911227
 10
146.7273057358876
 20
89.32340221291219
 10
148.0819172806878
 20
89.19627818950649
 10
149.4365288254881
 20
89.32340221291219
 10
150.7491102053682
 20
89.66205509911227
 10
151.9765977267628
 20
90.25461152257523
 10
153.0773057343001
 20
91.01666664391252
 10
154.0508897184317
 20
91.99025062804412
 10
154.812944839769
 20
93.09095863558143
 10
155.405501263232
 20
94.31879066652449
 10
155.7444986589805
 20
95.63102753685614
 10
155.8712781728377
 20
96.98563908165637
  0
LWPOLYLINE
  5
3E06
330
3E4E
100
AcDbEntity
  8
Layer 1
 62
     7
370
    30
100
AcDbPolyline
 90
       37
 70
     0
 43
0.0
 10
154.4742919535689
 20
96.98563908165637
 10
154.3471679301632
 20
98.0863470891937
 10
154.0508897184317
 20
99.18705509673102
 10
153.5854573183744
 20
100.2030137553312
 10
152.9501817108944
 20
101.0918483905256
 10
152.1884710991056
 20
101.8962781863315
 10
151.256917279894
 20
102.531209284263
 10
150.2409586212939
 20
102.9969861938688
 10
149.1826252882252
 20
103.2932644056003
 10
148.0819172806878
 20
103.3780137545374
 10
146.9390068534562
 20
103.2932644056003
 10
145.8806735203875
 20
102.9969861938688
 10
144.8647148617873
 20
102.531209284263
 10
143.9757079718186
 20
101.8962781863315
 10
143.1712781760127
 20
101.0918483905256
 10
142.5363470780812
 20
100.2030137553312
 10
142.0707424232496
 20
99.18705509673102
 10
141.7742919567439
 20
98.0863470891937
 10
141.689714862581
 20
96.98563908165637
 10
141.7742919567439
 20
95.88493107411904
 10
142.0707424232496
 20
94.78422306658172
 10
142.5363470780812
 20
93.81063908245012
 10
143.1712781760127
 20
92.87942977278708
 10
143.9757079718186
 20
92.11737465144985
 10
144.8647148617873
 20
91.4400688790497
 10
145.8806735203875
 20
90.97429196944391
 10
146.9390068534562
 20
90.720388432181
 10
148.0819172806878
 20
90.5932644087753
 10
149.1826252882252
 20
90.720388432181
 10
150.2409586212939
 20
90.97429196944391
 10
151.256917279894
 20
91.4400688790497
 10
152.1884710991056
 20
92.11737465144985
 10
152.9501817108944
 20
92.87942977278708
 10
153.5854573183744
 20
93.81063908245012
 10
154.0508897184317
 20
94.78422306658172
 10
154.3471679301632
 20
95.88493107411904
 10
154.4742919535689
 20
96.98563908165637
  0
LWPOLYLINE
  5
3E07
330
3E4E
100
AcDbEntity
  8
Layer 1
 62
     7
370
    20
100
AcDbPolyline
 90
        2
 70
     0
 43
0.0
 10
204.7241101918745
 20
183.0492919464252
 10
204.7241101918745
 20
183.2186183895252
  0
LWPOLYLINE
  5
3E08
330
3E4E
100
AcDbEntity
  8
Layer 1
 62
     7
370
    20
100
AcDbPolyline
 90
        2
 70
     0
 43
0.0
 10
148.0819172806878
 20
150.7913126250626
 10
156.5485839452378
 20
150.7913126250626
  0
LWPOLYLINE
  5
3E09
330
3E4E
100
AcDbEntity
  8
Layer 1
 62
     7
370
    13
100
AcDbPolyline
 90
        2
 70
     0
 43
0.0
 10
148.0819172806878
 20
179.9590412961561
 10
148.0819172806878
 20
185.0813815183998
  0
LWPOLYLINE
  5
3E0A
330
3E4E
100
AcDbEntity
  8
Layer 1
 62
     7
370
    13
100
AcDbPolyline
 90
        2
 70
     0
 43
0.0
 10
148.0819172806878
 20
178.1810275162186
 10
148.0819172806878
 20
179.0700344061873
  0
LWPOLYLINE
  5
3E0B
330
3E4E
100
AcDbEntity
  8
Layer 1
 62
     7
370
    13
100
AcDbPolyline
 90
        2
 70
     0
 43
0.0
 10
148.0819172806878
 20
172.7624090822434
 10
148.0819172806878
 20
177.2496459517813
  0
LWPOLYLINE
  5
3E0C
330
3E4E
100
AcDbEntity
  8
Layer 1
 62
     7
370
    13
100
AcDbPolyline
 90
        2
 70
     0
 43
0.0
 10
148.0819172806878
 20
170.9843953023059
 10
148.0819172806878
 20
171.8734021922747
  0
LWPOLYLINE
  5
3E0D
330
3E4E
100
AcDbEntity
  8
Layer 1
 62
     7
370
    13
100
AcDbPolyline
 90
        2
 70
     0
 43
0.0
 10
148.0819172806878
 20
165.5656046135565
 10
148.0819172806878
 20
170.0953884123373
  0
LWPOLYLINE
  5
3E0E
330
3E4E
100
AcDbEntity
  8
Layer 1
 62
     7
370
    13
100
AcDbPolyline
 90
        2
 70
     0
 43
0.0
 10
148.0819172806878
 20
163.7875908336191
 10
148.0819172806878
 20
164.6765977235878
  0
LWPOLYLINE
  5
3E0F
330
3E4E
100
AcDbEntity
  8
Layer 1
 62
     7
370
    13
100
AcDbPolyline
 90
        2
 70
     0
 43
0.0
 10
148.0819172806878
 20
158.3689723996438
 10
148.0819172806878
 20
162.8985839436503
  0
LWPOLYLINE
  5
3E10
330
3E4E
100
AcDbEntity
  8
Layer 1
 62
     7
370
    13
100
AcDbPolyline
 90
        2
 70
     0
 43
0.0
 10
148.0819172806878
 20
156.5909586197064
 10
148.0819172806878
 20
157.4799655096752
  0
LWPOLYLINE
  5
3E11
330
3E4E
100
AcDbEntity
  8
Layer 1
 62
     7
370
    13
100
AcDbPolyline
 90
        2
 70
     0
 43
0.0
 10
148.0819172806878
 20
151.1723401857311
 10
148.0819172806878
 20
155.7019517297377
  0
LWPOLYLINE
  5
3E12
330
3E4E
100
AcDbEntity
  8
Layer 1
 62
     7
370
    13
100
AcDbPolyline
 90
        2
 70
     0
 43
0.0
 10
148.0819172806878
 20
149.3943264057937
 10
148.0819172806878
 20
150.2833332957625
  0
LWPOLYLINE
  5
3E13
330
3E4E
100
AcDbEntity
  8
Layer 1
 62
     7
370
    13
100
AcDbPolyline
 90
        2
 70
     0
 43
0.0
 10
148.0819172806878
 20
143.3829792935813
 10
148.0819172806878
 20
148.5053195158251
  0
LWPOLYLINE
  5
3E14
330
3E4E
100
AcDbEntity
  8
Layer 1
 62
     7
370
    20
100
AcDbPolyline
 90
        2
 70
     0
 43
0.0
 10
94.27641599205593
 20
183.2186183895252
 10
148.0819172806878
 20
183.2186183895252
  0
LWPOLYLINE
  5
3E15
330
3E4E
100
AcDbEntity
  8
Layer 1
 62
     7
370
    20
100
AcDbPolyline
 90
        3
 70
     0
 43
0.0
 10
94.95372176445602
 20
182.4143608484936
 10
94.74202064688738
 20
182.879965503325
 10
94.27641599205593
 20
183.0492919464252
  0
LWPOLYLINE
  5
3E16
330
3E4E
100
AcDbEntity
  8
Layer 1
 62
     7
370
    20
100
AcDbPolyline
 90
        3
 70
     0
 43
0.0
 10
95.12304820755605
 20
182.4143608484936
 10
94.86897241551885
 20
182.9647148522623
 10
94.27641599205593
 20
183.2186183895252
  0
LWPOLYLINE
  5
3E17
330
3E4E
100
AcDbEntity
  8
Layer 1
 62
     7
370
    20
100
AcDbPolyline
 90
        2
 70
     0
 43
0.0
 10
94.27641599205593
 20
183.0492919464252
 10
91.39769420458113
 20
183.0492919464252
  0
LWPOLYLINE
  5
3E18
330
3E4E
100
AcDbEntity
  8
Layer 1
 62
     7
370
    20
100
AcDbPolyline
 90
        2
 70
     0
 43
0.0
 10
94.95372176445602
 20
182.4143608484936
 10
95.96968042305618
 20
159.1310275209811
  0
LWPOLYLINE
  5
3E19
330
3E4E
100
AcDbEntity
  8
Layer 1
 62
     7
370
    20
100
AcDbPolyline
 90
        2
 70
     0
 43
0.0
 10
95.08067353308748
 20
183.2186183895252
 10
96.13900686615622
 20
159.1734021954497
  0
LWPOLYLINE
  5
3E1A
330
3E4E
100
AcDbEntity
  8
Layer 1
 62
     7
370
    20
100
AcDbPolyline
 90
        4
 70
     0
 43
0.0
 10
139.4882988475064
 20
150.6219861819625
 10
140.2079792943751
 20
150.0716321781939
 10
141.6473401881125
 20
149.6060275233624
 10
148.0819172806878
 20
149.6060275233624
  0
LWPOLYLINE
  5
3E1B
330
3E4E
100
AcDbEntity
  8
Layer 1
 62
     7
370
    20
100
AcDbPolyline
 90
        2
 70
     0
 43
0.0
 10
139.4882988475064
 20
150.6219861819625
 10
102.8700344252373
 20
152.2306735188
  0
LWPOLYLINE
  5
3E1C
330
3E4E
100
AcDbEntity
  8
Layer 1
 62
     7
370
    20
100
AcDbPolyline
 90
        3
 70
     0
 43
0.0
 10
139.5730481964435
 20
150.7913126250626
 10
140.2927286433122
 20
150.1985839468253
 10
141.689714862581
 20
149.7753539664624
  0
LWPOLYLINE
  5
3E1D
330
3E4E
100
AcDbEntity
  8
Layer 1
 62
     7
370
    20
100
AcDbPolyline
 90
        2
 70
     0
 43
0.0
 10
148.0819172806878
 20
149.7753539664624
 10
141.689714862581
 20
149.7753539664624
  0
LWPOLYLINE
  5
3E1E
330
3E4E
100
AcDbEntity
  8
Layer 1
 62
     7
370
    20
100
AcDbPolyline
 90
        2
 70
     0
 43
0.0
 10
148.0819172806878
 20
150.1985839468253
 10
140.2927286433122
 20
150.1985839468253
  0
LWPOLYLINE
  5
3E1F
330
3E4E
100
AcDbEntity
  8
Layer 1
 62
     7
370
    20
100
AcDbPolyline
 90
        2
 70
     0
 43
0.0
 10
139.5730481964435
 20
150.7913126250626
 10
102.9124090997059
 20
152.3999999619
  0
LWPOLYLINE
  5
3E20
330
3E4E
100
AcDbEntity
  8
Layer 1
 62
     7
370
    20
100
AcDbPolyline
 90
        2
 70
     0
 43
0.0
 10
141.689714862581
 20
149.6060275233624
 10
141.689714862581
 20
149.7753539664624
  0
LWPOLYLINE
  5
3E21
330
3E4E
100
AcDbEntity
  8
Layer 1
 62
     7
370
    20
100
AcDbPolyline
 90
        3
 70
     0
 43
0.0
 10
91.39769420458113
 20
183.0492919464252
 10
91.39769420458113
 20
183.2186183895252
 10
94.27641599205593
 20
183.2186183895252
  0
LWPOLYLINE
  5
3E22
330
3E4E
100
AcDbEntity
  8
Layer 1
 62
     7
370
    20
100
AcDbPolyline
 90
        2
 70
     0
 43
0.0
 10
148.0819172806878
 20
150.7913126250626
 10
139.5730481964435
 20
150.7913126250626
  0
LWPOLYLINE
  5
3E23
330
3E4E
100
AcDbEntity
  8
Layer 1
 62
     7
370
    20
100
AcDbPolyline
 90
        2
 70
     0
 43
0.0
 10
201.8453884043998
 20
183.2186183895252
 10
148.0819172806878
 20
183.2186183895252
  0
LWPOLYLINE
  5
3E24
330
3E4E
100
AcDbEntity
  8
Layer 1
 62
     7
370
    20
100
AcDbPolyline
 90
        3
 70
     0
 43
0.0
 10
201.8453884043998
 20
183.0492919464252
 10
201.379611494794
 20
182.879965503325
 10
201.1680826319997
 20
182.4143608484936
  0
LWPOLYLINE
  5
3E25
330
3E4E
100
AcDbEntity
  8
Layer 1
 62
     7
370
    20
100
AcDbPolyline
 90
        3
 70
     0
 43
0.0
 10
201.8453884043998
 20
183.2186183895252
 10
201.2528319809368
 20
182.9647148522623
 10
200.9985839341254
 20
182.4143608484936
  0
LWPOLYLINE
  5
3E26
330
3E4E
100
AcDbEntity
  8
Layer 1
 62
     7
370
    20
100
AcDbPolyline
 90
        2
 70
     0
 43
0.0
 10
201.8453884043998
 20
183.0492919464252
 10
204.7241101918745
 20
183.0492919464252
  0
LWPOLYLINE
  5
3E27
330
3E4E
100
AcDbEntity
  8
Layer 1
 62
     7
370
    20
100
AcDbPolyline
 90
        2
 70
     0
 43
0.0
 10
201.1680826319997
 20
182.4143608484936
 10
200.1521239733995
 20
159.1310275209811
  0
LWPOLYLINE
  5
3E28
330
3E4E
100
AcDbEntity
  8
Layer 1
 62
     7
370
    20
100
AcDbPolyline
 90
        2
 70
     0
 43
0.0
 10
201.0409586085939
 20
183.2186183895252
 10
199.9826252755252
 20
159.1734021954497
  0
LWPOLYLINE
  5
3E29
330
3E4E
100
AcDbEntity
  8
Layer 1
 62
     7
370
    20
100
AcDbPolyline
 90
        4
 70
     0
 43
0.0
 10
156.633333294175
 20
150.6219861819625
 10
155.9560275217749
 20
150.0716321781939
 10
154.4742919535689
 20
149.6060275233624
 10
148.0819172806878
 20
149.6060275233624
  0
LWPOLYLINE
  5
3E2A
330
3E4E
100
AcDbEntity
  8
Layer 1
 62
     7
370
    20
100
AcDbPolyline
 90
        2
 70
     0
 43
0.0
 10
156.633333294175
 20
150.6219861819625
 10
193.251597716444
 20
152.2306735188
  0
LWPOLYLINE
  5
3E2B
330
3E4E
100
AcDbEntity
  8
Layer 1
 62
     7
370
    20
100
AcDbPolyline
 90
        3
 70
     0
 43
0.0
 10
156.5485839452378
 20
150.7913126250626
 10
155.8712781728377
 20
150.1985839468253
 10
154.4742919535689
 20
149.7753539664624
  0
LWPOLYLINE
  5
3E2C
330
3E4E
100
AcDbEntity
  8
Layer 1
 62
     7
370
    20
100
AcDbPolyline
 90
        2
 70
     0
 43
0.0
 10
148.0819172806878
 20
149.7753539664624
 10
154.4742919535689
 20
149.7753539664624
  0
LWPOLYLINE
  5
3E2D
330
3E4E
100
AcDbEntity
  8
Layer 1
 62
     7
370
    20
100
AcDbPolyline
 90
        2
 70
     0
 43
0.0
 10
148.0819172806878
 20
150.1985839468253
 10
155.8712781728377
 20
150.1985839468253
  0
LWPOLYLINE
  5
3E2E
330
3E4E
100
AcDbEntity
  8
Layer 1
 62
     7
370
    20
100
AcDbPolyline
 90
        2
 70
     0
 43
0.0
 10
156.5485839452378
 20
150.7913126250626
 10
193.2092230419755
 20
152.3999999619
  0
LWPOLYLINE
  5
3E2F
330
3E4E
100
AcDbEntity
  8
Layer 1
 62
     7
370
    20
100
AcDbPolyline
 90
        2
 70
     0
 43
0.0
 10
154.4742919535689
 20
149.6060275233624
 10
154.4742919535689
 20
149.7753539664624
  0
LWPOLYLINE
  5
3E30
330
3E4E
100
AcDbEntity
  8
Layer 1
 62
     7
370
    20
100
AcDbPolyline
 90
        2
 70
     0
 43
0.0
 10
201.8453884043998
 20
183.2186183895252
 10
204.7241101918745
 20
183.2186183895252
  0
LWPOLYLINE
  5
3E31
330
3E4E
100
AcDbEntity
  8
Layer 1
 62
     7
370
    13
100
AcDbPolyline
 90
        2
 70
     0
 43
0.0
 10
88.01099308780628
 20
181.2289034920192
 10
88.01099308780628
 20
152.7810275225686
  0
LWPOLYLINE
  5
3E32
330
3E4E
100
AcDbEntity
  8
Layer 1
 62
     7
370
    13
100
AcDbPolyline
 90
        2
 70
     0
 43
0.0
 10
139.5730481964435
 20
150.7913126250626
 10
87.1643608723061
 20
150.7913126250626
  0
LWPOLYLINE
  5
3E33
330
3E4E
100
AcDbEntity
  8
Layer 1
 62
     7
370
    13
100
AcDbPolyline
 90
        2
 70
     0
 43
0.0
 10
91.39769420458113
 20
183.2186183895252
 10
87.1643608723061
 20
183.2186183895252
  0
LWPOLYLINE
  5
3E34
330
3E4E
100
AcDbEntity
  8
Layer 1
 62
     7
370
     0
100
AcDbPolyline
 90
        4
 70
     0
 43
0.0
 10
87.6723402016062
 20
181.2289034920192
 10
88.30727129953777
 20
181.2289034920192
 10
88.01099308780628
 20
183.2186183895252
 10
87.6723402016062
 20
181.2289034920192
  0
HATCH
  5
3E35
330
3E4E
100
AcDbEntity
  8
Layer 1
 62
     7
370
    -1
100
AcDbHatch
 10
0.0
 20
0.0
 30
0.0
210
0.0
220
0.0
230
1.0
  2
SOLID
 70
     1
 71
     0
 91
        1
 92
        1
 93
        3
 72
     1
 10
87.6723402016062
 20
181.2289034920192
 11
88.30727129953777
 21
181.2289034920192
 72
     1
 10
88.30727129953777
 20
181.2289034920192
 11
88.01099308780628
 21
183.2186183895252
 72
     1
 10
88.01099308780628
 20
183.2186183895252
 11
87.6723402016062
 21
181.2289034920192
 97
        0
 75
     0
 76
     1
 98
        0
  0
LWPOLYLINE
  5
3E36
330
3E4E
100
AcDbEntity
  8
Layer 1
 62
     7
370
     0
100
AcDbPolyline
 90
        4
 70
     0
 43
0.0
 10
87.6723402016062
 20
152.7810275225686
 10
88.30727129953777
 20
152.7810275225686
 10
88.01099308780628
 20
150.7913126250626
 10
87.6723402016062
 20
152.7810275225686
  0
HATCH
  5
3E37
330
3E4E
100
AcDbEntity
  8
Layer 1
 62
     7
370
    -1
100
AcDbHatch
 10
0.0
 20
0.0
 30
0.0
210
0.0
220
0.0
230
1.0
  2
SOLID
 70
     1
 71
     0
 91
        1
 92
        1
 93
        3
 72
     1
 10
87.6723402016062
 20
152.7810275225686
 11
88.30727129953777
 21
152.7810275225686
 72
     1
 10
88.30727129953777
 20
152.7810275225686
 11
88.01099308780628
 21
150.7913126250626
 72
     1
 10
88.01099308780628
 20
150.7913126250626
 11
87.6723402016062
 21
152.7810275225686
 97
        0
 75
     0
 76
     1
 98
        0
  0
LWPOLYLINE
  5
3E38
330
3E4E
100
AcDbEntity
  8
Layer 1
 62
     7
370
    13
100
AcDbPolyline
 90
       10
 70
     0
 43
0.0
 10
87.79929197023768
 20
169.3757079654686
 10
87.79929197023768
 20
169.8413126203001
 10
86.82570798610607
 20
170.7726941847374
 10
85.42872176683728
 20
170.7726941847374
 10
84.96294485723146
 20
170.3069172751316
 10
84.96294485723146
 20
169.3757079654686
 10
85.42872176683728
 20
168.9099310558628
 10
85.89432642166878
 20
168.9099310558628
 10
86.3599310765003
 20
169.3757079654686
 10
86.3599310765003
 20
170.7726941847374
  0
LWPOLYLINE
  5
3E39
330
3E4E
100
AcDbEntity
  8
Layer 1
 62
     7
370
    13
100
AcDbPolyline
 90
       10
 70
     0
 43
0.0
 10
85.42872176683728
 20
166.0735839428566
 10
84.96294485723146
 20
166.5393608524624
 10
84.96294485723146
 20
167.4707424168996
 10
85.42872176683728
 20
167.9363470717311
 10
85.89432642166878
 20
167.9363470717311
 10
86.3599310765003
 20
167.4707424168996
 10
86.3599310765003
 20
166.5393608524624
 10
86.82570798610607
 20
166.0735839428566
 10
87.79929197023768
 20
166.0735839428566
 10
87.79929197023768
 20
167.9363470717311
  0
LWPOLYLINE
  5
3E3A
330
3E4E
100
AcDbEntity
  8
Layer 1
 62
     7
370
    13
100
AcDbPolyline
 90
       10
 70
     0
 43
0.0
 10
85.42872176683728
 20
163.2374090846247
 10
84.96294485723146
 20
163.7030137394562
 10
84.96294485723146
 20
164.6343953038934
 10
85.42872176683728
 20
165.099999958725
 10
85.89432642166878
 20
165.099999958725
 10
86.3599310765003
 20
164.6343953038934
 10
86.3599310765003
 20
163.7030137394562
 10
86.82570798610607
 20
163.2374090846247
 10
87.79929197023768
 20
163.2374090846247
 10
87.79929197023768
 20
165.099999958725
  0
LWPOLYLINE
  5
3E3B
330
3E4E
100
AcDbEntity
  8
Layer 1
 62
     7
370
    20
100
AcDbPolyline
 90
        2
 70
     0
 43
0.0
 10
200.9985839341254
 20
182.4143608484936
 10
201.0409586085939
 20
183.2186183895252
  0
SPLINE
  5
3E3C
330
3E4E
100
AcDbEntity
  8
Layer 1
 62
     7
370
    13
100
AcDbSpline
210
0.0
220
0.0
230
1.0
 70
    27
 71
     3
 72
    11
 73
     7
 74
     0
 42
0.0000000001
 43
0.0000000001
 40
0.0
 40
0.0
 40
0.0
 40
0.0
 40
1.0
 40
1.0
 40
1.0
 40
2.0
 40
2.0
 40
2.0
 40
2.0
 10
156.5909586197064
 20
150.7913126250626
 30
0.0
 10
156.5909586197064
 20
150.7913126250626
 30
0.0
 10
156.5485839452378
 20
150.7913126250626
 30
0.0
 10
156.5485839452378
 20
150.7913126250626
 30
0.0
 10
156.5485839452378
 20
150.7913126250626
 30
0.0
 10
156.5909586197064
 20
150.7913126250626
 30
0.0
 10
156.5909586197064
 20
150.7913126250626
 30
0.0
  0
LWPOLYLINE
  5
3E3D
330
3E4E
100
AcDbEntity
  8
Layer 1
 62
     7
370
    13
100
AcDbPolyline
 90
        2
 70
     0
 43
0.0
 10
148.1242919551564
 20
150.7913126250626
 10
148.0819172806878
 20
150.7913126250626
  0
LWPOLYLINE
  5
3E3E
330
3E4E
100
AcDbEntity
  8
Layer 1
 62
     7
370
    13
100
AcDbPolyline
 90
        2
 70
     0
 43
0.0
 10
193.1248182025868
 20
152.3999999619
 10
193.0824435281183
 20
152.3999999619
  0
LWPOLYLINE
  5
3E3F
330
3E4E
100
AcDbEntity
  8
Layer 1
 62
     7
370
    13
100
AcDbPolyline
 90
        2
 70
     0
 43
0.0
 10
201.1680826319997
 20
182.4143608484936
 10
201.1680826319997
 20
181.3136528409563
  0
LWPOLYLINE
  5
3E40
330
3E4E
100
AcDbEntity
  8
Layer 1
 62
     7
370
    20
100
AcDbPolyline
 90
        9
 70
     0
 43
0.0
 10
193.2092230419755
 20
152.3999999619
 10
194.5218044218556
 20
152.569326405
 10
195.7492919432502
 20
152.9927286401372
 10
196.8923746252561
 20
153.6276597380688
 10
197.9083332838562
 20
154.4742919535689
 10
198.7551377541306
 20
155.4480481924748
 10
199.3900688520622
 20
156.5909586197064
 10
199.8134710871994
 20
157.8609930703438
 10
199.9826252755252
 20
159.1734021954497
  0
LWPOLYLINE
  5
3E41
330
3E4E
100
AcDbEntity
  8
Layer 1
 62
     7
370
    20
100
AcDbPolyline
 90
        9
 70
     0
 43
0.0
 10
193.251597716444
 20
152.2306735188
 10
194.5638345867757
 20
152.3999999619
 10
195.8340412921873
 20
152.8234021970372
 10
197.0194986486618
 20
153.4583332949686
 10
198.0354573072619
 20
154.3473401849374
 10
198.8819172679878
 20
155.3632988435376
 10
199.559223040388
 20
156.5063815255435
 10
199.9826252755252
 20
157.7764159761809
 10
200.1521239733995
 20
159.1310275209811
  0
LWPOLYLINE
  5
3E42
330
3E4E
100
AcDbEntity
  8
Layer 1
 62
     7
370
    20
100
AcDbPolyline
 90
        9
 70
     0
 43
0.0
 10
95.96968042305618
 20
159.1310275209811
 10
96.18138154062478
 20
157.7764159761809
 10
96.56240910129343
 20
156.5063815255435
 10
97.23971487369354
 20
155.3632988435376
 10
98.0863470891937
 20
154.3473401849374
 10
99.10230574779388
 20
153.4583332949686
 10
100.2875908494941
 20
152.8234021970372
 10
101.5576253001314
 20
152.3999999619
 10
102.8700344252373
 20
152.2306735188
  0
LWPOLYLINE
  5
3E43
330
3E4E
100
AcDbEntity
  8
Layer 1
 62
     7
370
    20
100
AcDbPolyline
 90
        9
 70
     0
 43
0.0
 10
96.13900686615622
 20
159.1734021954497
 10
96.30833330925623
 20
157.8609930703438
 10
96.73173554439344
 20
156.5909586197064
 10
97.36666664232501
 20
155.4480481924748
 10
98.21329885782517
 20
154.4742919535689
 10
99.22925751642535
 20
153.6276597380688
 10
100.3723401984312
 20
152.9927286401372
 10
101.5999999746
 20
152.569326405
 10
102.9124090997059
 20
152.3999999619
  0
LWPOLYLINE
  5
3E44
330
3E4E
100
AcDbEntity
  8
Layer 1
 62
     7
370
    13
100
AcDbPolyline
 90
        9
 70
     0
 43
0.0
 10
108.7966321885126
 20
81.8303195324938
 10
109.0083333060812
 20
82.25372176763102
 10
108.8390068629812
 20
82.88865286556258
 10
107.1879448516752
 20
83.8198621752256
 10
106.5530137537437
 20
83.65070798689982
 10
106.3413126361751
 20
83.22730575176263
 10
106.5106390792751
 20
82.59237465383106
 10
108.1193264161125
 20
81.66116534416804
 10
108.7966321885126
 20
81.8303195324938
  0
LWPOLYLINE
  5
3E45
330
3E4E
100
AcDbEntity
  8
Layer 1
 62
     7
370
    13
100
AcDbPolyline
 90
        9
 70
     0
 43
0.0
 10
107.6113470868124
 20
79.79840221529346
 10
107.823048204381
 20
80.17942977596209
 10
107.653721761281
 20
80.85673554836221
 10
106.0450344244436
 20
81.78794485802526
 10
105.3677286520435
 20
81.6187906696995
 10
105.1560275344749
 20
81.19538843456226
 10
105.3253539775749
 20
80.56045733663072
 10
106.9764159888809
 20
79.62890351741916
 10
107.6113470868124
 20
79.79840221529346
  0
LWPOLYLINE
  5
3E46
330
3E4E
100
AcDbEntity
  8
Layer 1
 62
     7
370
    13
100
AcDbPolyline
 90
        3
 70
     0
 43
0.0
 10
106.6799655223751
 20
78.1471679492132
 10
104.2246459700376
 20
79.54449867803055
 10
104.3939724131376
 20
78.90922307055048
  0
LWPOLYLINE
  5
3E47
330
3E4E
100
AcDbEntity
  8
Layer 1
 62
     7
370
    13
100
AcDbPolyline
 90
        2
 70
     0
 43
0.0
 10
106.4260619851122
 20
77.72411022362454
 10
106.8916666399437
 20
78.57057018435043
  0
LWPOLYLINE
  5
3E48
330
3E4E
100
AcDbEntity
  8
Layer 1
 62
     7
370
    13
100
AcDbPolyline
 90
        2
 70
     0
 43
0.0
 10
104.012944852469
 20
76.41152884374434
 10
105.9602850755064
 20
76.91968042781869
  0
LWPOLYLINE
  5
3E49
330
3E4E
100
AcDbEntity
  8
Layer 1
 62
     7
370
    13
100
AcDbPolyline
 90
        7
 70
     0
 43
0.0
 10
105.0290757658434
 20
75.26879067128698
 10
102.5735839587316
 20
76.70815156502435
 10
103.251061985906
 20
77.93563908641887
 10
103.9283677583061
 20
78.10513778429315
 10
104.3093953189747
 20
77.85088973748172
 10
104.4787217620747
 20
77.2159586395502
 10
103.8014159896746
 20
75.98847111815564
  0
LWPOLYLINE
  5
3E4A
330
3E4E
100
AcDbEntity
  8
Layer 1
 62
     7
370
    13
100
AcDbPolyline
 90
        2
 70
     0
 43
0.0
 10
109.5586873098499
 20
82.7194986772368
 10
103.420388429006
 20
72.09379067208073
  0
LWPOLYLINE
  5
3E4B
330
3E4E
100
AcDbEntity
  8
Layer 1
 62
     7
370
     0
100
AcDbPolyline
 90
        4
 70
     0
 43
0.0
 10
103.1239379625002
 20
72.26294486040646
 10
103.7166666407375
 20
71.966666648675
 10
102.4466321901001
 20
70.4001817315319
 10
103.1239379625002
 20
72.26294486040646
  0
HATCH
  5
3E4C
330
3E4E
100
AcDbEntity
  8
Layer 1
 62
     7
370
    -1
100
AcDbHatch
 10
0.0
 20
0.0
 30
0.0
210
0.0
220
0.0
230
1.0
  2
SOLID
 70
     1
 71
     0
 91
        1
 92
        1
 93
        3
 72
     1
 10
103.1239379625002
 20
72.26294486040646
 11
103.7166666407375
 21
71.966666648675
 72
     1
 10
103.7166666407375
 20
71.966666648675
 11
102.4466321901001
 21
70.4001817315319
 72
     1
 10
102.4466321901001
 20
70.4001817315319
 11
103.1239379625002
 21
72.26294486040646
 97
        0
 75
     0
 76
     1
 98
        0
  0
ENDBLK
  5
3E50
330
3E4E
100
AcDbEntity
  8
0
370
    -1
100
AcDbBlockEnd
  0
ENDSEC
  0
SECTION
  2
ENTITIES
  0
LWPOLYLINE
  5
3AA4
330
1F
100
AcDbEntity
  8
虚线
 48
2.0
370
    -1
100
AcDbPolyline
 90
        2
 70
     0
 43
0.0
 10
1902.631439447031
 20
646.7167161250024
 42
0.0174410691707787
 10
1902.631439468326
 20
437.4875316882847
 42
57.33593452375218
  0
LWPOLYLINE
  5
3AA5
330
1F
100
AcDbEntity
  8
虚线
 48
2.0
370
    -1
100
AcDbPolyline
 90
        5
 70
     0
 43
0.0
 10
2646.982258608531
 20
437.4875270972586
 42
0.0174410690204343
 10
2646.982259013107
 20
646.7167097314839
 42
0.3926027760537946
 10
2550.988531285676
 20
743.1516935861775
 42
0.019734946151575
 10
1998.625166951376
 20
743.1516935861766
 42
0.3926027760537998
 10
1902.631439223943
 20
646.7167097314839
 42
2.547103741984153
  0
LWPOLYLINE
  5
3AA6
330
1F
100
AcDbEntity
  8
虚线
 48
2.0
370
    -1
100
AcDbPolyline
 90
        4
 70
     0
 43
0.0
 10
1902.631439223943
 20
437.4875386921101
 42
0.3926027760538
 10
1998.625166951376
 20
341.0525548374164
 42
0.019734946151575
 10
2550.988531285676
 20
341.0525548374173
 42
0.3926027760537974
 10
2646.982259013107
 20
437.4875386921092
 42
2.547103741984168
  0
LWPOLYLINE
  5
3AA7
330
1F
100
AcDbEntity
  8
虚线
 48
2.0
370
    -1
100
AcDbPolyline
 90
        4
 70
     0
 43
0.0
 10
1902.631439223943
 20
437.4875386921101
 42
0.3926027760538
 10
1998.625166951376
 20
341.0525548374164
 42
0.019734946151575
 10
2550.988531285676
 20
341.0525548374173
 42
0.3926027760537974
 10
2646.982259013107
 20
437.4875386921092
 42
2.547103741984168
  0
LWPOLYLINE
  5
3AA8
330
1F
100
AcDbEntity
  8
虚线
 48
2.0
370
    -1
100
AcDbPolyline
 90
        4
 70
     0
 43
0.0
 10
1902.631439223943
 20
437.4875386921101
 42
0.3926027760538
 10
1998.625166951376
 20
341.0525548374164
 42
0.019734946151575
 10
2550.988531285676
 20
341.0525548374173
 42
0.3926027760537974
 10
2646.982259013107
 20
437.4875386921092
 42
2.547103741984168
  0
LWPOLYLINE
  5
3AA9
330
1F
100
AcDbEntity
  8
0
370
    -1
100
AcDbPolyline
 90
        5
 70
     0
 43
0.0
 10
2653.328396558617
 20
437.2660928666999
 42
0.0174410690204343
 10
2653.32839696405
 20
646.9381439375004
 42
0.3926028262854852
 10
2551.239049025588
 20
749.4967499974571
 42
0.0197349454906757
 10
1998.374630711124
 20
749.4967492669664
 42
0.3926027760537998
 10
1896.285301273
 20
646.9381439375004
  0
LWPOLYLINE
  5
3AAA
330
1F
100
AcDbEntity
  8
0
370
    -1
100
AcDbPolyline
 90
        4
 70
     0
 43
0.0
 10
1896.285301273
 20
437.2661044860936
 42
0.3926027760538
 10
1998.374630711124
 20
334.7074991566267
 42
0.019734946151575
 10
2551.239067525928
 20
334.7074991566276
 42
0.3926027760537974
 10
2653.328396964052
 20
437.2661044860927
  0
LWPOLYLINE
  5
3AAB
330
1F
100
AcDbEntity
  8
0
370
    -1
100
AcDbPolyline
 90
        2
 70
     0
 43
0.0
 10
1896.285301496559
 20
646.9381503445518
 42
0.0174410691707787
 10
1896.2853015179
 20
437.2660974674434
  0
LWPOLYLINE
  5
3AAC
330
1F
100
AcDbEntity
  8
虚线
 48
2.0
370
    -1
100
AcDbPolyline
 90
        2
 70
     0
 43
0.0
 10
1908.977577397503
 20
646.4952819054531
 42
0.0174410691707787
 10
1908.977577418752
 20
437.7089659091259
  0
LWPOLYLINE
  5
3AAD
330
1F
100
AcDbEntity
  8
虚线
 48
2.0
370
    -1
100
AcDbPolyline
 90
        4
 70
     0
 43
0.0
 10
1908.977577174887
 20
437.7089728981271
 42
0.3926027760538
 10
1998.875703191628
 20
347.3976105182062
 42
0.019734946151575
 10
2550.737995045424
 20
347.3976105182071
 42
0.3926027760537974
 10
2640.636121062164
 20
437.7089728981261
  0
LWPOLYLINE
  5
3AAE
330
1F
100
AcDbEntity
  8
虚线
 48
2.0
370
    -1
100
AcDbPolyline
 90
        5
 70
     0
 43
0.0
 10
2640.636120658443
 20
437.7089613278179
 42
0.0174410690204343
 10
2640.636121062163
 20
646.4952755254674
 42
0.3926028265799479
 10
2550.737978658842
 20
736.8066385524155
 42
0.0197349455651237
 10
1998.875703191628
 20
736.8066379053869
 42
0.3926027760537998
 10
1908.977577174887
 20
646.4952755254674
  0
DIMENSION
  5
3AAF
330
1F
100
AcDbEntity
  8
标注
370
    -1
100
AcDbDimension
  2
*D9
 10
1900.806849118525
 20
814.4746915427629
 30
0.0
 11
2274.806849118525
 21
814.4746915427629
 31
0.0
 70
   160
  1
{\fArial|b0|i0|c0|p34;<>}
 71
     5
 42
748.0
  3
英寸
100
AcDbAlignedDimension
 13
2648.806849118525
 23
752.4746915427629
 33
0.0
 14
1900.806849118525
 24
761.9746915427629
 34
0.0
100
AcDbRotatedDimension
1001
ACAD
1000
DSTYLE
1002
{
1070
    41
1040
8.0
1002
}
  0
DIMENSION
  5
3ABC
330
1F
100
AcDbEntity
  8
标注
370
    -1
100
AcDbDimension
  2
*D10
 10
1831.04307868329
 20
335.6021242117965
 30
0.0
 11
1831.04307868329
 21
542.102124211797
 31
0.0
 70
   160
  1
{\fArial|b0|i0|c0|p34;<>}
 71
     5
 42
413.000000000001
  3
英寸
100
AcDbAlignedDimension
 13
1901.04307868329
 23
748.6021242117974
 33
0.0
 14
1892.54307868329
 24
335.6021242117965
 34
0.0
 50
90.0
100
AcDbRotatedDimension
1001
ACAD
1000
DSTYLE
1002
{
1070
    41
1040
8.0
1002
}
  0
HATCH
  5
3AC9
330
1F
100
AcDbEntity
  8
剖切线
370
    -1
100
AcDbHatch
 10
0.0
 20
0.0
 30
0.0
210
0.0
220
0.0
230
1.0
  2
ANSI37
 70
     0
 71
     0
 91
        2
 92
        7
 72
     0
 73
     1
 93
        6
 10
2450.066923257294
 20
643.3175774733852
 10
2447.82052325729
 20
643.3175774733852
 10
2447.82052325729
 20
619.5844251344995
 10
2446.092523257287
 20
619.5844251344995
 10
2446.092523257287
 20
617.8564251344967
 10
2450.066923257294
 20
617.8564251344967
 97
        0
 92
        7
 72
     0
 73
     1
 93
        6
 10
2463.372523257286
 20
643.3175774733852
 10
2461.126123257297
 20
643.3175774733852
 10
2461.126123257297
 20
617.8564251344967
 10
2465.100523257289
 20
617.8564251344967
 10
2465.100523257289
 20
619.5844251344995
 10
2463.372523257286
 20
619.5844251344995
 97
        0
 75
     0
 76
     1
 52
0.0
 41
0.3456000000000001
 77
     0
 78
     2
 53
45.0
 43
4614.425707345824
 44
-4013.318649338934
 45
-0.7758941288593633
 46
0.7758941288630012
 79
     0
 53
135.0
 43
4614.425707345824
 44
-4013.318649338934
 45
-0.7758941288593633
 46
-0.7758941288630012
 79
     0
 47
0.0875911827022285
 98
        2
 10
2449.374775378509
 20
635.1210210677552
 10
2462.249883848092
 20
636.1805233739167
  0
HATCH
  5
3ACA
330
1F
100
AcDbEntity
  8
剖切线
370
    -1
100
AcDbHatch
 10
0.0
 20
0.0
 30
0.0
210
0.0
220
0.0
230
1.0
  2
ANSI31
 70
     0
 71
     1
 91
        1
 92
        5
 93
        8
 72
     1
 10
2447.82052325729
 20
619.5844251344851
 11
2447.82052325729
 21
643.3175774733561
 72
     1
 10
2447.82052325729
 20
643.3175774733561
 11
2463.372523257293
 21
643.3175774733561
 72
     1
 10
2463.372523257293
 20
643.3175774733561
 11
2463.372523257293
 21
619.5844251344848
 72
     1
 10
2463.372523257293
 20
619.5844251344848
 11
2507.166993073882
 21
619.584425134485
 72
     1
 10
2507.166993073882
 20
619.584425134485
 11
2507.166993073882
 21
662.7844251344821
 72
     1
 10
2507.166993073882
 20
662.7844251344821
 11
2380.456228165221
 21
662.784425134482
 72
     4
 94
        3
 73
     0
 74
     0
 95
       11
 96
        7
 40
0.0
 40
0.0
 40
0.0
 40
0.0
 40
12.691413305157
 40
25.64182523175281
 40
37.49872691533471
 40
45.67079371780218
 40
45.67079371780218
 40
45.67079371780218
 40
45.67079371780218
 10
2380.456228165221
 20
662.784425134482
 10
2382.992194677151
 20
658.8686085584698
 10
2388.115880158742
 20
650.9570638102653
 10
2378.192931214368
 20
639.1161417248093
 10
2385.943073019956
 20
628.0224280608347
 10
2382.046200385351
 20
622.0295808845515
 10
2380.456228165221
 20
619.584425134485
 72
     1
 10
2380.456228165221
 20
619.5844251344851
 11
2447.82052325729
 21
619.5844251344851
 97
        8
330
3AE6
330
3ADC
330
3ACD
330
3AD0
330
3ACF
330
3AFC
330
3ACB
330
3AE8
 75
     0
 76
     1
 52
0.0
 41
1.44
 77
     0
 78
     1
 53
45.0
 43
-12026.87361605519
 44
32859.75153368874
 45
-3.232892203584925
 46
3.232892203581287
 79
     0
 47
0.514725256801631
 98
        1
 10
2408.825811834943
 20
632.7735427888572
  0
LINE
  5
3ACB
102
{ACAD_REACTORS
330
3ACA
102
}
330
1F
100
AcDbEntity
  8
粗实线
370
    -1
100
AcDbLine
 10
2380.456228165221
 20
619.584425134485
 30
0.0
 11
2447.82052325729
 21
619.584425134485
 31
0.0
  0
HATCH
  5
3ACC
330
1F
100
AcDbEntity
  8
剖切线
370
    -1
100
AcDbHatch
 10
0.0
 20
0.0
 30
0.0
210
0.0
220
0.0
230
1.0
  2
ANSI31
 70
     0
 71
     0
 91
        1
 92
        7
 72
     1
 73
     1
 93
        9
 10
2489.596278250795
 20
619.584425134485
 42
0.0
 10
2487.067844099972
 20
619.584425134485
 42
0.0
 10
2487.067844099975
 20
617.9872251344884
 42
0.0
 10
2511.962219539527
 20
617.9844251344864
 42
-0.4014906669060267
 10
2515.358983492903
 20
614.7327310515273
 42
0.0
 10
2517.619373143821
 20
563.0254880786258
 42
0.0
 10
2519.206668603371
 20
563.287190378777
 42
0.0
 10
2516.957460647437
 20
614.8025220713123
 42
0.4014906669060267
 10
2511.962219539527
 20
619.584425134485
 42
0.0
 97
        0
 75
     0
 76
     1
 52
90.0
 41
1.0
 77
     0
 78
     1
 53
135.0
 43
-18718.78561092486
 44
34027.1648554431
 45
-2.245064030266803
 46
-2.245064030270441
 79
     0
 47
0.1745883849316779
 98
        1
 10
2503.673985879835
 20
619.1820865997531
  0
LINE
  5
3ACD
102
{ACAD_REACTORS
330
3ACA
102
}
330
1F
100
AcDbEntity
  8
粗实线
370
    -1
100
AcDbLine
 10
2463.372523257293
 20
619.584425134485
 30
0.0
 11
2507.166993073882
 21
619.584425134485
 31
0.0
  0
LINE
  5
3ACE
330
1F
100
AcDbEntity
  8
粗实线
370
    -1
100
AcDbLine
 10
2461.126123257297
 20
617.8564251344822
 30
0.0
 11
2465.100523257289
 21
617.8564251344822
 31
0.0
  0
LINE
  5
3ACF
102
{ACAD_REACTORS
330
3ACA
102
}
330
1F
100
AcDbEntity
  8
粗实线
370
    -1
100
AcDbLine
 10
2380.456228165221
 20
662.784425134482
 30
0.0
 11
2507.166993073882
 21
662.784425134482
 31
0.0
  0
LINE
  5
3AD0
102
{ACAD_REACTORS
330
3ACA
102
}
330
1F
100
AcDbEntity
  8
粗实线
370
    -1
100
AcDbLine
 10
2507.166993073882
 20
662.784425134482
 30
0.0
 11
2507.166993073882
 21
619.584425134485
 31
0.0
  0
HATCH
  5
3AD1
330
1F
100
AcDbEntity
  8
剖切线
370
    -1
100
AcDbHatch
 10
0.0
 20
0.0
 30
0.0
210
0.0
220
0.0
230
1.0
  2
ANSI31
 70
     0
 71
     0
 91
        2
 92
        7
 72
     0
 73
     1
 93
        6
 10
2446.049323257294
 20
604.7622303524283
 10
2446.049323257287
 20
597.8502303524463
 10
2448.252523257291
 20
597.8502303524463
 10
2448.252523257291
 20
599.9238303524496
 10
2455.596523257295
 20
599.9238303524496
 10
2455.596523257295
 20
604.7622303524283
 97
        0
 92
        7
 72
     0
 73
     1
 93
        6
 10
2455.596523257295
 20
604.7622303524283
 10
2455.596523257295
 20
599.9238303524496
 10
2462.940523257285
 20
599.9238303524496
 10
2462.940523257285
 20
597.8502303524463
 10
2465.143723257289
 20
597.8502303524463
 10
2465.143723257289
 20
604.7622303524283
 97
        0
 75
     0
 76
     1
 52
90.0
 41
0.8640000000000001
 77
     0
 78
     1
 53
135.0
 43
6664.059838901488
 44
3552.569941247394
 45
-1.939735322150227
 46
-1.939735322150227
 79
     0
 47
0.1137768334985027
 98
        2
 10
2448.989120404086
 20
604.4864354714834
 10
2458.62283373254
 20
603.5026631104145
  0
LINE
  5
3AD2
330
1F
100
AcDbEntity
  8
粗实线
 48
0.1
370
    -1
100
AcDbLine
 10
2465.143723257289
 20
597.8502303524172
 30
0.0
 11
2446.049323257287
 21
597.8502303524172
 31
0.0
  0
LINE
  5
3AD3
330
1F
100
AcDbEntity
  8
粗实线
 48
0.1
370
    -1
100
AcDbLine
 10
2462.940523257293
 20
599.9238303524205
 30
0.0
 11
2448.252523257291
 21
599.9238303524205
 31
0.0
  0
LINE
  5
3AD4
330
1F
100
AcDbEntity
  8
粗实线
 48
0.1
370
    -1
100
AcDbLine
 10
2465.143723257289
 20
604.7622303524283
 30
0.0
 11
2446.049323257287
 21
604.7622303524283
 31
0.0
  0
LINE
  5
3AD5
330
1F
100
AcDbEntity
  8
粗实线
 48
0.1
370
    -1
100
AcDbLine
 10
2459.916523257295
 20
642.778230352417
 30
0.0
 11
2451.276523257288
 21
642.778230352417
 31
0.0
  0
LINE
  5
3AD6
330
1F
100
AcDbEntity
  8
粗实线
 48
0.1
370
    -1
100
AcDbLine
 10
2460.780523257289
 20
641.9142303524302
 30
0.0
 11
2450.412523257294
 21
641.9142303524302
 31
0.0
  0
LINE
  5
3AD7
330
1F
100
AcDbEntity
  8
中心线
 48
0.1
370
    -1
100
AcDbLine
 10
2455.596523257288
 20
645.7742625918352
 30
0.0
 11
2455.596523257288
 21
593.8856260619675
 31
0.0
  0
LINE
  5
3AD8
330
1F
100
AcDbEntity
  8
粗实线
 48
0.1
370
    -1
100
AcDbLine
 10
2450.412523257294
 20
641.9142303524302
 30
0.0
 11
2450.412523257294
 21
604.7622303524283
 31
0.0
  0
LINE
  5
3AD9
330
1F
100
AcDbEntity
  8
细实线
 48
0.1
370
    -1
100
AcDbLine
 10
2451.276523257288
 20
642.778230352417
 30
0.0
 11
2451.276523257288
 21
604.7622303524283
 31
0.0
  0
LINE
  5
3ADA
330
1F
100
AcDbEntity
  8
粗实线
 48
0.1
370
    -1
100
AcDbLine
 10
2460.780523257289
 20
641.9142303524302
 30
0.0
 11
2460.780523257289
 21
604.7622303524283
 31
0.0
  0
LINE
  5
3ADB
330
1F
100
AcDbEntity
  8
粗实线
 48
0.1
370
    -1
100
AcDbLine
 10
2461.126123257297
 20
643.3175774733561
 30
0.0
 11
2461.126123257297
 21
617.8564251344822
 31
0.0
  0
LINE
  5
3ADC
102
{ACAD_REACTORS
330
3ACA
102
}
330
1F
100
AcDbEntity
  8
粗实线
 48
0.1
370
    -1
100
AcDbLine
 10
2463.372523257293
 20
643.3175774733561
 30
0.0
 11
2463.372523257293
 21
619.584425134485
 31
0.0
  0
LINE
  5
3ADD
330
1F
100
AcDbEntity
  8
粗实线
 48
0.1
370
    -1
100
AcDbLine
 10
2465.100523257289
 20
619.584425134485
 30
0.0
 11
2465.100523257289
 21
617.8564251344822
 31
0.0
  0
LINE
  5
3ADE
330
1F
100
AcDbEntity
  8
细实线
 48
0.1
370
    -1
100
AcDbLine
 10
2459.916523257295
 20
642.778230352417
 30
0.0
 11
2459.916523257295
 21
604.7622303524283
 31
0.0
  0
LINE
  5
3ADF
330
1F
100
AcDbEntity
  8
粗实线
 48
0.1
370
    -1
100
AcDbLine
 10
2448.252523257291
 20
599.9238303524205
 30
0.0
 11
2448.252523257291
 21
597.8502303524172
 31
0.0
  0
LINE
  5
3AE0
330
1F
100
AcDbEntity
  8
粗实线
 48
0.1
370
    -1
100
AcDbLine
 10
2462.940523257293
 20
599.9238303524205
 30
0.0
 11
2462.940523257293
 21
597.8502303524172
 31
0.0
  0
LINE
  5
3AE1
330
1F
100
AcDbEntity
  8
粗实线
 48
0.1
370
    -1
100
AcDbLine
 10
2446.049323257287
 20
604.7622303524283
 30
0.0
 11
2446.049323257287
 21
597.8502303524172
 31
0.0
  0
LINE
  5
3AE2
330
1F
100
AcDbEntity
  8
粗实线
 48
0.1
370
    -1
100
AcDbLine
 10
2465.143723257289
 20
604.7622303524283
 30
0.0
 11
2465.143723257289
 21
597.8502303524172
 31
0.0
  0
LINE
  5
3AE3
330
1F
100
AcDbEntity
  8
粗实线
 48
0.1
370
    -1
100
AcDbLine
 10
2451.276523257288
 20
642.778230352417
 30
0.0
 11
2450.412523257294
 21
641.9142303524302
 31
0.0
  0
LINE
  5
3AE4
330
1F
100
AcDbEntity
  8
粗实线
 48
0.1
370
    -1
100
AcDbLine
 10
2459.916523257295
 20
642.778230352417
 30
0.0
 11
2460.780523257289
 21
641.9142303524302
 31
0.0
  0
LINE
  5
3AE5
330
1F
100
AcDbEntity
  8
粗实线
370
    -1
100
AcDbLine
 10
2450.066923257294
 20
617.8564251344822
 30
0.0
 11
2446.092523257287
 21
617.8564251344822
 31
0.0
  0
LINE
  5
3AE6
102
{ACAD_REACTORS
330
3ACA
102
}
330
1F
100
AcDbEntity
  8
粗实线
 48
0.1
370
    -1
100
AcDbLine
 10
2447.82052325729
 20
643.3175774733561
 30
0.0
 11
2463.372523257293
 21
643.3175774733561
 31
0.0
  0
LINE
  5
3AE7
330
1F
100
AcDbEntity
  8
粗实线
 48
0.1
370
    -1
100
AcDbLine
 10
2450.066923257294
 20
643.3175774733561
 30
0.0
 11
2450.066923257294
 21
617.8564251344822
 31
0.0
  0
LINE
  5
3AE8
102
{ACAD_REACTORS
330
3ACA
102
}
330
1F
100
AcDbEntity
  8
粗实线
 48
0.1
370
    -1
100
AcDbLine
 10
2447.82052325729
 20
643.3175774733561
 30
0.0
 11
2447.82052325729
 21
619.584425134485
 31
0.0
  0
LINE
  5
3AE9
330
1F
100
AcDbEntity
  8
粗实线
 48
0.1
370
    -1
100
AcDbLine
 10
2446.092523257287
 20
619.584425134485
 30
0.0
 11
2446.092523257287
 21
617.8564251344822
 31
0.0
  0
LINE
  5
3AEA
330
1F
100
AcDbEntity
  8
中心线
 48
0.1
370
    -1
100
AcDbLine
 10
2455.596523257288
 20
594.8481103890542
 30
0.0
 11
2455.596523257288
 21
628.3223609506847
 31
0.0
  0
HATCH
  5
3AEB
330
1F
100
AcDbEntity
  8
剖切线
370
    -1
100
AcDbHatch
 10
0.0
 20
0.0
 30
0.0
210
0.0
220
0.0
230
1.0
  2
ANSI31
 70
     0
 71
     0
 91
        1
 92
        7
 72
     1
 73
     1
 93
        8
 10
2423.646921249742
 20
609.6503188721279
 42
-0.3003703345698273
 10
2417.608715153484
 20
614.2940847646703
 42
0.0
 10
2415.891447968747
 20
619.2813908024716
 42
0.0
 10
2412.623735771481
 20
618.1562272606704
 42
0.0
 10
2414.34100295621
 20
613.1689212228837
 42
0.3003703345697881
 10
2423.398312100598
 20
606.2032723840555
 42
0.0070565129482686
 10
2440.05046383422
 20
605.2382860247042
 42
0.0
 10
2440.11080036958
 20
608.6949638201502
 42
-0.0070177978545288
 97
        0
 75
     0
 76
     1
 52
-0.9999999998692692
 41
0.8640000000000001
 77
     0
 78
     1
 53
43.99999999980777
 43
5331.243540875304
 44
-3820.659444970498
 45
-1.905586841843615
 46
1.973292940288957
 79
     0
 47
0.1104702278856199
 98
        1
 10
2430.072977363506
 20
608.5965679623212
  0
LINE
  5
3AEC
330
1F
100
AcDbEntity
  8
粗实线
370
    -1
100
AcDbLine
 10
2440.05046383422
 20
605.2382860246896
 30
0.0
 11
2440.110800369573
 21
608.6949638201356
 31
0.0
  0
LINE
  5
3AED
330
1F
100
AcDbEntity
  8
粗实线
370
    -1
100
AcDbLine
 10
2471.149726544364
 20
604.6954463748723
 30
0.0
 11
2471.210063079717
 21
608.1521241703183
 31
0.0
  0
ARC
  5
3AEE
330
1F
100
AcDbEntity
  8
粗实线
370
    -1
100
AcDbCircle
 10
2465.91047660397
 20
1195.648221845174
 30
0.0
 40
587.52
100
AcDbArc
 50
265.8748354479505
 51
268.4884423862466
  0
ARC
  5
3AEF
330
1F
100
AcDbEntity
  8
粗实线
370
    -1
100
AcDbCircle
 10
2465.91047660397
 20
1195.648221845174
 30
0.0
 40
587.52
100
AcDbArc
 50
269.4997133532673
 51
272.0817910569315
  0
ARC
  5
3AF0
330
1F
100
AcDbEntity
  8
粗实线
370
    -1
100
AcDbCircle
 10
2424.144139548024
 20
616.544411848258
 30
0.0
 40
6.912000000000001
100
AcDbArc
 50
198.999999999833
 51
265.8748354479515
  0
ARC
  5
3AF1
330
1F
100
AcDbEntity
  8
粗实线
370
    -1
100
AcDbCircle
 10
2424.144139548024
 20
616.544411848258
 30
0.0
 40
10.368
100
AcDbArc
 50
198.9999999997852
 51
265.8748354479503
  0
ARC
  5
3AF2
330
1F
100
AcDbEntity
  8
粗实线
370
    -1
100
AcDbCircle
 10
2465.91047660397
 20
1195.648221845174
 30
0.0
 40
590.976
100
AcDbArc
 50
265.8748354479506
 51
272.0817910569315
  0
LINE
  5
3AF3
330
1F
100
AcDbEntity
  8
粗实线
370
    -1
100
AcDbLine
 10
2415.891447968747
 20
619.281390802457
 30
0.0
 11
2417.608715153484
 21
614.2940847646557
 31
0.0
  0
LINE
  5
3AF4
330
1F
100
AcDbEntity
  8
粗实线
370
    -1
100
AcDbLine
 10
2412.623735771474
 20
618.1562272606413
 30
0.0
 11
2414.34100295621
 21
613.1689212228546
 31
0.0
  0
LINE
  5
3AF5
330
1F
100
AcDbEntity
  8
粗实线
370
    -1
100
AcDbLine
 10
2412.623735771474
 20
618.1562272606413
 30
0.0
 11
2415.891447968747
 21
619.281390802457
 31
0.0
  0
ARC
  5
3AF6
330
1F
100
AcDbEntity
  8
粗实线
370
    -1
100
AcDbCircle
 10
2487.440939228475
 20
615.4395621000901
 30
0.0
 40
6.912000000000001
100
AcDbArc
 50
272.1251645521332
 51
339.0000000002063
  0
ARC
  5
3AF7
330
1F
100
AcDbEntity
  8
粗实线
370
    -1
100
AcDbCircle
 10
2487.440939228475
 20
615.4395621000901
 30
0.0
 40
10.368
100
AcDbArc
 50
272.1251645521358
 51
339.0000000002066
  0
LINE
  5
3AF8
330
1F
100
AcDbEntity
  8
粗实线
370
    -1
100
AcDbLine
 10
2495.784122679014
 20
617.886858978093
 30
0.0
 11
2493.893847136426
 21
612.9625228328393
 31
0.0
  0
LINE
  5
3AF9
330
1F
100
AcDbEntity
  8
粗实线
370
    -1
100
AcDbLine
 10
2499.01057663299
 20
616.648339344453
 30
0.0
 11
2497.120301090402
 21
611.7240031992139
 31
0.0
  0
LINE
  5
3AFA
330
1F
100
AcDbEntity
  8
粗实线
370
    -1
100
AcDbLine
 10
2499.01057663299
 20
616.648339344453
 30
0.0
 11
2495.784122679014
 21
617.886858978093
 31
0.0
  0
HATCH
  5
3AFB
330
1F
100
AcDbEntity
  8
剖切线
370
    -1
100
AcDbHatch
 10
0.0
 20
0.0
 30
0.0
210
0.0
220
0.0
230
1.0
  2
ANSI31
 70
     0
 71
     0
 91
        1
 92
        7
 72
     1
 73
     1
 93
        8
 10
2471.210063079724
 20
608.1521241703183
 42
0.0070177978545289
 10
2487.697254259724
 20
608.5323161507574
 42
0.3003703345697906
 10
2493.893847136434
 20
612.9625228328393
 42
0.0
 10
2495.784122679014
 20
617.8868589781075
 42
0.0
 10
2499.01057663299
 20
616.6483393444676
 42
0.0
 10
2497.120301090395
 20
611.7240031992285
 42
-0.3003703345697731
 10
2487.825411775349
 20
605.0786931760983
 42
-0.0070565129482688
 10
2471.149726544364
 20
604.6954463748577
 42
0.0
 97
        0
 75
     0
 76
     1
 52
-0.9999999998692692
 41
0.8640000000000001
 77
     0
 78
     1
 53
43.99999999980777
 43
5331.243540875304
 44
-3820.659444970498
 45
-1.905586841843615
 46
1.973292940288957
 79
     0
 47
0.1104702278856199
 98
        1
 10
2481.238337349317
 20
607.7034732816853
  0
SPLINE
  5
3AFC
102
{ACAD_REACTORS
330
3ACA
102
}
330
1F
100
AcDbEntity
  8
细实线
370
    -1
100
AcDbSpline
210
0.0
220
0.0
230
1.0
 70
     8
 71
     3
 72
    11
 73
     7
 74
     5
 42
0.0000000001
 43
0.0000000001
 44
0.0000000001
 40
0.0
 40
0.0
 40
0.0
 40
0.0
 40
12.691413305157
 40
25.64182523175282
 40
37.49872691533472
 40
45.67079371780218
 40
45.67079371780218
 40
45.67079371780218
 40
45.67079371780218
 10
2380.456228165221
 20
662.784425134482
 30
0.0
 10
2382.992194677151
 20
658.8686085584698
 30
0.0
 10
2388.115880158741
 20
650.9570638102655
 30
0.0
 10
2378.192931214367
 20
639.1161417248097
 30
0.0
 10
2385.943073019957
 20
628.0224280608347
 30
0.0
 10
2382.046200385352
 20
622.0295808845515
 30
0.0
 10
2380.456228165221
 20
619.584425134485
 30
0.0
 11
2380.456228165221
 21
662.784425134482
 31
0.0
 11
2385.146705969247
 21
650.9915718049331
 31
0.0
 11
2381.281317351105
 21
638.6314771491768
 31
0.0
 11
2383.793856261264
 21
627.0438429748053
 31
0.0
 11
2380.456228165221
 21
619.584425134485
 31
0.0
  0
LINE
  5
3AFD
330
1F
100
AcDbEntity
  8
粗实线
 62
     0
370
    -1
100
AcDbLine
 10
2519.206668603375
 20
563.287190378777
 30
0.0
 11
2516.957460647437
 21
614.8025220713123
 31
0.0
  0
LINE
  5
3AFE
330
1F
100
AcDbEntity
  8
粗实线
 62
     0
370
    -1
100
AcDbLine
 10
2517.619373143821
 20
563.0254880786258
 30
0.0
 11
2515.358983492903
 21
614.7327310515273
 31
0.0
  0
LINE
  5
3AFF
330
1F
100
AcDbEntity
  8
粗实线
 62
     0
370
    -1
100
AcDbLine
 10
2489.596278250795
 20
619.584425134485
 30
0.0
 11
2511.962219539527
 21
619.584425134485
 31
0.0
  0
ARC
  5
3B00
330
1F
100
AcDbEntity
  8
粗实线
 62
     0
370
    -1
100
AcDbCircle
 10
2511.962219539527
 20
614.584425134485
 30
0.0
 40
5.0
100
AcDbArc
 50
2.500000000017975
 51
90.0
  0
ARC
  5
3B01
330
1F
100
AcDbEntity
  8
粗实线
 62
     0
370
    -1
100
AcDbCircle
 10
2511.962219539527
 20
614.584425134485
 30
0.0
 40
3.4
100
AcDbArc
 50
2.500000000017955
 51
90.0
  0
LINE
  5
3B02
330
1F
100
AcDbEntity
  8
粗实线
 62
     0
370
    -1
100
AcDbLine
 10
2487.067844099972
 20
617.9872251344957
 30
0.0
 11
2511.962219539527
 21
617.9844251344864
 31
0.0
  0
LINE
  5
3B03
330
1F
100
AcDbEntity
  8
粗实线
 62
     0
370
    -1
100
AcDbLine
 10
2511.962219539527
 20
619.584425134485
 30
0.0
 11
2534.99083715102
 21
619.584425134485
 31
0.0
  0
LINE
  5
3B04
330
1F
100
AcDbEntity
  8
粗实线
370
    -1
100
AcDbLine
 10
2487.067844099972
 20
619.584425134485
 30
0.0
 11
2487.067844099972
 21
617.9872251344957
 31
0.0
  0
LINE
  5
3B05
330
1F
100
AcDbEntity
  8
粗实线
370
    -1
100
AcDbLine
 10
2515.358983492903
 20
618.2534842298144
 30
0.0
 11
2544.272562316905
 21
644.841557834118
 31
0.0
  0
LINE
  5
3B06
330
1F
100
AcDbEntity
  8
粗实线
370
    -1
100
AcDbLine
 10
2544.272562316905
 20
644.841557834118
 30
0.0
 11
2546.419388605117
 21
644.841557834118
 31
0.0
  0
LINE
  5
3B07
330
1F
100
AcDbEntity
  8
粗实线
370
    -1
100
AcDbLine
 10
2443.811610619551
 20
662.784425134482
 30
0.0
 11
2430.337574414766
 21
678.342982143741
 31
0.0
  0
LINE
  5
3B08
330
1F
100
AcDbEntity
  8
粗实线
370
    -1
100
AcDbLine
 10
2430.337574414766
 20
678.342982143741
 30
0.0
 11
2425.846795575856
 21
678.342982143741
 31
0.0
  0
LINE
  5
3B09
330
1F
100
AcDbEntity
  8
粗实线
370
    -1
100
AcDbLine
 10
2423.398312100805
 20
606.2032723840264
 30
0.0
 11
2410.295868619603
 21
589.2494602212853
 31
0.0
  0
LINE
  5
3B0A
330
1F
100
AcDbEntity
  8
粗实线
370
    -1
100
AcDbLine
 10
2410.295868619603
 20
589.2494602212853
 30
0.0
 11
2404.21031503929
 21
589.2494602212853
 31
0.0
  0
LINE
  5
3B0B
330
1F
100
AcDbEntity
  8
粗实线
370
    -1
100
AcDbLine
 10
2446.855447436642
 20
598.6306326217334
 30
0.0
 11
2448.108882809548
 21
573.4473275011212
 31
0.0
  0
LINE
  5
3B0C
330
1F
100
AcDbEntity
  8
粗实线
370
    -1
100
AcDbLine
 10
2451.478896546333
 20
573.4473275011212
 30
0.0
 11
2448.108882809548
 21
573.4473275011212
 31
0.0
  0
MTEXT
  5
3B0D
330
1F
100
AcDbEntity
  8
粗实线
370
    -1
100
AcDbMText
 10
2549.14959214341
 20
650.3996689519361
 30
0.0
 40
8.0
 41
830.7084505341752
 71
     1
 72
     5
  1
{\fTahoma|b0|i0|c0|p34;SINK}
 73
     1
 44
1.0
  0
MTEXT
  5
3B0E
330
1F
100
AcDbEntity
  8
粗实线
370
    -1
100
AcDbMText
 10
2354.702798982026
 20
683.7540636061265
 30
0.0
 40
8.0
 41
830.7084505341752
 71
     1
 72
     5
  1
{\fTahoma|b0|i0|c0|p34;COUNTERTOP}
 73
     1
 44
1.0
  0
MTEXT
  5
3B0F
330
1F
100
AcDbEntity
  8
粗实线
370
    -1
100
AcDbMText
 10
2350.056298994982
 20
593.4632581531066
 30
0.0
 40
8.0
 41
830.7084505341752
 71
     1
 72
     5
  1
{\fTahoma|b0|i0|c0|p34;FASTENER}
 73
     1
 44
1.0
  0
MTEXT
  5
3B10
330
1F
100
AcDbEntity
  8
粗实线
370
    -1
100
AcDbMText
 10
2453.030385497011
 20
578.6779701671137
 30
0.0
 40
8.0
 41
830.7084505341752
 71
     1
 72
     5
  1
{\fTahoma|b0|i0|c0|p34;SCREWS}
 73
     1
 44
1.0
  0
MTEXT
  5
3B11
330
1F
100
AcDbEntity
  8
粗实线
370
    -1
100
AcDbMText
 10
1952.34646949575
 20
491.851512738426
 30
0.0
 40
10.0
 41
830.7084505341752
 71
     1
 72
     5
  1
\fArial|b0|i0|c0|p34;Use inside line for negative reveal mount cut:\PSink wall is covered \U+00BC\U+201D inside the edge of countertop opening.
 73
     1
 44
1.0
  0
DIMENSION
  5
3B12
330
1F
100
AcDbEntity
  8
标注
370
    -1
100
AcDbDimension
  2
*D11
 10
2648.806849118521
 20
505.9746915427629
 30
0.0
 11
2568.456849118519
 21
505.9746915427629
 31
0.0
 70
   160
  1
{\fArial|b0|i0|c0|p34;<>}
 71
     5
 42
6.350000000002183
  3
英寸
100
AcDbAlignedDimension
 13
2642.456849118519
 23
542.1021183985647
 33
0.0
 14
2648.806849118521
 24
542.1021183985574
 34
0.0
100
AcDbRotatedDimension
1001
ACAD
1000
DSTYLE
1002
{
1070
    41
1040
8.0
1002
}
  0
DIMENSION
  5
3B21
330
1F
100
AcDbEntity
  8
标注
370
    -1
100
AcDbDimension
  2
*D12
 10
2655.156849118523
 20
469.5753419123791
 30
0.0
 11
2574.806849118521
 21
469.5753419123791
 31
0.0
 70
   160
  1
{\fArial|b0|i0|c0|p34;<>}
 71
     5
 42
6.350000000002183
  3
英寸
100
AcDbAlignedDimension
 13
2648.806849118521
 23
542.1021183985574
 33
0.0
 14
2655.156849118523
 24
542.1021183985647
 34
0.0
100
AcDbRotatedDimension
1001
ACAD
1000
DSTYLE
1002
{
1070
    41
1040
8.0
1002
}
  0
MTEXT
  5
3B30
330
1F
100
AcDbEntity
  8
粗实线
370
    -1
100
AcDbMText
 10
2054.907160087069
 20
377.5199714482249
 30
0.0
 40
8.0
 41
306.8846549670925
 71
     1
 72
     5
  1
{\fTahoma|b0|i0|c0|p34;Use this line for FLUSH MOUNT CUT.}
  7
样式 8
 73
     1
 44
1.0
  0
MTEXT
  5
3B31
330
1F
100
AcDbEntity
  8
粗实线
370
    -1
100
AcDbMText
 10
1952.34646949575
 20
447.7547195102259
 30
0.0
 40
10.0
 41
830.7084505341752
 71
     1
 72
     5
  1
\fArial|b0|i0|c0|p34;Please check actual template against physical sink unit for most accurate cut.
 73
     1
 44
1.0
  0
SOLID
  5
3B32
330
1F
100
AcDbEntity
  8
粗实线
370
    -1
100
AcDbTrace
 10
2116.223728970536
 20
346.0444939318284
 30
0.0
 11
2118.22731453814
 21
337.3510046447579
 31
0.0
 12
2113.512520854062
 22
344.924764056547
 32
0.0
 13
2113.512520854062
 23
344.924764056547
 33
0.0
1001
ACAD
1000
DSTYLE
1002
{
1070
    41
1040
8.0
1070
   147
1040
3.0
1070
    77
1070
     0
1002
}
  0
LINE
  5
3B33
330
1F
100
AcDbEntity
  8
0
370
    -1
100
AcDbLine
 10
2115.173505787373
 20
344.745208598785
 30
0.0
 11
2106.646287043829
 21
365.3922103255707
 31
0.0
  0
MTEXT
  5
3B34
330
1F
100
AcDbEntity
  8
粗实线
370
    -1
100
AcDbMText
 10
1952.34646949575
 20
580.2978028809327
 30
0.0
 40
10.0
 41
830.7084505341752
 71
     1
 72
     5
  1
\fArial|b0|i0|c0|p34;Use outside line for reveal mount cut:\PSink rim is \U+00BC\U+201D revealed from the countertop opening.
 73
     1
 44
1.0
  0
MTEXT
  5
3B35
330
1F
100
AcDbEntity
  8
粗实线
370
    -1
100
AcDbMText
 10
1952.34646949575
 20
536.3683271324214
 30
0.0
 40
10.0
 41
830.7084505341752
 71
     1
 72
     5
  1
\fArial|b0|i0|c0|p34;Use middle line for flush mount cut:\PSink wall is flush to the edge of countertop opening.
 73
     1
 44
1.0
  0
LINE
  5
3B36
330
1F
100
AcDbEntity
  8
粗实线
370
    -1
100
AcDbLine
 10
2822.653269004954
 20
104.7772279732067
 30
0.0
 11
2311.362105662486
 21
104.7772279732067
 31
0.0
  0
LINE
  5
3B37
330
1F
100
AcDbEntity
  8
图框线
370
    -1
100
AcDbLine
 10
2652.222881224121
 20
235.440525271842
 30
0.0
 11
2652.222881224121
 21
104.7772279732067
 31
0.0
  0
LINE
  5
3B38
330
1F
100
AcDbEntity
  8
图框线
370
    -1
100
AcDbLine
 10
2481.792493443293
 20
235.440525271842
 30
0.0
 11
2481.792493443293
 21
104.7772279732067
 31
0.0
  0
LINE
  5
3B39
330
1F
100
AcDbEntity
  8
图框线
370
    -1
100
AcDbLine
 10
2503.096291915925
 20
155.9063443074538
 30
0.0
 11
2503.096291915925
 21
124.6607732143136
 31
0.0
  0
LINE
  5
3B3A
330
1F
100
AcDbEntity
  8
图框线
370
    -1
100
AcDbLine
 10
2524.40009038851
 20
155.9063443074538
 30
0.0
 11
2524.40009038851
 21
124.6607732143136
 31
0.0
  0
LINE
  5
3B3B
330
1F
100
AcDbEntity
  8
图框线
370
    -1
100
AcDbLine
 10
2567.007687333696
 20
124.6607732143136
 30
0.0
 11
2567.007687333696
 21
104.7772279732067
 31
0.0
  0
LINE
  5
3B3C
330
1F
100
AcDbEntity
  8
图框线
370
    -1
100
AcDbLine
 10
2545.703888861099
 20
172.9493830855488
 30
0.0
 11
2545.703888861099
 21
124.6607732143136
 31
0.0
  0
LINE
  5
3B3D
330
1F
100
AcDbEntity
  8
图框线
370
    -1
100
AcDbLine
 10
2579.789966417271
 20
172.9493830855488
 30
0.0
 11
2579.789966417271
 21
124.6607732143136
 31
0.0
  0
LINE
  5
3B3E
330
1F
100
AcDbEntity
  8
图框线
370
    -1
100
AcDbLine
 10
2618.136803667953
 20
172.9493830855488
 30
0.0
 11
2618.136803667953
 21
124.6607732143136
 31
0.0
  0
LINE
  5
3B3F
330
1F
100
AcDbEntity
  8
粗实线
370
    -1
100
AcDbLine
 10
2822.653269004954
 20
104.7772279732067
 30
0.0
 11
2311.362105662486
 21
104.7772279732067
 31
0.0
  0
LINE
  5
3B40
330
1F
100
AcDbEntity
  8
粗实线
370
    -1
100
AcDbLine
 10
2822.653269004954
 20
235.440525271842
 30
0.0
 11
2311.362105662486
 21
235.440525271842
 31
0.0
  0
LINE
  5
3B41
330
1F
100
AcDbEntity
  8
图框线
370
    -1
100
AcDbLine
 10
2652.222881224121
 20
172.9493830855488
 30
0.0
 11
2311.362105662486
 21
172.9493830855488
 31
0.0
  0
LINE
  5
3B42
330
1F
100
AcDbEntity
  8
图框线
370
    -1
100
AcDbLine
 10
2481.792493443293
 20
185.4476115228044
 30
0.0
 11
2311.362105662486
 21
185.4476115228044
 31
0.0
  0
LINE
  5
3B43
330
1F
100
AcDbEntity
  8
图框线
370
    -1
100
AcDbLine
 10
2481.792493443293
 20
197.9458399600567
 30
0.0
 11
2311.362105662486
 21
197.9458399600567
 31
0.0
  0
LINE
  5
3B44
330
1F
100
AcDbEntity
  8
图框线
370
    -1
100
AcDbLine
 10
2481.792493443293
 20
210.4440683973211
 30
0.0
 11
2311.362105662486
 21
210.4440683973211
 31
0.0
  0
LINE
  5
3B45
330
1F
100
AcDbEntity
  8
图框线
370
    -1
100
AcDbLine
 10
2481.792493443293
 20
222.9422968345865
 30
0.0
 11
2311.362105662486
 21
222.9422968345865
 31
0.0
  0
LINE
  5
3B46
330
1F
100
AcDbEntity
  8
图框线
370
    -1
100
AcDbLine
 10
2652.222881224121
 20
155.9063443074538
 30
0.0
 11
2311.362105662486
 21
155.9063443074538
 31
0.0
  0
LINE
  5
3B47
330
1F
100
AcDbEntity
  8
图框线
370
    -1
100
AcDbLine
 10
2652.222881224121
 20
138.8633055293685
 30
0.0
 11
2311.362105662486
 21
138.8633055293685
 31
0.0
  0
LINE
  5
3B48
330
1F
100
AcDbEntity
  8
图框线
370
    -1
100
AcDbLine
 10
2481.792493443293
 20
121.8202667512876
 30
0.0
 11
2311.362105662486
 21
121.8202667512876
 31
0.0
  0
LINE
  5
3B49
330
1F
100
AcDbEntity
  8
图框线
370
    -1
100
AcDbLine
 10
2652.222881224121
 20
155.9063443074538
 30
0.0
 11
2481.792493443293
 21
155.9063443074538
 31
0.0
  0
LINE
  5
3B4A
330
1F
100
AcDbEntity
  8
图框线
370
    -1
100
AcDbLine
 10
2652.222881224121
 20
138.8633055293685
 30
0.0
 11
2481.792493443293
 21
138.8633055293685
 31
0.0
  0
LINE
  5
3B4B
330
1F
100
AcDbEntity
  8
图框线
370
    -1
100
AcDbLine
 10
2652.222881224121
 20
124.6607732143136
 30
0.0
 11
2481.792493443293
 21
124.6607732143136
 31
0.0
  0
LINE
  5
3B4C
330
1F
100
AcDbEntity
  8
图框线
370
    -1
100
AcDbLine
 10
2822.653269004954
 20
189.992421863621
 30
0.0
 11
2652.222881224121
 21
189.992421863621
 31
0.0
  0
LINE
  5
3B4D
330
1F
100
AcDbEntity
  8
图框线
370
    -1
100
AcDbLine
 10
2822.653269004954
 20
147.3848249183975
 30
0.0
 11
2652.222881224121
 21
147.3848249183975
 31
0.0
  0
LINE
  5
3B4E
330
1F
100
AcDbEntity
  8
图框线
370
    -1
100
AcDbLine
 10
2334.086157366581
 20
172.9493830855258
 30
0.0
 11
2334.086157366581
 21
235.440525271842
 31
0.0
  0
LINE
  5
3B4F
330
1F
100
AcDbEntity
  8
图框线
370
    -1
100
AcDbLine
 10
2356.810209070689
 20
172.9493830855258
 30
0.0
 11
2356.810209070689
 21
235.440525271842
 31
0.0
  0
LINE
  5
3B50
330
1F
100
AcDbEntity
  8
图框线
370
    -1
100
AcDbLine
 10
2405.098818941942
 20
172.9493830855488
 30
0.0
 11
2405.098818941942
 21
235.440525271842
 31
0.0
  0
LINE
  5
3B51
330
1F
100
AcDbEntity
  8
图框线
370
    -1
100
AcDbLine
 10
2447.706415887133
 20
172.9493830855488
 30
0.0
 11
2447.706415887133
 21
235.440525271842
 31
0.0
  0
LINE
  5
3B52
330
1F
100
AcDbEntity
  8
图框线
370
    -1
100
AcDbLine
 10
2345.448183218641
 20
104.7772279732067
 30
0.0
 11
2345.448183218641
 21
172.9493830855258
 31
0.0
  0
LINE
  5
3B53
330
1F
100
AcDbEntity
  8
图框线
370
    -1
100
AcDbLine
 10
2396.577299552894
 20
104.7772279732067
 30
0.0
 11
2396.577299552894
 21
172.9493830855488
 31
0.0
  0
LINE
  5
3B54
330
1F
100
AcDbEntity
  8
图框线
370
    -1
100
AcDbLine
 10
2430.663377109049
 20
104.7772279732067
 30
0.0
 11
2430.663377109049
 21
172.9493830855488
 31
0.0
  0
MTEXT
  5
3B55
330
1F
100
AcDbEntity
  8
文字
370
    -1
100
AcDbMText
 10
2315.704661866602
 20
182.7231602168329
 30
0.0
 40
5.76616404792258
 41
37.05480222297226
 71
     1
 72
     5
  1
{\fSimSun|b0|i0|c134|p2;标记}
 73
     1
 44
1.0
  0
MTEXT
  5
3B56
330
1F
100
AcDbEntity
  8
文字
370
    -1
100
AcDbMText
 10
2337.945446795197
 20
182.6556312063843
 30
0.0
 40
5.76616404792258
 41
37.05480222297226
 71
     1
 72
     5
  1
{\fSimSun|b0|i0|c134|p2;处数}
 73
     1
 44
1.0
  0
MTEXT
  5
3B57
330
1F
100
AcDbEntity
  8
文字
370
    -1
100
AcDbMText
 10
2365.514426133614
 20
181.9338139648403
 30
0.0
 40
4.612931238338065
 41
78.79313184560102
 71
     1
 72
     5
  1
{\fSimSun|b0|i0|c134|p2;\C1;更改文件号}
 73
     1
 44
1.0
  0
MTEXT
  5
3B58
330
1F
100
AcDbEntity
  8
文字
370
    -1
100
AcDbMText
 10
2417.497214180304
 20
183.0779492374174
 30
0.0
 40
5.76616404792258
 41
37.05480222297226
 71
     1
 72
     5
  1
{\fSimSun|b0|i0|c134|p2;签名}
 73
     1
 44
1.0
  0
MTEXT
  5
3B59
330
1F
100
AcDbEntity
  8
文字
370
    -1
100
AcDbMText
 10
2458.344694174366
 20
182.7384334443705
 30
0.0
 40
5.76616404792258
 41
37.05480222297226
 71
     1
 72
     5
  1
{\fSimSun|b0|i0|c134|p2;日期}
 73
     1
 44
1.0
  0
MTEXT
  5
3B5A
330
1F
100
AcDbEntity
  8
文字
370
    -1
100
AcDbMText
 10
2318.730101856508
 20
168.5096935566863
 30
0.0
 40
7.207705059903224
 41
46.31850277871533
 71
     1
 72
     5
  1
{\fSimSun|b0|i0|c134|p2;设计}
 73
     1
 44
1.0
  0
MTEXT
  5
3B5B
330
1F
100
AcDbEntity
  8
文字
370
    -1
100
AcDbMText
 10
2318.730101856508
 20
151.3507319122731
 30
0.0
 40
7.207705059903224
 41
46.31850277871533
 71
     1
 72
     5
  1
{\fSimSun|b0|i0|c134|p2;校对}
 73
     1
 44
1.0
  0
MTEXT
  5
3B5C
330
1F
100
AcDbEntity
  8
文字
370
    -1
100
AcDbMText
 10
2318.730101856508
 20
134.3599952654141
 30
0.0
 40
7.207705059903224
 41
46.31850277871533
 71
     1
 72
     5
  1
{\fSimSun|b0|i0|c134|p2;会签}
 73
     1
 44
1.0
  0
MTEXT
  5
3B5D
330
1F
100
AcDbEntity
  8
文字
370
    -1
100
AcDbMText
 10
2318.730101856508
 20
117.5537034342869
 30
0.0
 40
7.207705059903224
 41
46.31850277871533
 71
     1
 72
     5
  1
{\fSimSun|b0|i0|c134|p2;工艺}
 73
     1
 44
1.0
  0
MTEXT
  5
3B5E
330
1F
100
AcDbEntity
  8
文字
370
    -1
100
AcDbMText
 10
2403.828297680298
 20
150.3366625013145
 30
0.0
 40
7.207705059903224
 41
46.31850277871533
 71
     1
 72
     5
  1
{\fSimSun|b0|i0|c134|p2;批准}
 73
     1
 44
1.0
  0
MTEXT
  5
3B5F
330
1F
100
AcDbEntity
  8
文字
370
    -1
100
AcDbMText
 10
2405.364398994132
 20
116.5396471905497
 30
0.0
 40
7.207705059903224
 41
46.31850277871533
 71
     1
 72
     5
  1
{\fSimSun|b0|i0|c134|p2;日期}
 73
     1
 44
1.0
  0
MTEXT
  5
3B60
330
1F
100
AcDbEntity
  8
文字
370
    -1
100
AcDbMText
 10
2494.248153945276
 20
168.6501223582167
 30
0.0
 40
7.207705059903224
 41
46.31850277871533
 71
     1
 72
     5
  1
{\fSimSun|b0|i0|c134|p2;图样标记}
 73
     1
 44
1.0
  0
MTEXT
  5
3B61
330
1F
100
AcDbEntity
  8
文字
370
    -1
100
AcDbMText
 10
2505.584318608267
 20
118.1693283463431
 30
0.0
 40
7.207705059903224
 41
46.31850277871533
 71
     1
 72
     5
  1
{\fSimSun|b0|i0|c134|p2;共  页}
 73
     1
 44
1.0
  0
MTEXT
  5
3B62
330
1F
100
AcDbEntity
  8
文字
370
    -1
100
AcDbMText
 10
2554.541784847759
 20
168.5853855989993
 30
0.0
 40
7.207705059903224
 41
46.31850277871533
 71
     1
 72
     5
  1
{\fSimSun|b0|i0|c134|p2;数量}
 73
     1
 44
1.0
  0
MTEXT
  5
3B63
330
1F
100
AcDbEntity
  8
文字
370
    -1
100
AcDbMText
 10
2584.825185452586
 20
168.1165798552199
 30
0.0
 40
7.207705059903224
 41
46.31850277871533
 71
     1
 72
     5
  1
{\fSimSun|b0|i0|c134|p2;重量}
 73
     1
 44
1.0
  0
MTEXT
  5
3B64
330
1F
100
AcDbEntity
  8
文字
370
    -1
100
AcDbMText
 10
2626.256801074705
 20
168.4916218168019
 30
0.0
 40
7.207705059903224
 41
46.31850277871533
 71
     1
 72
     5
  1
{\fSimSun|b0|i0|c134|p2;比例}
 73
     1
 44
1.0
  0
MTEXT
  5
3B65
330
1F
100
AcDbEntity
  8
文字
370
    -1
100
AcDbMText
 10
2606.795006113289
 20
167.368640705044
 30
0.0
 40
8.376994420203065
 41
166.3293400774424
 71
     1
 72
     5
  1
{\fArial|b0|i0|c0|p34;kg}
  7
样式 8
 73
     1
 44
1.0
  0
MTEXT
  5
3B66
330
1F
100
AcDbEntity
  8
文字
370
    -1
100
AcDbMText
 10
2591.448608479091
 20
118.1693283463431
 30
0.0
 40
7.207705059903224
 41
46.31850277871533
 71
     1
 72
     5
  1
{\fSimSun|b0|i0|c134|p2;第  页}
 73
     1
 44
1.0
  0
MTEXT
  5
3B67
330
1F
100
AcDbEntity
  8
文字
370
    -1
100
AcDbMText
 10
2660.549658846503
 20
215.6831650146785
 30
0.0
 40
10.47124302525383
 41
207.911675096803
 71
     1
 72
     5
  1
{\fSimSun|b0|i0|c134|p2;\C1;泰捷不锈钢制品（泰国）有限公司}
  7
样式 8
 73
     1
 44
1.0
  0
MTEXT
  5
3B68
330
1F
100
AcDbEntity
  8
文字
370
    -1
100
AcDbMText
 10
2676.000389003745
 20
178.0142003842902
 30
0.0
 40
13.63443102246593
 41
270.7183269489622
 71
     1
 72
     5
  1
{\fSimSun|b0|i0|c134|p2;\C1;开孔纸板（FD1086）}
  7
样式 8
 73
     1
 44
1.0
  0
LINE
  5
3B69
330
1F
100
AcDbEntity
  8
不可见
370
    -1
100
AcDbLine
 10
2836.855801320022
 20
934.2051151732198
 30
0.0
 11
2836.855801320022
 21
90.57469565813875
 31
0.0
  0
LINE
  5
3B6A
330
1F
100
AcDbEntity
  8
粗实线
370
    -1
100
AcDbLine
 10
2822.653269004954
 20
920.0025828581672
 30
0.0
 11
2822.653269004954
 21
104.7772279732067
 31
0.0
  0
LINE
  5
3B6B
330
1F
100
AcDbEntity
  8
不可见
370
    -1
100
AcDbLine
 10
2836.855801320022
 20
90.57469565813875
 30
0.0
 11
1643.843086854253
 21
90.57469565813875
 31
0.0
  0
LINE
  5
3B6C
330
1F
100
AcDbEntity
  8
粗实线
370
    -1
100
AcDbLine
 10
2822.653269004954
 20
104.7772279732067
 30
0.0
 11
1714.855748429584
 21
104.7772279732067
 31
0.0
  0
LINE
  5
3B6D
330
1F
100
AcDbEntity
  8
粗实线
370
    -1
100
AcDbLine
 10
2822.653269004954
 20
104.7772279732067
 30
0.0
 11
1714.855748429584
 21
104.7772279732067
 31
0.0
  0
MTEXT
  5
3B6E
330
1F
100
AcDbEntity
  8
文字
370
    -1
100
AcDbMText
 10
2528.7542304243
 20
207.2976249649265
 30
0.0
 40
13.63443102246593
 41
270.7183269489622
 71
     1
 72
     5
  1
{\fSimSun|b0|i0|c0|p2;\C1;0.3\fSimSun|b0|i0|c134|p2;mm厚白纸板}
  7
样式 8
 73
     1
 44
1.0
  0
MTEXT
  5
3B6F
330
1F
100
AcDbEntity
  8
文字
370
    -1
100
AcDbMText
 10
2489.246158339112
 20
228.5163790124311
 30
0.0
 40
13.63443102246593
 41
270.7183269489622
 71
     1
 72
     5
  1
{\fSimSun|b0|i0|c134|p2;材料:}
  7
样式 8
 73
     1
 44
1.0
  0
MTEXT
  5
3B70
330
1F
100
AcDbEntity
  8
文字
370
    -1
100
AcDbMText
 10
2403.828297680298
 20
167.4241467036118
 30
0.0
 40
7.207705059903224
 41
46.31850277871533
 71
     1
 72
     5
  1
{\fSimSun|b0|i0|c134|p2;审核}
 73
     1
 44
1.0
  0
LINE
  5
3B71
330
1F
100
AcDbEntity
  8
不可见
370
    -1
100
AcDbLine
 10
1643.843086854253
 20
934.2051151732198
 30
0.0
 11
2836.855801320022
 21
934.2051151732198
 31
0.0
  0
LINE
  5
3B72
330
1F
100
AcDbEntity
  8
粗实线
370
    -1
100
AcDbLine
 10
1714.855748429584
 20
920.0025828581486
 30
0.0
 11
2822.653269004954
 21
920.0025828581486
 31
0.0
  0
LINE
  5
3B73
330
1F
100
AcDbEntity
  8
不可见
370
    -1
100
AcDbLine
 10
1643.843086854253
 20
90.57469565813875
 30
0.0
 11
1643.843086854253
 21
934.2051151732198
 31
0.0
  0
LINE
  5
3B74
330
1F
100
AcDbEntity
  8
粗实线
370
    -1
100
AcDbLine
 10
1714.855748429584
 20
104.7772279732067
 30
0.0
 11
1714.855748429584
 21
920.0025828581486
 31
0.0
  0
LINE
  5
3B75
330
1F
100
AcDbEntity
  8
粗实线
370
    -1
100
AcDbLine
 10
1714.855748429584
 20
890.545736911936
 30
0.0
 11
1854.902672759976
 21
890.545736911936
 31
0.0
  0
LINE
  5
3B76
330
1F
100
AcDbEntity
  8
粗实线
370
    -1
100
AcDbLine
 10
1854.902672759976
 20
890.545736911936
 30
0.0
 11
1854.902672759976
 21
920.0025828581486
 31
0.0
  0
LINE
  5
3B77
330
1F
100
AcDbEntity
  8
图框线
370
    -1
100
AcDbLine
 10
1714.855748429584
 20
127.5012796773124
 30
0.0
 11
1643.843086854253
 21
127.5012796773124
 31
0.0
  0
LINE
  5
3B78
330
1F
100
AcDbEntity
  8
图框线
370
    -1
100
AcDbLine
 10
1714.855748429584
 20
144.5443184554074
 30
0.0
 11
1643.843086854253
 21
144.5443184554074
 31
0.0
  0
LINE
  5
3B79
330
1F
100
AcDbEntity
  8
图框线
370
    -1
100
AcDbLine
 10
1714.855748429584
 20
167.2683701595043
 30
0.0
 11
1643.843086854253
 21
167.2683701595043
 31
0.0
  0
LINE
  5
3B7A
330
1F
100
AcDbEntity
  8
图框线
370
    -1
100
AcDbLine
 10
1714.855748429584
 20
184.3114089375896
 30
0.0
 11
1643.843086854253
 21
184.3114089375896
 31
0.0
  0
LINE
  5
3B7B
330
1F
100
AcDbEntity
  8
图框线
370
    -1
100
AcDbLine
 10
1714.855748429584
 20
207.0354606416975
 30
0.0
 11
1643.843086854253
 21
207.0354606416975
 31
0.0
  0
LINE
  5
3B7C
330
1F
100
AcDbEntity
  8
图框线
370
    -1
100
AcDbLine
 10
1714.855748429584
 20
224.0784994197739
 30
0.0
 11
1643.843086854253
 21
224.0784994197739
 31
0.0
  0
LINE
  5
3B7D
330
1F
100
AcDbEntity
  8
图框线
370
    -1
100
AcDbLine
 10
1714.855748429584
 20
246.8025511238982
 30
0.0
 11
1643.843086854253
 21
246.8025511238982
 31
0.0
  0
LINE
  5
3B7E
330
1F
100
AcDbEntity
  8
图框线
370
    -1
100
AcDbLine
 10
1714.855748429584
 20
263.8455899019737
 30
0.0
 11
1643.843086854253
 21
263.8455899019737
 31
0.0
  0
LINE
  5
3B7F
330
1F
100
AcDbEntity
  8
图框线
370
    -1
100
AcDbLine
 10
1714.855748429584
 20
286.5696416060989
 30
0.0
 11
1643.843086854253
 21
286.5696416060989
 31
0.0
  0
LINE
  5
3B80
330
1F
100
AcDbEntity
  8
图框线
370
    -1
100
AcDbLine
 10
1714.855748429584
 20
303.6126803841885
 30
0.0
 11
1643.843086854253
 21
303.6126803841885
 31
0.0
  0
LINE
  5
3B81
330
1F
100
AcDbEntity
  8
图框线
370
    -1
100
AcDbLine
 10
1714.855748429584
 20
326.3367320882712
 30
0.0
 11
1643.843086854253
 21
326.3367320882712
 31
0.0
  0
LINE
  5
3B82
330
1F
100
AcDbEntity
  8
图框线
370
    -1
100
AcDbLine
 10
1714.855748429584
 20
343.3797708663576
 30
0.0
 11
1643.843086854253
 21
343.3797708663576
 31
0.0
  0
LINE
  5
3B83
330
1F
100
AcDbEntity
  8
图框线
370
    -1
100
AcDbLine
 10
1714.855748429584
 20
360.4228096444341
 30
0.0
 11
1643.843086854253
 21
360.4228096444341
 31
0.0
  0
LINE
  5
3B84
330
1F
100
AcDbEntity
  8
图框线
370
    -1
100
AcDbLine
 10
1714.855748429584
 20
104.7772279732067
 30
0.0
 11
1643.843086854253
 21
104.7772279732067
 31
0.0
  0
MTEXT
  5
3B85
330
1F
100
AcDbEntity
  8
文字
370
    -1
100
AcDbMText
 10
1651.454305459883
 20
139.8463363545808
 30
0.0
 40
5.915354709226102
 41
150.277363855773
 71
     1
 72
     5
  1
日   
 73
     1
 44
1.0
  0
MTEXT
  5
3B86
330
1F
100
AcDbEntity
  8
文字
370
    -1
100
AcDbMText
 10
1651.454305459883
 20
179.591647076336
 30
0.0
 40
5.915354709226102
 41
150.277363855773
 71
     1
 72
     5
  1
签   
 73
     1
 44
1.0
  0
MTEXT
  5
3B87
330
1F
100
AcDbEntity
  8
文字
370
    -1
100
AcDbMText
 10
1651.454305459883
 20
220.4479840757238
 30
0.0
 40
5.915354709226102
 41
150.277363855773
 71
     1
 72
     5
  1
底
 73
     1
 44
1.0
  0
MTEXT
  5
3B88
330
1F
100
AcDbEntity
  8
文字
370
    -1
100
AcDbMText
 10
1651.454305459883
 20
259.0603306663783
 30
0.0
 40
5.915354709226102
 41
150.277363855773
 71
     1
 72
     5
  1
旧
 73
     1
 44
1.0
  0
MTEXT
  5
3B89
330
1F
100
AcDbEntity
  8
文字
370
    -1
100
AcDbMText
 10
1650.385794394315
 20
340.5718264789393
 30
0.0
 40
5.915354709226102
 41
150.277363855773
 71
     1
 72
     5
  1
描   
 73
     1
 44
1.0
  0
MTEXT
  5
3B8A
330
1F
100
AcDbEntity
  8
文字
370
    -1
100
AcDbMText
 10
1647.535521167771
 20
357.9048914772025
 30
0.0
 40
5.915354709226102
 41
150.277363855773
 71
     1
 72
     5
  1
\ftxt.shx,gbcbig.shx;\H1x;\C1;借（通）用件登记
 73
     1
 44
1.0
  0
MTEXT
  5
3B8B
330
1F
100
AcDbEntity
  8
文字
370
    -1
100
AcDbMText
 10
1700.809057252329
 20
340.5718264789393
 30
0.0
 40
5.915354709226102
 41
150.277363855773
 71
     1
 72
     5
  1
图   
 73
     1
 44
1.0
  0
MTEXT
  5
3B8C
330
1F
100
AcDbEntity
  8
文字
370
    -1
100
AcDbMText
 10
1650.385794394315
 20
300.467173564864
 30
0.0
 40
5.915354709226102
 41
150.277363855773
 71
     1
 72
     5
  1
描   
 73
     1
 44
1.0
  0
MTEXT
  5
3B8D
330
1F
100
AcDbEntity
  8
文字
370
    -1
100
AcDbMText
 10
1700.809057252329
 20
300.467173564864
 30
0.0
 40
5.915354709226102
 41
150.277363855773
 71
     1
 72
     5
  1
校   
 73
     1
 44
1.0
  0
MTEXT
  5
3B8E
330
1F
100
AcDbEntity
  8
文字
370
    -1
100
AcDbMText
 10
1662.422121711443
 20
259.1823545202583
 30
0.0
 40
5.915354709226102
 41
150.277363855773
 71
     1
 72
     5
  1
底
 73
     1
 44
1.0
  0
MTEXT
  5
3B8F
330
1F
100
AcDbEntity
  8
文字
370
    -1
100
AcDbMText
 10
1676.304454314415
 20
259.0603306663783
 30
0.0
 40
5.915354709226102
 41
150.277363855773
 71
     1
 72
     5
  1
图
 73
     1
 44
1.0
  0
MTEXT
  5
3B90
330
1F
100
AcDbEntity
  8
文字
370
    -1
100
AcDbMText
 10
1689.224504072185
 20
259.0603306663783
 30
0.0
 40
5.915354709226102
 41
150.277363855773
 71
     1
 72
     5
  1
总
 73
     1
 44
1.0
  0
MTEXT
  5
3B91
330
1F
100
AcDbEntity
  8
文字
370
    -1
100
AcDbMText
 10
1702.108092103933
 20
259.0603306663783
 30
0.0
 40
5.915354709226102
 41
150.277363855773
 71
     1
 72
     5
  1
号
 73
     1
 44
1.0
  0
MTEXT
  5
3B92
330
1F
100
AcDbEntity
  8
文字
370
    -1
100
AcDbMText
 10
1667.591062742671
 20
220.4479840757238
 30
0.0
 40
5.915354709226102
 41
150.277363855773
 71
     1
 72
     5
  1
图
 73
     1
 44
1.0
  0
MTEXT
  5
3B93
330
1F
100
AcDbEntity
  8
文字
370
    -1
100
AcDbMText
 10
1683.444881303092
 20
220.4479840757238
 30
0.0
 40
5.915354709226102
 41
150.277363855773
 71
     1
 72
     5
  1
总
 73
     1
 44
1.0
  0
MTEXT
  5
3B94
330
1F
100
AcDbEntity
  8
文字
370
    -1
100
AcDbMText
 10
1700.542135471429
 20
220.4479840757238
 30
0.0
 40
5.915354709226102
 41
150.277363855773
 71
     1
 72
     5
  1
号
 73
     1
 44
1.0
  0
MTEXT
  5
3B95
330
1F
100
AcDbEntity
  8
文字
370
    -1
100
AcDbMText
 10
1700.669035672327
 20
179.591647076336
 30
0.0
 40
5.915354709226102
 41
150.277363855773
 71
     1
 72
     5
  1
字  
 73
     1
 44
1.0
  0
MTEXT
  5
3B96
330
1F
100
AcDbEntity
  8
文字
370
    -1
100
AcDbMText
 10
1699.646132113875
 20
139.8463363545808
 30
0.0
 40
5.915354709226102
 41
150.277363855773
 71
     1
 72
     5
  1
期  
 73
     1
 44
1.0
  0
MTEXT
  5
3B97
330
1F
100
AcDbEntity
  8
文字
370
    -1
100
AcDbMText
 10
2720.188810718493
 20
130.3001624320884
 30
0.0
 40
13.63443102246593
 41
270.7183269489622
 71
     1
 72
     5
  1
\fNSimSun|b0|i0|c134|p49;\H1x;\C1;1b96/2
  7
样式 8
 73
     1
 44
1.0
  0
LINE
  5
3B98
330
1F
100
AcDbEntity
  8
粗实线
370
    -1
100
AcDbLine
 10
2311.362105662486
 20
235.440525271842
 30
0.0
 11
2311.362105662486
 21
104.7772279732067
 31
0.0
  0
MTEXT
  5
3B99
330
1F
100
AcDbEntity
  8
粗实线
370
    -1
100
AcDbMText
 10
2471.907160087069
 20
362.5199714482249
 30
0.0
 40
8.0
 41
306.8846549670925
 71
     1
 72
     5
  1
\fTahoma|b0|i0|c0|p34;AST 3018
  7
样式 8
 73
     1
 44
1.0
  0
DIMENSION
  5
3B9A
330
1F
100
AcDbEntity
  8
标注
370
    -1
100
AcDbDimension
  2
*D13
 10
1894.456849118525
 20
847.9746915427629
 30
0.0
 11
2274.806849118525
 21
847.9746915427629
 31
0.0
 70
   160
  1
{\fArial|b0|i0|c0|p34;<>}
 71
     5
 42
760.6999999999989
  3
英寸
100
AcDbAlignedDimension
 13
2655.156849118524
 23
751.9746915427629
 33
0.0
 14
1894.456849118525
 24
762.9746915427629
 34
0.0
100
AcDbRotatedDimension
1001
ACAD
1000
DSTYLE
1002
{
1070
    41
1040
8.0
1002
}
  0
DIMENSION
  5
3BA7
330
1F
100
AcDbEntity
  8
标注
370
    -1
100
AcDbDimension
  2
*D14
 10
1800.04307868329
 20
329.252124211798
 30
0.0
 11
1800.04307868329
 21
542.1021242117981
 31
0.0
 70
   160
  1
{\fArial|b0|i0|c0|p34;<>}
 71
     5
 42
425.6999999999996
  3
英寸
100
AcDbAlignedDimension
 13
1901.54307868329
 23
754.9521242117976
 33
0.0
 14
1894.04307868329
 24
329.252124211798
 34
0.0
 50
90.0
100
AcDbRotatedDimension
1001
ACAD
1000
DSTYLE
1002
{
1070
    41
1040
8.0
1002
}
  0
MTEXT
  5
3BB4
330
1F
100
AcDbEntity
  8
文字
370
    -1
100
AcDbMText
 10
2613.2542304243
 20
275.2976249649265
 30
0.0
 40
13.63443102246593
 41
270.7183269489622
 71
     1
 72
     5
  1
{\fSimSun|b0|i0|c134|p2;\C1;注：图纸上标注尺寸不用印刷}
  7
样式 8
 73
     1
 44
1.0
  0
DIMENSION
  5
3BB5
330
1F
100
AcDbEntity
  8
标注
370
    -1
100
AcDbDimension
  2
*D15
 10
1907.156849118526
 20
783.4746915427629
 30
0.0
 11
2274.806849118522
 21
783.4746915427629
 31
0.0
 70
   160
  1
{\fArial|b0|i0|c0|p34;<>}
 71
     5
 42
735.2999999999934
  3
英寸
100
AcDbAlignedDimension
 13
2642.456849118519
 23
752.4746915427629
 33
0.0
 14
1907.156849118526
 24
762.4746915427629
 34
0.0
100
AcDbRotatedDimension
1001
ACAD
1000
DSTYLE
1002
{
1070
    41
1040
8.0
1002
}
  0
DIMENSION
  5
3BC2
330
1F
100
AcDbEntity
  8
标注
370
    -1
100
AcDbDimension
  2
*D16
 10
1859.04307868329
 20
341.9521242117969
 30
0.0
 11
1859.04307868329
 21
542.2821242117965
 31
0.0
 70
   160
  1
{\fArial|b0|i0|c0|p34;<>}
 71
     5
 42
400.2999999999993
  3
英寸
100
AcDbAlignedDimension
 13
1901.04307868329
 23
742.2521242117962
 33
0.0
 14
1895.04307868329
 24
341.9521242117968
 34
0.0
 50
90.0
100
AcDbRotatedDimension
1001
ACAD
1000
DSTYLE
1002
{
1070
    41
1040
8.0
1002
}
  0
ENDSEC
  0
SECTION
  2
OBJECTS
  0
DICTIONARY
  5
C
330
0
100
AcDbDictionary
281
     1
  3
ACAD_COLOR
350
3513
  3
ACAD_GROUP
350
D
  3
ACAD_LAYOUT
350
1A
  3
ACAD_MATERIAL
350
350F
  3
ACAD_MLINESTYLE
350
17
  3
ACAD_PLOTSETTINGS
350
19
  3
ACAD_PLOTSTYLENAME
350
E
  3
ACAD_TABLESTYLE
350
E9
  3
ACAD_VISUALSTYLE
350
28
  3
ACDBHEADERROUNDTRIPXREC
350
4CAD
  3
AcDbVariableDictionary
350
366A
  0
DICTIONARY
  5
4CB6
330
8
100
AcDbDictionary
280
     1
281
     1
  3
ACAD_XREC_ROUNDTRIP
360
4CB7
  0
DICTIONARY
  5
36E2
330
2
100
AcDbDictionary
280
     1
281
     1
  3
ACAD_LAYERSTATES
360
36E3
  0
DICTIONARY
  5
3513
102
{ACAD_REACTORS
330
C
102
}
330
C
100
AcDbDictionary
281
     1
  0
DICTIONARY
  5
D
102
{ACAD_REACTORS
330
C
102
}
330
C
100
AcDbDictionary
281
     1
  0
DICTIONARY
  5
1A
102
{ACAD_REACTORS
330
C
102
}
330
C
100
AcDbDictionary
281
     1
  3
Layout1
350
1E
  3
Layout2
350
24
  3
Model
350
22
  0
DICTIONARY
  5
350F
102
{ACAD_REACTORS
330
C
102
}
330
C
100
AcDbDictionary
281
     1
  3
ByBlock
350
3511
  3
ByLayer
350
3510
  3
Global
350
3512
  0
DICTIONARY
  5
17
102
{ACAD_REACTORS
330
C
102
}
330
C
100
AcDbDictionary
281
     1
  3
Standard
350
18
  0
DICTIONARY
  5
19
102
{ACAD_REACTORS
330
C
102
}
330
C
100
AcDbDictionary
281
     1
  0
ACDBDICTIONARYWDFLT
  5
E
102
{ACAD_REACTORS
330
C
102
}
330
C
100
AcDbDictionary
281
     1
  3
Normal
350
F
100
AcDbDictionaryWithDefault
340
F
  0
DICTIONARY
  5
E9
102
{ACAD_REACTORS
330
C
102
}
330
C
100
AcDbDictionary
281
     1
  0
DICTIONARY
  5
28
102
{ACAD_REACTORS
330
C
102
}
330
C
100
AcDbDictionary
281
     1
  3
2dWireframe
350
2D
  3
3D Hidden
350
2F
  3
3dWireframe
350
2E
  3
Basic
350
30
  3
Brighten
350
34
  3
ColorChange
350
38
  3
Conceptual
350
32
  3
Dim
350
33
  3
Facepattern
350
37
  3
Flat
350
29
  3
FlatWithEdges
350
2A
  3
Gouraud
350
2B
  3
GouraudWithEdges
350
2C
  3
Linepattern
350
36
  3
Realistic
350
31
  3
Thicken
350
35
  0
DICTIONARY
  5
4CAD
102
{ACAD_REACTORS
330
C
102
}
330
C
100
AcDbDictionary
281
     1
  3
COLORDICT
350
4CAE
  3
MATERIALDICT
350
4CAF
  0
DICTIONARY
  5
366A
102
{ACAD_REACTORS
330
C
102
}
330
C
100
AcDbDictionary
281
     1
  3
CTABLESTYLE
350
366B
  0
XRECORD
  5
4CB7
102
{ACAD_REACTORS
330
4CB6
102
}
330
4CB6
100
AcDbXrecord
280
     1
102
VTR_0.000_0.000_1.000_1.000_VISUALSTYLE
340
2D
102
VTR_0.000_0.000_1.000_1.000_GRIDDISPLAY
 70
     3
102
VTR_0.000_0.000_1.000_1.000_GRIDMAJOR
 70
     5
102
VTR_0.000_0.000_1.000_1.000_DEFAULTLIGHTING
280
     1
102
VTR_0.000_0.000_1.000_1.000_DEFAULTLIGHTINGTYPE
 70
     1
102
VTR_0.000_0.000_1.000_1.000_BRIGHTNESS
141
0.0
102
VTR_0.000_0.000_1.000_1.000_CONTRAST
142
0.0
  0
DICTIONARY
  5
36E3
102
{ACAD_REACTORS
330
36E2
102
}
330
36E2
100
AcDbDictionary
281
     1
  0
LAYOUT
  5
1E
102
{ACAD_REACTORS
330
1A
102
}
330
1A
100
AcDbPlotSettings
  1

  2
none_device
  4

  6

 40
0.0
 41
0.0
 42
0.0
 43
0.0
 44
0.0
 45
0.0
 46
0.0
 47
0.0
 48
0.0
 49
0.0
140
0.0
141
0.0
142
1.0
143
1.0
 70
   688
 72
     0
 73
     0
 74
     5
  7

 75
    16
147
1.0
148
0.0
149
0.0
100
AcDbLayout
  1
Layout1
 70
     1
 71
     1
 10
0.0
 20
0.0
 11
12.0
 21
9.0
 12
0.0
 22
0.0
 32
0.0
 14
1.000000000000000E+20
 24
1.000000000000000E+20
 34
1.000000000000000E+20
 15
-1.000000000000000E+20
 25
-1.000000000000000E+20
 35
-1.000000000000000E+20
146
0.0
 13
0.0
 23
0.0
 33
0.0
 16
1.0
 26
0.0
 36
0.0
 17
0.0
 27
1.0
 37
0.0
 76
     0
330
1B
  0
LAYOUT
  5
24
102
{ACAD_REACTORS
330
1A
102
}
330
1A
100
AcDbPlotSettings
  1

  2
none_device
  4

  6

 40
0.0
 41
0.0
 42
0.0
 43
0.0
 44
0.0
 45
0.0
 46
0.0
 47
0.0
 48
0.0
 49
0.0
140
0.0
141
0.0
142
1.0
143
1.0
 70
   688
 72
     0
 73
     0
 74
     5
  7

 75
    16
147
1.0
148
0.0
149
0.0
100
AcDbLayout
  1
Layout2
 70
     1
 71
     2
 10
0.0
 20
0.0
 11
0.0
 21
0.0
 12
0.0
 22
0.0
 32
0.0
 14
0.0
 24
0.0
 34
0.0
 15
0.0
 25
0.0
 35
0.0
146
0.0
 13
0.0
 23
0.0
 33
0.0
 16
1.0
 26
0.0
 36
0.0
 17
0.0
 27
1.0
 37
0.0
 76
     0
330
23
  0
LAYOUT
  5
22
102
{ACAD_REACTORS
330
1A
102
}
330
1A
100
AcDbPlotSettings
  1

  2
Foxit Reader PDF Printer
  4
A4
  6

 40
0.0
 41
0.0000000000000246
 42
0.0
 43
0.0
 44
210.0
 45
297.0
 46
0.000000000000001
 47
0.0151515151517919
 48
-1150.656913145747
 49
90.57469565813875
140
42.35580132002224
141
934.2051151732198
142
1.0
143
4.017287711976577
 70
  1716
 72
     1
 73
     1
 74
     4
  7
Monochrome.ctb
 75
     0
147
0.2489241676713223
148
0.0
149
0.0
100
AcDbLayout
  1
Model
 70
     1
 71
     0
 10
0.0
 20
0.0
 11
12.0
 21
9.0
 12
0.0
 22
0.0
 32
0.0
 14
1643.843086854253
 24
90.57469565813875
 34
0.0
 15
2836.855801320022
 25
934.2051151732198
 35
0.0
146
0.0
 13
0.0
 23
0.0
 33
0.0
 16
1.0
 26
0.0
 36
0.0
 17
0.0
 27
1.0
 37
0.0
 76
     0
330
1F
331
27
  0
MATERIAL
  5
3511
102
{ACAD_REACTORS
330
350F
102
}
102
{ACAD_XDICTIONARY
360
4CB0
102
}
330
350F
100
AcDbMaterial
  1
ByBlock
  0
MATERIAL
  5
3510
102
{ACAD_REACTORS
330
350F
102
}
102
{ACAD_XDICTIONARY
360
4CB2
102
}
330
350F
100
AcDbMaterial
  1
ByLayer
  0
MATERIAL
  5
3512
102
{ACAD_REACTORS
330
350F
102
}
102
{ACAD_XDICTIONARY
360
4CB4
102
}
330
350F
100
AcDbMaterial
  1
Global
  0
MLINESTYLE
  5
18
102
{ACAD_REACTORS
330
17
102
}
330
17
100
AcDbMlineStyle
  2
STANDARD
 70
     0
  3

 62
   256
 51
90.0
 52
90.0
 71
     2
 49
0.5
 62
   256
  6
BYLAYER
 49
-0.5
 62
   256
  6
BYLAYER
  0
ACDBPLACEHOLDER
  5
F
102
{ACAD_REACTORS
330
E
102
}
330
E
  0
VISUALSTYLE
  5
2D
102
{ACAD_REACTORS
330
28
102
}
330
28
100
AcDbVisualStyle
  2
2dWireframe
 70
     4
 71
     0
 72
     2
 73
     0
 90
        0
 40
-0.6
 41
-30.0
 62
     5
 63
     7
 74
     1
 91
        4
 64
     7
 65
   257
 75
     1
175
     1
 42
1.0
 92
        0
 66
   257
 43
1.0
 76
     1
 77
     6
 78
     2
 67
     7
 79
     5
170
     0
171
     0
290
     0
174
     0
 93
        1
 44
0.0
173
     0
291
     0
 45
0.0
1001
ACAD
1000
AcDbSavedByObjectVersion
1070
     0
  0
VISUALSTYLE
  5
2F
102
{ACAD_REACTORS
330
28
102
}
330
28
100
AcDbVisualStyle
  2
3D Hidden
 70
     6
 71
     1
 72
     2
 73
     2
 90
        0
 40
-0.6
 41
-30.0
 62
     5
 63
     7
 74
     2
 91
        2
 64
     7
 65
   257
 75
     2
175
     1
 42
40.0
 92
        0
 66
   257
 43
1.0
 76
     1
 77
     6
 78
     2
 67
     7
 79
     3
170
     0
171
     0
290
     0
174
     0
 93
        1
 44
0.0
173
     0
291
     0
 45
0.0
1001
ACAD
1000
AcDbSavedByObjectVersion
1070
     0
  0
VISUALSTYLE
  5
2E
102
{ACAD_REACTORS
330
28
102
}
330
28
100
AcDbVisualStyle
  2
3dWireframe
 70
     5
 71
     0
 72
     2
 73
     0
 90
        0
 40
-0.6
 41
-30.0
 62
     5
 63
     7
 74
     1
 91
        4
 64
     7
 65
   257
 75
     1
175
     1
 42
1.0
 92
        0
 66
   257
 43
1.0
 76
     1
 77
     6
 78
     2
 67
     7
 79
     5
170
     0
171
     0
290
     0
174
     0
 93
        1
 44
0.0
173
     0
291
     0
 45
0.0
1001
ACAD
1000
AcDbSavedByObjectVersion
1070
     0
  0
VISUALSTYLE
  5
30
102
{ACAD_REACTORS
330
28
102
}
330
28
100
AcDbVisualStyle
  2
Basic
 70
     7
 71
     1
 72
     0
 73
     1
 90
        0
 40
-0.6
 41
-30.0
 62
     5
 63
     7
 74
     0
 91
        4
 64
     7
 65
   257
 75
     1
175
     1
 42
1.0
 92
        8
 66
     7
 43
1.0
 76
     1
 77
     6
 78
     2
 67
     7
 79
     5
170
     0
171
     0
290
     0
174
     0
 93
        1
 44
0.0
173
     0
291
     1
 45
0.0
1001
ACAD
1000
AcDbSavedByObjectVersion
1070
     0
  0
VISUALSTYLE
  5
34
102
{ACAD_REACTORS
330
28
102
}
330
28
100
AcDbVisualStyle
  2
Brighten
 70
    12
 71
     2
 72
     2
 73
     0
 90
        0
 40
-0.6
 41
-30.0
 62
     5
 63
     7
 74
     1
 91
        4
 64
     7
 65
   257
 75
     1
175
     1
 42
1.0
 92
        8
 66
     7
 43
1.0
 76
     1
 77
     6
 78
     2
 67
     7
 79
     5
170
     0
171
     0
290
     0
174
     0
 93
        1
 44
50.0
173
     0
291
     1
 45
0.0
1001
ACAD
1000
AcDbSavedByObjectVersion
1070
     0
  0
VISUALSTYLE
  5
38
102
{ACAD_REACTORS
330
28
102
}
330
28
100
AcDbVisualStyle
  2
ColorChange
 70
    16
 71
     2
 72
     2
 73
     3
 90
        0
 40
-0.6
 41
-30.0
 62
     5
 63
     8
 74
     1
 91
        4
 64
     7
 65
   257
 75
     1
175
     1
 42
1.0
 92
        8
 66
     8
 43
1.0
 76
     1
 77
     6
 78
     2
 67
     7
 79
     5
170
     0
171
     0
290
     0
174
     0
 93
        1
 44
0.0
173
     0
291
     1
 45
0.0
1001
ACAD
1000
AcDbSavedByObjectVersion
1070
     0
  0
VISUALSTYLE
  5
32
102
{ACAD_REACTORS
330
28
102
}
330
28
100
AcDbVisualStyle
  2
Conceptual
 70
     9
 71
     3
 72
     2
 73
     0
 90
        0
 40
-0.6
 41
-30.0
 62
     5
 63
     7
 74
     2
 91
        2
 64
     7
 65
   257
 75
     1
175
     1
 42
40.0
 92
        8
 66
     7
 43
1.0
 76
     1
 77
     6
 78
     2
 67
     7
 79
     3
170
     0
171
     0
290
     0
174
     0
 93
        1
 44
0.0
173
     0
291
     0
 45
0.0
1001
ACAD
1000
AcDbSavedByObjectVersion
1070
     0
  0
VISUALSTYLE
  5
33
102
{ACAD_REACTORS
330
28
102
}
330
28
100
AcDbVisualStyle
  2
Dim
 70
    11
 71
     2
 72
     2
 73
     0
 90
        0
 40
-0.6
 41
-30.0
 62
     5
 63
     7
 74
     1
 91
        4
 64
     7
 65
   257
 75
     1
175
     1
 42
1.0
 92
        8
 66
     7
 43
1.0
 76
     1
 77
     6
 78
     2
 67
     7
 79
     5
170
     0
171
     0
290
     0
174
     0
 93
        1
 44
-50.0
173
     0
291
     1
 45
0.0
1001
ACAD
1000
AcDbSavedByObjectVersion
1070
     0
  0
VISUALSTYLE
  5
37
102
{ACAD_REACTORS
330
28
102
}
330
28
100
AcDbVisualStyle
  2
Facepattern
 70
    15
 71
     2
 72
     2
 73
     0
 90
        0
 40
-0.6
 41
-30.0
 62
     5
 63
     7
 74
     1
 91
        4
 64
     7
 65
   257
 75
     1
175
     1
 42
1.0
 92
        8
 66
     7
 43
1.0
 76
     1
 77
     6
 78
     2
 67
     7
 79
     5
170
     0
171
     0
290
     0
174
     0
 93
        1
 44
0.0
173
     0
291
     1
 45
0.0
1001
ACAD
1000
AcDbSavedByObjectVersion
1070
     0
  0
VISUALSTYLE
  5
29
102
{ACAD_REACTORS
330
28
102
}
330
28
100
AcDbVisualStyle
  2
Flat
 70
     0
 71
     2
 72
     1
 73
     1
 90
        2
 40
-0.6
 41
30.0
 62
     5
 63
     7
 74
     0
 91
        4
 64
     7
 65
   257
 75
     1
175
     1
 42
1.0
 92
        8
 66
     7
 43
1.0
 76
     1
 77
     6
 78
     2
 67
     7
 79
     5
170
     0
171
     0
290
     0
174
     0
 93
       13
 44
0.0
173
     0
291
     1
 45
0.0
1001
ACAD
1000
AcDbSavedByObjectVersion
1070
     0
  0
VISUALSTYLE
  5
2A
102
{ACAD_REACTORS
330
28
102
}
330
28
100
AcDbVisualStyle
  2
FlatWithEdges
 70
     1
 71
     2
 72
     1
 73
     1
 90
        2
 40
-0.6
 41
30.0
 62
     5
 63
     7
 74
     1
 91
        4
 64
     7
 65
   257
 75
     1
175
     1
 42
1.0
 92
        0
 66
   257
 43
1.0
 76
     1
 77
     6
 78
     2
 67
     7
 79
     5
170
     0
171
     0
290
     0
174
     0
 93
       13
 44
0.0
173
     0
291
     1
 45
0.0
1001
ACAD
1000
AcDbSavedByObjectVersion
1070
     0
  0
VISUALSTYLE
  5
2B
102
{ACAD_REACTORS
330
28
102
}
330
28
100
AcDbVisualStyle
  2
Gouraud
 70
     2
 71
     2
 72
     2
 73
     1
 90
        2
 40
-0.6
 41
30.0
 62
     5
 63
     7
 74
     0
 91
        4
 64
     7
 65
   257
 75
     1
175
     1
 42
1.0
 92
        0
 66
     7
 43
1.0
 76
     1
 77
     6
 78
     2
 67
     7
 79
     5
170
     0
171
     0
290
     0
174
     0
 93
       13
 44
0.0
173
     0
291
     1
 45
0.0
1001
ACAD
1000
AcDbSavedByObjectVersion
1070
     0
  0
VISUALSTYLE
  5
2C
102
{ACAD_REACTORS
330
28
102
}
330
28
100
AcDbVisualStyle
  2
GouraudWithEdges
 70
     3
 71
     2
 72
     2
 73
     1
 90
        2
 40
-0.6
 41
30.0
 62
     5
 63
     7
 74
     1
 91
        4
 64
     7
 65
   257
 75
     1
175
     1
 42
1.0
 92
        0
 66
   257
 43
1.0
 76
     1
 77
     6
 78
     2
 67
     7
 79
     5
170
     0
171
     0
290
     0
174
     0
 93
       13
 44
0.0
173
     0
291
     1
 45
0.0
1001
ACAD
1000
AcDbSavedByObjectVersion
1070
     0
  0
VISUALSTYLE
  5
36
102
{ACAD_REACTORS
330
28
102
}
330
28
100
AcDbVisualStyle
  2
Linepattern
 70
    14
 71
     2
 72
     2
 73
     0
 90
        0
 40
-0.6
 41
-30.0
 62
     5
 63
     7
 74
     1
 91
        4
 64
     7
 65
   257
 75
     7
175
     7
 42
1.0
 92
        8
 66
     7
 43
1.0
 76
     1
 77
     6
 78
     2
 67
     7
 79
     5
170
     0
171
     0
290
     0
174
     0
 93
        1
 44
0.0
173
     0
291
     1
 45
0.0
1001
ACAD
1000
AcDbSavedByObjectVersion
1070
     0
  0
VISUALSTYLE
  5
31
102
{ACAD_REACTORS
330
28
102
}
330
28
100
AcDbVisualStyle
  2
Realistic
 70
     8
 71
     2
 72
     2
 73
     0
 90
        0
 40
-0.6
 41
-30.0
 62
     5
 63
     7
 74
     1
 91
        0
 64
     7
 65
   257
 75
     1
175
     1
 42
1.0
 92
        8
 66
     8
 43
1.0
 76
     1
 77
     6
 78
     2
 67
     7
 79
     5
170
     0
171
     0
290
     0
174
     0
 93
       13
 44
0.0
173
     0
291
     0
 45
0.0
1001
ACAD
1000
AcDbSavedByObjectVersion
1070
     0
  0
VISUALSTYLE
  5
35
102
{ACAD_REACTORS
330
28
102
}
330
28
100
AcDbVisualStyle
  2
Thicken
 70
    13
 71
     2
 72
     2
 73
     0
 90
        0
 40
-0.6
 41
-30.0
 62
     5
 63
     7
 74
     1
 91
        4
 64
     7
 65
   257
 75
     1
175
     1
 42
1.0
 92
       12
 66
     7
 43
1.0
 76
     1
 77
     6
 78
     2
 67
     7
 79
     5
170
     0
171
     0
290
     0
174
     0
 93
        1
 44
0.0
173
     0
291
     1
 45
0.0
1001
ACAD
1000
AcDbSavedByObjectVersion
1070
     0
  0
XRECORD
  5
4CAE
102
{ACAD_REACTORS
330
4CAD
102
}
330
4CAD
100
AcDbXrecord
280
     1
340
3513
  0
XRECORD
  5
4CAF
102
{ACAD_REACTORS
330
4CAD
102
}
330
4CAD
100
AcDbXrecord
280
     1
340
350F
  0
DICTIONARYVAR
  5
366B
102
{ACAD_REACTORS
330
366A
102
}
330
366A
100
DictionaryVariables
280
     0
  1
Standard
  0
DICTIONARY
  5
4CB0
330
3511
100
AcDbDictionary
280
     1
281
     1
  3
ACAD_XREC_ROUNDTRIP
360
4CB1
  0
DICTIONARY
  5
4CB2
330
3510
100
AcDbDictionary
280
     1
281
     1
  3
ACAD_XREC_ROUNDTRIP
360
4CB3
  0
DICTIONARY
  5
4CB4
330
3512
100
AcDbDictionary
280
     1
281
     1
  3
ACAD_XREC_ROUNDTRIP
360
4CB5
  0
XRECORD
  5
4CB1
102
{ACAD_REACTORS
330
4CB0
102
}
330
4CB0
100
AcDbXrecord
280
     1
102
MATERIAL
148
0.0
149
0.0
149
0.0
 93
        0
 94
       63
282
     0
 72
     1
 77
     1
171
     1
175
     1
179
     1
273
     0
  0
XRECORD
  5
4CB3
102
{ACAD_REACTORS
330
4CB2
102
}
330
4CB2
100
AcDbXrecord
280
     1
102
MATERIAL
148
0.0
149
0.0
149
0.0
 93
        0
 94
       63
282
     0
 72
     1
 77
     1
171
     1
175
     1
179
     1
273
     0
  0
XRECORD
  5
4CB5
102
{ACAD_REACTORS
330
4CB4
102
}
330
4CB4
100
AcDbXrecord
280
     1
102
MATERIAL
148
0.0
149
0.0
149
0.0
 93
        0
 94
       63
282
     0
 72
     1
 77
     1
171
     1
175
     1
179
     1
273
     0
  0
ENDSEC
  0
EOF
