  0
SECTION
  2
HEADER
  9
$ACADVER
  1
AC1015
  9
$ACADMAINTVER
 70
    20
  9
$DWGCODEPAGE
  3
ANSI_936
  9
$INSBASE
 10
0.0
 20
0.0
 30
0.0
  9
$EXTMIN
 10
132.551140607319
 20
-1119.930365399159
 30
0.0
  9
$EXTMAX
 10
1815.844152032114
 20
891.8792008321688
 30
0.0
  9
$LIMMIN
 10
0.0
 20
0.0
  9
$LIMMAX
 10
12.0
 20
9.0
  9
$ORTHOMODE
 70
     0
  9
$REGENMODE
 70
     1
  9
$FILLMODE
 70
     1
  9
$QTEXTMODE
 70
     0
  9
$MIRRTEXT
 70
     1
  9
$LTSCALE
 40
1.0
  9
$ATTMODE
 70
     1
  9
$TEXTSIZE
 40
0.2
  9
$TRACEWID
 40
0.05
  9
$TEXTSTYLE
  7
Standard
  9
$CLAYER
  8
0
  9
$CELTYPE
  6
ByLayer
  9
$CECOLOR
 62
   256
  9
$CELTSCALE
 40
1.0
  9
$DISPSILH
 70
     0
  9
$DIMSCALE
 40
1.0
  9
$DIMASZ
 40
0.18
  9
$DIMEXO
 40
0.0625
  9
$DIMDLI
 40
0.38
  9
$DIMRND
 40
0.0
  9
$DIMDLE
 40
0.0
  9
$DIMEXE
 40
0.18
  9
$DIMTP
 40
0.0
  9
$DIMTM
 40
0.0
  9
$DIMTXT
 40
0.18
  9
$DIMCEN
 40
0.09
  9
$DIMTSZ
 40
0.0
  9
$DIMTOL
 70
     0
  9
$DIMLIM
 70
     0
  9
$DIMTIH
 70
     1
  9
$DIMTOH
 70
     1
  9
$DIMSE1
 70
     0
  9
$DIMSE2
 70
     0
  9
$DIMTAD
 70
     0
  9
$DIMZIN
 70
     0
  9
$DIMBLK
  1

  9
$DIMASO
 70
     1
  9
$DIMSHO
 70
     1
  9
$DIMPOST
  1

  9
$DIMAPOST
  1

  9
$DIMALT
 70
     0
  9
$DIMALTD
 70
     2
  9
$DIMALTF
 40
25.4
  9
$DIMLFAC
 40
1.0
  9
$DIMTOFL
 70
     0
  9
$DIMTVP
 40
0.0
  9
$DIMTIX
 70
     0
  9
$DIMSOXD
 70
     0
  9
$DIMSAH
 70
     0
  9
$DIMBLK1
  1

  9
$DIMBLK2
  1

  9
$DIMSTYLE
  2
Standard
  9
$DIMCLRD
 70
     0
  9
$DIMCLRE
 70
     0
  9
$DIMCLRT
 70
     0
  9
$DIMTFAC
 40
1.0
  9
$DIMGAP
 40
0.09
  9
$DIMJUST
 70
     0
  9
$DIMSD1
 70
     0
  9
$DIMSD2
 70
     0
  9
$DIMTOLJ
 70
     1
  9
$DIMTZIN
 70
     0
  9
$DIMALTZ
 70
     0
  9
$DIMALTTZ
 70
     0
  9
$DIMUPT
 70
     0
  9
$DIMDEC
 70
     4
  9
$DIMTDEC
 70
     4
  9
$DIMALTU
 70
     2
  9
$DIMALTTD
 70
     2
  9
$DIMTXSTY
  7
Standard
  9
$DIMAUNIT
 70
     0
  9
$DIMADEC
 70
     0
  9
$DIMALTRND
 40
0.0
  9
$DIMAZIN
 70
     0
  9
$DIMDSEP
 70
    46
  9
$DIMATFIT
 70
     3
  9
$DIMFRAC
 70
     0
  9
$DIMLDRBLK
  1

  9
$DIMLUNIT
 70
     2
  9
$DIMLWD
 70
    -2
  9
$DIMLWE
 70
    -2
  9
$DIMTMOVE
 70
     0
  9
$LUNITS
 70
     2
  9
$LUPREC
 70
     4
  9
$SKETCHINC
 40
0.1
  9
$FILLETRAD
 40
0.0
  9
$AUNITS
 70
     0
  9
$AUPREC
 70
     0
  9
$MENU
  1
.
  9
$ELEVATION
 40
0.0
  9
$PELEVATION
 40
0.0
  9
$THICKNESS
 40
0.0
  9
$LIMCHECK
 70
     0
  9
$CHAMFERA
 40
0.5
  9
$CHAMFERB
 40
0.5
  9
$CHAMFERC
 40
1.0
  9
$CHAMFERD
 40
0.0
  9
$SKPOLY
 70
     0
  9
$TDCREATE
 40
2455841.606800220
  9
$TDUCREATE
 40
2455841.273466887
  9
$TDUPDATE
 40
2459756.629889861
  9
$TDUUPDATE
 40
2459756.296556528
  9
$TDINDWG
 40
0.0296659722
  9
$TDUSRTIMER
 40
0.0296659722
  9
$USRTIMER
 70
     1
  9
$ANGBASE
 50
0.0
  9
$ANGDIR
 70
     0
  9
$PDMODE
 70
     0
  9
$PDSIZE
 40
0.0
  9
$PLINEWID
 40
0.0
  9
$SPLFRAME
 70
     0
  9
$SPLINETYPE
 70
     6
  9
$SPLINESEGS
 70
     8
  9
$HANDSEED
  5
4FBD
  9
$SURFTAB1
 70
     6
  9
$SURFTAB2
 70
     6
  9
$SURFTYPE
 70
     6
  9
$SURFU
 70
     6
  9
$SURFV
 70
     6
  9
$UCSBASE
  2

  9
$UCSNAME
  2

  9
$UCSORG
 10
0.0
 20
0.0
 30
0.0
  9
$UCSXDIR
 10
1.0
 20
0.0
 30
0.0
  9
$UCSYDIR
 10
0.0
 20
1.0
 30
0.0
  9
$UCSORTHOREF
  2

  9
$UCSORTHOVIEW
 70
     0
  9
$UCSORGTOP
 10
0.0
 20
0.0
 30
0.0
  9
$UCSORGBOTTOM
 10
0.0
 20
0.0
 30
0.0
  9
$UCSORGLEFT
 10
0.0
 20
0.0
 30
0.0
  9
$UCSORGRIGHT
 10
0.0
 20
0.0
 30
0.0
  9
$UCSORGFRONT
 10
0.0
 20
0.0
 30
0.0
  9
$UCSORGBACK
 10
0.0
 20
0.0
 30
0.0
  9
$PUCSBASE
  2

  9
$PUCSNAME
  2

  9
$PUCSORG
 10
0.0
 20
0.0
 30
0.0
  9
$PUCSXDIR
 10
1.0
 20
0.0
 30
0.0
  9
$PUCSYDIR
 10
0.0
 20
1.0
 30
0.0
  9
$PUCSORTHOREF
  2

  9
$PUCSORTHOVIEW
 70
     0
  9
$PUCSORGTOP
 10
0.0
 20
0.0
 30
0.0
  9
$PUCSORGBOTTOM
 10
0.0
 20
0.0
 30
0.0
  9
$PUCSORGLEFT
 10
0.0
 20
0.0
 30
0.0
  9
$PUCSORGRIGHT
 10
0.0
 20
0.0
 30
0.0
  9
$PUCSORGFRONT
 10
0.0
 20
0.0
 30
0.0
  9
$PUCSORGBACK
 10
0.0
 20
0.0
 30
0.0
  9
$USERI1
 70
     0
  9
$USERI2
 70
     0
  9
$USERI3
 70
     0
  9
$USERI4
 70
     0
  9
$USERI5
 70
     0
  9
$USERR1
 40
0.0
  9
$USERR2
 40
0.0
  9
$USERR3
 40
0.0
  9
$USERR4
 40
0.0
  9
$USERR5
 40
0.0
  9
$WORLDVIEW
 70
     1
  9
$SHADEDGE
 70
     3
  9
$SHADEDIF
 70
    70
  9
$TILEMODE
 70
     1
  9
$MAXACTVP
 70
    64
  9
$PINSBASE
 10
0.0
 20
0.0
 30
0.0
  9
$PLIMCHECK
 70
     0
  9
$PEXTMIN
 10
1.000000000000000E+20
 20
1.000000000000000E+20
 30
1.000000000000000E+20
  9
$PEXTMAX
 10
-1.000000000000000E+20
 20
-1.000000000000000E+20
 30
-1.000000000000000E+20
  9
$PLIMMIN
 10
0.0
 20
0.0
  9
$PLIMMAX
 10
12.0
 20
9.0
  9
$UNITMODE
 70
     0
  9
$VISRETAIN
 70
     1
  9
$PLINEGEN
 70
     0
  9
$PSLTSCALE
 70
     1
  9
$TREEDEPTH
 70
  3020
  9
$CMLSTYLE
  2
Standard
  9
$CMLJUST
 70
     0
  9
$CMLSCALE
 40
1.0
  9
$PROXYGRAPHICS
 70
     1
  9
$MEASUREMENT
 70
     0
  9
$CELWEIGHT
370
    -1
  9
$ENDCAPS
280
     0
  9
$JOINSTYLE
280
     0
  9
$LWDISPLAY
290
     0
  9
$INSUNITS
 70
     1
  9
$HYPERLINKBASE
  1

  9
$STYLESHEET
  1
Monochrome.ctb
  9
$XEDIT
290
     1
  9
$CEPSNTYPE
380
     0
  9
$PSTYLEMODE
290
     1
  9
$FINGERPRINTGUID
  2
{168A8766-4015-4ABD-915A-AD1ECBE2E3C2}
  9
$VERSIONGUID
  2
{6A0D3B91-474E-4BA0-B43C-48259A544512}
  9
$EXTNAMES
290
     1
  9
$PSVPSCALE
 40
0.0
  9
$OLESTARTUP
290
     0
  0
ENDSEC
  0
SECTION
  2
CLASSES
  0
CLASS
  1
ACDBDICTIONARYWDFLT
  2
AcDbDictionaryWithDefault
  3
ObjectDBX Classes
 90
        0
280
     0
281
     0
  0
CLASS
  1
VISUALSTYLE
  2
AcDbVisualStyle
  3
ObjectDBX Classes
 90
     4095
280
     0
281
     0
  0
CLASS
  1
DIMASSOC
  2
AcDbDimAssoc
  3
"AcDbDimAssoc|Product Desc:     AcDim ARX App For Dimension|Company:          Autodesk, Inc.|WEB Address:      www.autodesk.com"
 90
    32768
280
     0
281
     0
  0
CLASS
  1
MATERIAL
  2
AcDbMaterial
  3
ObjectDBX Classes
 90
     1024
280
     0
281
     0
  0
CLASS
  1
TABLESTYLE
  2
AcDbTableStyle
  3
ObjectDBX Classes
 90
     4095
280
     0
281
     0
  0
CLASS
  1
DICTIONARYVAR
  2
AcDbDictionaryVar
  3
ObjectDBX Classes
 90
        0
280
     0
281
     0
  0
CLASS
  1
SORTENTSTABLE
  2
AcDbSortentsTable
  3
ObjectDBX Classes
 90
    32768
280
     0
281
     0
  0
CLASS
  1
ACDBPLACEHOLDER
  2
AcDbPlaceHolder
  3
ObjectDBX Classes
 90
        0
280
     0
281
     0
  0
CLASS
  1
LAYOUT
  2
AcDbLayout
  3
ObjectDBX Classes
 90
        0
280
     0
281
     0
  0
ENDSEC
  0
SECTION
  2
TABLES
  0
TABLE
  2
VPORT
  5
8
330
0
100
AcDbSymbolTable
 70
     1
  0
VPORT
  5
27
330
8
100
AcDbSymbolTableRecord
100
AcDbViewportTableRecord
  2
*Active
 70
     0
 10
0.0
 20
0.0
 11
1.0
 21
1.0
 12
670.4772947451329
 22
334.1908117688892
 13
0.0
 23
0.0
 14
0.5
 24
0.5
 15
0.5
 25
0.5
 16
0.0
 26
0.0
 36
1.0
 17
0.0
 27
0.0
 37
0.0
 40
736.9270905994
 41
2.294999999999999
 42
50.0
 43
0.0
 44
0.0
 50
0.0
 51
0.0
 71
     0
 72
   100
 73
     1
 74
     3
 75
     1
 76
     0
 77
     0
 78
     0
281
     0
 65
     1
110
0.0
120
0.0
130
0.0
111
1.0
121
0.0
131
0.0
112
0.0
122
1.0
132
0.0
 79
     0
146
0.0
  0
ENDTAB
  0
TABLE
  2
LTYPE
  5
5
330
0
100
AcDbSymbolTable
 70
     6
  0
LTYPE
  5
14
330
5
100
AcDbSymbolTableRecord
100
AcDbLinetypeTableRecord
  2
ByBlock
 70
     0
  3

 72
    65
 73
     0
 40
0.0
  0
LTYPE
  5
15
330
5
100
AcDbSymbolTableRecord
100
AcDbLinetypeTableRecord
  2
ByLayer
 70
     0
  3

 72
    65
 73
     0
 40
0.0
  0
LTYPE
  5
16
330
5
100
AcDbSymbolTableRecord
100
AcDbLinetypeTableRecord
  2
Continuous
 70
     0
  3
Solid line
 72
    65
 73
     0
 40
0.0
  0
LTYPE
  5
5B
330
5
100
AcDbSymbolTableRecord
100
AcDbLinetypeTableRecord
  2
CENTERX2
 70
     0
  3
Center (2x) ________  __  ________  __  _____
 72
    65
 73
     4
 40
101.6
 49
63.5
 74
     4
 75
     0
340
0
 46
1.0
 50
0.0
 44
0.0
 45
0.0
 49
-12.7
 74
     4
 75
     0
340
0
 46
1.0
 50
0.0
 44
0.0
 45
0.0
 49
12.7
 74
     4
 75
     0
340
0
 46
1.0
 50
0.0
 44
0.0
 45
0.0
 49
-12.7
 74
     4
 75
     0
340
0
 46
1.0
 50
0.0
 44
0.0
 45
0.0
  0
LTYPE
  5
192
330
5
100
AcDbSymbolTableRecord
100
AcDbLinetypeTableRecord
  2
CENTER
 70
     0
  3
Center ____ _ ____ _ ____ _ ____ _ ____ _ ____
 72
    65
 73
     4
 40
50.8
 49
31.75
 74
     4
 75
     0
340
0
 46
1.0
 50
0.0
 44
0.0
 45
0.0
 49
-6.349999999999999
 74
     4
 75
     0
340
0
 46
1.0
 50
0.0
 44
0.0
 45
0.0
 49
6.349999999999999
 74
     4
 75
     0
340
0
 46
1.0
 50
0.0
 44
0.0
 45
0.0
 49
-6.349999999999999
 74
     4
 75
     0
340
0
 46
1.0
 50
0.0
 44
0.0
 45
0.0
  0
LTYPE
  5
112E
330
5
100
AcDbSymbolTableRecord
100
AcDbLinetypeTableRecord
  2
DASHED
 70
     0
  3
Dashed __ __ __ __ __ __ __ __ __ __ __ __ __ _
 72
    65
 73
     2
 40
19.05
 49
12.7
 74
     4
 75
     0
340
0
 46
1.0
 50
0.0
 44
0.0
 45
0.0
 49
-6.349999999999999
 74
     4
 75
     0
340
0
 46
1.0
 50
0.0
 44
0.0
 45
0.0
  0
LTYPE
  5
121B
330
5
100
AcDbSymbolTableRecord
100
AcDbLinetypeTableRecord
  2
ACAD_ISO02W100
 70
     0
  3
ISO dash __ __ __ __ __ __ __ __ __ __ __ __ __
 72
    65
 73
     2
 40
15.0
 49
12.0
 74
     4
 75
     0
340
0
 46
1.0
 50
0.0
 44
0.0
 45
0.0
 49
-3.0
 74
     4
 75
     0
340
0
 46
1.0
 50
0.0
 44
0.0
 45
0.0
  0
LTYPE
  5
121C
330
5
100
AcDbSymbolTableRecord
100
AcDbLinetypeTableRecord
  2
DIVIDE
 70
     0
  3
Divide ____ . . ____ . . ____ . . ____ . . ____
 72
    65
 73
     6
 40
31.75
 49
12.7
 74
     4
 75
     0
340
0
 46
1.0
 50
0.0
 44
0.0
 45
0.0
 49
-6.349999999999999
 74
     4
 75
     0
340
0
 46
1.0
 50
0.0
 44
0.0
 45
0.0
 49
0.0
 74
     4
 75
     0
340
0
 46
1.0
 50
0.0
 44
0.0
 45
0.0
 49
-6.349999999999999
 74
     4
 75
     0
340
0
 46
1.0
 50
0.0
 44
0.0
 45
0.0
 49
0.0
 74
     4
 75
     0
340
0
 46
1.0
 50
0.0
 44
0.0
 45
0.0
 49
-6.349999999999999
 74
     4
 75
     0
340
0
 46
1.0
 50
0.0
 44
0.0
 45
0.0
  0
ENDTAB
  0
TABLE
  2
LAYER
  5
2
102
{ACAD_XDICTIONARY
360
36E2
102
}
330
0
100
AcDbSymbolTable
 70
    17
  0
LAYER
  5
10
330
2
100
AcDbSymbolTableRecord
100
AcDbLayerTableRecord
  2
0
 70
     0
 62
     7
  6
Continuous
370
    -3
390
F
  0
LAYER
  5
5C
330
2
100
AcDbSymbolTableRecord
100
AcDbLayerTableRecord
  2
粗实线
 70
     0
 62
     7
  6
Continuous
370
    30
390
F
1001
AcAecLayerStandard
1000

1000

  0
LAYER
  5
5D
330
2
100
AcDbSymbolTableRecord
100
AcDbLayerTableRecord
  2
中心线
 70
     0
 62
     1
  6
CENTERX2
370
    15
390
F
1001
AcAecLayerStandard
1000

1000

  0
LAYER
  5
5E
330
2
100
AcDbSymbolTableRecord
100
AcDbLayerTableRecord
  2
标注
 70
     0
 62
     4
  6
Continuous
370
    15
390
F
1001
AcAecLayerStandard
1000

1000

  0
LAYER
  5
5F
330
2
100
AcDbSymbolTableRecord
100
AcDbLayerTableRecord
  2
Defpoints
 70
     0
 62
     7
  6
Continuous
290
     0
370
    -3
390
F
  0
LAYER
  5
118
330
2
100
AcDbSymbolTableRecord
100
AcDbLayerTableRecord
  2
图层1粗线
 70
     0
 62
     7
  6
Continuous
370
    -3
390
F
1001
AcAecLayerStandard
1000

1000

  0
LAYER
  5
193
330
2
100
AcDbSymbolTableRecord
100
AcDbLayerTableRecord
  2
细实线
 70
     0
 62
     3
  6
Continuous
370
    15
390
F
1001
AcAecLayerStandard
1000

1000

  0
LAYER
  5
357
330
2
100
AcDbSymbolTableRecord
100
AcDbLayerTableRecord
  2
图层2
 70
     0
 62
     7
  6
Continuous
370
    30
390
F
1001
AcAecLayerStandard
1000

1000

  0
LAYER
  5
358
330
2
100
AcDbSymbolTableRecord
100
AcDbLayerTableRecord
  2
图层3
 70
     0
 62
     7
  6
Continuous
370
    18
390
F
1001
AcAecLayerStandard
1000

1000

  0
LAYER
  5
4E7
330
2
100
AcDbSymbolTableRecord
100
AcDbLayerTableRecord
  2
文字
 70
     0
 62
     1
  6
Continuous
370
    15
390
F
1001
AcAecLayerStandard
1000

1000

  0
LAYER
  5
4E8
330
2
100
AcDbSymbolTableRecord
100
AcDbLayerTableRecord
  2
不可见
 70
     0
 62
     2
  6
Continuous
290
     0
370
    15
390
F
1001
AcAecLayerStandard
1000

1000

  0
LAYER
  5
4E9
330
2
100
AcDbSymbolTableRecord
100
AcDbLayerTableRecord
  2
图层2细线
 70
     0
 62
     3
  6
Continuous
370
    -3
390
F
1001
AcAecLayerStandard
1000

1000

  0
LAYER
  5
4EA
330
2
100
AcDbSymbolTableRecord
100
AcDbLayerTableRecord
  2
图框线
 70
     0
 62
     7
  6
Continuous
370
    13
390
F
1001
AcAecLayerStandard
1000

1000

  0
LAYER
  5
4EB
330
2
100
AcDbSymbolTableRecord
100
AcDbLayerTableRecord
  2
图层 1
 70
     0
 62
     7
  6
Continuous
370
    -3
390
F
  0
LAYER
  5
112F
330
2
100
AcDbSymbolTableRecord
100
AcDbLayerTableRecord
  2
图层1
 70
     0
 62
     7
  6
DASHED
370
    25
390
F
1001
AcAecLayerStandard
1000

1000

  0
LAYER
  5
121D
330
2
100
AcDbSymbolTableRecord
100
AcDbLayerTableRecord
  2
虚线
 70
     0
 62
     2
  6
ACAD_ISO02W100
370
    15
390
F
1001
AcAecLayerStandard
1000

1000

  0
LAYER
  5
121E
330
2
100
AcDbSymbolTableRecord
100
AcDbLayerTableRecord
  2
剖切线
 70
     0
 62
   241
  6
Continuous
370
    15
390
F
1001
AcAecLayerStandard
1000

1000

  0
ENDTAB
  0
TABLE
  2
STYLE
  5
3
330
0
100
AcDbSymbolTable
 70
     5
  0
STYLE
  5
11
330
3
100
AcDbSymbolTableRecord
100
AcDbTextStyleTableRecord
  2
Standard
 70
     0
 40
0.0
 41
1.0
 50
0.0
 71
     0
 42
0.2
  3
txt
  4

  0
STYLE
  5
5A
330
3
100
AcDbSymbolTableRecord
100
AcDbTextStyleTableRecord
  2
样式 8
 70
     0
 40
10.0
 41
0.7
 50
0.0
 71
     0
 42
10.0
  3
txt.shx
  4
gbcbig.shx
  0
STYLE
  5
117
330
3
100
AcDbSymbolTableRecord
100
AcDbTextStyleTableRecord
  2
样式 1
 70
     0
 40
5.0
 41
1.0
 50
0.0
 71
     0
 42
5.0
  3
txt.shx
  4
gbcbig.shx
  0
STYLE
  5
356
330
3
100
AcDbSymbolTableRecord
100
AcDbTextStyleTableRecord
  2
样式 2
 70
     0
 40
0.0
 41
0.35
 50
0.0
 71
     0
 42
2.5
  3
txt.shx
  4
gbcbig.shx
  0
STYLE
  5
4E6
330
3
100
AcDbSymbolTableRecord
100
AcDbTextStyleTableRecord
  2
样式 3
 70
     0
 40
3.5
 41
0.7
 50
0.0
 71
     0
 42
5.0
  3
txt.shx
  4
gbcbig.shx
  0
ENDTAB
  0
TABLE
  2
VIEW
  5
6
330
0
100
AcDbSymbolTable
 70
     0
  0
ENDTAB
  0
TABLE
  2
UCS
  5
7
330
0
100
AcDbSymbolTable
 70
     0
  0
ENDTAB
  0
TABLE
  2
APPID
  5
9
330
0
100
AcDbSymbolTable
 70
    55
  0
APPID
  5
12
330
9
100
AcDbSymbolTableRecord
100
AcDbRegAppTableRecord
  2
ACAD
 70
     0
  0
APPID
  5
3B
330
9
100
AcDbSymbolTableRecord
100
AcDbRegAppTableRecord
  2
ACAD_PSEXT
 70
     0
  0
APPID
  5
3C
330
9
100
AcDbSymbolTableRecord
100
AcDbRegAppTableRecord
  2
AcAecLayerStandard
 70
     0
  0
APPID
  5
3D
330
9
100
AcDbSymbolTableRecord
100
AcDbRegAppTableRecord
  2
ACAD_DSTYLE_DIMTEXT_FILL
 70
     0
  0
APPID
  5
3E
330
9
100
AcDbSymbolTableRecord
100
AcDbRegAppTableRecord
  2
DCO15
 70
     0
  0
APPID
  5
3F
330
9
100
AcDbSymbolTableRecord
100
AcDbRegAppTableRecord
  2
ACAD_DSTYLE_DIMEXT_LENGTH
 70
     0
  0
APPID
  5
40
330
9
100
AcDbSymbolTableRecord
100
AcDbRegAppTableRecord
  2
ACAD_DSTYLE_DIMEXT_ENABLED
 70
     0
  0
APPID
  5
41
330
9
100
AcDbSymbolTableRecord
100
AcDbRegAppTableRecord
  2
ACAD_DSTYLE_DIM_LINETYPE
 70
     0
  0
APPID
  5
42
330
9
100
AcDbSymbolTableRecord
100
AcDbRegAppTableRecord
  2
ACAD_DSTYLE_DIM_EXT1_LINETYPE
 70
     0
  0
APPID
  5
43
330
9
100
AcDbSymbolTableRecord
100
AcDbRegAppTableRecord
  2
ACAD_DSTYLE_DIM_EXT2_LINETYPE
 70
     0
  0
APPID
  5
44
330
9
100
AcDbSymbolTableRecord
100
AcDbRegAppTableRecord
  2
ACAD_EXEMPT_FROM_CAD_STANDARDS
 70
     0
  0
APPID
  5
45
330
9
100
AcDbSymbolTableRecord
100
AcDbRegAppTableRecord
  2
AcadAnnoPO
 70
     0
  0
APPID
  5
46
330
9
100
AcDbSymbolTableRecord
100
AcDbRegAppTableRecord
  2
AcadAnnotative
 70
     0
  0
APPID
  5
47
330
9
100
AcDbSymbolTableRecord
100
AcDbRegAppTableRecord
  2
ACAD_DSTYLE_DIMJAG
 70
     0
  0
APPID
  5
48
330
9
100
AcDbSymbolTableRecord
100
AcDbRegAppTableRecord
  2
ACAD_DSTYLE_DIMTALN
 70
     0
  0
APPID
  5
49
330
9
100
AcDbSymbolTableRecord
100
AcDbRegAppTableRecord
  2
ACAD_MLEADERVER
 70
     0
  0
APPID
  5
4A
330
9
100
AcDbSymbolTableRecord
100
AcDbRegAppTableRecord
  2
ACAD_DSTYLE_DIMRADIAL_EXTENSION
 70
     0
  0
APPID
  5
4B
330
9
100
AcDbSymbolTableRecord
100
AcDbRegAppTableRecord
  2
ACAD_DSTYLE_DIMBREAK
 70
     0
  0
APPID
  5
4C
330
9
100
AcDbSymbolTableRecord
100
AcDbRegAppTableRecord
  2
ACAD_DSTYLE_DIMARC_LENGTH_SYMBOL
 70
     0
  0
APPID
  5
4D
330
9
100
AcDbSymbolTableRecord
100
AcDbRegAppTableRecord
  2
ACAD_DSTYLE_DIMJOGGED_JOGANGLE_SYMBOL
 70
     0
  0
APPID
  5
4E
330
9
100
AcDbSymbolTableRecord
100
AcDbRegAppTableRecord
  2
MCAD_NO_VIS
 70
     0
  0
APPID
  5
4F
330
9
100
AcDbSymbolTableRecord
100
AcDbRegAppTableRecord
  2
ACAD_TEMP_GRAPHIC
 70
     0
  0
APPID
  5
50
330
9
100
AcDbSymbolTableRecord
100
AcDbRegAppTableRecord
  2
AD_DRAW
 70
     0
  0
APPID
  5
51
330
9
100
AcDbSymbolTableRecord
100
AcDbRegAppTableRecord
  2
ACATTRIBSERVICES
 70
     0
  0
APPID
  5
52
330
9
100
AcDbSymbolTableRecord
100
AcDbRegAppTableRecord
  2
DESIGNERASSEMBLIES
 70
     0
  0
APPID
  5
53
330
9
100
AcDbSymbolTableRecord
100
AcDbRegAppTableRecord
  2
ACADM_DIM_EDIT
 70
     0
  0
APPID
  5
54
330
9
100
AcDbSymbolTableRecord
100
AcDbRegAppTableRecord
  2
AMDT_DM_ADJ
 70
     0
  0
APPID
  5
55
330
9
100
AcDbSymbolTableRecord
100
AcDbRegAppTableRecord
  2
GENIUS_GENODEF_13
 70
     0
  0
APPID
  5
56
330
9
100
AcDbSymbolTableRecord
100
AcDbRegAppTableRecord
  2
GENIUS_GENOBJ-N-FIL_13
 70
     0
  0
APPID
  5
57
330
9
100
AcDbSymbolTableRecord
100
AcDbRegAppTableRecord
  2
ACAD_DIMASSOC_CALC_DIMLFAC
 70
     0
  0
APPID
  5
58
330
9
100
AcDbSymbolTableRecord
100
AcDbRegAppTableRecord
  2
ACAD_DIMASSOC_DIMLFAC
 70
     0
  0
APPID
  5
59
330
9
100
AcDbSymbolTableRecord
100
AcDbRegAppTableRecord
  2
ACAD_DIMASSOC_OVERRIDDEN_DIMLFAC
 70
     0
  0
APPID
  5
4E5
330
9
100
AcDbSymbolTableRecord
100
AcDbRegAppTableRecord
  2
CAXA
 70
     0
  0
APPID
  5
1BF7
330
9
100
AcDbSymbolTableRecord
100
AcDbRegAppTableRecord
  2
AVE_RENDER
 70
     0
  0
APPID
  5
1BF8
330
9
100
AcDbSymbolTableRecord
100
AcDbRegAppTableRecord
  2
AVE_ENTITY_MATERIAL
 70
     0
  0
APPID
  5
1BF9
330
9
100
AcDbSymbolTableRecord
100
AcDbRegAppTableRecord
  2
AVE_FINISH
 70
     0
  0
APPID
  5
1BFA
330
9
100
AcDbSymbolTableRecord
100
AcDbRegAppTableRecord
  2
AVE_MATERIAL
 70
     0
  0
APPID
  5
1BFB
330
9
100
AcDbSymbolTableRecord
100
AcDbRegAppTableRecord
  2
AVE_GLOBAL
 70
     0
  0
APPID
  5
1BFC
330
9
100
AcDbSymbolTableRecord
100
AcDbRegAppTableRecord
  2
GENIUS_GENBLLY_14
 70
     0
  0
APPID
  5
1BFD
330
9
100
AcDbSymbolTableRecord
100
AcDbRegAppTableRecord
  2
ODA
 70
     0
  0
APPID
  5
1BFE
330
9
100
AcDbSymbolTableRecord
100
AcDbRegAppTableRecord
  2
RAK
 70
     0
  0
APPID
  5
1BFF
330
9
100
AcDbSymbolTableRecord
100
AcDbRegAppTableRecord
  2
AcDbDynamicBlockGUID
 70
     0
  0
APPID
  5
1C00
330
9
100
AcDbSymbolTableRecord
100
AcDbRegAppTableRecord
  2
AcDbBlockRepETag
 70
     0
  0
APPID
  5
1C01
330
9
100
AcDbSymbolTableRecord
100
AcDbRegAppTableRecord
  2
ACAUTHENVIRON
 70
     0
  0
APPID
  5
1C02
330
9
100
AcDbSymbolTableRecord
100
AcDbRegAppTableRecord
  2
AcDbDynamicBlockTrueName
 70
     0
  0
APPID
  5
48A3
330
9
100
AcDbSymbolTableRecord
100
AcDbRegAppTableRecord
  2
AcDbAttr
 70
     0
  0
APPID
  5
4974
330
9
100
AcDbSymbolTableRecord
100
AcDbRegAppTableRecord
  2
AcDbBlockRepBTag
 70
     0
  0
APPID
  5
4A0E
330
9
100
AcDbSymbolTableRecord
100
AcDbRegAppTableRecord
  2
AcadStringInfo
 70
     0
  0
APPID
  5
4BD9
330
9
100
AcDbSymbolTableRecord
100
AcDbRegAppTableRecord
  2
ACAD_NAV_VCDISPLAY
 70
     0
  0
APPID
  5
4BDA
330
9
100
AcDbSymbolTableRecord
100
AcDbRegAppTableRecord
  2
ACAD_DSTYLE_DIMANGULAR_EXT
 70
     0
  0
APPID
  5
4BDB
330
9
100
AcDbSymbolTableRecord
100
AcDbRegAppTableRecord
  2
ACAD_DSTYLE_DIMFLIPARROW_W
 70
     0
  0
APPID
  5
4BDC
330
9
100
AcDbSymbolTableRecord
100
AcDbRegAppTableRecord
  2
ACAD_DSTYLE_DIMJOGGED_JOGA
 70
     0
  0
APPID
  5
4BDD
330
9
100
AcDbSymbolTableRecord
100
AcDbRegAppTableRecord
  2
ACAD_DSTYLE_DIMINSPECT
 70
     0
  0
APPID
  5
4BDE
330
9
100
AcDbSymbolTableRecord
100
AcDbRegAppTableRecord
  2
GENIUS_GENOREF_13
 70
     0
  0
APPID
  5
4BDF
330
9
100
AcDbSymbolTableRecord
100
AcDbRegAppTableRecord
  2
ACADANNOMONITORALERTICONDI
 70
     0
  0
ENDTAB
  0
TABLE
  2
DIMSTYLE
  5
A
330
0
100
AcDbSymbolTable
 70
     6
100
AcDbDimStyleTable
 71
     1
340
25
  0
DIMSTYLE
105
25
330
A
100
AcDbSymbolTableRecord
100
AcDbDimStyleTableRecord
  2
Standard
 70
     0
340
11
  0
DIMSTYLE
105
60
330
A
100
AcDbSymbolTableRecord
100
AcDbDimStyleTableRecord
  2
副本 (3) ISO-25 4
 70
     0
 41
14.0
 42
0.0
 43
10.0
 44
6.0
 73
     0
 74
     0
 77
     1
 78
     8
140
20.0
141
7.5
143
0.03937007874016
147
1.5
171
     3
172
     1
271
     1
272
     1
274
     3
283
     0
284
     8
340
11
  0
DIMSTYLE
105
119
330
A
100
AcDbSymbolTableRecord
100
AcDbDimStyleTableRecord
  2
副本 ISO-25
 70
     0
 41
12.0
 42
0.0
 43
10.0
 44
5.0
 73
     0
 74
     0
 77
     1
 78
     8
140
18.0
141
1.5
143
0.03937007874016
147
1.5
171
     3
172
     1
271
     1
272
     1
274
     3
278
    44
283
     0
284
     8
340
11
  0
DIMSTYLE
105
359
330
A
100
AcDbSymbolTableRecord
100
AcDbDimStyleTableRecord
  2
ISO-25
 70
     0
 41
17.0
 42
3.0
 43
3.75
 44
1.25
 73
     0
 77
     1
 78
     8
140
19.0
141
80.0
143
0.03937007874016
147
7.0
170
     1
171
     3
172
     1
271
     2
272
     2
273
     7
274
     3
283
     0
284
     8
340
11
  0
DIMSTYLE
105
4EC
330
A
100
AcDbSymbolTableRecord
100
AcDbDimStyleTableRecord
  2
英寸
 70
     0
 41
12.0
 42
0.0
 43
10.0
 44
3.75
 73
     0
 74
     0
 77
     1
 78
     8
140
16.0
141
7.5
143
0.03937007874016
147
2.0
170
     1
171
     3
172
     1
179
     1
271
     1
272
     1
273
     7
274
     3
283
     0
284
     8
340
11
  0
DIMSTYLE
105
4A9B
330
A
100
AcDbSymbolTableRecord
100
AcDbDimStyleTableRecord
  2
LXF
 70
     0
 41
18.0
 42
0.0
 43
10.0
 44
2.5
 73
     0
 74
     0
 77
     1
 78
     8
140
20.0
141
0.0
143
0.03937007874016
147
3.0
171
     3
172
     1
178
     6
179
     1
271
     1
272
     1
274
     3
283
     0
284
     8
340
11
  0
ENDTAB
  0
TABLE
  2
BLOCK_RECORD
  5
1
330
0
100
AcDbSymbolTable
 70
    32
  0
BLOCK_RECORD
  5
1F
330
1
100
AcDbSymbolTableRecord
100
AcDbBlockTableRecord
  2
*Model_Space
340
22
  0
BLOCK_RECORD
  5
1B
330
1
100
AcDbSymbolTableRecord
100
AcDbBlockTableRecord
  2
*Paper_Space
340
1E
  0
BLOCK_RECORD
  5
23
330
1
100
AcDbSymbolTableRecord
100
AcDbBlockTableRecord
  2
*Paper_Space0
340
24
  0
BLOCK_RECORD
  5
4256
330
1
100
AcDbSymbolTableRecord
100
AcDbBlockTableRecord
  2
*D1
340
0
  0
BLOCK_RECORD
  5
4264
330
1
100
AcDbSymbolTableRecord
100
AcDbBlockTableRecord
  2
*D2
340
0
  0
BLOCK_RECORD
  5
4272
330
1
100
AcDbSymbolTableRecord
100
AcDbBlockTableRecord
  2
*D3
340
0
  0
BLOCK_RECORD
  5
427E
330
1
100
AcDbSymbolTableRecord
100
AcDbBlockTableRecord
  2
*D4
340
0
  0
BLOCK_RECORD
  5
428A
330
1
100
AcDbSymbolTableRecord
100
AcDbBlockTableRecord
  2
*D5
340
0
  0
BLOCK_RECORD
  5
4296
330
1
100
AcDbSymbolTableRecord
100
AcDbBlockTableRecord
  2
*D6
340
0
  0
BLOCK_RECORD
  5
42A2
330
1
100
AcDbSymbolTableRecord
100
AcDbBlockTableRecord
  2
*D7
340
0
  0
BLOCK_RECORD
  5
42AE
330
1
100
AcDbSymbolTableRecord
100
AcDbBlockTableRecord
  2
*D8
340
0
  0
BLOCK_RECORD
  5
47F1
330
1
100
AcDbSymbolTableRecord
100
AcDbBlockTableRecord
  2
*D9
340
0
  0
BLOCK_RECORD
  5
47FE
330
1
100
AcDbSymbolTableRecord
100
AcDbBlockTableRecord
  2
*D10
340
0
  0
BLOCK_RECORD
  5
480B
330
1
100
AcDbSymbolTableRecord
100
AcDbBlockTableRecord
  2
*D11
340
0
  0
BLOCK_RECORD
  5
4818
330
1
100
AcDbSymbolTableRecord
100
AcDbBlockTableRecord
  2
*D12
340
0
  0
BLOCK_RECORD
  5
4825
330
1
100
AcDbSymbolTableRecord
100
AcDbBlockTableRecord
  2
*D13
340
0
  0
BLOCK_RECORD
  5
4832
330
1
100
AcDbSymbolTableRecord
100
AcDbBlockTableRecord
  2
*D14
340
0
  0
BLOCK_RECORD
  5
4A86
330
1
100
AcDbSymbolTableRecord
100
AcDbBlockTableRecord
  2
*D15
340
0
  0
BLOCK_RECORD
  5
4A96
330
1
100
AcDbSymbolTableRecord
100
AcDbBlockTableRecord
  2
*D16
340
0
  0
BLOCK_RECORD
  5
4CF9
330
1
100
AcDbSymbolTableRecord
100
AcDbBlockTableRecord
  2
*D17
340
0
  0
BLOCK_RECORD
  5
4D03
330
1
100
AcDbSymbolTableRecord
100
AcDbBlockTableRecord
  2
*D18
340
0
  0
BLOCK_RECORD
  5
4D23
330
1
100
AcDbSymbolTableRecord
100
AcDbBlockTableRecord
  2
*D19
340
0
  0
BLOCK_RECORD
  5
4D5A
330
1
100
AcDbSymbolTableRecord
100
AcDbBlockTableRecord
  2
*D20
340
0
  0
BLOCK_RECORD
  5
4D72
330
1
100
AcDbSymbolTableRecord
100
AcDbBlockTableRecord
  2
*D21
340
0
  0
BLOCK_RECORD
  5
4D7F
330
1
100
AcDbSymbolTableRecord
100
AcDbBlockTableRecord
  2
*D22
340
0
  0
BLOCK_RECORD
  5
4D8C
330
1
100
AcDbSymbolTableRecord
100
AcDbBlockTableRecord
  2
*D23
340
0
  0
BLOCK_RECORD
  5
4EBE
330
1
100
AcDbSymbolTableRecord
100
AcDbBlockTableRecord
  2
*D24
340
0
  0
BLOCK_RECORD
  5
4ECC
330
1
100
AcDbSymbolTableRecord
100
AcDbBlockTableRecord
  2
*D25
340
0
  0
BLOCK_RECORD
  5
4EDA
330
1
100
AcDbSymbolTableRecord
100
AcDbBlockTableRecord
  2
*D26
340
0
  0
BLOCK_RECORD
  5
4EE6
330
1
100
AcDbSymbolTableRecord
100
AcDbBlockTableRecord
  2
*D27
340
0
  0
BLOCK_RECORD
  5
4EF2
330
1
100
AcDbSymbolTableRecord
100
AcDbBlockTableRecord
  2
*D28
340
0
  0
BLOCK_RECORD
  5
4EFE
330
1
100
AcDbSymbolTableRecord
100
AcDbBlockTableRecord
  2
*D29
340
0
  0
BLOCK_RECORD
  5
4F0A
330
1
100
AcDbSymbolTableRecord
100
AcDbBlockTableRecord
  2
*D30
340
0
  0
BLOCK_RECORD
  5
4F16
330
1
100
AcDbSymbolTableRecord
100
AcDbBlockTableRecord
  2
*D31
340
0
  0
ENDTAB
  0
ENDSEC
  0
SECTION
  2
BLOCKS
  0
BLOCK
  5
20
330
1F
100
AcDbEntity
  8
0
100
AcDbBlockBegin
  2
*Model_Space
 70
     0
 10
0.0
 20
0.0
 30
0.0
  3
*Model_Space
  1

  0
ENDBLK
  5
21
330
1F
100
AcDbEntity
  8
0
100
AcDbBlockEnd
  0
BLOCK
  5
1C
330
1B
100
AcDbEntity
 67
     1
  8
0
100
AcDbBlockBegin
  2
*Paper_Space
 70
     0
 10
0.0
 20
0.0
 30
0.0
  3
*Paper_Space
  1

  0
ENDBLK
  5
1D
330
1B
100
AcDbEntity
 67
     1
  8
0
100
AcDbBlockEnd
  0
BLOCK
  5
39
330
23
100
AcDbEntity
 67
     1
  8
0
100
AcDbBlockBegin
  2
*Paper_Space0
 70
     0
 10
0.0
 20
0.0
 30
0.0
  3
*Paper_Space0
  1

  0
ENDBLK
  5
3A
330
23
100
AcDbEntity
 67
     1
  8
0
100
AcDbBlockEnd
  0
BLOCK
  5
4262
330
4256
100
AcDbEntity
  8
0
100
AcDbBlockBegin
  2
*D1
 70
     1
 10
0.0
 20
0.0
 30
0.0
  3
*D1
  1

  0
LINE
  5
45CE
330
4256
100
AcDbEntity
  8
标注
 62
     0
370
    -2
100
AcDbLine
 10
735.1499958891026
 20
358.4075833786769
 30
0.0
 11
735.1499958891026
 21
345.25
 31
0.0
  0
LINE
  5
45CF
330
4256
100
AcDbEntity
  8
标注
 62
     0
370
    -2
100
AcDbLine
 10
741.4999958891049
 20
358.4075833786696
 30
0.0
 11
741.4999958891049
 21
345.25
 31
0.0
  0
LINE
  5
45D0
330
4256
100
AcDbEntity
  8
标注
 62
     0
370
     0
100
AcDbLine
 10
746.4999958891048
 20
349.0
 30
0.0
 11
751.4999958891048
 21
349.0
 31
0.0
  0
LINE
  5
45D1
330
4256
100
AcDbEntity
  8
标注
 62
     0
370
     0
100
AcDbLine
 10
730.1499958891026
 20
349.0
 30
0.0
 11
662.0507462301667
 21
349.0
 31
0.0
  0
LINE
  5
45D2
330
4256
100
AcDbEntity
  8
标注
 62
     0
370
     0
100
AcDbLine
 10
741.4999958891049
 20
349.0
 30
0.0
 11
735.1499958891026
 21
349.0
 31
0.0
  0
SOLID
  5
45D3
330
4256
100
AcDbEntity
  8
标注
 62
     0
100
AcDbTrace
 10
746.4999958891048
 20
349.8333333333333
 30
0.0
 11
746.4999958891048
 21
348.1666666666667
 31
0.0
 12
741.4999958891049
 22
349.0
 32
0.0
 13
741.4999958891049
 23
349.0
 33
0.0
  0
SOLID
  5
45D4
330
4256
100
AcDbEntity
  8
标注
 62
     0
100
AcDbTrace
 10
730.1499958891026
 20
349.8333333333333
 30
0.0
 11
730.1499958891026
 21
348.1666666666667
 31
0.0
 12
735.1499958891026
 22
349.0
 32
0.0
 13
735.1499958891026
 23
349.0
 33
0.0
  0
MTEXT
  5
45D5
330
4256
100
AcDbEntity
  8
标注
 62
     0
100
AcDbMText
 10
688.5766671032909
 20
357.4733969986358
 30
0.0
 40
10.0
 41
0.0
 71
     5
 72
     1
  1
{\fArial|b0|i0|c0|p34;6.4 [1/4]}
 73
     1
 44
1.0
1001
ACAD
1000
MTEXTBEGIN
1070
    73
1070
     1
1070
    44
1040
1.0
1070
    74
1070
     0
1000
MTEXTEND
  0
POINT
  5
45D6
330
4256
100
AcDbEntity
  8
Defpoints
 62
     0
100
AcDbPoint
 10
735.1499958891026
 20
358.4075833786769
 30
0.0
  0
POINT
  5
45D7
330
4256
100
AcDbEntity
  8
Defpoints
 62
     0
100
AcDbPoint
 10
741.4999958891049
 20
358.4075833786696
 30
0.0
  0
POINT
  5
45D8
330
4256
100
AcDbEntity
  8
Defpoints
 62
     0
100
AcDbPoint
 10
741.4999958891049
 20
349.0
 30
0.0
  0
ENDBLK
  5
4263
330
4256
100
AcDbEntity
  8
0
100
AcDbBlockEnd
  0
BLOCK
  5
4270
330
4264
100
AcDbEntity
  8
0
100
AcDbBlockBegin
  2
*D2
 70
     1
 10
0.0
 20
0.0
 30
0.0
  3
*D2
  1

  0
LINE
  5
45D9
330
4264
100
AcDbEntity
  8
标注
 62
     0
370
    -2
100
AcDbLine
 10
741.4999958891049
 20
358.4075833786696
 30
0.0
 11
741.4999958891049
 21
323.75
 31
0.0
  0
LINE
  5
45DA
330
4264
100
AcDbEntity
  8
标注
 62
     0
370
    -2
100
AcDbLine
 10
747.849995889107
 20
358.4075833786769
 30
0.0
 11
747.849995889107
 21
323.75
 31
0.0
  0
LINE
  5
45DB
330
4264
100
AcDbEntity
  8
标注
 62
     0
370
     0
100
AcDbLine
 10
752.849995889107
 20
327.5
 30
0.0
 11
757.849995889107
 21
327.5
 31
0.0
  0
LINE
  5
45DC
330
4264
100
AcDbEntity
  8
标注
 62
     0
370
     0
100
AcDbLine
 10
736.4999958891048
 20
327.5
 30
0.0
 11
668.4007462301686
 21
327.5
 31
0.0
  0
LINE
  5
45DD
330
4264
100
AcDbEntity
  8
标注
 62
     0
370
     0
100
AcDbLine
 10
747.849995889107
 20
327.5
 30
0.0
 11
741.4999958891049
 21
327.5
 31
0.0
  0
SOLID
  5
45DE
330
4264
100
AcDbEntity
  8
标注
 62
     0
100
AcDbTrace
 10
752.849995889107
 20
328.3333333333333
 30
0.0
 11
752.849995889107
 21
326.6666666666667
 31
0.0
 12
747.849995889107
 22
327.5
 32
0.0
 13
747.849995889107
 23
327.5
 33
0.0
  0
SOLID
  5
45DF
330
4264
100
AcDbEntity
  8
标注
 62
     0
100
AcDbTrace
 10
736.4999958891048
 20
328.3333333333333
 30
0.0
 11
736.4999958891048
 21
326.6666666666667
 31
0.0
 12
741.4999958891049
 22
327.5
 32
0.0
 13
741.4999958891049
 23
327.5
 33
0.0
  0
MTEXT
  5
45E0
330
4264
100
AcDbEntity
  8
标注
 62
     0
100
AcDbMText
 10
694.9266671032928
 20
335.9733969986357
 30
0.0
 40
10.0
 41
0.0
 71
     5
 72
     1
  1
{\fArial|b0|i0|c0|p34;6.4 [1/4]}
 73
     1
 44
1.0
1001
ACAD
1000
MTEXTBEGIN
1070
    73
1070
     1
1070
    44
1040
1.0
1070
    74
1070
     0
1000
MTEXTEND
  0
POINT
  5
45E1
330
4264
100
AcDbEntity
  8
Defpoints
 62
     0
100
AcDbPoint
 10
741.4999958891049
 20
358.4075833786696
 30
0.0
  0
POINT
  5
45E2
330
4264
100
AcDbEntity
  8
Defpoints
 62
     0
100
AcDbPoint
 10
747.849995889107
 20
358.4075833786769
 30
0.0
  0
POINT
  5
45E3
330
4264
100
AcDbEntity
  8
Defpoints
 62
     0
100
AcDbPoint
 10
747.849995889107
 20
327.5
 30
0.0
  0
ENDBLK
  5
4271
330
4264
100
AcDbEntity
  8
0
100
AcDbBlockEnd
  0
BLOCK
  5
427C
330
4272
100
AcDbEntity
  8
0
100
AcDbBlockBegin
  2
*D3
 70
     1
 10
0.0
 20
0.0
 30
0.0
  3
*D3
  1

  0
LINE
  5
45E4
330
4272
100
AcDbEntity
  8
标注
 62
     0
370
    -2
100
AcDbLine
 10
741.4999958891069
 20
489.5
 30
0.0
 11
741.4999958891069
 21
558.75
 31
0.0
  0
LINE
  5
45E5
330
4272
100
AcDbEntity
  8
标注
 62
     0
370
    -2
100
AcDbLine
 10
408.4999958891046
 20
492.4999999999999
 30
0.0
 11
408.4999958891046
 21
558.75
 31
0.0
  0
LINE
  5
45E6
330
4272
100
AcDbEntity
  8
标注
 62
     0
370
     0
100
AcDbLine
 10
736.4999958891068
 20
555.0
 30
0.0
 11
413.4999958891046
 21
555.0
 31
0.0
  0
SOLID
  5
45E7
330
4272
100
AcDbEntity
  8
标注
 62
     0
100
AcDbTrace
 10
736.4999958891068
 20
555.8333333333333
 30
0.0
 11
736.4999958891068
 21
554.1666666666666
 31
0.0
 12
741.4999958891069
 22
555.0
 32
0.0
 13
741.4999958891069
 23
555.0
 33
0.0
  0
SOLID
  5
45E8
330
4272
100
AcDbEntity
  8
标注
 62
     0
100
AcDbTrace
 10
413.4999958891046
 20
555.8333333333333
 30
0.0
 11
413.4999958891046
 21
554.1666666666666
 31
0.0
 12
408.4999958891046
 22
555.0
 32
0.0
 13
408.4999958891046
 23
555.0
 33
0.0
  0
MTEXT
  5
45E9
330
4272
100
AcDbEntity
  8
标注
 62
     0
100
AcDbMText
 10
574.9999958891057
 20
563.4733969986357
 30
0.0
 40
10.0
 41
0.0
 71
     5
 72
     1
  1
{\fArial|b0|i0|c0|p34;333 [13 1/8]}
 73
     1
 44
1.0
1001
ACAD
1000
MTEXTBEGIN
1070
    73
1070
     1
1070
    44
1040
1.0
1070
    74
1070
     0
1000
MTEXTEND
  0
POINT
  5
45EA
330
4272
100
AcDbEntity
  8
Defpoints
 62
     0
100
AcDbPoint
 10
741.4999958891069
 20
489.5
 30
0.0
  0
POINT
  5
45EB
330
4272
100
AcDbEntity
  8
Defpoints
 62
     0
100
AcDbPoint
 10
408.4999958891046
 20
492.4999999999999
 30
0.0
  0
POINT
  5
45EC
330
4272
100
AcDbEntity
  8
Defpoints
 62
     0
100
AcDbPoint
 10
408.4999958891046
 20
555.0
 30
0.0
  0
ENDBLK
  5
427D
330
4272
100
AcDbEntity
  8
0
100
AcDbBlockEnd
  0
BLOCK
  5
4288
330
427E
100
AcDbEntity
  8
0
100
AcDbBlockBegin
  2
*D4
 70
     1
 10
0.0
 20
0.0
 30
0.0
  3
*D4
  1

  0
LINE
  5
45ED
330
427E
100
AcDbEntity
  8
标注
 62
     0
370
    -2
100
AcDbLine
 10
391.5
 20
494.9075763362108
 30
0.0
 11
332.7500000000001
 21
494.9075763362109
 31
0.0
  0
LINE
  5
45EE
330
427E
100
AcDbEntity
  8
标注
 62
     0
370
    -2
100
AcDbLine
 10
401.0
 20
221.9075763362143
 30
0.0
 11
332.7500000000001
 21
221.9075763362143
 31
0.0
  0
LINE
  5
45EF
330
427E
100
AcDbEntity
  8
标注
 62
     0
370
     0
100
AcDbLine
 10
336.5000000000001
 20
489.9075763362108
 30
0.0
 11
336.5000000000001
 21
226.9075763362143
 31
0.0
  0
SOLID
  5
45F0
330
427E
100
AcDbEntity
  8
标注
 62
     0
100
AcDbTrace
 10
335.6666666666668
 20
489.9075763362108
 30
0.0
 11
337.3333333333334
 21
489.9075763362108
 31
0.0
 12
336.5000000000001
 22
494.9075763362109
 32
0.0
 13
336.5000000000001
 23
494.9075763362109
 33
0.0
  0
SOLID
  5
45F1
330
427E
100
AcDbEntity
  8
标注
 62
     0
100
AcDbTrace
 10
335.6666666666667
 20
226.9075763362143
 30
0.0
 11
337.3333333333334
 21
226.9075763362143
 31
0.0
 12
336.5000000000001
 22
221.9075763362143
 32
0.0
 13
336.5000000000001
 23
221.9075763362143
 33
0.0
  0
MTEXT
  5
45F2
330
427E
100
AcDbEntity
  8
标注
 62
     0
100
AcDbMText
 10
328.0266030013643
 20
358.4075763362126
 30
0.0
 40
10.0
 41
0.0
 71
     5
 72
     1
  1
{\fArial|b0|i0|c0|p34;273 [10 3/4]}
 11
0.0000000000000001
 21
1.0
 31
0.0
 73
     1
 44
1.0
1001
ACAD
1000
MTEXTBEGIN
1070
    73
1070
     1
1070
    44
1040
1.0
1070
    74
1070
     0
1000
MTEXTEND
  0
POINT
  5
45F3
330
427E
100
AcDbEntity
  8
Defpoints
 62
     0
100
AcDbPoint
 10
391.5
 20
494.9075763362108
 30
0.0
  0
POINT
  5
45F4
330
427E
100
AcDbEntity
  8
Defpoints
 62
     0
100
AcDbPoint
 10
401.0
 20
221.9075763362143
 30
0.0
  0
POINT
  5
45F5
330
427E
100
AcDbEntity
  8
Defpoints
 62
     0
100
AcDbPoint
 10
336.5000000000001
 20
221.9075763362143
 30
0.0
  0
ENDBLK
  5
4289
330
427E
100
AcDbEntity
  8
0
100
AcDbBlockEnd
  0
BLOCK
  5
4294
330
428A
100
AcDbEntity
  8
0
100
AcDbBlockBegin
  2
*D5
 70
     1
 10
0.0
 20
0.0
 30
0.0
  3
*D5
  1

  0
LINE
  5
45F6
330
428A
100
AcDbEntity
  8
标注
 62
     0
370
    -2
100
AcDbLine
 10
747.849995889107
 20
487.0
 30
0.0
 11
747.849995889107
 21
580.75
 31
0.0
  0
LINE
  5
45F7
330
428A
100
AcDbEntity
  8
标注
 62
     0
370
    -2
100
AcDbLine
 10
402.1499958891046
 20
492.4999999999999
 30
0.0
 11
402.1499958891046
 21
580.75
 31
0.0
  0
LINE
  5
45F8
330
428A
100
AcDbEntity
  8
标注
 62
     0
370
     0
100
AcDbLine
 10
742.849995889107
 20
577.0
 30
0.0
 11
407.1499958891047
 21
577.0
 31
0.0
  0
SOLID
  5
45F9
330
428A
100
AcDbEntity
  8
标注
 62
     0
100
AcDbTrace
 10
742.849995889107
 20
577.8333333333334
 30
0.0
 11
742.849995889107
 21
576.1666666666666
 31
0.0
 12
747.849995889107
 22
577.0
 32
0.0
 13
747.849995889107
 23
577.0
 33
0.0
  0
SOLID
  5
45FA
330
428A
100
AcDbEntity
  8
标注
 62
     0
100
AcDbTrace
 10
407.1499958891047
 20
577.8333333333334
 30
0.0
 11
407.1499958891047
 21
576.1666666666666
 31
0.0
 12
402.1499958891046
 22
577.0
 32
0.0
 13
402.1499958891046
 23
577.0
 33
0.0
  0
MTEXT
  5
45FB
330
428A
100
AcDbEntity
  8
标注
 62
     0
100
AcDbMText
 10
574.9999958891057
 20
585.4733969986357
 30
0.0
 40
10.0
 41
0.0
 71
     5
 72
     1
  1
{\fArial|b0|i0|c0|p34;345.7 [13 5/8]}
 73
     1
 44
1.0
1001
ACAD
1000
MTEXTBEGIN
1070
    73
1070
     1
1070
    44
1040
1.0
1070
    74
1070
     0
1000
MTEXTEND
  0
POINT
  5
45FC
330
428A
100
AcDbEntity
  8
Defpoints
 62
     0
100
AcDbPoint
 10
747.849995889107
 20
487.0
 30
0.0
  0
POINT
  5
45FD
330
428A
100
AcDbEntity
  8
Defpoints
 62
     0
100
AcDbPoint
 10
402.1499958891046
 20
492.4999999999999
 30
0.0
  0
POINT
  5
45FE
330
428A
100
AcDbEntity
  8
Defpoints
 62
     0
100
AcDbPoint
 10
402.1499958891046
 20
577.0
 30
0.0
  0
ENDBLK
  5
4295
330
428A
100
AcDbEntity
  8
0
100
AcDbBlockEnd
  0
BLOCK
  5
42A0
330
4296
100
AcDbEntity
  8
0
100
AcDbBlockBegin
  2
*D6
 70
     1
 10
0.0
 20
0.0
 30
0.0
  3
*D6
  1

  0
LINE
  5
45FF
330
4296
100
AcDbEntity
  8
标注
 62
     0
370
    -2
100
AcDbLine
 10
390.0
 20
501.2575763362133
 30
0.0
 11
308.7500000000001
 21
501.2575763362134
 31
0.0
  0
LINE
  5
4600
330
4296
100
AcDbEntity
  8
标注
 62
     0
370
    -2
100
AcDbLine
 10
402.5
 20
215.5575763362149
 30
0.0
 11
308.7500000000001
 21
215.5575763362149
 31
0.0
  0
LINE
  5
4601
330
4296
100
AcDbEntity
  8
标注
 62
     0
370
     0
100
AcDbLine
 10
312.5000000000001
 20
496.2575763362133
 30
0.0
 11
312.5
 21
220.5575763362149
 31
0.0
  0
SOLID
  5
4602
330
4296
100
AcDbEntity
  8
标注
 62
     0
100
AcDbTrace
 10
311.6666666666668
 20
496.2575763362133
 30
0.0
 11
313.3333333333334
 21
496.2575763362133
 31
0.0
 12
312.5000000000001
 22
501.2575763362134
 32
0.0
 13
312.5000000000001
 23
501.2575763362134
 33
0.0
  0
SOLID
  5
4603
330
4296
100
AcDbEntity
  8
标注
 62
     0
100
AcDbTrace
 10
311.6666666666668
 20
220.5575763362149
 30
0.0
 11
313.3333333333334
 21
220.5575763362149
 31
0.0
 12
312.5
 22
215.5575763362149
 32
0.0
 13
312.5
 23
215.5575763362149
 33
0.0
  0
MTEXT
  5
4604
330
4296
100
AcDbEntity
  8
标注
 62
     0
100
AcDbMText
 10
304.0266030013643
 20
358.4075763362142
 30
0.0
 40
10.0
 41
0.0
 71
     5
 72
     1
  1
{\fArial|b0|i0|c0|p34;285.7 [11 1/4]}
 11
0.0000000000000001
 21
1.0
 31
0.0
 73
     1
 44
1.0
1001
ACAD
1000
MTEXTBEGIN
1070
    73
1070
     1
1070
    44
1040
1.0
1070
    74
1070
     0
1000
MTEXTEND
  0
POINT
  5
4605
330
4296
100
AcDbEntity
  8
Defpoints
 62
     0
100
AcDbPoint
 10
390.0
 20
501.2575763362133
 30
0.0
  0
POINT
  5
4606
330
4296
100
AcDbEntity
  8
Defpoints
 62
     0
100
AcDbPoint
 10
402.5
 20
215.5575763362149
 30
0.0
  0
POINT
  5
4607
330
4296
100
AcDbEntity
  8
Defpoints
 62
     0
100
AcDbPoint
 10
312.5
 20
215.5575763362149
 30
0.0
  0
ENDBLK
  5
42A1
330
4296
100
AcDbEntity
  8
0
100
AcDbBlockEnd
  0
BLOCK
  5
42AC
330
42A2
100
AcDbEntity
  8
0
100
AcDbBlockBegin
  2
*D7
 70
     1
 10
0.0
 20
0.0
 30
0.0
  3
*D7
  1

  0
LINE
  5
4608
330
42A2
100
AcDbEntity
  8
标注
 62
     0
370
    -2
100
AcDbLine
 10
735.1499958891061
 20
490.0
 30
0.0
 11
735.1499958891061
 21
536.5187636308839
 31
0.0
  0
LINE
  5
4609
330
42A2
100
AcDbEntity
  8
标注
 62
     0
370
    -2
100
AcDbLine
 10
414.849995889105
 20
495.0
 30
0.0
 11
414.849995889105
 21
536.5187636308839
 31
0.0
  0
LINE
  5
460A
330
42A2
100
AcDbEntity
  8
标注
 62
     0
370
     0
100
AcDbLine
 10
730.1499958891061
 20
532.768763630884
 30
0.0
 11
419.849995889105
 21
532.768763630884
 31
0.0
  0
SOLID
  5
460B
330
42A2
100
AcDbEntity
  8
标注
 62
     0
100
AcDbTrace
 10
730.1499958891061
 20
533.6020969642174
 30
0.0
 11
730.1499958891061
 21
531.9354302975506
 31
0.0
 12
735.1499958891061
 22
532.768763630884
 32
0.0
 13
735.1499958891061
 23
532.768763630884
 33
0.0
  0
SOLID
  5
460C
330
42A2
100
AcDbEntity
  8
标注
 62
     0
100
AcDbTrace
 10
419.849995889105
 20
533.6020969642174
 30
0.0
 11
419.849995889105
 21
531.9354302975506
 31
0.0
 12
414.849995889105
 22
532.768763630884
 32
0.0
 13
414.849995889105
 23
532.768763630884
 33
0.0
  0
MTEXT
  5
460D
330
42A2
100
AcDbEntity
  8
标注
 62
     0
100
AcDbMText
 10
574.9999958891055
 20
541.2421606295197
 30
0.0
 40
10.0
 41
0.0
 71
     5
 72
     1
  1
{\fArial|b0|i0|c0|p34;320.3 [12 5/8]}
 73
     1
 44
1.0
1001
ACAD
1000
MTEXTBEGIN
1070
    73
1070
     1
1070
    44
1040
1.0
1070
    74
1070
     0
1000
MTEXTEND
  0
POINT
  5
460E
330
42A2
100
AcDbEntity
  8
Defpoints
 62
     0
100
AcDbPoint
 10
735.1499958891061
 20
490.0
 30
0.0
  0
POINT
  5
460F
330
42A2
100
AcDbEntity
  8
Defpoints
 62
     0
100
AcDbPoint
 10
414.849995889105
 20
495.0
 30
0.0
  0
POINT
  5
4610
330
42A2
100
AcDbEntity
  8
Defpoints
 62
     0
100
AcDbPoint
 10
414.849995889105
 20
532.768763630884
 30
0.0
  0
ENDBLK
  5
42AD
330
42A2
100
AcDbEntity
  8
0
100
AcDbBlockEnd
  0
BLOCK
  5
42B8
330
42AE
100
AcDbEntity
  8
0
100
AcDbBlockBegin
  2
*D8
 70
     1
 10
0.0
 20
0.0
 30
0.0
  3
*D8
  1

  0
LINE
  5
4611
330
42AE
100
AcDbEntity
  8
标注
 62
     0
370
    -2
100
AcDbLine
 10
390.5
 20
488.5575763362116
 30
0.0
 11
356.0212890111076
 21
488.5575763362117
 31
0.0
  0
LINE
  5
4612
330
42AE
100
AcDbEntity
  8
标注
 62
     0
370
    -2
100
AcDbLine
 10
402.0
 20
228.2575763362187
 30
0.0
 11
356.0212890111075
 21
228.2575763362187
 31
0.0
  0
LINE
  5
4613
330
42AE
100
AcDbEntity
  8
标注
 62
     0
370
     0
100
AcDbLine
 10
359.7712890111076
 20
483.5575763362117
 30
0.0
 11
359.7712890111075
 21
233.2575763362187
 31
0.0
  0
SOLID
  5
4614
330
42AE
100
AcDbEntity
  8
标注
 62
     0
100
AcDbTrace
 10
358.9379556777743
 20
483.5575763362117
 30
0.0
 11
360.6046223444409
 21
483.5575763362117
 31
0.0
 12
359.7712890111076
 22
488.5575763362117
 32
0.0
 13
359.7712890111076
 23
488.5575763362117
 33
0.0
  0
SOLID
  5
4615
330
42AE
100
AcDbEntity
  8
标注
 62
     0
100
AcDbTrace
 10
358.9379556777742
 20
233.2575763362187
 30
0.0
 11
360.6046223444408
 21
233.2575763362187
 31
0.0
 12
359.7712890111075
 22
228.2575763362187
 32
0.0
 13
359.7712890111075
 23
228.2575763362187
 33
0.0
  0
MTEXT
  5
4616
330
42AE
100
AcDbEntity
  8
标注
 62
     0
100
AcDbMText
 10
351.2978920124717
 20
358.4075763362152
 30
0.0
 40
10.0
 41
0.0
 71
     5
 72
     1
  1
{\fArial|b0|i0|c0|p34;260.3 [10 1/4]}
 11
0.0000000000000001
 21
1.0
 31
0.0
 73
     1
 44
1.0
1001
ACAD
1000
MTEXTBEGIN
1070
    73
1070
     1
1070
    44
1040
1.0
1070
    74
1070
     0
1000
MTEXTEND
  0
POINT
  5
4617
330
42AE
100
AcDbEntity
  8
Defpoints
 62
     0
100
AcDbPoint
 10
390.5
 20
488.5575763362116
 30
0.0
  0
POINT
  5
4618
330
42AE
100
AcDbEntity
  8
Defpoints
 62
     0
100
AcDbPoint
 10
402.0
 20
228.2575763362187
 30
0.0
  0
POINT
  5
4619
330
42AE
100
AcDbEntity
  8
Defpoints
 62
     0
100
AcDbPoint
 10
359.7712890111075
 20
228.2575763362187
 30
0.0
  0
ENDBLK
  5
42B9
330
42AE
100
AcDbEntity
  8
0
100
AcDbBlockEnd
  0
BLOCK
  5
47F2
330
47F1
100
AcDbEntity
  8
0
100
AcDbBlockBegin
  2
*D9
 70
     1
 10
0.0
 20
0.0
 30
0.0
  3
*D9
  1

  0
LINE
  5
47F3
330
47F1
100
AcDbEntity
  8
标注
 62
     0
370
    -2
100
AcDbLine
 10
723.4999958891068
 20
-110.5
 30
0.0
 11
723.4999958891068
 21
-41.25
 31
0.0
  0
LINE
  5
47F4
330
47F1
100
AcDbEntity
  8
标注
 62
     0
370
    -2
100
AcDbLine
 10
390.4999958891047
 20
-107.5
 30
0.0
 11
390.4999958891047
 21
-41.25
 31
0.0
  0
LINE
  5
47F5
330
47F1
100
AcDbEntity
  8
标注
 62
     0
370
     0
100
AcDbLine
 10
718.4999958891069
 20
-45.0
 30
0.0
 11
395.4999958891047
 21
-45.0
 31
0.0
  0
SOLID
  5
47F6
330
47F1
100
AcDbEntity
  8
标注
 62
     0
100
AcDbTrace
 10
718.4999958891069
 20
-44.16666666666663
 30
0.0
 11
718.4999958891069
 21
-45.83333333333337
 31
0.0
 12
723.4999958891068
 22
-45.0
 32
0.0
 13
723.4999958891068
 23
-45.0
 33
0.0
  0
SOLID
  5
47F7
330
47F1
100
AcDbEntity
  8
标注
 62
     0
100
AcDbTrace
 10
395.4999958891047
 20
-44.16666666666663
 30
0.0
 11
395.4999958891047
 21
-45.83333333333337
 31
0.0
 12
390.4999958891047
 22
-45.0
 32
0.0
 13
390.4999958891047
 23
-45.0
 33
0.0
  0
MTEXT
  5
47F8
330
47F1
100
AcDbEntity
  8
标注
 62
     0
100
AcDbMText
 10
556.9999958891058
 20
-36.52660300136427
 30
0.0
 40
10.0
 41
0.0
 71
     5
 72
     1
  1
{\fArial|b0|i0|c0|p34;333 [13 1/8]}
 73
     1
 44
1.0
1001
ACAD
1000
MTEXTBEGIN
1070
    73
1070
     1
1070
    44
1040
1.0
1070
    74
1070
     0
1000
MTEXTEND
  0
POINT
  5
47F9
330
47F1
100
AcDbEntity
  8
Defpoints
 62
     0
100
AcDbPoint
 10
723.4999958891068
 20
-110.5
 30
0.0
  0
POINT
  5
47FA
330
47F1
100
AcDbEntity
  8
Defpoints
 62
     0
100
AcDbPoint
 10
390.4999958891047
 20
-107.5
 30
0.0
  0
POINT
  5
47FB
330
47F1
100
AcDbEntity
  8
Defpoints
 62
     0
100
AcDbPoint
 10
390.4999958891047
 20
-45.0
 30
0.0
  0
ENDBLK
  5
47FC
330
47F1
100
AcDbEntity
  8
0
100
AcDbBlockEnd
  0
BLOCK
  5
47FF
330
47FE
100
AcDbEntity
  8
0
100
AcDbBlockBegin
  2
*D10
 70
     1
 10
0.0
 20
0.0
 30
0.0
  3
*D10
  1

  0
LINE
  5
4800
330
47FE
100
AcDbEntity
  8
标注
 62
     0
370
    -2
100
AcDbLine
 10
373.5
 20
-105.0924236637892
 30
0.0
 11
314.7500000000001
 21
-105.0924236637891
 31
0.0
  0
LINE
  5
4801
330
47FE
100
AcDbEntity
  8
标注
 62
     0
370
    -2
100
AcDbLine
 10
383.0
 20
-378.0924236637857
 30
0.0
 11
314.7500000000001
 21
-378.0924236637857
 31
0.0
  0
LINE
  5
4802
330
47FE
100
AcDbEntity
  8
标注
 62
     0
370
     0
100
AcDbLine
 10
318.5000000000001
 20
-110.0924236637891
 30
0.0
 11
318.5
 21
-373.0924236637857
 31
0.0
  0
SOLID
  5
4803
330
47FE
100
AcDbEntity
  8
标注
 62
     0
100
AcDbTrace
 10
317.6666666666668
 20
-110.0924236637891
 30
0.0
 11
319.3333333333334
 21
-110.0924236637891
 31
0.0
 12
318.5000000000001
 22
-105.0924236637891
 32
0.0
 13
318.5000000000001
 23
-105.0924236637891
 33
0.0
  0
SOLID
  5
4804
330
47FE
100
AcDbEntity
  8
标注
 62
     0
100
AcDbTrace
 10
317.6666666666668
 20
-373.0924236637857
 30
0.0
 11
319.3333333333334
 21
-373.0924236637857
 31
0.0
 12
318.5
 22
-378.0924236637857
 32
0.0
 13
318.5
 23
-378.0924236637857
 33
0.0
  0
MTEXT
  5
4805
330
47FE
100
AcDbEntity
  8
标注
 62
     0
100
AcDbMText
 10
310.0266030013643
 20
-241.5924236637874
 30
0.0
 40
10.0
 41
0.0
 71
     5
 72
     1
  1
{\fArial|b0|i0|c0|p34;273 [10 3/4]}
 11
0.0000000000000001
 21
1.0
 31
0.0
 73
     1
 44
1.0
1001
ACAD
1000
MTEXTBEGIN
1070
    73
1070
     1
1070
    44
1040
1.0
1070
    74
1070
     0
1000
MTEXTEND
  0
POINT
  5
4806
330
47FE
100
AcDbEntity
  8
Defpoints
 62
     0
100
AcDbPoint
 10
373.5
 20
-105.0924236637892
 30
0.0
  0
POINT
  5
4807
330
47FE
100
AcDbEntity
  8
Defpoints
 62
     0
100
AcDbPoint
 10
383.0
 20
-378.0924236637857
 30
0.0
  0
POINT
  5
4808
330
47FE
100
AcDbEntity
  8
Defpoints
 62
     0
100
AcDbPoint
 10
318.5
 20
-378.0924236637857
 30
0.0
  0
ENDBLK
  5
4809
330
47FE
100
AcDbEntity
  8
0
100
AcDbBlockEnd
  0
BLOCK
  5
480C
330
480B
100
AcDbEntity
  8
0
100
AcDbBlockBegin
  2
*D11
 70
     1
 10
0.0
 20
0.0
 30
0.0
  3
*D11
  1

  0
LINE
  5
480D
330
480B
100
AcDbEntity
  8
标注
 62
     0
370
    -2
100
AcDbLine
 10
729.8499958891071
 20
-113.0
 30
0.0
 11
729.8499958891071
 21
-19.25
 31
0.0
  0
LINE
  5
480E
330
480B
100
AcDbEntity
  8
标注
 62
     0
370
    -2
100
AcDbLine
 10
384.1499958891047
 20
-107.5
 30
0.0
 11
384.1499958891047
 21
-19.25
 31
0.0
  0
LINE
  5
480F
330
480B
100
AcDbEntity
  8
标注
 62
     0
370
     0
100
AcDbLine
 10
724.849995889107
 20
-23.0
 30
0.0
 11
389.1499958891047
 21
-23.0
 31
0.0
  0
SOLID
  5
4810
330
480B
100
AcDbEntity
  8
标注
 62
     0
100
AcDbTrace
 10
724.849995889107
 20
-22.16666666666663
 30
0.0
 11
724.849995889107
 21
-23.83333333333337
 31
0.0
 12
729.8499958891071
 22
-23.0
 32
0.0
 13
729.8499958891071
 23
-23.0
 33
0.0
  0
SOLID
  5
4811
330
480B
100
AcDbEntity
  8
标注
 62
     0
100
AcDbTrace
 10
389.1499958891047
 20
-22.16666666666663
 30
0.0
 11
389.1499958891047
 21
-23.83333333333337
 31
0.0
 12
384.1499958891047
 22
-23.0
 32
0.0
 13
384.1499958891047
 23
-23.0
 33
0.0
  0
MTEXT
  5
4812
330
480B
100
AcDbEntity
  8
标注
 62
     0
100
AcDbMText
 10
556.9999958891058
 20
-14.52660300136426
 30
0.0
 40
10.0
 41
0.0
 71
     5
 72
     1
  1
{\fArial|b0|i0|c0|p34;345.7 [13 5/8]}
 73
     1
 44
1.0
1001
ACAD
1000
MTEXTBEGIN
1070
    73
1070
     1
1070
    44
1040
1.0
1070
    74
1070
     0
1000
MTEXTEND
  0
POINT
  5
4813
330
480B
100
AcDbEntity
  8
Defpoints
 62
     0
100
AcDbPoint
 10
729.8499958891071
 20
-113.0
 30
0.0
  0
POINT
  5
4814
330
480B
100
AcDbEntity
  8
Defpoints
 62
     0
100
AcDbPoint
 10
384.1499958891047
 20
-107.5
 30
0.0
  0
POINT
  5
4815
330
480B
100
AcDbEntity
  8
Defpoints
 62
     0
100
AcDbPoint
 10
384.1499958891047
 20
-23.0
 30
0.0
  0
ENDBLK
  5
4816
330
480B
100
AcDbEntity
  8
0
100
AcDbBlockEnd
  0
BLOCK
  5
4819
330
4818
100
AcDbEntity
  8
0
100
AcDbBlockBegin
  2
*D12
 70
     1
 10
0.0
 20
0.0
 30
0.0
  3
*D12
  1

  0
LINE
  5
481A
330
4818
100
AcDbEntity
  8
标注
 62
     0
370
    -2
100
AcDbLine
 10
372.0
 20
-98.74242366378666
 30
0.0
 11
290.7500000000001
 21
-98.74242366378661
 31
0.0
  0
LINE
  5
481B
330
4818
100
AcDbEntity
  8
标注
 62
     0
370
    -2
100
AcDbLine
 10
384.5
 20
-384.4424236637851
 30
0.0
 11
290.75
 21
-384.4424236637851
 31
0.0
  0
LINE
  5
481C
330
4818
100
AcDbEntity
  8
标注
 62
     0
370
     0
100
AcDbLine
 10
294.5000000000001
 20
-103.7424236637866
 30
0.0
 11
294.5000000000001
 21
-379.4424236637851
 31
0.0
  0
SOLID
  5
481D
330
4818
100
AcDbEntity
  8
标注
 62
     0
100
AcDbTrace
 10
293.6666666666668
 20
-103.7424236637866
 30
0.0
 11
295.3333333333334
 21
-103.7424236637866
 31
0.0
 12
294.5000000000001
 22
-98.74242366378661
 32
0.0
 13
294.5000000000001
 23
-98.74242366378661
 33
0.0
  0
SOLID
  5
481E
330
4818
100
AcDbEntity
  8
标注
 62
     0
100
AcDbTrace
 10
293.6666666666667
 20
-379.4424236637851
 30
0.0
 11
295.3333333333334
 21
-379.4424236637851
 31
0.0
 12
294.5000000000001
 22
-384.4424236637851
 32
0.0
 13
294.5000000000001
 23
-384.4424236637851
 33
0.0
  0
MTEXT
  5
481F
330
4818
100
AcDbEntity
  8
标注
 62
     0
100
AcDbMText
 10
286.0266030013643
 20
-241.5924236637858
 30
0.0
 40
10.0
 41
0.0
 71
     5
 72
     1
  1
{\fArial|b0|i0|c0|p34;285.7 [11 1/4]}
 11
0.0000000000000001
 21
1.0
 31
0.0
 73
     1
 44
1.0
1001
ACAD
1000
MTEXTBEGIN
1070
    73
1070
     1
1070
    44
1040
1.0
1070
    74
1070
     0
1000
MTEXTEND
  0
POINT
  5
4820
330
4818
100
AcDbEntity
  8
Defpoints
 62
     0
100
AcDbPoint
 10
372.0
 20
-98.74242366378666
 30
0.0
  0
POINT
  5
4821
330
4818
100
AcDbEntity
  8
Defpoints
 62
     0
100
AcDbPoint
 10
384.5
 20
-384.4424236637851
 30
0.0
  0
POINT
  5
4822
330
4818
100
AcDbEntity
  8
Defpoints
 62
     0
100
AcDbPoint
 10
294.5000000000001
 20
-384.4424236637851
 30
0.0
  0
ENDBLK
  5
4823
330
4818
100
AcDbEntity
  8
0
100
AcDbBlockEnd
  0
BLOCK
  5
4826
330
4825
100
AcDbEntity
  8
0
100
AcDbBlockBegin
  2
*D13
 70
     1
 10
0.0
 20
0.0
 30
0.0
  3
*D13
  1

  0
LINE
  5
4827
330
4825
100
AcDbEntity
  8
标注
 62
     0
370
    -2
100
AcDbLine
 10
717.1499958891061
 20
-110.0
 30
0.0
 11
717.1499958891061
 21
-63.481236369116
 31
0.0
  0
LINE
  5
4828
330
4825
100
AcDbEntity
  8
标注
 62
     0
370
    -2
100
AcDbLine
 10
396.849995889105
 20
-105.0
 30
0.0
 11
396.849995889105
 21
-63.481236369116
 31
0.0
  0
LINE
  5
4829
330
4825
100
AcDbEntity
  8
标注
 62
     0
370
     0
100
AcDbLine
 10
712.149995889106
 20
-67.231236369116
 30
0.0
 11
401.849995889105
 21
-67.231236369116
 31
0.0
  0
SOLID
  5
482A
330
4825
100
AcDbEntity
  8
标注
 62
     0
100
AcDbTrace
 10
712.149995889106
 20
-66.39790303578263
 30
0.0
 11
712.149995889106
 21
-68.06456970244937
 31
0.0
 12
717.1499958891061
 22
-67.231236369116
 32
0.0
 13
717.1499958891061
 23
-67.231236369116
 33
0.0
  0
SOLID
  5
482B
330
4825
100
AcDbEntity
  8
标注
 62
     0
100
AcDbTrace
 10
401.849995889105
 20
-66.39790303578263
 30
0.0
 11
401.849995889105
 21
-68.06456970244937
 31
0.0
 12
396.849995889105
 22
-67.231236369116
 32
0.0
 13
396.849995889105
 23
-67.231236369116
 33
0.0
  0
MTEXT
  5
482C
330
4825
100
AcDbEntity
  8
标注
 62
     0
100
AcDbMText
 10
556.9999958891055
 20
-58.75783937048026
 30
0.0
 40
10.0
 41
0.0
 71
     5
 72
     1
  1
{\fArial|b0|i0|c0|p34;320.3 [12 5/8]}
 73
     1
 44
1.0
1001
ACAD
1000
MTEXTBEGIN
1070
    73
1070
     1
1070
    44
1040
1.0
1070
    74
1070
     0
1000
MTEXTEND
  0
POINT
  5
482D
330
4825
100
AcDbEntity
  8
Defpoints
 62
     0
100
AcDbPoint
 10
717.1499958891061
 20
-110.0
 30
0.0
  0
POINT
  5
482E
330
4825
100
AcDbEntity
  8
Defpoints
 62
     0
100
AcDbPoint
 10
396.849995889105
 20
-105.0
 30
0.0
  0
POINT
  5
482F
330
4825
100
AcDbEntity
  8
Defpoints
 62
     0
100
AcDbPoint
 10
396.849995889105
 20
-67.231236369116
 30
0.0
  0
ENDBLK
  5
4830
330
4825
100
AcDbEntity
  8
0
100
AcDbBlockEnd
  0
BLOCK
  5
4833
330
4832
100
AcDbEntity
  8
0
100
AcDbBlockBegin
  2
*D14
 70
     1
 10
0.0
 20
0.0
 30
0.0
  3
*D14
  1

  0
LINE
  5
4834
330
4832
100
AcDbEntity
  8
标注
 62
     0
370
    -2
100
AcDbLine
 10
372.5
 20
-111.4424236637883
 30
0.0
 11
338.0212890111076
 21
-111.4424236637882
 31
0.0
  0
LINE
  5
4835
330
4832
100
AcDbEntity
  8
标注
 62
     0
370
    -2
100
AcDbLine
 10
384.0
 20
-371.7424236637813
 30
0.0
 11
338.0212890111075
 21
-371.7424236637813
 31
0.0
  0
LINE
  5
4836
330
4832
100
AcDbEntity
  8
标注
 62
     0
370
     0
100
AcDbLine
 10
341.7712890111076
 20
-116.4424236637882
 30
0.0
 11
341.7712890111075
 21
-366.7424236637813
 31
0.0
  0
SOLID
  5
4837
330
4832
100
AcDbEntity
  8
标注
 62
     0
100
AcDbTrace
 10
340.9379556777742
 20
-116.4424236637882
 30
0.0
 11
342.6046223444409
 21
-116.4424236637882
 31
0.0
 12
341.7712890111076
 22
-111.4424236637882
 32
0.0
 13
341.7712890111076
 23
-111.4424236637882
 33
0.0
  0
SOLID
  5
4838
330
4832
100
AcDbEntity
  8
标注
 62
     0
100
AcDbTrace
 10
340.9379556777742
 20
-366.7424236637813
 30
0.0
 11
342.6046223444408
 21
-366.7424236637813
 31
0.0
 12
341.7712890111075
 22
-371.7424236637813
 32
0.0
 13
341.7712890111075
 23
-371.7424236637813
 33
0.0
  0
MTEXT
  5
4839
330
4832
100
AcDbEntity
  8
标注
 62
     0
100
AcDbMText
 10
333.2978920124717
 20
-241.5924236637847
 30
0.0
 40
10.0
 41
0.0
 71
     5
 72
     1
  1
{\fArial|b0|i0|c0|p34;260.3 [10 1/4]}
 11
0.0000000000000001
 21
1.0
 31
0.0
 73
     1
 44
1.0
1001
ACAD
1000
MTEXTBEGIN
1070
    73
1070
     1
1070
    44
1040
1.0
1070
    74
1070
     0
1000
MTEXTEND
  0
POINT
  5
483A
330
4832
100
AcDbEntity
  8
Defpoints
 62
     0
100
AcDbPoint
 10
372.5
 20
-111.4424236637883
 30
0.0
  0
POINT
  5
483B
330
4832
100
AcDbEntity
  8
Defpoints
 62
     0
100
AcDbPoint
 10
384.0
 20
-371.7424236637813
 30
0.0
  0
POINT
  5
483C
330
4832
100
AcDbEntity
  8
Defpoints
 62
     0
100
AcDbPoint
 10
341.7712890111075
 20
-371.7424236637813
 30
0.0
  0
ENDBLK
  5
483D
330
4832
100
AcDbEntity
  8
0
100
AcDbBlockEnd
  0
BLOCK
  5
4A87
330
4A86
100
AcDbEntity
  8
0
100
AcDbBlockBegin
  2
*D15
 70
     1
 10
0.0
 20
0.0
 30
0.0
  3
*D15
  1

  0
POINT
  5
4A7A
330
4A86
100
AcDbEntity
  8
Defpoints
  6
ByBlock
100
AcDbPoint
 10
723.4999958891068
 20
-241.5924236637878
 30
0.0
  0
POINT
  5
4A7B
330
4A86
100
AcDbEntity
  8
Defpoints
  6
ByBlock
100
AcDbPoint
 10
717.1499958891063
 20
-241.5924236637656
 30
0.0
  0
LINE
  5
4A7C
330
4A86
100
AcDbEntity
  8
标注
  6
ByBlock
 62
     0
370
    -2
100
AcDbLine
 10
723.4999958891068
 20
-241.5924236637878
 30
0.0
 11
723.4999958891068
 21
-269.75
 31
0.0
  0
LINE
  5
4A7D
330
4A86
100
AcDbEntity
  8
标注
  6
ByBlock
 62
     0
370
    -2
100
AcDbLine
 10
717.1499958891063
 20
-241.5924236637656
 30
0.0
 11
717.1499958891063
 21
-269.75
 31
0.0
  0
LINE
  5
4A7E
330
4A86
100
AcDbEntity
  8
标注
  6
ByBlock
 62
     0
370
     0
100
AcDbLine
 10
712.1499958891063
 20
-266.0
 30
0.0
 11
707.1499958891063
 21
-266.0
 31
0.0
  0
LINE
  5
4A7F
330
4A86
100
AcDbEntity
  8
标注
  6
ByBlock
 62
     0
370
     0
100
AcDbLine
 10
816.5
 20
-266.0
 30
0.0
 11
728.4999958891069
 21
-266.0
 31
0.0
  0
SOLID
  5
4A80
330
4A86
100
AcDbEntity
  8
标注
  6
ByBlock
 62
     0
100
AcDbTrace
 10
723.4999958891068
 20
-266.0
 30
0.0
 11
728.4999958891069
 21
-265.1666666666665
 31
0.0
 12
728.4999958891069
 22
-266.8333333333335
 32
0.0
 13
728.4999958891069
 23
-266.8333333333335
 33
0.0
  0
SOLID
  5
4A81
330
4A86
100
AcDbEntity
  8
标注
  6
ByBlock
 62
     0
100
AcDbTrace
 10
717.1499958891063
 20
-266.0
 30
0.0
 11
712.1499958891063
 21
-265.1666666666665
 31
0.0
 12
712.1499958891063
 22
-266.8333333333335
 32
0.0
 13
712.1499958891063
 23
-266.8333333333335
 33
0.0
  0
LINE
  5
4A82
330
4A86
100
AcDbEntity
  8
标注
  6
ByBlock
 62
     0
370
     0
100
AcDbLine
 10
723.4999958891068
 20
-266.0
 30
0.0
 11
717.1499958891063
 21
-266.0
 31
0.0
  0
LINE
  5
4A83
330
4A86
100
AcDbEntity
  8
标注
  6
ByBlock
 62
     0
370
     0
100
AcDbLine
 10
723.4999958891068
 20
-241.5924236637878
 30
0.0
 11
723.4999958891068
 21
-241.5924236637878
 31
0.0
  0
MTEXT
  5
4A84
330
4A86
100
AcDbEntity
  8
标注
  6
ByBlock
 62
     0
100
AcDbMText
 10
774.5
 20
-259.0
 30
0.0
 40
10.0
 41
0.0
 71
     5
 72
     1
  1
\A0;6.35 [1/4]
 73
     1
 44
1.0
1001
ACAD
1000
MTEXTBEGIN
1070
    73
1070
     1
1070
    44
1040
1.0
1070
    74
1070
     0
1000
MTEXTEND
  0
ENDBLK
  5
4A88
330
4A86
100
AcDbEntity
  8
0
100
AcDbBlockEnd
  0
BLOCK
  5
4A97
330
4A96
100
AcDbEntity
  8
0
100
AcDbBlockBegin
  2
*D16
 70
     1
 10
0.0
 20
0.0
 30
0.0
  3
*D16
  1

  0
POINT
  5
4A8A
330
4A96
100
AcDbEntity
  8
Defpoints
  6
ByBlock
100
AcDbPoint
 10
723.4999958891068
 20
-241.5924236637878
 30
0.0
  0
POINT
  5
4A8B
330
4A96
100
AcDbEntity
  8
Defpoints
  6
ByBlock
100
AcDbPoint
 10
729.8499958891072
 20
-241.5924236637997
 30
0.0
  0
LINE
  5
4A8C
330
4A96
100
AcDbEntity
  8
标注
  6
ByBlock
 62
     0
370
    -2
100
AcDbLine
 10
723.4999958891068
 20
-241.5924236637878
 30
0.0
 11
723.4999958891068
 21
-250.25
 31
0.0
  0
LINE
  5
4A8D
330
4A96
100
AcDbEntity
  8
标注
  6
ByBlock
 62
     0
370
    -2
100
AcDbLine
 10
729.8499958891072
 20
-241.5924236637997
 30
0.0
 11
729.8499958891072
 21
-250.25
 31
0.0
  0
LINE
  5
4A8E
330
4A96
100
AcDbEntity
  8
标注
  6
ByBlock
 62
     0
370
     0
100
AcDbLine
 10
718.4999958891069
 20
-246.5
 30
0.0
 11
713.4999958891069
 21
-246.5
 31
0.0
  0
LINE
  5
4A8F
330
4A96
100
AcDbEntity
  8
标注
  6
ByBlock
 62
     0
370
     0
100
AcDbLine
 10
823.8499958891072
 20
-246.5
 30
0.0
 11
734.8499958891072
 21
-246.5
 31
0.0
  0
SOLID
  5
4A90
330
4A96
100
AcDbEntity
  8
标注
  6
ByBlock
 62
     0
100
AcDbTrace
 10
723.4999958891068
 20
-246.5
 30
0.0
 11
718.4999958891069
 21
-247.3333333333335
 31
0.0
 12
718.4999958891069
 22
-245.6666666666665
 32
0.0
 13
718.4999958891069
 23
-245.6666666666665
 33
0.0
  0
SOLID
  5
4A91
330
4A96
100
AcDbEntity
  8
标注
  6
ByBlock
 62
     0
100
AcDbTrace
 10
729.8499958891072
 20
-246.5
 30
0.0
 11
734.8499958891072
 21
-247.3333333333335
 31
0.0
 12
734.8499958891072
 22
-245.6666666666665
 32
0.0
 13
734.8499958891072
 23
-245.6666666666665
 33
0.0
  0
LINE
  5
4A92
330
4A96
100
AcDbEntity
  8
标注
  6
ByBlock
 62
     0
370
     0
100
AcDbLine
 10
723.4999958891068
 20
-246.5
 30
0.0
 11
729.8499958891072
 21
-246.5
 31
0.0
  0
LINE
  5
4A93
330
4A96
100
AcDbEntity
  8
标注
  6
ByBlock
 62
     0
370
     0
100
AcDbLine
 10
723.4999958891068
 20
-241.5924236637878
 30
0.0
 11
723.4999958891068
 21
-241.5924236637878
 31
0.0
  0
MTEXT
  5
4A94
330
4A96
100
AcDbEntity
  8
标注
  6
ByBlock
 62
     0
100
AcDbMText
 10
781.8499958891073
 20
-239.5
 30
0.0
 40
10.0
 41
0.0
 71
     5
 72
     1
  1
\A0;6.35 [1/4]
 73
     1
 44
1.0
1001
ACAD
1000
MTEXTBEGIN
1070
    73
1070
     1
1070
    44
1040
1.0
1070
    74
1070
     0
1000
MTEXTEND
  0
ENDBLK
  5
4A98
330
4A96
100
AcDbEntity
  8
0
100
AcDbBlockEnd
  0
BLOCK
  5
4CFA
330
4CF9
100
AcDbEntity
  8
0
100
AcDbBlockBegin
  2
*D17
 70
     1
 10
0.0
 20
0.0
 30
0.0
  3
*D17
  1

  0
POINT
  5
4CED
330
4CF9
100
AcDbEntity
  8
Defpoints
  6
ByBlock
100
AcDbPoint
 10
1291.591092688624
 20
-256.4999999999927
 30
0.0
  0
POINT
  5
4CEE
330
4CF9
100
AcDbEntity
  8
Defpoints
  6
ByBlock
100
AcDbPoint
 10
1266.591092688624
 20
-256.4999999999927
 30
0.0
  0
LINE
  5
4CEF
330
4CF9
100
AcDbEntity
  8
标注
  6
ByBlock
 62
     0
370
    -2
100
AcDbLine
 10
1291.591092688624
 20
-256.4999999999927
 30
0.0
 11
1291.591092688624
 21
-226.4220189702319
 31
0.0
  0
LINE
  5
4CF0
330
4CF9
100
AcDbEntity
  8
标注
  6
ByBlock
 62
     0
370
    -2
100
AcDbLine
 10
1266.591092688624
 20
-256.4999999999927
 30
0.0
 11
1266.591092688624
 21
-226.4220189702319
 31
0.0
  0
LINE
  5
4CF1
330
4CF9
100
AcDbEntity
  8
标注
  6
ByBlock
 62
     0
370
    -2
100
AcDbLine
 10
1305.591092688624
 20
-232.4220189702319
 30
0.0
 11
1319.591092688624
 21
-232.4220189702319
 31
0.0
  0
LINE
  5
4CF2
330
4CF9
100
AcDbEntity
  8
标注
  6
ByBlock
 62
     0
370
    -2
100
AcDbLine
 10
1206.382759355291
 20
-232.4220189702319
 30
0.0
 11
1252.591092688624
 21
-232.4220189702319
 31
0.0
  0
SOLID
  5
4CF3
330
4CF9
100
AcDbEntity
  8
标注
  6
ByBlock
 62
     0
100
AcDbTrace
 10
1291.591092688624
 20
-232.4220189702319
 30
0.0
 11
1305.591092688624
 21
-230.088685636898
 31
0.0
 12
1305.591092688624
 22
-234.7553523035657
 32
0.0
 13
1305.591092688624
 23
-234.7553523035657
 33
0.0
  0
SOLID
  5
4CF4
330
4CF9
100
AcDbEntity
  8
标注
  6
ByBlock
 62
     0
100
AcDbTrace
 10
1266.591092688624
 20
-232.4220189702319
 30
0.0
 11
1252.591092688624
 21
-230.088685636898
 31
0.0
 12
1252.591092688624
 22
-234.7553523035657
 32
0.0
 13
1252.591092688624
 23
-234.7553523035657
 33
0.0
  0
LINE
  5
4CF5
330
4CF9
100
AcDbEntity
  8
标注
  6
ByBlock
 62
     0
370
    -2
100
AcDbLine
 10
1291.591092688624
 20
-232.4220189702319
 30
0.0
 11
1266.591092688624
 21
-232.4220189702319
 31
0.0
  0
LINE
  5
4CF6
330
4CF9
100
AcDbEntity
  8
标注
  6
ByBlock
 62
     0
370
    -2
100
AcDbLine
 10
1291.591092688624
 20
-256.4999999999927
 30
0.0
 11
1291.591092688624
 21
-256.4999999999927
 31
0.0
  0
MTEXT
  5
4CF7
330
4CF9
100
AcDbEntity
  8
标注
  6
ByBlock
 62
     0
100
AcDbMText
 10
1224.549426021957
 20
-220.9220189702319
 30
0.0
 40
20.0
 41
0.0
 71
     5
 72
     1
  1
\A0;25
 73
     1
 44
1.0
1001
ACAD
1000
MTEXTBEGIN
1070
    73
1070
     1
1070
    44
1040
1.0
1070
    74
1070
     0
1000
MTEXTEND
  0
ENDBLK
  5
4CFB
330
4CF9
100
AcDbEntity
  8
0
100
AcDbBlockEnd
  0
BLOCK
  5
4D04
330
4D03
100
AcDbEntity
  8
0
100
AcDbBlockBegin
  2
*D18
 70
     1
 10
0.0
 20
0.0
 30
0.0
  3
*D18
  1

  0
LINE
  5
4CFD
330
4D03
100
AcDbEntity
  8
标注
  6
ByBlock
 62
     0
370
    -2
100
AcDbLine
 10
1402.308538154778
 20
-388.5932674751716
 30
0.0
 11
1423.786555499192
 21
-251.0939733603898
 31
0.0
  0
SOLID
  5
4CFE
330
4D03
100
AcDbEntity
  8
标注
  6
ByBlock
 62
     0
100
AcDbTrace
 10
1400.147875332106
 20
-402.4255317933056
 30
0.0
 11
1400.003160768422
 21
-388.2331570047263
 31
0.0
 12
1404.613915541134
 22
-388.9533779456169
 32
0.0
 13
1404.613915541134
 23
-388.9533779456169
 33
0.0
  0
MTEXT
  5
4CFF
330
4D03
100
AcDbEntity
  8
标注
  6
ByBlock
 62
     0
100
AcDbMText
 10
1403.19007703145
 20
-308.4356061633157
 30
0.0
 40
20.0
 41
0.0
 71
     5
 72
     1
  1
\A0;4-R1310
 11
0.1543330587622613
 21
0.988018879866718
 31
0.0
 73
     1
 44
1.0
1001
ACAD
1000
MTEXTBEGIN
1070
    73
1070
     1
1070
    44
1040
1.0
1070
    74
1070
     0
1000
MTEXTEND
  0
POINT
  5
4D00
330
4D03
100
AcDbEntity
  8
Defpoints
  6
ByBlock
100
AcDbPoint
 10
1602.32418231068
 20
891.8792008321688
 30
0.0
  0
POINT
  5
4D01
330
4D03
100
AcDbEntity
  8
Defpoints
  6
ByBlock
100
AcDbPoint
 10
1400.147875332106
 20
-402.4255317933056
 30
0.0
  0
ENDBLK
  5
4D05
330
4D03
100
AcDbEntity
  8
0
100
AcDbBlockEnd
  0
BLOCK
  5
4D24
330
4D23
100
AcDbEntity
  8
0
100
AcDbBlockBegin
  2
*D19
 70
     1
 10
0.0
 20
0.0
 30
0.0
  3
*D19
  1

  0
POINT
  5
4D17
330
4D23
100
AcDbEntity
  8
Defpoints
  6
ByBlock
100
AcDbPoint
 10
1613.591092688625
 20
-256.5000000000073
 30
0.0
  0
POINT
  5
4D18
330
4D23
100
AcDbEntity
  8
Defpoints
  6
ByBlock
100
AcDbPoint
 10
1619.591092688624
 20
-256.5000000000073
 30
0.0
  0
LINE
  5
4D19
330
4D23
100
AcDbEntity
  8
标注
  6
ByBlock
 62
     0
370
    -2
100
AcDbLine
 10
1613.591092688625
 20
-256.5000000000073
 30
0.0
 11
1613.591092688625
 21
-289.5
 31
0.0
  0
LINE
  5
4D1A
330
4D23
100
AcDbEntity
  8
标注
  6
ByBlock
 62
     0
370
    -2
100
AcDbLine
 10
1619.591092688624
 20
-256.5000000000073
 30
0.0
 11
1619.591092688624
 21
-289.5
 31
0.0
  0
LINE
  5
4D1B
330
4D23
100
AcDbEntity
  8
标注
  6
ByBlock
 62
     0
370
    -2
100
AcDbLine
 10
1599.591092688624
 20
-283.5
 30
0.0
 11
1585.591092688624
 21
-283.5
 31
0.0
  0
LINE
  5
4D1C
330
4D23
100
AcDbEntity
  8
标注
  6
ByBlock
 62
     0
370
    -2
100
AcDbLine
 10
1664.666666666667
 20
-283.5
 30
0.0
 11
1633.591092688624
 21
-283.5
 31
0.0
  0
SOLID
  5
4D1D
330
4D23
100
AcDbEntity
  8
标注
  6
ByBlock
 62
     0
100
AcDbTrace
 10
1613.591092688625
 20
-283.5
 30
0.0
 11
1599.591092688624
 21
-285.8333333333338
 31
0.0
 12
1599.591092688624
 22
-281.1666666666662
 32
0.0
 13
1599.591092688624
 23
-281.1666666666662
 33
0.0
  0
SOLID
  5
4D1E
330
4D23
100
AcDbEntity
  8
标注
  6
ByBlock
 62
     0
100
AcDbTrace
 10
1619.591092688624
 20
-283.5
 30
0.0
 11
1633.591092688624
 21
-285.8333333333338
 31
0.0
 12
1633.591092688624
 22
-281.1666666666662
 32
0.0
 13
1633.591092688624
 23
-281.1666666666662
 33
0.0
  0
LINE
  5
4D1F
330
4D23
100
AcDbEntity
  8
标注
  6
ByBlock
 62
     0
370
    -2
100
AcDbLine
 10
1613.591092688625
 20
-283.5
 30
0.0
 11
1619.591092688624
 21
-283.5
 31
0.0
  0
LINE
  5
4D20
330
4D23
100
AcDbEntity
  8
标注
  6
ByBlock
 62
     0
370
    -2
100
AcDbLine
 10
1613.591092688625
 20
-256.5000000000073
 30
0.0
 11
1613.591092688625
 21
-256.5000000000073
 31
0.0
  0
MTEXT
  5
4D21
330
4D23
100
AcDbEntity
  8
标注
  6
ByBlock
 62
     0
100
AcDbMText
 10
1656.5
 20
-272.0
 30
0.0
 40
20.0
 41
0.0
 71
     5
 72
     1
  1
\A0;6
 73
     1
 44
1.0
1001
ACAD
1000
MTEXTBEGIN
1070
    73
1070
     1
1070
    44
1040
1.0
1070
    74
1070
     0
1000
MTEXTEND
  0
ENDBLK
  5
4D25
330
4D23
100
AcDbEntity
  8
0
100
AcDbBlockEnd
  0
BLOCK
  5
4D5B
330
4D5A
100
AcDbEntity
  8
0
100
AcDbBlockBegin
  2
*D20
 70
     1
 10
0.0
 20
0.0
 30
0.0
  3
*D20
  1

  0
LINE
  5
4D50
330
4D5A
100
AcDbEntity
  8
标注
  6
ByBlock
 62
     0
370
    -2
100
AcDbLine
 10
1453.642644094607
 20
-269.8290946026787
 30
0.0
 11
1472.469246969448
 21
-293.611528209878
 31
0.0
  0
LINE
  5
4D51
330
4D5A
100
AcDbEntity
  8
标注
  6
ByBlock
 62
     0
370
    -2
100
AcDbLine
 10
1472.469246969448
 20
-293.611528209878
 30
0.0
 11
1548.802580302781
 21
-293.611528209878
 31
0.0
  0
LINE
  5
4D52
330
4D5A
100
AcDbEntity
  8
标注
  6
ByBlock
 62
     0
370
    -2
100
AcDbLine
 10
1432.539541282646
 20
-243.1709053973359
 30
0.0
 11
1423.850028360074
 21
-232.1940039598421
 31
0.0
  0
LINE
  5
4D53
330
4D5A
100
AcDbEntity
  8
标注
  6
ByBlock
 62
     0
370
    -2
100
AcDbLine
 10
1444.953131172035
 20
-258.8521931651848
 30
0.0
 11
1441.229054205218
 21
-254.1478068348298
 31
0.0
  0
SOLID
  5
4D54
330
4D5A
100
AcDbEntity
  8
标注
  6
ByBlock
 62
     0
100
AcDbTrace
 10
1441.229054205218
 20
-254.1478068348298
 30
0.0
 11
1430.71005770973
 21
-244.6191575510982
 31
0.0
 12
1434.369024855562
 22
-241.7226532435736
 32
0.0
 13
1434.369024855562
 23
-241.7226532435736
 33
0.0
  0
SOLID
  5
4D55
330
4D5A
100
AcDbEntity
  8
标注
  6
ByBlock
 62
     0
100
AcDbTrace
 10
1444.953131172035
 20
-258.8521931651848
 30
0.0
 11
1451.813160521691
 21
-271.2773467564409
 31
0.0
 12
1455.472127667523
 22
-268.3808424489164
 32
0.0
 13
1455.472127667523
 23
-268.3808424489164
 33
0.0
  0
MTEXT
  5
4D56
330
4D5A
100
AcDbEntity
  8
标注
  6
ByBlock
 62
     0
100
AcDbMText
 10
1510.635913636115
 20
-282.111528209878
 30
0.0
 40
20.0
 41
0.0
 71
     5
 72
     1
  1
\A0;5-\U+22056
 73
     1
 44
1.0
1001
ACAD
1000
MTEXTBEGIN
1070
    73
1070
     1
1070
    44
1040
1.0
1070
    74
1070
     0
1000
MTEXTEND
  0
POINT
  5
4D57
330
4D5A
100
AcDbEntity
  8
Defpoints
  6
ByBlock
100
AcDbPoint
 10
1441.229054205218
 20
-254.1478068348298
 30
0.0
  0
POINT
  5
4D58
330
4D5A
100
AcDbEntity
  8
Defpoints
  6
ByBlock
100
AcDbPoint
 10
1444.953131172035
 20
-258.8521931651848
 30
0.0
  0
ENDBLK
  5
4D5C
330
4D5A
100
AcDbEntity
  8
0
100
AcDbBlockEnd
  0
BLOCK
  5
4D73
330
4D72
100
AcDbEntity
  8
0
100
AcDbBlockBegin
  2
*D21
 70
     1
 10
0.0
 20
0.0
 30
0.0
  3
*D21
  1

  0
LINE
  5
4D6A
330
4D72
100
AcDbEntity
  8
标注
  6
ByBlock
 62
     0
370
    -2
100
AcDbLine
 10
1616.850060761551
 20
-150.5298971802593
 30
0.0
 11
1642.454285598951
 21
-134.8739025314302
 31
0.0
  0
LINE
  5
4D6B
330
4D72
100
AcDbEntity
  8
标注
  6
ByBlock
 62
     0
370
    -2
100
AcDbLine
 10
1642.454285598951
 20
-134.8739025314302
 30
0.0
 11
1745.454285598951
 21
-134.8739025314302
 31
0.0
  0
LINE
  5
4D6C
330
4D72
100
AcDbEntity
  8
标注
  6
ByBlock
 62
     0
370
    -2
100
AcDbLine
 10
1604.905976963124
 20
-157.8332431405797
 30
0.0
 11
1519.591092688657
 21
-210.0
 31
0.0
  0
SOLID
  5
4D6D
330
4D72
100
AcDbEntity
  8
标注
  6
ByBlock
 62
     0
100
AcDbTrace
 10
1604.905976963124
 20
-157.8332431405797
 30
0.0
 11
1618.067285088272
 21
-152.520577813331
 31
0.0
 12
1615.632836434831
 22
-148.5392165471875
 32
0.0
 13
1615.632836434831
 23
-148.5392165471875
 33
0.0
  0
MTEXT
  5
4D6E
330
4D72
100
AcDbEntity
  8
标注
  6
ByBlock
 62
     0
100
AcDbMText
 10
1693.954285598951
 20
-123.3739025314302
 30
0.0
 40
20.0
 41
0.0
 71
     5
 72
     1
  1
\A0;4-R100
 73
     1
 44
1.0
1001
ACAD
1000
MTEXTBEGIN
1070
    73
1070
     1
1070
    44
1040
1.0
1070
    74
1070
     0
1000
MTEXTEND
  0
POINT
  5
4D6F
330
4D72
100
AcDbEntity
  8
Defpoints
  6
ByBlock
100
AcDbPoint
 10
1519.591092688657
 20
-210.0
 30
0.0
  0
POINT
  5
4D70
330
4D72
100
AcDbEntity
  8
Defpoints
  6
ByBlock
100
AcDbPoint
 10
1604.905976963124
 20
-157.8332431405797
 30
0.0
  0
ENDBLK
  5
4D74
330
4D72
100
AcDbEntity
  8
0
100
AcDbBlockEnd
  0
BLOCK
  5
4D80
330
4D7F
100
AcDbEntity
  8
0
100
AcDbBlockBegin
  2
*D22
 70
     1
 10
0.0
 20
0.0
 30
0.0
  3
*D22
  1

  0
POINT
  5
4D76
330
4D7F
100
AcDbEntity
  8
Defpoints
  6
ByBlock
100
AcDbPoint
 10
1619.591092688624
 20
-210.0
 30
0.0
  0
POINT
  5
4D77
330
4D7F
100
AcDbEntity
  8
Defpoints
  6
ByBlock
100
AcDbPoint
 10
1266.591092688624
 20
-210.0
 30
0.0
  0
LINE
  5
4D78
330
4D7F
100
AcDbEntity
  8
标注
  6
ByBlock
 62
     0
370
    -2
100
AcDbLine
 10
1619.591092688624
 20
-210.0
 30
0.0
 11
1619.591092688624
 21
-66.0
 31
0.0
  0
LINE
  5
4D79
330
4D7F
100
AcDbEntity
  8
标注
  6
ByBlock
 62
     0
370
    -2
100
AcDbLine
 10
1266.591092688624
 20
-210.0
 30
0.0
 11
1266.591092688624
 21
-66.0
 31
0.0
  0
LINE
  5
4D7A
330
4D7F
100
AcDbEntity
  8
标注
  6
ByBlock
 62
     0
370
    -2
100
AcDbLine
 10
1605.591092688624
 20
-72.0
 30
0.0
 11
1280.591092688624
 21
-72.0
 31
0.0
  0
SOLID
  5
4D7B
330
4D7F
100
AcDbEntity
  8
标注
  6
ByBlock
 62
     0
100
AcDbTrace
 10
1619.591092688624
 20
-72.0
 30
0.0
 11
1605.591092688624
 21
-69.66666666666617
 31
0.0
 12
1605.591092688624
 22
-74.33333333333383
 32
0.0
 13
1605.591092688624
 23
-74.33333333333383
 33
0.0
  0
SOLID
  5
4D7C
330
4D7F
100
AcDbEntity
  8
标注
  6
ByBlock
 62
     0
100
AcDbTrace
 10
1266.591092688624
 20
-72.0
 30
0.0
 11
1280.591092688624
 21
-69.66666666666617
 31
0.0
 12
1280.591092688624
 22
-74.33333333333383
 32
0.0
 13
1280.591092688624
 23
-74.33333333333383
 33
0.0
  0
MTEXT
  5
4D7D
330
4D7F
100
AcDbEntity
  8
标注
  6
ByBlock
 62
     0
100
AcDbMText
 10
1443.091092688624
 20
-60.5
 30
0.0
 40
20.0
 41
0.0
 71
     5
 72
     1
  1
\A0;353
 73
     1
 44
1.0
1001
ACAD
1000
MTEXTBEGIN
1070
    73
1070
     1
1070
    44
1040
1.0
1070
    74
1070
     0
1000
MTEXTEND
  0
ENDBLK
  5
4D81
330
4D7F
100
AcDbEntity
  8
0
100
AcDbBlockEnd
  0
BLOCK
  5
4D8D
330
4D8C
100
AcDbEntity
  8
0
100
AcDbBlockBegin
  2
*D23
 70
     1
 10
0.0
 20
0.0
 30
0.0
  3
*D23
  1

  0
POINT
  5
4D83
330
4D8C
100
AcDbEntity
  8
Defpoints
  6
ByBlock
100
AcDbPoint
 10
1366.591092688624
 20
-110.0
 30
0.0
  0
POINT
  5
4D84
330
4D8C
100
AcDbEntity
  8
Defpoints
  6
ByBlock
100
AcDbPoint
 10
1366.591092688621
 20
-403.0
 30
0.0
  0
LINE
  5
4D85
330
4D8C
100
AcDbEntity
  8
标注
  6
ByBlock
 62
     0
370
    -2
100
AcDbLine
 10
1366.591092688624
 20
-110.0
 30
0.0
 11
1189.0
 21
-110.0
 31
0.0
  0
LINE
  5
4D86
330
4D8C
100
AcDbEntity
  8
标注
  6
ByBlock
 62
     0
370
    -2
100
AcDbLine
 10
1366.591092688621
 20
-403.0
 30
0.0
 11
1189.0
 21
-403.0
 31
0.0
  0
LINE
  5
4D87
330
4D8C
100
AcDbEntity
  8
标注
  6
ByBlock
 62
     0
370
    -2
100
AcDbLine
 10
1195.0
 20
-124.0
 30
0.0
 11
1195.0
 21
-389.0
 31
0.0
  0
SOLID
  5
4D88
330
4D8C
100
AcDbEntity
  8
标注
  6
ByBlock
 62
     0
100
AcDbTrace
 10
1195.0
 20
-110.0
 30
0.0
 11
1192.666666666666
 21
-124.0
 31
0.0
 12
1197.333333333334
 22
-124.0
 32
0.0
 13
1197.333333333334
 23
-124.0
 33
0.0
  0
SOLID
  5
4D89
330
4D8C
100
AcDbEntity
  8
标注
  6
ByBlock
 62
     0
100
AcDbTrace
 10
1195.0
 20
-403.0
 30
0.0
 11
1192.666666666666
 21
-389.0
 31
0.0
 12
1197.333333333334
 22
-389.0
 32
0.0
 13
1197.333333333334
 23
-389.0
 33
0.0
  0
MTEXT
  5
4D8A
330
4D8C
100
AcDbEntity
  8
标注
  6
ByBlock
 62
     0
100
AcDbMText
 10
1183.5
 20
-250.5
 30
0.0
 40
20.0
 41
0.0
 71
     5
 72
     1
  1
\A0;293
 11
0.0000000000000001
 21
1.0
 31
0.0
 73
     1
 44
1.0
1001
ACAD
1000
MTEXTBEGIN
1070
    73
1070
     1
1070
    44
1040
1.0
1070
    74
1070
     0
1000
MTEXTEND
  0
ENDBLK
  5
4D8E
330
4D8C
100
AcDbEntity
  8
0
100
AcDbBlockEnd
  0
BLOCK
  5
4ECA
330
4EBE
100
AcDbEntity
  8
0
100
AcDbBlockBegin
  2
*D24
 70
     1
 10
0.0
 20
0.0
 30
0.0
  3
*D24
  1

  0
LINE
  5
4F22
330
4EBE
100
AcDbEntity
  8
标注
 62
     0
370
    -2
100
AcDbLine
 10
695.1499958891027
 20
-863.0924166213231
 30
0.0
 11
695.1499958891027
 21
-876.2500000000001
 31
0.0
  0
LINE
  5
4F23
330
4EBE
100
AcDbEntity
  8
标注
 62
     0
370
    -2
100
AcDbLine
 10
701.4999958891048
 20
-863.0924166213302
 30
0.0
 11
701.4999958891048
 21
-876.2500000000001
 31
0.0
  0
LINE
  5
4F24
330
4EBE
100
AcDbEntity
  8
标注
 62
     0
370
     0
100
AcDbLine
 10
706.4999958891048
 20
-872.4999999999999
 30
0.0
 11
711.4999958891048
 21
-872.4999999999999
 31
0.0
  0
LINE
  5
4F25
330
4EBE
100
AcDbEntity
  8
标注
 62
     0
370
     0
100
AcDbLine
 10
690.1499958891027
 20
-872.4999999999999
 30
0.0
 11
622.0507462301667
 21
-872.4999999999999
 31
0.0
  0
LINE
  5
4F26
330
4EBE
100
AcDbEntity
  8
标注
 62
     0
370
     0
100
AcDbLine
 10
701.4999958891048
 20
-872.4999999999999
 30
0.0
 11
695.1499958891027
 21
-872.4999999999999
 31
0.0
  0
SOLID
  5
4F27
330
4EBE
100
AcDbEntity
  8
标注
 62
     0
100
AcDbTrace
 10
706.4999958891048
 20
-871.6666666666666
 30
0.0
 11
706.4999958891048
 21
-873.3333333333334
 31
0.0
 12
701.4999958891048
 22
-872.4999999999999
 32
0.0
 13
701.4999958891048
 23
-872.4999999999999
 33
0.0
  0
SOLID
  5
4F28
330
4EBE
100
AcDbEntity
  8
标注
 62
     0
100
AcDbTrace
 10
690.1499958891027
 20
-871.6666666666666
 30
0.0
 11
690.1499958891027
 21
-873.3333333333334
 31
0.0
 12
695.1499958891027
 22
-872.4999999999999
 32
0.0
 13
695.1499958891027
 23
-872.4999999999999
 33
0.0
  0
MTEXT
  5
4F29
330
4EBE
100
AcDbEntity
  8
标注
 62
     0
100
AcDbMText
 10
648.5766671032909
 20
-864.0266030013643
 30
0.0
 40
10.0
 41
0.0
 71
     5
 72
     1
  1
{\fArial|b0|i0|c0|p34;6.4 [1/4]}
 73
     1
 44
1.0
1001
ACAD
1000
MTEXTBEGIN
1070
    73
1070
     1
1070
    44
1040
1.0
1070
    74
1070
     0
1000
MTEXTEND
  0
POINT
  5
4F2A
330
4EBE
100
AcDbEntity
  8
Defpoints
 62
     0
100
AcDbPoint
 10
695.1499958891027
 20
-863.0924166213231
 30
0.0
  0
POINT
  5
4F2B
330
4EBE
100
AcDbEntity
  8
Defpoints
 62
     0
100
AcDbPoint
 10
701.4999958891048
 20
-863.0924166213302
 30
0.0
  0
POINT
  5
4F2C
330
4EBE
100
AcDbEntity
  8
Defpoints
 62
     0
100
AcDbPoint
 10
701.4999958891048
 20
-872.4999999999999
 30
0.0
  0
ENDBLK
  5
4ECB
330
4EBE
100
AcDbEntity
  8
0
100
AcDbBlockEnd
  0
BLOCK
  5
4ED8
330
4ECC
100
AcDbEntity
  8
0
100
AcDbBlockBegin
  2
*D25
 70
     1
 10
0.0
 20
0.0
 30
0.0
  3
*D25
  1

  0
LINE
  5
4F2D
330
4ECC
100
AcDbEntity
  8
标注
 62
     0
370
    -2
100
AcDbLine
 10
701.4999958891048
 20
-863.0924166213302
 30
0.0
 11
701.4999958891048
 21
-897.75
 31
0.0
  0
LINE
  5
4F2E
330
4ECC
100
AcDbEntity
  8
标注
 62
     0
370
    -2
100
AcDbLine
 10
707.849995889107
 20
-863.0924166213231
 30
0.0
 11
707.849995889107
 21
-897.75
 31
0.0
  0
LINE
  5
4F2F
330
4ECC
100
AcDbEntity
  8
标注
 62
     0
370
     0
100
AcDbLine
 10
712.849995889107
 20
-894.0
 30
0.0
 11
717.849995889107
 21
-894.0
 31
0.0
  0
LINE
  5
4F30
330
4ECC
100
AcDbEntity
  8
标注
 62
     0
370
     0
100
AcDbLine
 10
696.4999958891048
 20
-894.0
 30
0.0
 11
628.4007462301687
 21
-894.0
 31
0.0
  0
LINE
  5
4F31
330
4ECC
100
AcDbEntity
  8
标注
 62
     0
370
     0
100
AcDbLine
 10
707.849995889107
 20
-894.0
 30
0.0
 11
701.4999958891048
 21
-894.0
 31
0.0
  0
SOLID
  5
4F32
330
4ECC
100
AcDbEntity
  8
标注
 62
     0
100
AcDbTrace
 10
712.849995889107
 20
-893.1666666666666
 30
0.0
 11
712.849995889107
 21
-894.8333333333334
 31
0.0
 12
707.849995889107
 22
-894.0
 32
0.0
 13
707.849995889107
 23
-894.0
 33
0.0
  0
SOLID
  5
4F33
330
4ECC
100
AcDbEntity
  8
标注
 62
     0
100
AcDbTrace
 10
696.4999958891048
 20
-893.1666666666666
 30
0.0
 11
696.4999958891048
 21
-894.8333333333334
 31
0.0
 12
701.4999958891048
 22
-894.0
 32
0.0
 13
701.4999958891048
 23
-894.0
 33
0.0
  0
MTEXT
  5
4F34
330
4ECC
100
AcDbEntity
  8
标注
 62
     0
100
AcDbMText
 10
654.9266671032929
 20
-885.5266030013643
 30
0.0
 40
10.0
 41
0.0
 71
     5
 72
     1
  1
{\fArial|b0|i0|c0|p34;6.4 [1/4]}
 73
     1
 44
1.0
1001
ACAD
1000
MTEXTBEGIN
1070
    73
1070
     1
1070
    44
1040
1.0
1070
    74
1070
     0
1000
MTEXTEND
  0
POINT
  5
4F35
330
4ECC
100
AcDbEntity
  8
Defpoints
 62
     0
100
AcDbPoint
 10
701.4999958891048
 20
-863.0924166213302
 30
0.0
  0
POINT
  5
4F36
330
4ECC
100
AcDbEntity
  8
Defpoints
 62
     0
100
AcDbPoint
 10
707.849995889107
 20
-863.0924166213231
 30
0.0
  0
POINT
  5
4F37
330
4ECC
100
AcDbEntity
  8
Defpoints
 62
     0
100
AcDbPoint
 10
707.849995889107
 20
-894.0
 30
0.0
  0
ENDBLK
  5
4ED9
330
4ECC
100
AcDbEntity
  8
0
100
AcDbBlockEnd
  0
BLOCK
  5
4EE4
330
4EDA
100
AcDbEntity
  8
0
100
AcDbBlockBegin
  2
*D26
 70
     1
 10
0.0
 20
0.0
 30
0.0
  3
*D26
  1

  0
LINE
  5
4F38
330
4EDA
100
AcDbEntity
  8
标注
 62
     0
370
    -2
100
AcDbLine
 10
701.4999958891069
 20
-732.0
 30
0.0
 11
701.4999958891069
 21
-662.75
 31
0.0
  0
LINE
  5
4F39
330
4EDA
100
AcDbEntity
  8
标注
 62
     0
370
    -2
100
AcDbLine
 10
368.4999958891046
 20
-729.0
 30
0.0
 11
368.4999958891046
 21
-662.75
 31
0.0
  0
LINE
  5
4F3A
330
4EDA
100
AcDbEntity
  8
标注
 62
     0
370
     0
100
AcDbLine
 10
696.4999958891069
 20
-666.5
 30
0.0
 11
373.4999958891046
 21
-666.5
 31
0.0
  0
SOLID
  5
4F3B
330
4EDA
100
AcDbEntity
  8
标注
 62
     0
100
AcDbTrace
 10
696.4999958891069
 20
-665.6666666666666
 30
0.0
 11
696.4999958891069
 21
-667.3333333333333
 31
0.0
 12
701.4999958891069
 22
-666.5
 32
0.0
 13
701.4999958891069
 23
-666.5
 33
0.0
  0
SOLID
  5
4F3C
330
4EDA
100
AcDbEntity
  8
标注
 62
     0
100
AcDbTrace
 10
373.4999958891046
 20
-665.6666666666666
 30
0.0
 11
373.4999958891046
 21
-667.3333333333333
 31
0.0
 12
368.4999958891046
 22
-666.5
 32
0.0
 13
368.4999958891046
 23
-666.5
 33
0.0
  0
MTEXT
  5
4F3D
330
4EDA
100
AcDbEntity
  8
标注
 62
     0
100
AcDbMText
 10
534.9999958891057
 20
-658.0266030013643
 30
0.0
 40
10.0
 41
0.0
 71
     5
 72
     1
  1
{\fArial|b0|i0|c0|p34;333 [13 1/8]}
 73
     1
 44
1.0
1001
ACAD
1000
MTEXTBEGIN
1070
    73
1070
     1
1070
    44
1040
1.0
1070
    74
1070
     0
1000
MTEXTEND
  0
POINT
  5
4F3E
330
4EDA
100
AcDbEntity
  8
Defpoints
 62
     0
100
AcDbPoint
 10
701.4999958891069
 20
-732.0
 30
0.0
  0
POINT
  5
4F3F
330
4EDA
100
AcDbEntity
  8
Defpoints
 62
     0
100
AcDbPoint
 10
368.4999958891046
 20
-729.0
 30
0.0
  0
POINT
  5
4F40
330
4EDA
100
AcDbEntity
  8
Defpoints
 62
     0
100
AcDbPoint
 10
368.4999958891046
 20
-666.5
 30
0.0
  0
ENDBLK
  5
4EE5
330
4EDA
100
AcDbEntity
  8
0
100
AcDbBlockEnd
  0
BLOCK
  5
4EF0
330
4EE6
100
AcDbEntity
  8
0
100
AcDbBlockBegin
  2
*D27
 70
     1
 10
0.0
 20
0.0
 30
0.0
  3
*D27
  1

  0
LINE
  5
4F41
330
4EE6
100
AcDbEntity
  8
标注
 62
     0
370
    -2
100
AcDbLine
 10
351.5
 20
-726.5924236637892
 30
0.0
 11
292.7499999999999
 21
-726.5924236637892
 31
0.0
  0
LINE
  5
4F42
330
4EE6
100
AcDbEntity
  8
标注
 62
     0
370
    -2
100
AcDbLine
 10
361.0
 20
-999.5924236637856
 30
0.0
 11
292.7499999999998
 21
-999.5924236637856
 31
0.0
  0
LINE
  5
4F43
330
4EE6
100
AcDbEntity
  8
标注
 62
     0
370
     0
100
AcDbLine
 10
296.4999999999999
 20
-731.5924236637892
 30
0.0
 11
296.4999999999998
 21
-994.5924236637857
 31
0.0
  0
SOLID
  5
4F44
330
4EE6
100
AcDbEntity
  8
标注
 62
     0
100
AcDbTrace
 10
295.6666666666666
 20
-731.5924236637892
 30
0.0
 11
297.3333333333332
 21
-731.5924236637892
 31
0.0
 12
296.4999999999999
 22
-726.5924236637892
 32
0.0
 13
296.4999999999999
 23
-726.5924236637892
 33
0.0
  0
SOLID
  5
4F45
330
4EE6
100
AcDbEntity
  8
标注
 62
     0
100
AcDbTrace
 10
295.6666666666665
 20
-994.5924236637857
 30
0.0
 11
297.3333333333331
 21
-994.5924236637857
 31
0.0
 12
296.4999999999998
 22
-999.5924236637856
 32
0.0
 13
296.4999999999998
 23
-999.5924236637856
 33
0.0
  0
MTEXT
  5
4F46
330
4EE6
100
AcDbEntity
  8
标注
 62
     0
100
AcDbMText
 10
288.0266030013643
 20
-863.0924236637874
 30
0.0
 40
10.0
 41
0.0
 71
     5
 72
     1
  1
{\fArial|b0|i0|c0|p34;273 [10 3/4]}
 11
0.0000000000000001
 21
1.0
 31
0.0
 73
     1
 44
1.0
1001
ACAD
1000
MTEXTBEGIN
1070
    73
1070
     1
1070
    44
1040
1.0
1070
    74
1070
     0
1000
MTEXTEND
  0
POINT
  5
4F47
330
4EE6
100
AcDbEntity
  8
Defpoints
 62
     0
100
AcDbPoint
 10
351.5
 20
-726.5924236637892
 30
0.0
  0
POINT
  5
4F48
330
4EE6
100
AcDbEntity
  8
Defpoints
 62
     0
100
AcDbPoint
 10
361.0
 20
-999.5924236637856
 30
0.0
  0
POINT
  5
4F49
330
4EE6
100
AcDbEntity
  8
Defpoints
 62
     0
100
AcDbPoint
 10
296.4999999999998
 20
-999.5924236637856
 30
0.0
  0
ENDBLK
  5
4EF1
330
4EE6
100
AcDbEntity
  8
0
100
AcDbBlockEnd
  0
BLOCK
  5
4EFC
330
4EF2
100
AcDbEntity
  8
0
100
AcDbBlockBegin
  2
*D28
 70
     1
 10
0.0
 20
0.0
 30
0.0
  3
*D28
  1

  0
LINE
  5
4F4A
330
4EF2
100
AcDbEntity
  8
标注
 62
     0
370
    -2
100
AcDbLine
 10
707.849995889107
 20
-734.4999999999999
 30
0.0
 11
707.849995889107
 21
-640.7499999999999
 31
0.0
  0
LINE
  5
4F4B
330
4EF2
100
AcDbEntity
  8
标注
 62
     0
370
    -2
100
AcDbLine
 10
362.1499958891047
 20
-729.0
 30
0.0
 11
362.1499958891047
 21
-640.7499999999999
 31
0.0
  0
LINE
  5
4F4C
330
4EF2
100
AcDbEntity
  8
标注
 62
     0
370
     0
100
AcDbLine
 10
702.849995889107
 20
-644.5
 30
0.0
 11
367.1499958891047
 21
-644.5
 31
0.0
  0
SOLID
  5
4F4D
330
4EF2
100
AcDbEntity
  8
标注
 62
     0
100
AcDbTrace
 10
702.849995889107
 20
-643.6666666666666
 30
0.0
 11
702.849995889107
 21
-645.3333333333334
 31
0.0
 12
707.849995889107
 22
-644.5
 32
0.0
 13
707.849995889107
 23
-644.5
 33
0.0
  0
SOLID
  5
4F4E
330
4EF2
100
AcDbEntity
  8
标注
 62
     0
100
AcDbTrace
 10
367.1499958891047
 20
-643.6666666666666
 30
0.0
 11
367.1499958891047
 21
-645.3333333333334
 31
0.0
 12
362.1499958891047
 22
-644.5
 32
0.0
 13
362.1499958891047
 23
-644.5
 33
0.0
  0
MTEXT
  5
4F4F
330
4EF2
100
AcDbEntity
  8
标注
 62
     0
100
AcDbMText
 10
534.9999958891057
 20
-636.0266030013642
 30
0.0
 40
10.0
 41
0.0
 71
     5
 72
     1
  1
{\fArial|b0|i0|c0|p34;345.7 [13 5/8]}
 73
     1
 44
1.0
1001
ACAD
1000
MTEXTBEGIN
1070
    73
1070
     1
1070
    44
1040
1.0
1070
    74
1070
     0
1000
MTEXTEND
  0
POINT
  5
4F50
330
4EF2
100
AcDbEntity
  8
Defpoints
 62
     0
100
AcDbPoint
 10
707.849995889107
 20
-734.4999999999999
 30
0.0
  0
POINT
  5
4F51
330
4EF2
100
AcDbEntity
  8
Defpoints
 62
     0
100
AcDbPoint
 10
362.1499958891047
 20
-729.0
 30
0.0
  0
POINT
  5
4F52
330
4EF2
100
AcDbEntity
  8
Defpoints
 62
     0
100
AcDbPoint
 10
362.1499958891047
 20
-644.5
 30
0.0
  0
ENDBLK
  5
4EFD
330
4EF2
100
AcDbEntity
  8
0
100
AcDbBlockEnd
  0
BLOCK
  5
4F08
330
4EFE
100
AcDbEntity
  8
0
100
AcDbBlockBegin
  2
*D29
 70
     1
 10
0.0
 20
0.0
 30
0.0
  3
*D29
  1

  0
LINE
  5
4F53
330
4EFE
100
AcDbEntity
  8
标注
 62
     0
370
    -2
100
AcDbLine
 10
350.0
 20
-720.2424236637867
 30
0.0
 11
268.7499999999999
 21
-720.2424236637867
 31
0.0
  0
LINE
  5
4F54
330
4EFE
100
AcDbEntity
  8
标注
 62
     0
370
    -2
100
AcDbLine
 10
362.5
 20
-1005.942423663785
 30
0.0
 11
268.7499999999998
 21
-1005.942423663785
 31
0.0
  0
LINE
  5
4F55
330
4EFE
100
AcDbEntity
  8
标注
 62
     0
370
     0
100
AcDbLine
 10
272.4999999999999
 20
-725.2424236637867
 30
0.0
 11
272.4999999999998
 21
-1000.942423663785
 31
0.0
  0
SOLID
  5
4F56
330
4EFE
100
AcDbEntity
  8
标注
 62
     0
100
AcDbTrace
 10
271.6666666666666
 20
-725.2424236637867
 30
0.0
 11
273.3333333333332
 21
-725.2424236637867
 31
0.0
 12
272.4999999999999
 22
-720.2424236637867
 32
0.0
 13
272.4999999999999
 23
-720.2424236637867
 33
0.0
  0
SOLID
  5
4F57
330
4EFE
100
AcDbEntity
  8
标注
 62
     0
100
AcDbTrace
 10
271.6666666666665
 20
-1000.942423663785
 30
0.0
 11
273.3333333333332
 21
-1000.942423663785
 31
0.0
 12
272.4999999999998
 22
-1005.942423663785
 32
0.0
 13
272.4999999999998
 23
-1005.942423663785
 33
0.0
  0
MTEXT
  5
4F58
330
4EFE
100
AcDbEntity
  8
标注
 62
     0
100
AcDbMText
 10
264.0266030013643
 20
-863.0924236637858
 30
0.0
 40
10.0
 41
0.0
 71
     5
 72
     1
  1
{\fArial|b0|i0|c0|p34;285.7 [11 1/4]}
 11
0.0000000000000001
 21
1.0
 31
0.0
 73
     1
 44
1.0
1001
ACAD
1000
MTEXTBEGIN
1070
    73
1070
     1
1070
    44
1040
1.0
1070
    74
1070
     0
1000
MTEXTEND
  0
POINT
  5
4F59
330
4EFE
100
AcDbEntity
  8
Defpoints
 62
     0
100
AcDbPoint
 10
350.0
 20
-720.2424236637867
 30
0.0
  0
POINT
  5
4F5A
330
4EFE
100
AcDbEntity
  8
Defpoints
 62
     0
100
AcDbPoint
 10
362.5
 20
-1005.942423663785
 30
0.0
  0
POINT
  5
4F5B
330
4EFE
100
AcDbEntity
  8
Defpoints
 62
     0
100
AcDbPoint
 10
272.4999999999998
 20
-1005.942423663785
 30
0.0
  0
ENDBLK
  5
4F09
330
4EFE
100
AcDbEntity
  8
0
100
AcDbBlockEnd
  0
BLOCK
  5
4F14
330
4F0A
100
AcDbEntity
  8
0
100
AcDbBlockBegin
  2
*D30
 70
     1
 10
0.0
 20
0.0
 30
0.0
  3
*D30
  1

  0
LINE
  5
4F5C
330
4F0A
100
AcDbEntity
  8
标注
 62
     0
370
    -2
100
AcDbLine
 10
695.149995889106
 20
-731.5
 30
0.0
 11
695.149995889106
 21
-684.9812363691159
 31
0.0
  0
LINE
  5
4F5D
330
4F0A
100
AcDbEntity
  8
标注
 62
     0
370
    -2
100
AcDbLine
 10
374.849995889105
 20
-726.5
 30
0.0
 11
374.849995889105
 21
-684.9812363691159
 31
0.0
  0
LINE
  5
4F5E
330
4F0A
100
AcDbEntity
  8
标注
 62
     0
370
     0
100
AcDbLine
 10
690.1499958891061
 20
-688.731236369116
 30
0.0
 11
379.849995889105
 21
-688.731236369116
 31
0.0
  0
SOLID
  5
4F5F
330
4F0A
100
AcDbEntity
  8
标注
 62
     0
100
AcDbTrace
 10
690.1499958891061
 20
-687.8979030357826
 30
0.0
 11
690.1499958891061
 21
-689.5645697024494
 31
0.0
 12
695.149995889106
 22
-688.731236369116
 32
0.0
 13
695.149995889106
 23
-688.731236369116
 33
0.0
  0
SOLID
  5
4F60
330
4F0A
100
AcDbEntity
  8
标注
 62
     0
100
AcDbTrace
 10
379.849995889105
 20
-687.8979030357826
 30
0.0
 11
379.849995889105
 21
-689.5645697024494
 31
0.0
 12
374.849995889105
 22
-688.731236369116
 32
0.0
 13
374.849995889105
 23
-688.731236369116
 33
0.0
  0
MTEXT
  5
4F61
330
4F0A
100
AcDbEntity
  8
标注
 62
     0
100
AcDbMText
 10
534.9999958891055
 20
-680.2578393704802
 30
0.0
 40
10.0
 41
0.0
 71
     5
 72
     1
  1
{\fArial|b0|i0|c0|p34;320.3 [12 5/8]}
 73
     1
 44
1.0
1001
ACAD
1000
MTEXTBEGIN
1070
    73
1070
     1
1070
    44
1040
1.0
1070
    74
1070
     0
1000
MTEXTEND
  0
POINT
  5
4F62
330
4F0A
100
AcDbEntity
  8
Defpoints
 62
     0
100
AcDbPoint
 10
695.149995889106
 20
-731.5
 30
0.0
  0
POINT
  5
4F63
330
4F0A
100
AcDbEntity
  8
Defpoints
 62
     0
100
AcDbPoint
 10
374.849995889105
 20
-726.5
 30
0.0
  0
POINT
  5
4F64
330
4F0A
100
AcDbEntity
  8
Defpoints
 62
     0
100
AcDbPoint
 10
374.849995889105
 20
-688.731236369116
 30
0.0
  0
ENDBLK
  5
4F15
330
4F0A
100
AcDbEntity
  8
0
100
AcDbBlockEnd
  0
BLOCK
  5
4F20
330
4F16
100
AcDbEntity
  8
0
100
AcDbBlockBegin
  2
*D31
 70
     1
 10
0.0
 20
0.0
 30
0.0
  3
*D31
  1

  0
LINE
  5
4F65
330
4F16
100
AcDbEntity
  8
标注
 62
     0
370
    -2
100
AcDbLine
 10
350.5
 20
-732.9424236637883
 30
0.0
 11
316.0212890111073
 21
-732.9424236637883
 31
0.0
  0
LINE
  5
4F66
330
4F16
100
AcDbEntity
  8
标注
 62
     0
370
    -2
100
AcDbLine
 10
362.0
 20
-993.2424236637812
 30
0.0
 11
316.0212890111073
 21
-993.2424236637812
 31
0.0
  0
LINE
  5
4F67
330
4F16
100
AcDbEntity
  8
标注
 62
     0
370
     0
100
AcDbLine
 10
319.7712890111073
 20
-737.9424236637882
 30
0.0
 11
319.7712890111073
 21
-988.2424236637813
 31
0.0
  0
SOLID
  5
4F68
330
4F16
100
AcDbEntity
  8
标注
 62
     0
100
AcDbTrace
 10
318.937955677774
 20
-737.9424236637882
 30
0.0
 11
320.6046223444407
 21
-737.9424236637882
 31
0.0
 12
319.7712890111073
 22
-732.9424236637883
 32
0.0
 13
319.7712890111073
 23
-732.9424236637883
 33
0.0
  0
SOLID
  5
4F69
330
4F16
100
AcDbEntity
  8
标注
 62
     0
100
AcDbTrace
 10
318.937955677774
 20
-988.2424236637813
 30
0.0
 11
320.6046223444406
 21
-988.2424236637813
 31
0.0
 12
319.7712890111073
 22
-993.2424236637812
 32
0.0
 13
319.7712890111073
 23
-993.2424236637812
 33
0.0
  0
MTEXT
  5
4F6A
330
4F16
100
AcDbEntity
  8
标注
 62
     0
100
AcDbMText
 10
311.2978920124717
 20
-863.0924236637847
 30
0.0
 40
10.0
 41
0.0
 71
     5
 72
     1
  1
{\fArial|b0|i0|c0|p34;260.3 [10 1/4]}
 11
0.0000000000000001
 21
1.0
 31
0.0
 73
     1
 44
1.0
1001
ACAD
1000
MTEXTBEGIN
1070
    73
1070
     1
1070
    44
1040
1.0
1070
    74
1070
     0
1000
MTEXTEND
  0
POINT
  5
4F6B
330
4F16
100
AcDbEntity
  8
Defpoints
 62
     0
100
AcDbPoint
 10
350.5
 20
-732.9424236637883
 30
0.0
  0
POINT
  5
4F6C
330
4F16
100
AcDbEntity
  8
Defpoints
 62
     0
100
AcDbPoint
 10
362.0
 20
-993.2424236637812
 30
0.0
  0
POINT
  5
4F6D
330
4F16
100
AcDbEntity
  8
Defpoints
 62
     0
100
AcDbPoint
 10
319.7712890111073
 20
-993.2424236637812
 30
0.0
  0
ENDBLK
  5
4F21
330
4F16
100
AcDbEntity
  8
0
100
AcDbBlockEnd
  0
ENDSEC
  0
SECTION
  2
ENTITIES
  0
LWPOLYLINE
  5
4167
330
1F
100
AcDbEntity
  8
虚线
 48
2.0
100
AcDbPolyline
 90
        8
 70
     1
 43
0.0
 10
493.6747922852991
 20
224.4538348645583
 42
0.0313095868870915
 10
656.325199492916
 20
224.4538348645583
 42
0.3854832089419971
 10
740.635116848287
 20
310.9951571786078
 42
0.0182416138257983
 10
740.635116848287
 20
405.8199954938173
 42
0.3854832089419949
 10
656.325199492916
 20
492.3613178078666
 42
0.0313095868870918
 10
493.6747922852955
 20
492.3613178078666
 42
0.3854832089419946
 10
409.3648749299245
 20
405.8199954938173
 42
0.0182416138257981
 10
409.3648749299245
 20
310.9951571786078
 42
0.385483208941996
  0
LWPOLYLINE
  5
4168
330
1F
100
AcDbEntity
  8
虚线
 48
2.0
100
AcDbPolyline
 90
        8
 70
     1
 43
0.0
 10
494.0720646837434
 20
230.7913954869436
 42
0.0313095810612739
 10
655.9279571522347
 20
230.7913973709801
 42
0.3854832495673152
 10
734.2893418813765
 20
311.2267604374137
 42
0.0182416115379743
 10
734.2893414497557
 20
405.588404061782
 42
0.3854832089419949
 10
655.9279571522347
 20
486.0237553014521
 42
0.0313095868870918
 10
494.0720346259768
 20
486.0237553014449
 42
0.3854832348570949
 10
415.7106500531226
 20
405.5883965174216
 42
0.0182416123663835
 10
415.7106503284557
 20
311.226748610643
 42
0.3854833123252073
  0
LWPOLYLINE
  5
4169
330
1F
100
AcDbEntity
  8
图层1粗线
  6
Continuous
 62
     7
 48
0.2
100
AcDbPolyline
 90
        8
 70
     1
 43
0.0
 10
493.277582179282
 20
218.116270337654
 42
0.0313095807000854
 10
656.7224418335972
 20
218.1162723581365
 42
0.385483250918941
 10
746.9808927605117
 20
310.7635798221236
 42
0.0182416111294272
 10
746.9808922468182
 20
406.0515869258597
 42
0.3854832089419949
 10
656.7224418335972
 20
498.6988803142885
 42
0.0313095868870918
 10
493.2775499446143
 20
498.6988803142885
 42
0.3854832184211143
 10
403.0190994153927
 20
406.0515837473576
 42
0.018241613216911
 10
403.0190995313932
 20
310.7635657465653
 42
0.385483305198627
  0
HATCH
  5
416A
330
1F
100
AcDbEntity
  8
剖切线
100
AcDbHatch
 10
0.0
 20
0.0
 30
0.0
210
0.0
220
0.0
230
1.0
  2
ANSI37
 70
     0
 71
     0
 91
        2
 92
        7
 72
     0
 73
     1
 93
        6
 10
631.4014033115272
 20
434.1507330467429
 10
630.3500881115251
 20
434.1507330467429
 10
630.3500881115251
 20
423.0436177521332
 10
629.5413841115223
 20
423.0436177521332
 10
629.5413841115223
 20
422.2349137521304
 10
631.4014033115272
 20
422.2349137521304
 97
        0
 92
        7
 72
     0
 73
     1
 93
        6
 10
637.6284241115281
 20
434.1507330467429
 10
636.5771089115333
 20
434.1507330467429
 10
636.5771089115333
 20
422.2349137521304
 10
638.4371281115273
 20
422.2349137521304
 10
638.4371281115273
 20
423.0436177521332
 10
637.6284241115281
 20
423.0436177521332
 97
        0
 75
     0
 76
     1
 52
0.0
 41
0.1617408
 77
     0
 78
     2
 53
45.0
 43
1644.321314264958
 44
-1745.155021101425
 45
-0.3631184523061821
 46
0.3631184523078846
 79
     0
 53
135.0
 43
1644.321314264958
 44
-1745.155021101425
 45
-0.3631184523061821
 46
-0.3631184523078846
 79
     0
 47
0.0875911827022286
 98
        2
 10
631.0774781042637
 20
430.3147446489092
 10
637.1030288680231
 20
430.8105917281864
  0
HATCH
  5
416B
330
1F
100
AcDbEntity
  8
剖切线
100
AcDbHatch
 10
0.0
 20
0.0
 30
0.0
210
0.0
220
0.0
230
1.0
  2
ANSI31
 70
     0
 71
     1
 91
        1
 92
        5
 93
        8
 72
     1
 10
630.3500881115251
 20
423.0436177521332
 11
630.3500881115251
 21
434.1507330467284
 72
     1
 10
630.3500881115251
 20
434.1507330467284
 11
637.6284241115317
 21
434.1507330467284
 72
     1
 10
637.6284241115317
 20
434.1507330467284
 11
637.6284241115317
 21
423.0436177521332
 72
     1
 10
637.6284241115317
 20
423.0436177521332
 11
658.1242359856877
 21
423.0436177521332
 72
     1
 10
658.1242359856877
 20
423.0436177521332
 11
658.1242359856878
 21
443.2612177521296
 72
     1
 10
658.1242359856878
 20
443.2612177521296
 11
598.8235980084428
 21
443.2612177521296
 72
     4
 94
        3
 73
     0
 74
     0
 95
       11
 96
        7
 40
0.0
 40
0.0
 40
0.0
 40
0.0
 40
5.939581426805013
 40
12.00037420844861
 40
17.54940419636779
 40
21.37393145992334
 40
21.37393145992334
 40
21.37393145992334
 40
21.37393145992334
 10
598.8235980084428
 20
443.2612177521296
 10
600.0104303360231
 20
441.4286155945583
 10
602.4083151414024
 20
437.726012652402
 10
597.7643750354454
 20
432.1844611164106
 10
601.39144140045
 20
426.9926031216701
 10
599.5677050074614
 20
424.1879506431657
 10
598.8235980084428
 20
423.0436177521332
 72
     1
 10
598.8235980084426
 20
423.0436177521333
 11
630.3500881115251
 21
423.0436177521332
 97
        8
330
4187
330
417D
330
416E
330
4171
330
4170
330
419D
330
416C
330
4189
 75
     0
 76
     1
 52
0.0
 41
0.6739200000000001
 77
     0
 78
     1
 53
44.9999999999263
 43
-6143.806769086713
 44
15511.44182455553
 45
-1.512993551277745
 46
1.512993551276042
 79
     0
 47
0.514725256801631
 98
        1
 10
612.1005631658663
 20
429.216124814382
  0
LINE
  5
416C
102
{ACAD_REACTORS
330
416B
102
}
330
1F
100
AcDbEntity
  8
粗实线
100
AcDbLine
 10
598.8235980084428
 20
423.0436177521332
 30
0.0
 11
630.3500881115251
 21
423.0436177521332
 31
0.0
  0
HATCH
  5
416D
330
1F
100
AcDbEntity
  8
剖切线
100
AcDbHatch
 10
0.0
 20
0.0
 30
0.0
210
0.0
220
0.0
230
1.0
  2
ANSI31
 70
     0
 71
     0
 91
        1
 92
        7
 72
     1
 73
     1
 93
        9
 10
649.9011414484848
 20
423.0436177521332
 42
0.0
 10
648.7178342659026
 20
423.0436177521332
 42
0.0
 10
648.7178342659063
 20
422.2961281521275
 42
0.0
 10
660.3684019716129
 20
422.294817752132
 42
-0.4014906669060268
 10
661.9580875017927
 20
420.7730249212982
 42
0.0
 10
663.0159498584252
 20
396.5740352099892
 42
0.0
 10
663.7588041334929
 20
396.6965118864609
 42
0.0
 10
662.706174810115
 20
420.8056871185763
 42
0.4014906669060268
 10
660.3684019716129
 20
423.0436177521332
 42
0.0
 97
        0
 75
     0
 76
     1
 52
90.0
 41
0.4680000000000001
 77
     0
 78
     1
 53
135.0
 43
-9275.621582685719
 44
16057.79125913656
 45
-1.050689966164864
 46
-1.050689966166566
 79
     0
 47
0.1745883849316779
 98
        1
 10
656.4895086188771
 20
422.8553233178754
  0
LINE
  5
416E
102
{ACAD_REACTORS
330
416B
102
}
330
1F
100
AcDbEntity
  8
粗实线
100
AcDbLine
 10
637.6284241115317
 20
423.0436177521332
 30
0.0
 11
658.1242359856878
 21
423.0436177521332
 31
0.0
  0
LINE
  5
416F
330
1F
100
AcDbEntity
  8
粗实线
100
AcDbLine
 10
636.5771089115333
 20
422.2349137521304
 30
0.0
 11
638.4371281115273
 21
422.2349137521304
 31
0.0
  0
LINE
  5
4170
102
{ACAD_REACTORS
330
416B
102
}
330
1F
100
AcDbEntity
  8
粗实线
100
AcDbLine
 10
598.8235980084428
 20
443.2612177521296
 30
0.0
 11
658.1242359856878
 21
443.2612177521296
 31
0.0
  0
LINE
  5
4171
102
{ACAD_REACTORS
330
416B
102
}
330
1F
100
AcDbEntity
  8
粗实线
100
AcDbLine
 10
658.1242359856878
 20
443.2612177521296
 30
0.0
 11
658.1242359856878
 21
423.0436177521332
 31
0.0
  0
HATCH
  5
4172
330
1F
100
AcDbEntity
  8
剖切线
100
AcDbHatch
 10
0.0
 20
0.0
 30
0.0
210
0.0
220
0.0
230
1.0
  2
ANSI31
 70
     0
 71
     0
 91
        2
 92
        7
 72
     0
 73
     1
 93
        6
 10
629.5211665115275
 20
416.1068305941371
 10
629.5211665115239
 20
412.8720145941406
 10
630.5522641115239
 20
412.8720145941406
 10
630.5522641115239
 20
413.8424593941453
 10
633.9892561115302
 20
413.8424593941453
 10
633.9892561115302
 20
416.1068305941371
 97
        0
 92
        7
 72
     0
 73
     1
 93
        6
 10
633.9892561115302
 20
416.1068305941371
 10
633.9892561115302
 20
413.8424593941453
 10
637.4262481115256
 20
413.8424593941453
 10
637.4262481115256
 20
412.8720145941406
 10
638.4573457115293
 20
412.8720145941406
 10
638.4573457115293
 20
416.1068305941371
 97
        0
 75
     0
 76
     1
 52
90.0
 41
0.4043520000000001
 77
     0
 78
     1
 53
135.0
 43
2603.550087833017
 44
1795.680839292967
 45
-0.9077961307663064
 46
-0.9077961307663064
 79
     0
 47
0.1137768334985027
 98
        2
 10
630.8969915762282
 20
415.9777585898555
 10
635.4055694139424
 20
415.5173531248801
  0
LINE
  5
4173
330
1F
100
AcDbEntity
  8
粗实线
 48
0.1
100
AcDbLine
 10
638.4573457115293
 20
412.8720145941334
 30
0.0
 11
629.5211665115239
 21
412.8720145941334
 31
0.0
  0
LINE
  5
4174
330
1F
100
AcDbEntity
  8
粗实线
 48
0.1
100
AcDbLine
 10
637.4262481115329
 20
413.8424593941381
 30
0.0
 11
630.5522641115239
 21
413.8424593941381
 31
0.0
  0
LINE
  5
4175
330
1F
100
AcDbEntity
  8
粗实线
 48
0.1
100
AcDbLine
 10
638.4573457115293
 20
416.1068305941371
 30
0.0
 11
629.5211665115239
 21
416.1068305941371
 31
0.0
  0
LINE
  5
4176
330
1F
100
AcDbEntity
  8
粗实线
 48
0.1
100
AcDbLine
 10
636.0110161115299
 20
433.8983185941324
 30
0.0
 11
631.967496111527
 21
433.8983185941324
 31
0.0
  0
LINE
  5
4177
330
1F
100
AcDbEntity
  8
粗实线
 48
0.1
100
AcDbLine
 10
636.4153681115312
 20
433.4939665941274
 30
0.0
 11
631.5631441115256
 21
433.4939665941274
 31
0.0
  0
LINE
  5
4178
330
1F
100
AcDbEntity
  8
中心线
 48
0.1
100
AcDbLine
 10
633.9892561115266
 20
435.3004616821781
 30
0.0
 11
633.9892561115266
 21
411.0165797861991
 31
0.0
  0
LINE
  5
4179
330
1F
100
AcDbEntity
  8
粗实线
 48
0.1
100
AcDbLine
 10
631.5631441115256
 20
433.4939665941274
 30
0.0
 11
631.5631441115256
 21
416.1068305941371
 31
0.0
  0
LINE
  5
417A
330
1F
100
AcDbEntity
  8
细实线
 48
0.1
100
AcDbLine
 10
631.967496111527
 20
433.8983185941324
 30
0.0
 11
631.967496111527
 21
416.1068305941371
 31
0.0
  0
LINE
  5
417B
330
1F
100
AcDbEntity
  8
粗实线
 48
0.1
100
AcDbLine
 10
636.4153681115312
 20
433.4939665941274
 30
0.0
 11
636.4153681115312
 21
416.1068305941371
 31
0.0
  0
LINE
  5
417C
330
1F
100
AcDbEntity
  8
粗实线
 48
0.1
100
AcDbLine
 10
636.5771089115333
 20
434.1507330467284
 30
0.0
 11
636.5771089115333
 21
422.2349137521304
 31
0.0
  0
LINE
  5
417D
102
{ACAD_REACTORS
330
416B
102
}
330
1F
100
AcDbEntity
  8
粗实线
 48
0.1
100
AcDbLine
 10
637.6284241115317
 20
434.1507330467284
 30
0.0
 11
637.6284241115317
 21
423.0436177521332
 31
0.0
  0
LINE
  5
417E
330
1F
100
AcDbEntity
  8
粗实线
 48
0.1
100
AcDbLine
 10
638.4371281115273
 20
423.0436177521332
 30
0.0
 11
638.4371281115273
 21
422.2349137521304
 31
0.0
  0
LINE
  5
417F
330
1F
100
AcDbEntity
  8
细实线
 48
0.1
100
AcDbLine
 10
636.0110161115299
 20
433.8983185941324
 30
0.0
 11
636.0110161115299
 21
416.1068305941371
 31
0.0
  0
LINE
  5
4180
330
1F
100
AcDbEntity
  8
粗实线
 48
0.1
100
AcDbLine
 10
630.5522641115239
 20
413.8424593941381
 30
0.0
 11
630.5522641115239
 21
412.8720145941334
 31
0.0
  0
LINE
  5
4181
330
1F
100
AcDbEntity
  8
粗实线
 48
0.1
100
AcDbLine
 10
637.4262481115329
 20
413.8424593941381
 30
0.0
 11
637.4262481115329
 21
412.8720145941334
 31
0.0
  0
LINE
  5
4182
330
1F
100
AcDbEntity
  8
粗实线
 48
0.1
100
AcDbLine
 10
629.5211665115239
 20
416.1068305941371
 30
0.0
 11
629.5211665115239
 21
412.8720145941334
 31
0.0
  0
LINE
  5
4183
330
1F
100
AcDbEntity
  8
粗实线
 48
0.1
100
AcDbLine
 10
638.4573457115293
 20
416.1068305941371
 30
0.0
 11
638.4573457115293
 21
412.8720145941334
 31
0.0
  0
LINE
  5
4184
330
1F
100
AcDbEntity
  8
粗实线
 48
0.1
100
AcDbLine
 10
631.967496111527
 20
433.8983185941324
 30
0.0
 11
631.5631441115256
 21
433.4939665941274
 31
0.0
  0
LINE
  5
4185
330
1F
100
AcDbEntity
  8
粗实线
 48
0.1
100
AcDbLine
 10
636.0110161115299
 20
433.8983185941324
 30
0.0
 11
636.4153681115312
 21
433.4939665941274
 31
0.0
  0
LINE
  5
4186
330
1F
100
AcDbEntity
  8
粗实线
100
AcDbLine
 10
631.4014033115272
 20
422.2349137521304
 30
0.0
 11
629.5413841115223
 21
422.2349137521304
 31
0.0
  0
LINE
  5
4187
102
{ACAD_REACTORS
330
416B
102
}
330
1F
100
AcDbEntity
  8
粗实线
 48
0.1
100
AcDbLine
 10
630.3500881115251
 20
434.1507330467284
 30
0.0
 11
637.6284241115317
 21
434.1507330467284
 31
0.0
  0
LINE
  5
4188
330
1F
100
AcDbEntity
  8
粗实线
 48
0.1
100
AcDbLine
 10
631.4014033115272
 20
434.1507330467284
 30
0.0
 11
631.4014033115272
 21
422.2349137521304
 31
0.0
  0
LINE
  5
4189
102
{ACAD_REACTORS
330
416B
102
}
330
1F
100
AcDbEntity
  8
粗实线
 48
0.1
100
AcDbLine
 10
630.3500881115251
 20
434.1507330467284
 30
0.0
 11
630.3500881115251
 21
423.0436177521332
 31
0.0
  0
LINE
  5
418A
330
1F
100
AcDbEntity
  8
粗实线
 48
0.1
100
AcDbLine
 10
629.5413841115223
 20
423.0436177521332
 30
0.0
 11
629.5413841115223
 21
422.2349137521304
 31
0.0
  0
LINE
  5
418B
330
1F
100
AcDbEntity
  8
中心线
 48
0.1
100
AcDbLine
 10
633.9892561115266
 20
411.4670224512738
 30
0.0
 11
633.9892561115266
 21
427.1329717141197
 31
0.0
  0
HATCH
  5
418C
330
1F
100
AcDbEntity
  8
剖切线
100
AcDbHatch
 10
0.0
 20
0.0
 30
0.0
210
0.0
220
0.0
230
1.0
  2
ANSI31
 70
     0
 71
     0
 91
        1
 92
        7
 72
     1
 73
     1
 93
        8
 10
619.0368423719992
 20
418.3944560213494
 42
-0.3003703345698272
 10
616.2109619189468
 20
420.5677384590599
 42
0.0
 10
615.4072808764904
 20
422.9017976847463
 42
0.0
 10
613.8779915681698
 20
422.3752211471801
 42
0.0
 10
614.6816726106226
 20
420.0411619215083
 42
0.3003703345697881
 10
618.9204932901994
 20
416.781238264928
 42
0.0070565129482686
 10
626.7137003015268
 20
416.3296246487516
 42
0.0
 10
626.7419378000814
 20
417.9473498570295
 42
-0.0070177978545288
 97
        0
 75
     0
 76
     1
 52
-0.9999999998765465
 41
0.404352
 77
     0
 78
     1
 53
43.99999999980776
 43
1979.792060356758
 44
-1654.990513457
 45
-0.8918146419828119
 46
0.9235010960552317
 79
     0
 47
0.1104702278856199
 98
        1
 10
622.044236633239
 20
417.9013005955567
  0
LINE
  5
418D
330
1F
100
AcDbEntity
  8
粗实线
100
AcDbLine
 10
626.7137003015268
 20
416.3296246487516
 30
0.0
 11
626.7419378000741
 21
417.9473498570078
 31
0.0
  0
LINE
  5
418E
330
1F
100
AcDbEntity
  8
粗实线
100
AcDbLine
 10
641.2681552498761
 20
416.0755756926301
 30
0.0
 11
641.2963927484233
 21
417.6933009009007
 31
0.0
  0
ARC
  5
418F
330
1F
100
AcDbEntity
  8
粗实线
100
AcDbCircle
 10
638.8161862777742
 20
692.6414746127338
 30
0.0
 40
274.95936
100
AcDbArc
 50
265.8748354479636
 51
268.4884423862466
  0
ARC
  5
4190
330
1F
100
AcDbEntity
  8
粗实线
100
AcDbCircle
 10
638.8161862777742
 20
692.6414746127338
 30
0.0
 40
274.95936
100
AcDbArc
 50
269.4997133532673
 51
272.0817910569185
  0
ARC
  5
4191
330
1F
100
AcDbEntity
  8
粗实线
100
AcDbCircle
 10
619.2695405355952
 20
421.6208915341776
 30
0.0
 40
3.234816
100
AcDbArc
 50
198.9999999997986
 51
265.8748354479636
  0
ARC
  5
4192
330
1F
100
AcDbEntity
  8
粗实线
100
AcDbCircle
 10
619.2695405355952
 20
421.6208915341776
 30
0.0
 40
4.852224000000002
100
AcDbArc
 50
198.9999999997986
 51
265.8748354479636
  0
ARC
  5
4193
330
1F
100
AcDbEntity
  8
粗实线
100
AcDbCircle
 10
638.8161862777742
 20
692.6414746127338
 30
0.0
 40
276.5767680000001
100
AcDbArc
 50
265.8748354479636
 51
272.0817910569185
  0
LINE
  5
4194
330
1F
100
AcDbEntity
  8
粗实线
100
AcDbLine
 10
615.4072808764904
 20
422.9017976847463
 30
0.0
 11
616.2109619189468
 21
420.5677384590599
 31
0.0
  0
LINE
  5
4195
330
1F
100
AcDbEntity
  8
粗实线
100
AcDbLine
 10
613.8779915681661
 20
422.3752211471728
 30
0.0
 11
614.6816726106226
 21
420.0411619214937
 31
0.0
  0
LINE
  5
4196
330
1F
100
AcDbEntity
  8
粗实线
100
AcDbLine
 10
613.8779915681661
 20
422.3752211471728
 30
0.0
 11
615.4072808764904
 21
422.9017976847463
 31
0.0
  0
ARC
  5
4197
330
1F
100
AcDbEntity
  8
粗实线
100
AcDbCircle
 10
648.8924427860402
 20
421.1038218520334
 30
0.0
 40
3.234816
100
AcDbArc
 50
272.1251645521351
 51
339.0000000002068
  0
ARC
  5
4198
330
1F
100
AcDbEntity
  8
粗实线
100
AcDbCircle
 10
648.8924427860402
 20
421.1038218520334
 30
0.0
 40
4.852224000000002
100
AcDbArc
 50
272.1251645521351
 51
339.0000000002068
  0
LINE
  5
4199
330
1F
100
AcDbEntity
  8
粗实线
100
AcDbLine
 10
652.7970526409007
 20
422.2491567909528
 30
0.0
 11
651.9124036869616
 21
419.9445674749585
 31
0.0
  0
LINE
  5
419A
330
1F
100
AcDbEntity
  8
粗实线
100
AcDbLine
 10
654.3070330913579
 20
421.6695296023972
 30
0.0
 11
653.4223841374223
 21
419.3649402864248
 31
0.0
  0
LINE
  5
419B
330
1F
100
AcDbEntity
  8
粗实线
100
AcDbLine
 10
654.3070330913579
 20
421.6695296023972
 30
0.0
 11
652.7970526409007
 21
422.2491567909528
 31
0.0
  0
HATCH
  5
419C
330
1F
100
AcDbEntity
  8
剖切线
100
AcDbHatch
 10
0.0
 20
0.0
 30
0.0
210
0.0
220
0.0
230
1.0
  2
ANSI31
 70
     0
 71
     0
 91
        1
 92
        7
 72
     1
 73
     1
 93
        8
 10
641.296392748427
 20
417.6933009009007
 42
0.0070177978545289
 10
649.0123982206678
 20
417.8712307477471
 42
0.3003703345697906
 10
651.9124036869652
 20
419.9445674749585
 42
0.0
 10
652.7970526409007
 20
422.2491567909528
 42
0.0
 10
654.3070330913579
 20
421.6695296024117
 42
0.0
 10
653.4223841374223
 20
419.3649402864321
 42
-0.3003703345697732
 10
649.0723759379798
 20
416.2549351956113
 42
-0.0070565129482688
 10
641.2681552498761
 20
416.0755756926301
 42
0.0
 97
        0
 75
     0
 76
     1
 52
-0.9999999998765465
 41
0.404352
 77
     0
 78
     1
 53
43.99999999980776
 43
1979.792060356758
 44
-1654.990513457
 45
-0.8918146419828119
 46
0.9235010960552317
 79
     0
 47
0.1104702278856199
 98
        1
 10
645.9896251065948
 20
417.4833322850245
  0
SPLINE
  5
419D
102
{ACAD_REACTORS
330
416B
102
}
330
1F
100
AcDbEntity
  8
细实线
100
AcDbSpline
210
0.0
220
0.0
230
1.0
 70
     8
 71
     3
 72
    11
 73
     7
 74
     5
 42
0.0000000001
 43
0.0000000001
 44
0.0000000001
 40
0.0
 40
0.0
 40
0.0
 40
0.0
 40
5.939581426805013
 40
12.00037420844861
 40
17.54940419636779
 40
21.37393145992334
 40
21.37393145992334
 40
21.37393145992334
 40
21.37393145992334
 10
598.8235980084428
 20
443.2612177521296
 30
0.0
 10
600.0104303360231
 20
441.4286155945583
 30
0.0
 10
602.4083151414024
 20
437.7260126524021
 30
0.0
 10
597.7643750354456
 20
432.1844611164107
 30
0.0
 10
601.3914414004497
 20
426.9926031216701
 30
0.0
 10
599.5677050074613
 20
424.1879506431657
 30
0.0
 10
598.8235980084428
 20
423.0436177521332
 30
0.0
 11
598.8235980084428
 21
443.2612177521296
 31
0.0
 11
601.0187416207227
 21
437.742162393908
 31
0.0
 11
599.2097397474354
 21
431.9576380950166
 31
0.0
 11
600.3856079573852
 21
426.5346253014067
 31
0.0
 11
598.8235980084428
 21
423.0436177521332
 31
0.0
  0
LINE
  5
419E
330
1F
100
AcDbEntity
  8
粗实线
 62
     0
100
AcDbLine
 10
663.7588041334929
 20
396.6965118864609
 30
0.0
 11
662.706174810115
 21
420.8056871185763
 31
0.0
  0
LINE
  5
419F
330
1F
100
AcDbEntity
  8
粗实线
 62
     0
100
AcDbLine
 10
663.0159498584252
 20
396.5740352099892
 30
0.0
 11
661.9580875017927
 21
420.7730249212982
 31
0.0
  0
LINE
  5
41A0
330
1F
100
AcDbEntity
  8
粗实线
 62
     0
100
AcDbLine
 10
649.9011414484848
 20
423.0436177521332
 30
0.0
 11
660.3684019716129
 21
423.0436177521332
 31
0.0
  0
ARC
  5
41A1
330
1F
100
AcDbEntity
  8
粗实线
 62
     0
100
AcDbCircle
 10
660.3684019716129
 20
420.7036177521367
 30
0.0
 40
2.34
100
AcDbArc
 50
2.500000000169817
 51
90.0
  0
ARC
  5
41A2
330
1F
100
AcDbEntity
  8
粗实线
 62
     0
100
AcDbCircle
 10
660.3684019716129
 20
420.7036177521367
 30
0.0
 40
1.591199999999999
100
AcDbArc
 50
2.499999999336769
 51
90.0
  0
LINE
  5
41A3
330
1F
100
AcDbEntity
  8
粗实线
 62
     0
100
AcDbLine
 10
648.7178342659026
 20
422.2961281521492
 30
0.0
 11
660.3684019716129
 21
422.294817752132
 31
0.0
  0
LINE
  5
41A4
330
1F
100
AcDbEntity
  8
粗实线
 62
     0
100
AcDbLine
 10
660.3684019716129
 20
423.0436177521332
 30
0.0
 11
671.1457950137919
 21
423.0436177521332
 31
0.0
  0
LINE
  5
41A5
330
1F
100
AcDbEntity
  8
粗实线
100
AcDbLine
 10
648.7178342659026
 20
423.0436177521332
 30
0.0
 11
648.7178342659026
 21
422.2961281521492
 31
0.0
  0
LINE
  5
41A6
330
1F
100
AcDbEntity
  8
粗实线
100
AcDbLine
 10
661.9580875017927
 20
422.4207374087491
 30
0.0
 11
675.4896423914288
 21
434.8639558555659
 31
0.0
  0
LINE
  5
41A7
330
1F
100
AcDbEntity
  8
粗实线
100
AcDbLine
 10
675.4896423914288
 20
434.8639558555659
 30
0.0
 11
676.4943570943105
 21
434.8639558555659
 31
0.0
  0
LINE
  5
41A8
330
1F
100
AcDbEntity
  8
粗实线
100
AcDbLine
 10
628.4739169970671
 20
443.2612177521296
 30
0.0
 11
622.1680680532299
 21
450.5426224324692
 31
0.0
  0
LINE
  5
41A9
330
1F
100
AcDbEntity
  8
粗实线
100
AcDbLine
 10
622.1680680532299
 20
450.5426224324692
 30
0.0
 11
620.0663835566156
 21
450.5426224324692
 31
0.0
  0
LINE
  5
41AA
330
1F
100
AcDbEntity
  8
粗实线
100
AcDbLine
 10
618.9204932902939
 20
416.7812382649207
 30
0.0
 11
612.7885497410898
 21
408.8468541727561
 31
0.0
  0
LINE
  5
41AB
330
1F
100
AcDbEntity
  8
粗实线
100
AcDbLine
 10
612.7885497410898
 20
408.8468541727561
 30
0.0
 11
609.9405106655067
 21
408.8468541727561
 31
0.0
  0
LINE
  5
41AC
330
1F
100
AcDbEntity
  8
粗实线
100
AcDbLine
 10
629.8984326274694
 20
413.2372428561648
 30
0.0
 11
630.4850403819837
 21
401.4514560597162
 31
0.0
  0
LINE
  5
41AD
330
1F
100
AcDbEntity
  8
粗实线
100
AcDbLine
 10
632.0622068108023
 20
401.4514560597162
 30
0.0
 11
630.4850403819837
 21
401.4514560597162
 31
0.0
  0
MTEXT
  5
41AE
330
1F
100
AcDbEntity
  8
粗实线
100
AcDbMText
 10
677.7720923502347
 20
437.4651518586979
 30
0.0
 40
3.744
 41
388.771554849994
 71
     1
 72
     5
  1
{\fTahoma|b0|i0|c0|p34;SINK}
 73
     1
 44
1.0
1001
ACAD
1000
MTEXTBEGIN
1070
    73
1070
     1
1070
    44
1040
1.0
1070
    74
1070
     0
1000
MTEXTEND
  0
MTEXT
  5
41AF
330
1F
100
AcDbEntity
  8
粗实线
100
AcDbMText
 10
586.7709931507087
 20
453.0750085568579
 30
0.0
 40
3.744
 41
388.771554849994
 71
     1
 72
     5
  1
{\fTahoma|b0|i0|c0|p34;COUNTERTOP}
 73
     1
 44
1.0
1001
ACAD
1000
MTEXTBEGIN
1070
    73
1070
     1
1070
    44
1040
1.0
1070
    74
1070
     0
1000
MTEXTEND
  0
MTEXT
  5
41B0
330
1F
100
AcDbEntity
  8
粗实线
100
AcDbMText
 10
584.5964311567659
 20
410.8189116048452
 30
0.0
 40
3.744
 41
388.771554849994
 71
     1
 72
     5
  1
{\fTahoma|b0|i0|c0|p34;FASTENER}
 73
     1
 44
1.0
1001
ACAD
1000
MTEXTBEGIN
1070
    73
1070
     1
1070
    44
1040
1.0
1070
    74
1070
     0
1000
MTEXTEND
  0
MTEXT
  5
41B1
330
1F
100
AcDbEntity
  8
粗实线
100
AcDbMText
 10
632.7883036397179
 20
403.8993968274008
 30
0.0
 40
3.744
 41
388.771554849994
 71
     1
 72
     5
  1
{\fTahoma|b0|i0|c0|p34;SCREWS}
 73
     1
 44
1.0
1001
ACAD
1000
MTEXTBEGIN
1070
    73
1070
     1
1070
    44
1040
1.0
1070
    74
1070
     0
1000
MTEXTEND
  0
SOLID
  5
41B3
330
1F
100
AcDbEntity
  8
粗实线
100
AcDbTrace
 10
529.5170923995283
 20
226.0224131879513
 30
0.0
 11
530.2984907708924
 21
222.6319523659913
 31
0.0
 12
528.4597212340996
 22
225.5857185365894
 32
0.0
 13
528.4597212340996
 23
225.5857185365894
 33
0.0
1001
ACAD
1000
DSTYLE
1002
{
1070
    41
1040
8.0
1070
   147
1040
3.0
1070
    77
1070
     0
1002
}
  0
MTEXT
  5
41B4
330
1F
100
AcDbEntity
  8
粗实线
100
AcDbMText
 10
501.5679786323489
 20
239.2438147869034
 30
0.0
 40
3.744
 41
143.6220185245993
 71
     1
 72
     5
  1
{\fTahoma|b0|i0|c0|p34;Use this line for FLUSH MOUNT CUT.}
  7
样式 8
 73
     1
 44
1.0
1001
ACAD
1000
MTEXTBEGIN
1070
    73
1070
     1
1070
    44
1040
1.0
1070
    74
1070
     0
1000
MTEXTEND
  0
LINE
  5
41B5
330
1F
100
AcDbEntity
  8
0
100
AcDbLine
 10
529.107505358097
 20
225.5156919080619
 30
0.0
 11
525.7818900481106
 21
233.5680225815013
 31
0.0
  0
MTEXT
  5
41B6
102
{ACAD_XDICTIONARY
360
4F95
102
}
330
1F
100
AcDbEntity
  8
粗实线
100
AcDbMText
 10
453.8403631116816
 20
361.848558502832
 30
0.0
 40
4.68
 41
388.771554849994
 71
     1
 72
     5
  1
\fArial|b0|i0|c0|p34;Use outside line for reveal mount cut:\PSink rim is \U+00BC\U+201D revealed from the countertop opening.
 73
     1
 44
1.0
1001
ACAD
1000
MTEXTBEGIN
1070
    73
1070
     1
1070
    44
1040
1.0
1070
    74
1070
     0
1000
MTEXTEND
  0
MTEXT
  5
41B7
330
1F
100
AcDbEntity
  8
粗实线
100
AcDbMText
 10
453.8403631116816
 20
336.7895638525297
 30
0.0
 40
4.68
 41
388.771554849994
 71
     1
 72
     5
  1
\fArial|b0|i0|c0|p34;Use middle line for flush mount cut:\PSink wall is flush to the edge of countertop opening.
 73
     1
 44
1.0
1001
ACAD
1000
MTEXTBEGIN
1070
    73
1070
     1
1070
    44
1040
1.0
1070
    74
1070
     0
1000
MTEXTEND
  0
MTEXT
  5
41B8
102
{ACAD_XDICTIONARY
360
4F97
102
}
330
1F
100
AcDbEntity
  8
粗实线
100
AcDbMText
 10
453.8403631116816
 20
312.95569471614
 30
0.0
 40
4.68
 41
388.771554849994
 71
     1
 72
     5
  1
\fArial|b0|i0|c0|p34;Use inside line for negative reveal mount cut:\PSink wall is covered \U+00BC\U+201D inside the edge of countertop opening.
 73
     1
 44
1.0
1001
ACAD
1000
MTEXTBEGIN
1070
    73
1070
     1
1070
    44
1040
1.0
1070
    74
1070
     0
1000
MTEXTEND
  0
MTEXT
  5
41B9
330
1F
100
AcDbEntity
  8
粗实线
100
AcDbMText
 10
453.8403631116816
 20
287.8183954853375
 30
0.0
 40
4.68
 41
388.771554849994
 71
     1
 72
     5
  1
\fArial|b0|i0|c0|p34;Please check actual template against physical sink unit for most accurate cut.
 73
     1
 44
1.0
1001
ACAD
1000
MTEXTBEGIN
1070
    73
1070
     1
1070
    44
1040
1.0
1070
    74
1070
     0
1000
MTEXTEND
  0
MTEXT
  5
424C
330
1F
100
AcDbEntity
  8
粗实线
100
AcDbMText
 10
636.681574358819
 20
242.292577744284
 30
0.0
 40
4.4928
 41
172.3464222295192
 71
     1
 72
     5
  1
{\fTahoma|b0|i0|c134|p34;1512}
  7
样式 8
 73
     1
 44
1.0
1001
ACAD
1000
MTEXTBEGIN
1070
    73
1070
     1
1070
    44
1040
1.0
1070
    74
1070
     0
1000
MTEXTEND
  0
DIMENSION
  5
424E
330
1F
100
AcDbEntity
  8
标注
100
AcDbDimension
  2
*D1
 10
741.4999958891049
 20
349.0
 30
0.0
 11
688.5766671032909
 21
349.0
 31
0.0
 70
   160
  1
{\fArial|b0|i0|c0|p34;<>}
 71
     5
 42
6.350000000002182
  3
英寸
100
AcDbAlignedDimension
 13
735.1499958891026
 23
358.4075833786769
 33
0.0
 14
741.4999958891049
 24
358.4075833786696
 34
0.0
100
AcDbRotatedDimension
1001
ACAD
1000
DSTYLE
1002
{
1070
   140
1040
10.0
1070
   371
1070
     0
1070
    41
1040
5.0
1002
}
  0
DIMENSION
  5
424F
330
1F
100
AcDbEntity
  8
标注
100
AcDbDimension
  2
*D2
 10
747.849995889107
 20
327.5
 30
0.0
 11
694.9266671032928
 21
327.5
 31
0.0
 70
   160
  1
{\fArial|b0|i0|c0|p34;<>}
 71
     5
 42
6.350000000002182
  3
英寸
100
AcDbAlignedDimension
 13
741.4999958891049
 23
358.4075833786696
 33
0.0
 14
747.849995889107
 24
358.4075833786769
 34
0.0
100
AcDbRotatedDimension
1001
ACAD
1000
DSTYLE
1002
{
1070
    41
1040
5.0
1070
   140
1040
10.0
1070
   371
1070
     0
1002
}
  0
DIMENSION
  5
4250
330
1F
100
AcDbEntity
  8
标注
100
AcDbDimension
  2
*D3
 10
408.4999958891046
 20
555.0
 30
0.0
 11
574.9999958891057
 21
555.0
 31
0.0
 70
   160
  1
{\fArial|b0|i0|c0|p34;<>}
 71
     5
 42
333.0000000000023
  3
英寸
100
AcDbAlignedDimension
 13
741.4999958891069
 23
489.5
 33
0.0
 14
408.4999958891046
 24
492.4999999999999
 34
0.0
100
AcDbRotatedDimension
1001
ACAD
1000
DSTYLE
1002
{
1070
    41
1040
5.0
1070
   140
1040
10.0
1070
   371
1070
     0
1002
}
  0
DIMENSION
  5
4251
330
1F
100
AcDbEntity
  8
标注
100
AcDbDimension
  2
*D4
 10
336.5000000000001
 20
221.9075763362143
 30
0.0
 11
336.5
 21
358.4075763362126
 31
0.0
 70
   160
  1
{\fArial|b0|i0|c0|p34;<>}
 71
     5
 42
272.9999999999966
  3
英寸
100
AcDbAlignedDimension
 13
391.5
 23
494.9075763362108
 33
0.0
 14
401.0
 24
221.9075763362143
 34
0.0
 50
90.0
100
AcDbRotatedDimension
1001
ACAD
1000
DSTYLE
1002
{
1070
    41
1040
5.0
1070
   140
1040
10.0
1070
   371
1070
     0
1002
}
  0
DIMENSION
  5
4252
330
1F
100
AcDbEntity
  8
标注
100
AcDbDimension
  2
*D5
 10
402.1499958891046
 20
577.0
 30
0.0
 11
574.9999958891057
 21
577.0
 31
0.0
 70
   160
  1
{\fArial|b0|i0|c0|p34;<>}
 71
     5
 42
345.7000000000023
  3
英寸
100
AcDbAlignedDimension
 13
747.849995889107
 23
487.0
 33
0.0
 14
402.1499958891046
 24
492.4999999999999
 34
0.0
100
AcDbRotatedDimension
1001
ACAD
1000
DSTYLE
1002
{
1070
    41
1040
5.0
1070
   140
1040
10.0
1070
   371
1070
     0
1002
}
  0
DIMENSION
  5
4253
330
1F
100
AcDbEntity
  8
标注
100
AcDbDimension
  2
*D6
 10
312.5
 20
215.5575763362149
 30
0.0
 11
312.5
 21
358.4075763362142
 31
0.0
 70
   160
  1
{\fArial|b0|i0|c0|p34;<>}
 71
     5
 42
285.6999999999985
  3
英寸
100
AcDbAlignedDimension
 13
390.0
 23
501.2575763362133
 33
0.0
 14
402.5
 24
215.5575763362149
 34
0.0
 50
90.0
100
AcDbRotatedDimension
1001
ACAD
1000
DSTYLE
1002
{
1070
    41
1040
5.0
1070
   140
1040
10.0
1070
   371
1070
     0
1002
}
  0
DIMENSION
  5
4254
330
1F
100
AcDbEntity
  8
标注
100
AcDbDimension
  2
*D7
 10
414.849995889105
 20
532.768763630884
 30
0.0
 11
574.9999958891055
 21
532.768763630884
 31
0.0
 70
   160
  1
{\fArial|b0|i0|c0|p34;<>}
 71
     5
 42
320.3000000000011
  3
英寸
100
AcDbAlignedDimension
 13
735.1499958891061
 23
490.0
 33
0.0
 14
414.849995889105
 24
495.0
 34
0.0
100
AcDbRotatedDimension
1001
ACAD
1000
DSTYLE
1002
{
1070
    41
1040
5.0
1070
   140
1040
10.0
1070
   371
1070
     0
1002
}
  0
DIMENSION
  5
4255
330
1F
100
AcDbEntity
  8
标注
100
AcDbDimension
  2
*D8
 10
359.7712890111075
 20
228.2575763362187
 30
0.0
 11
359.7712890111075
 21
358.4075763362152
 31
0.0
 70
   160
  1
{\fArial|b0|i0|c0|p34;<>}
 71
     5
 42
260.299999999993
  3
英寸
100
AcDbAlignedDimension
 13
390.5
 23
488.5575763362116
 33
0.0
 14
402.0
 24
228.2575763362187
 34
0.0
 50
90.0
100
AcDbRotatedDimension
1001
ACAD
1000
DSTYLE
1002
{
1070
    41
1040
5.0
1070
   140
1040
10.0
1070
   371
1070
     0
1002
}
  0
LINE
  5
456A
330
1F
100
AcDbEntity
  8
粗实线
100
AcDbLine
 10
915.2015553622604
 20
110.517229959334
 30
0.0
 11
593.0881224565054
 21
110.517229959334
 31
0.0
  0
LINE
  5
456B
330
1F
100
AcDbEntity
  8
图框线
100
AcDbLine
 10
807.8304110603358
 20
192.8351072574742
 30
0.0
 11
807.8304110603358
 21
110.517229959334
 31
0.0
  0
LINE
  5
456C
330
1F
100
AcDbEntity
  8
图框线
100
AcDbLine
 10
700.4592667584134
 20
192.8351072574742
 30
0.0
 11
700.4592667584134
 21
110.517229959334
 31
0.0
  0
LINE
  5
456D
330
1F
100
AcDbEntity
  8
图框线
100
AcDbLine
 10
713.880659796172
 20
142.7285732499096
 30
0.0
 11
713.880659796172
 21
123.0438634612313
 31
0.0
  0
LINE
  5
456E
330
1F
100
AcDbEntity
  8
图框线
100
AcDbLine
 10
727.3020528339007
 20
142.7285732499096
 30
0.0
 11
727.3020528339007
 21
123.0438634612313
 31
0.0
  0
LINE
  5
456F
330
1F
100
AcDbEntity
  8
图框线
100
AcDbLine
 10
754.1448389093679
 20
123.0438634612313
 30
0.0
 11
754.1448389093679
 21
110.517229959334
 31
0.0
  0
LINE
  5
4570
330
1F
100
AcDbEntity
  8
图框线
100
AcDbLine
 10
740.7234458716311
 20
153.4656876801095
 30
0.0
 11
740.7234458716311
 21
123.0438634612313
 31
0.0
  0
LINE
  5
4571
330
1F
100
AcDbEntity
  8
图框线
100
AcDbLine
 10
762.1976747320204
 20
153.4656876801095
 30
0.0
 11
762.1976747320204
 21
123.0438634612313
 31
0.0
  0
LINE
  5
4572
330
1F
100
AcDbEntity
  8
图框线
100
AcDbLine
 10
786.3561821999492
 20
153.4656876801095
 30
0.0
 11
786.3561821999492
 21
123.0438634612313
 31
0.0
  0
LINE
  5
4573
330
1F
100
AcDbEntity
  8
粗实线
100
AcDbLine
 10
915.2015553622604
 20
110.517229959334
 30
0.0
 11
593.0881224565054
 21
110.517229959334
 31
0.0
  0
LINE
  5
4574
330
1F
100
AcDbEntity
  8
粗实线
100
AcDbLine
 10
915.2015553622604
 20
192.8351072574742
 30
0.0
 11
593.0881224565054
 21
192.8351072574742
 31
0.0
  0
LINE
  5
4575
330
1F
100
AcDbEntity
  8
图框线
100
AcDbLine
 10
807.8304110603358
 20
153.4656876801095
 30
0.0
 11
593.0881224565054
 21
153.4656876801095
 31
0.0
  0
LINE
  5
4576
330
1F
100
AcDbEntity
  8
图框线
100
AcDbLine
 10
700.4592667584134
 20
161.3395715955806
 30
0.0
 11
593.0881224565054
 21
161.3395715955806
 31
0.0
  0
LINE
  5
4577
330
1F
100
AcDbEntity
  8
图框线
100
AcDbLine
 10
700.4592667584134
 20
169.2134555110495
 30
0.0
 11
593.0881224565054
 21
169.2134555110495
 31
0.0
  0
LINE
  5
4578
330
1F
100
AcDbEntity
  8
图框线
100
AcDbLine
 10
700.4592667584134
 20
177.087339426526
 30
0.0
 11
593.0881224565054
 21
177.087339426526
 31
0.0
  0
LINE
  5
4579
330
1F
100
AcDbEntity
  8
图框线
100
AcDbLine
 10
700.4592667584134
 20
184.9612233420033
 30
0.0
 11
593.0881224565054
 21
184.9612233420033
 31
0.0
  0
LINE
  5
457A
330
1F
100
AcDbEntity
  8
图框线
100
AcDbLine
 10
807.8304110603358
 20
142.7285732499096
 30
0.0
 11
593.0881224565054
 21
142.7285732499096
 31
0.0
  0
LINE
  5
457B
330
1F
100
AcDbEntity
  8
图框线
100
AcDbLine
 10
807.8304110603358
 20
131.9914588197159
 30
0.0
 11
593.0881224565054
 21
131.9914588197159
 31
0.0
  0
LINE
  5
457C
330
1F
100
AcDbEntity
  8
图框线
100
AcDbLine
 10
700.4592667584134
 20
121.254344389525
 30
0.0
 11
593.0881224565054
 21
121.254344389525
 31
0.0
  0
LINE
  5
457D
330
1F
100
AcDbEntity
  8
图框线
100
AcDbLine
 10
807.8304110603358
 20
142.7285732499096
 30
0.0
 11
700.4592667584134
 21
142.7285732499096
 31
0.0
  0
LINE
  5
457E
330
1F
100
AcDbEntity
  8
图框线
100
AcDbLine
 10
807.8304110603358
 20
131.9914588197159
 30
0.0
 11
700.4592667584134
 21
131.9914588197159
 31
0.0
  0
LINE
  5
457F
330
1F
100
AcDbEntity
  8
图框线
100
AcDbLine
 10
807.8304110603358
 20
123.0438634612313
 30
0.0
 11
700.4592667584134
 21
123.0438634612313
 31
0.0
  0
LINE
  5
4580
330
1F
100
AcDbEntity
  8
图框线
100
AcDbLine
 10
915.2015553622604
 20
164.202802110295
 30
0.0
 11
807.8304110603358
 21
164.202802110295
 31
0.0
  0
LINE
  5
4581
330
1F
100
AcDbEntity
  8
图框线
100
AcDbLine
 10
915.2015553622604
 20
137.3600160348042
 30
0.0
 11
807.8304110603358
 21
137.3600160348042
 31
0.0
  0
LINE
  5
4582
330
1F
100
AcDbEntity
  8
图框线
100
AcDbLine
 10
607.404275030085
 20
153.465687680095
 30
0.0
 11
607.404275030085
 21
192.8351072574742
 31
0.0
  0
LINE
  5
4583
330
1F
100
AcDbEntity
  8
图框线
100
AcDbLine
 10
621.7204276036731
 20
153.465687680095
 30
0.0
 11
621.7204276036731
 21
192.8351072574742
 31
0.0
  0
LINE
  5
4584
330
1F
100
AcDbEntity
  8
图框线
100
AcDbLine
 10
652.1422518225628
 20
153.4656876801095
 30
0.0
 11
652.1422518225628
 21
192.8351072574742
 31
0.0
  0
LINE
  5
4585
330
1F
100
AcDbEntity
  8
图框线
100
AcDbLine
 10
678.9850378980333
 20
153.4656876801095
 30
0.0
 11
678.9850378980333
 21
192.8351072574742
 31
0.0
  0
LINE
  5
4586
330
1F
100
AcDbEntity
  8
图框线
100
AcDbLine
 10
614.5623513168835
 20
110.517229959334
 30
0.0
 11
614.5623513168835
 21
153.465687680095
 31
0.0
  0
LINE
  5
4587
330
1F
100
AcDbEntity
  8
图框线
100
AcDbLine
 10
646.7736946074621
 20
110.517229959334
 30
0.0
 11
646.7736946074621
 21
153.4656876801095
 31
0.0
  0
LINE
  5
4588
330
1F
100
AcDbEntity
  8
图框线
100
AcDbLine
 10
668.2479234678403
 20
110.517229959334
 30
0.0
 11
668.2479234678403
 21
153.4656876801095
 31
0.0
  0
MTEXT
  5
4589
330
1F
100
AcDbEntity
  8
文字
100
AcDbMText
 10
595.8239328650984
 20
159.6231672728185
 30
0.0
 40
3.632683350191225
 41
23.34452540047252
 71
     1
 72
     5
  1
{\fSimSun|b0|i0|c134|p2;标记}
 73
     1
 44
1.0
1001
ACAD
1000
MTEXTBEGIN
1070
    73
1070
     1
1070
    44
1040
1.0
1070
    74
1070
     0
1000
MTEXTEND
  0
MTEXT
  5
458A
330
1F
100
AcDbEntity
  8
文字
100
AcDbMText
 10
609.8356273701138
 20
159.5806239962359
 30
0.0
 40
3.632683350191225
 41
23.34452540047252
 71
     1
 72
     5
  1
{\fSimSun|b0|i0|c134|p2;处数}
 73
     1
 44
1.0
1001
ACAD
1000
MTEXTBEGIN
1070
    73
1070
     1
1070
    44
1040
1.0
1070
    74
1070
     0
1000
MTEXTEND
  0
MTEXT
  5
458B
330
1F
100
AcDbEntity
  8
文字
100
AcDbMText
 10
627.2040843533163
 20
159.1258791340632
 30
0.0
 40
2.90614668015298
 41
49.63967306272864
 71
     1
 72
     5
  1
{\fSimSun|b0|i0|c134|p2;\C1;更改文件号}
 73
     1
 44
1.0
1001
ACAD
1000
MTEXTBEGIN
1070
    73
1070
     1
1070
    44
1040
1.0
1070
    74
1070
     0
1000
MTEXTEND
  0
MTEXT
  5
458C
330
1F
100
AcDbEntity
  8
文字
100
AcDbMText
 10
659.9532408227305
 20
159.8466843557868
 30
0.0
 40
3.632683350191225
 41
23.34452540047252
 71
     1
 72
     5
  1
{\fSimSun|b0|i0|c134|p2;签名}
 73
     1
 44
1.0
1001
ACAD
1000
MTEXTBEGIN
1070
    73
1070
     1
1070
    44
1040
1.0
1070
    74
1070
     0
1000
MTEXTEND
  0
MTEXT
  5
458D
330
1F
100
AcDbEntity
  8
文字
100
AcDbMText
 10
685.6871532189898
 20
159.6327894061672
 30
0.0
 40
3.632683350191225
 41
23.34452540047252
 71
     1
 72
     5
  1
{\fSimSun|b0|i0|c134|p2;日期}
 73
     1
 44
1.0
1001
ACAD
1000
MTEXTBEGIN
1070
    73
1070
     1
1070
    44
1040
1.0
1070
    74
1070
     0
1000
MTEXTEND
  0
MTEXT
  5
458E
330
1F
100
AcDbEntity
  8
文字
100
AcDbMText
 10
597.7299600587391
 20
150.6686832769261
 30
0.0
 40
4.54085418773903
 41
29.18065675059066
 71
     1
 72
     5
  1
{\fSimSun|b0|i0|c134|p2;设计}
 73
     1
 44
1.0
1001
ACAD
1000
MTEXTBEGIN
1070
    73
1070
     1
1070
    44
1040
1.0
1070
    74
1070
     0
1000
MTEXTEND
  0
MTEXT
  5
458F
330
1F
100
AcDbEntity
  8
文字
100
AcDbMText
 10
597.7299600587391
 20
139.8585374409458
 30
0.0
 40
4.54085418773903
 41
29.18065675059066
 71
     1
 72
     5
  1
{\fSimSun|b0|i0|c134|p2;校对}
 73
     1
 44
1.0
1001
ACAD
1000
MTEXTBEGIN
1070
    73
1070
     1
1070
    44
1040
1.0
1070
    74
1070
     0
1000
MTEXTEND
  0
MTEXT
  5
4590
330
1F
100
AcDbEntity
  8
文字
100
AcDbMText
 10
597.7299600587391
 20
129.1543733534247
 30
0.0
 40
4.54085418773903
 41
29.18065675059066
 71
     1
 72
     5
  1
{\fSimSun|b0|i0|c134|p2;会签}
 73
     1
 44
1.0
1001
ACAD
1000
MTEXTBEGIN
1070
    73
1070
     1
1070
    44
1040
1.0
1070
    74
1070
     0
1000
MTEXTEND
  0
MTEXT
  5
4591
330
1F
100
AcDbEntity
  8
文字
100
AcDbMText
 10
597.7299600587391
 20
118.5664094998145
 30
0.0
 40
4.54085418773903
 41
29.18065675059066
 71
     1
 72
     5
  1
{\fSimSun|b0|i0|c134|p2;工艺}
 73
     1
 44
1.0
1001
ACAD
1000
MTEXTBEGIN
1070
    73
1070
     1
1070
    44
1040
1.0
1070
    74
1070
     0
1000
MTEXTEND
  0
MTEXT
  5
4592
330
1F
100
AcDbEntity
  8
文字
100
AcDbMText
 10
651.3418234277269
 20
139.2196737120419
 30
0.0
 40
4.54085418773903
 41
29.18065675059066
 71
     1
 72
     5
  1
{\fSimSun|b0|i0|c134|p2;批准}
 73
     1
 44
1.0
1001
ACAD
1000
MTEXTBEGIN
1070
    73
1070
     1
1070
    44
1040
1.0
1070
    74
1070
     0
1000
MTEXTEND
  0
MTEXT
  5
4593
330
1F
100
AcDbEntity
  8
文字
100
AcDbMText
 10
652.3095672554423
 20
117.9275540662601
 30
0.0
 40
4.54085418773903
 41
29.18065675059066
 71
     1
 72
     5
  1
{\fSimSun|b0|i0|c134|p2;日期}
 73
     1
 44
1.0
1001
ACAD
1000
MTEXTBEGIN
1070
    73
1070
     1
1070
    44
1040
1.0
1070
    74
1070
     0
1000
MTEXTEND
  0
MTEXT
  5
4594
330
1F
100
AcDbEntity
  8
文字
100
AcDbMText
 10
708.3063328746638
 20
150.7571534218903
 30
0.0
 40
4.54085418773903
 41
29.18065675059066
 71
     1
 72
     5
  1
{\fSimSun|b0|i0|c134|p2;图样标记}
 73
     1
 44
1.0
1001
ACAD
1000
MTEXTBEGIN
1070
    73
1070
     1
1070
    44
1040
1.0
1070
    74
1070
     0
1000
MTEXTEND
  0
MTEXT
  5
4595
330
1F
100
AcDbEntity
  8
文字
100
AcDbMText
 10
715.4481166123478
 20
118.9542531944099
 30
0.0
 40
4.54085418773903
 41
29.18065675059066
 71
     1
 72
     5
  1
{\fSimSun|b0|i0|c134|p2;共  页}
 73
     1
 44
1.0
1001
ACAD
1000
MTEXTBEGIN
1070
    73
1070
     1
1070
    44
1040
1.0
1070
    74
1070
     0
1000
MTEXTEND
  0
MTEXT
  5
4596
330
1F
100
AcDbEntity
  8
文字
100
AcDbMText
 10
746.2913203432272
 20
150.7163692635833
 30
0.0
 40
4.54085418773903
 41
29.18065675059066
 71
     1
 72
     5
  1
{\fSimSun|b0|i0|c134|p2;数量}
 73
     1
 44
1.0
1001
ACAD
1000
MTEXTBEGIN
1070
    73
1070
     1
1070
    44
1040
1.0
1070
    74
1070
     0
1000
MTEXTEND
  0
MTEXT
  5
4597
330
1F
100
AcDbEntity
  8
文字
100
AcDbMText
 10
765.3698627242688
 20
150.4210216450023
 30
0.0
 40
4.54085418773903
 41
29.18065675059066
 71
     1
 72
     5
  1
{\fSimSun|b0|i0|c134|p2;重量}
 73
     1
 44
1.0
1001
ACAD
1000
MTEXTBEGIN
1070
    73
1070
     1
1070
    44
1040
1.0
1070
    74
1070
     0
1000
MTEXTEND
  0
MTEXT
  5
4598
330
1F
100
AcDbEntity
  8
文字
100
AcDbMText
 10
791.4717805662039
 20
150.6572980807989
 30
0.0
 40
4.54085418773903
 41
29.18065675059066
 71
     1
 72
     5
  1
{\fSimSun|b0|i0|c134|p2;比例}
 73
     1
 44
1.0
1001
ACAD
1000
MTEXTBEGIN
1070
    73
1070
     1
1070
    44
1040
1.0
1070
    74
1070
     0
1000
MTEXTEND
  0
MTEXT
  5
4599
330
1F
100
AcDbEntity
  8
文字
100
AcDbMText
 10
779.210849740511
 20
149.9498199803914
 30
0.0
 40
5.27750648472793
 41
104.7874842487887
 71
     1
 72
     5
  1
{\fArial|b0|i0|c0|p34;kg}
  7
样式 8
 73
     1
 44
1.0
1001
ACAD
1000
MTEXTBEGIN
1070
    73
1070
     1
1070
    44
1040
1.0
1070
    74
1070
     0
1000
MTEXTEND
  0
MTEXT
  5
459A
330
1F
100
AcDbEntity
  8
文字
100
AcDbMText
 10
769.5426192309674
 20
118.9542531944099
 30
0.0
 40
4.54085418773903
 41
29.18065675059066
 71
     1
 72
     5
  1
{\fSimSun|b0|i0|c134|p2;第  页}
 73
     1
 44
1.0
1001
ACAD
1000
MTEXTBEGIN
1070
    73
1070
     1
1070
    44
1040
1.0
1070
    74
1070
     0
1000
MTEXTEND
  0
MTEXT
  5
459B
330
1F
100
AcDbEntity
  8
文字
100
AcDbMText
 10
813.0762809624361
 20
180.3879702954612
 30
0.0
 40
6.596883105909912
 41
130.9843553109859
 71
     1
 72
     5
  1
{\fSimSun|b0|i0|c134|p2;\C1;泰捷不锈钢制品（泰国）有限公司}
  7
样式 8
 73
     1
 44
1.0
1001
ACAD
1000
MTEXTBEGIN
1070
    73
1070
     1
1070
    44
1040
1.0
1070
    74
1070
     0
1000
MTEXTEND
  0
MTEXT
  5
459C
330
1F
100
AcDbEntity
  8
文字
100
AcDbMText
 10
822.8102409614985
 20
156.6565225783166
 30
0.0
 40
8.589691544153533
 41
170.5525459778461
 71
     1
 72
     5
  1
{\fSimSun|b0|i0|c134|p2;\C1;开孔纸板（FD1025）}
  7
样式 8
 73
     1
 44
1.0
1001
ACAD
1000
MTEXTBEGIN
1070
    73
1070
     1
1070
    44
1040
1.0
1070
    74
1070
     0
1000
MTEXTEND
  0
LINE
  5
459D
330
1F
100
AcDbEntity
  8
不可见
100
AcDbLine
 10
924.1491507207534
 20
633.0567988953422
 30
0.0
 11
924.1491507207534
 21
101.5696346008412
 31
0.0
  0
LINE
  5
459E
330
1F
100
AcDbEntity
  8
粗实线
100
AcDbLine
 10
915.2015553622604
 20
624.1092035368591
 30
0.0
 11
915.2015553622604
 21
110.517229959334
 31
0.0
  0
LINE
  5
459F
330
1F
100
AcDbEntity
  8
不可见
100
AcDbLine
 10
924.1491507207534
 20
101.5696346008412
 30
0.0
 11
172.551140607319
 21
101.5696346008412
 31
0.0
  0
LINE
  5
45A0
330
1F
100
AcDbEntity
  8
粗实线
100
AcDbLine
 10
915.2015553622604
 20
110.517229959334
 30
0.0
 11
217.2891173997773
 21
110.517229959334
 31
0.0
  0
LINE
  5
45A1
330
1F
100
AcDbEntity
  8
粗实线
100
AcDbLine
 10
915.2015553622604
 20
110.517229959334
 30
0.0
 11
217.2891173997773
 21
110.517229959334
 31
0.0
  0
MTEXT
  5
45A2
330
1F
100
AcDbEntity
  8
文字
100
AcDbMText
 10
730.0451610564486
 20
175.1050800641175
 30
0.0
 40
8.589691544153533
 41
170.5525459778461
 71
     1
 72
     5
  1
{\fSimSun|b0|i0|c0|p2;\C1;0.3\fSimSun|b0|i0|c134|p2;mm厚白纸板}
  7
样式 8
 73
     1
 44
1.0
1001
ACAD
1000
MTEXTBEGIN
1070
    73
1070
     1
1070
    44
1040
1.0
1070
    74
1070
     0
1000
MTEXTEND
  0
MTEXT
  5
45A3
330
1F
100
AcDbEntity
  8
文字
100
AcDbMText
 10
705.1550756427801
 20
188.4728951140454
 30
0.0
 40
8.589691544153533
 41
170.5525459778461
 71
     1
 72
     5
  1
{\fSimSun|b0|i0|c134|p2;材料:}
  7
样式 8
 73
     1
 44
1.0
1001
ACAD
1000
MTEXTBEGIN
1070
    73
1070
     1
1070
    44
1040
1.0
1070
    74
1070
     0
1000
MTEXTEND
  0
MTEXT
  5
45A4
330
1F
100
AcDbEntity
  8
文字
100
AcDbMText
 10
651.3418234277269
 20
149.9847887594892
 30
0.0
 40
4.54085418773903
 41
29.18065675059066
 71
     1
 72
     5
  1
{\fSimSun|b0|i0|c134|p2;审核}
 73
     1
 44
1.0
1001
ACAD
1000
MTEXTBEGIN
1070
    73
1070
     1
1070
    44
1040
1.0
1070
    74
1070
     0
1000
MTEXTEND
  0
LINE
  5
45A5
330
1F
100
AcDbEntity
  8
不可见
100
AcDbLine
 10
172.551140607319
 20
633.0567988953422
 30
0.0
 11
924.1491507207534
 21
633.0567988953422
 31
0.0
  0
LINE
  5
45A6
330
1F
100
AcDbEntity
  8
粗实线
100
AcDbLine
 10
217.2891173997773
 20
624.1092035368474
 30
0.0
 11
915.2015553622604
 21
624.1092035368474
 31
0.0
  0
LINE
  5
45A7
330
1F
100
AcDbEntity
  8
不可见
100
AcDbLine
 10
172.551140607319
 20
101.5696346008412
 30
0.0
 11
172.551140607319
 21
633.0567988953422
 31
0.0
  0
LINE
  5
45A8
330
1F
100
AcDbEntity
  8
粗实线
100
AcDbLine
 10
217.2891173997773
 20
110.517229959334
 30
0.0
 11
217.2891173997773
 21
624.1092035368474
 31
0.0
  0
LINE
  5
45A9
330
1F
100
AcDbEntity
  8
粗实线
100
AcDbLine
 10
217.2891173997773
 20
605.5513905907335
 30
0.0
 11
305.5186797279241
 21
605.5513905907335
 31
0.0
  0
LINE
  5
45AA
330
1F
100
AcDbEntity
  8
粗实线
100
AcDbLine
 10
305.5186797279241
 20
605.5513905907335
 30
0.0
 11
305.5186797279241
 21
624.1092035368474
 31
0.0
  0
LINE
  5
45AB
330
1F
100
AcDbEntity
  8
图框线
100
AcDbLine
 10
217.2891173997773
 20
124.8333825329206
 30
0.0
 11
172.551140607319
 21
124.8333825329206
 31
0.0
  0
LINE
  5
45AC
330
1F
100
AcDbEntity
  8
图框线
100
AcDbLine
 10
217.2891173997773
 20
135.5704969631204
 30
0.0
 11
172.551140607319
 21
135.5704969631204
 31
0.0
  0
LINE
  5
45AD
330
1F
100
AcDbEntity
  8
图框线
100
AcDbLine
 10
217.2891173997773
 20
149.8866495367015
 30
0.0
 11
172.551140607319
 21
149.8866495367015
 31
0.0
  0
LINE
  5
45AE
330
1F
100
AcDbEntity
  8
图框线
100
AcDbLine
 10
217.2891173997773
 20
160.6237639668952
 30
0.0
 11
172.551140607319
 21
160.6237639668952
 31
0.0
  0
LINE
  5
45AF
330
1F
100
AcDbEntity
  8
图框线
100
AcDbLine
 10
217.2891173997773
 20
174.9399165404831
 30
0.0
 11
172.551140607319
 21
174.9399165404831
 31
0.0
  0
LINE
  5
45B0
330
1F
100
AcDbEntity
  8
图框线
100
AcDbLine
 10
217.2891173997773
 20
185.6770309706713
 30
0.0
 11
172.551140607319
 21
185.6770309706713
 31
0.0
  0
LINE
  5
45B1
330
1F
100
AcDbEntity
  8
图框线
100
AcDbLine
 10
217.2891173997773
 20
199.9931835442696
 30
0.0
 11
172.551140607319
 21
199.9931835442696
 31
0.0
  0
LINE
  5
45B2
330
1F
100
AcDbEntity
  8
图框线
100
AcDbLine
 10
217.2891173997773
 20
210.7302979744572
 30
0.0
 11
172.551140607319
 21
210.7302979744572
 31
0.0
  0
LINE
  5
45B3
330
1F
100
AcDbEntity
  8
图框线
100
AcDbLine
 10
217.2891173997773
 20
225.0464505480561
 30
0.0
 11
172.551140607319
 21
225.0464505480561
 31
0.0
  0
LINE
  5
45B4
330
1F
100
AcDbEntity
  8
图框线
100
AcDbLine
 10
217.2891173997773
 20
235.7835649782525
 30
0.0
 11
172.551140607319
 21
235.7835649782525
 31
0.0
  0
LINE
  5
45B5
330
1F
100
AcDbEntity
  8
图框线
100
AcDbLine
 10
217.2891173997773
 20
250.0997175518246
 30
0.0
 11
172.551140607319
 21
250.0997175518246
 31
0.0
  0
LINE
  5
45B6
330
1F
100
AcDbEntity
  8
图框线
100
AcDbLine
 10
217.2891173997773
 20
260.8368319820191
 30
0.0
 11
172.551140607319
 21
260.8368319820191
 31
0.0
  0
LINE
  5
45B7
330
1F
100
AcDbEntity
  8
图框线
100
AcDbLine
 10
217.2891173997773
 20
271.5739464122072
 30
0.0
 11
172.551140607319
 21
271.5739464122072
 31
0.0
  0
LINE
  5
45B8
330
1F
100
AcDbEntity
  8
图框线
100
AcDbLine
 10
217.2891173997773
 20
110.517229959334
 30
0.0
 11
172.551140607319
 21
110.517229959334
 31
0.0
  0
MTEXT
  5
45B9
102
{ACAD_XDICTIONARY
360
4F99
102
}
330
1F
100
AcDbEntity
  8
文字
100
AcDbMText
 10
177.3462083288659
 20
132.6107682395997
 30
0.0
 40
3.726673466812444
 41
94.67473922913697
 71
     1
 72
     5
  1
\U+65E5   
 73
     1
 44
1.0
1001
ACAD
1000
MTEXTBEGIN
1070
    73
1070
     1
1070
    44
1040
1.0
1070
    74
1070
     0
1000
MTEXTEND
  0
MTEXT
  5
45BA
102
{ACAD_XDICTIONARY
360
4F9B
102
}
330
1F
100
AcDbEntity
  8
文字
100
AcDbMText
 10
177.3462083288659
 20
157.6503139943054
 30
0.0
 40
3.726673466812444
 41
94.67473922913697
 71
     1
 72
     5
  1
\U+7B7E   
 73
     1
 44
1.0
1001
ACAD
1000
MTEXTBEGIN
1070
    73
1070
     1
1070
    44
1040
1.0
1070
    74
1070
     0
1000
MTEXTEND
  0
MTEXT
  5
45BB
102
{ACAD_XDICTIONARY
360
4F9D
102
}
330
1F
100
AcDbEntity
  8
文字
100
AcDbMText
 10
177.3462083288659
 20
183.3898063039197
 30
0.0
 40
3.726673466812444
 41
94.67473922913697
 71
     1
 72
     5
  1
\U+5E95
 73
     1
 44
1.0
1001
ACAD
1000
MTEXTBEGIN
1070
    73
1070
     1
1070
    44
1040
1.0
1070
    74
1070
     0
1000
MTEXTEND
  0
MTEXT
  5
45BC
102
{ACAD_XDICTIONARY
360
4F9F
102
}
330
1F
100
AcDbEntity
  8
文字
100
AcDbMText
 10
177.3462083288659
 20
207.7155846560321
 30
0.0
 40
3.726673466812444
 41
94.67473922913697
 71
     1
 72
     5
  1
\U+65E7
 73
     1
 44
1.0
1001
ACAD
1000
MTEXTBEGIN
1070
    73
1070
     1
1070
    44
1040
1.0
1070
    74
1070
     0
1000
MTEXTEND
  0
MTEXT
  5
45BD
102
{ACAD_XDICTIONARY
360
4FA1
102
}
330
1F
100
AcDbEntity
  8
文字
100
AcDbMText
 10
176.6730463575577
 20
259.0678270179456
 30
0.0
 40
3.726673466812444
 41
94.67473922913697
 71
     1
 72
     5
  1
\U+63CF   
 73
     1
 44
1.0
1001
ACAD
1000
MTEXTBEGIN
1070
    73
1070
     1
1070
    44
1040
1.0
1070
    74
1070
     0
1000
MTEXTEND
  0
MTEXT
  5
45BE
102
{ACAD_XDICTIONARY
360
4FA3
102
}
330
1F
100
AcDbEntity
  8
文字
100
AcDbMText
 10
174.8773742248352
 20
269.9876579668513
 30
0.0
 40
3.726673466812444
 41
94.67473922913697
 71
     1
 72
     5
  1
\ftxt.shx,gbcbig.shx;\H1x;\C1;\U+501F\U+FF08\U+901A\U+FF09\U+7528\U+4EF6\U+767B\U+8BB0
 73
     1
 44
1.0
1001
ACAD
1000
MTEXTBEGIN
1070
    73
1070
     1
1070
    44
1040
1.0
1070
    74
1070
     0
1000
MTEXTEND
  0
MTEXT
  5
45BF
102
{ACAD_XDICTIONARY
360
4FA5
102
}
330
1F
100
AcDbEntity
  8
文字
100
AcDbMText
 10
208.4397019581065
 20
259.0678270179456
 30
0.0
 40
3.726673466812444
 41
94.67473922913697
 71
     1
 72
     5
  1
\U+56FE   
 73
     1
 44
1.0
1001
ACAD
1000
MTEXTBEGIN
1070
    73
1070
     1
1070
    44
1040
1.0
1070
    74
1070
     0
1000
MTEXTEND
  0
MTEXT
  5
45C0
102
{ACAD_XDICTIONARY
360
4FA7
102
}
330
1F
100
AcDbEntity
  8
文字
100
AcDbMText
 10
176.6730463575577
 20
233.8018956820781
 30
0.0
 40
3.726673466812444
 41
94.67473922913697
 71
     1
 72
     5
  1
\U+63CF   
 73
     1
 44
1.0
1001
ACAD
1000
MTEXTBEGIN
1070
    73
1070
     1
1070
    44
1040
1.0
1070
    74
1070
     0
1000
MTEXTEND
  0
MTEXT
  5
45C1
102
{ACAD_XDICTIONARY
360
4FA9
102
}
330
1F
100
AcDbEntity
  8
文字
100
AcDbMText
 10
208.4397019581065
 20
233.8018956820781
 30
0.0
 40
3.726673466812444
 41
94.67473922913697
 71
     1
 72
     5
  1
\U+6821   
 73
     1
 44
1.0
1001
ACAD
1000
MTEXTBEGIN
1070
    73
1070
     1
1070
    44
1040
1.0
1070
    74
1070
     0
1000
MTEXTEND
  0
MTEXT
  5
45C2
102
{ACAD_XDICTIONARY
360
4FAB
102
}
330
1F
100
AcDbEntity
  8
文字
100
AcDbMText
 10
184.2559325673485
 20
207.7924596839765
 30
0.0
 40
3.726673466812444
 41
94.67473922913697
 71
     1
 72
     5
  1
\U+5E95
 73
     1
 44
1.0
1001
ACAD
1000
MTEXTBEGIN
1070
    73
1070
     1
1070
    44
1040
1.0
1070
    74
1070
     0
1000
MTEXTEND
  0
MTEXT
  5
45C3
102
{ACAD_XDICTIONARY
360
4FAD
102
}
330
1F
100
AcDbEntity
  8
文字
100
AcDbMText
 10
193.0018021072205
 20
207.7155846560321
 30
0.0
 40
3.726673466812444
 41
94.67473922913697
 71
     1
 72
     5
  1
\U+56FE
 73
     1
 44
1.0
1001
ACAD
1000
MTEXTBEGIN
1070
    73
1070
     1
1070
    44
1040
1.0
1070
    74
1070
     0
1000
MTEXTEND
  0
MTEXT
  5
45C4
102
{ACAD_XDICTIONARY
360
4FAF
102
}
330
1F
100
AcDbEntity
  8
文字
100
AcDbMText
 10
201.1414334546162
 20
207.7155846560321
 30
0.0
 40
3.726673466812444
 41
94.67473922913697
 71
     1
 72
     5
  1
\U+603B
 73
     1
 44
1.0
1001
ACAD
1000
MTEXTBEGIN
1070
    73
1070
     1
1070
    44
1040
1.0
1070
    74
1070
     0
1000
MTEXTEND
  0
MTEXT
  5
45C5
102
{ACAD_XDICTIONARY
360
4FB1
102
}
330
1F
100
AcDbEntity
  8
文字
100
AcDbMText
 10
209.2580939146174
 20
207.7155846560321
 30
0.0
 40
3.726673466812444
 41
94.67473922913697
 71
     1
 72
     5
  1
\U+53F7
 73
     1
 44
1.0
1001
ACAD
1000
MTEXTBEGIN
1070
    73
1070
     1
1070
    44
1040
1.0
1070
    74
1070
     0
1000
MTEXTEND
  0
MTEXT
  5
45C6
102
{ACAD_XDICTIONARY
360
4FB3
102
}
330
1F
100
AcDbEntity
  8
文字
100
AcDbMText
 10
187.512365417022
 20
183.3898063039197
 30
0.0
 40
3.726673466812444
 41
94.67473922913697
 71
     1
 72
     5
  1
\U+56FE
 73
     1
 44
1.0
1001
ACAD
1000
MTEXTBEGIN
1070
    73
1070
     1
1070
    44
1040
1.0
1070
    74
1070
     0
1000
MTEXTEND
  0
MTEXT
  5
45C7
102
{ACAD_XDICTIONARY
360
4FB5
102
}
330
1F
100
AcDbEntity
  8
文字
100
AcDbMText
 10
197.5002711100869
 20
183.3898063039197
 30
0.0
 40
3.726673466812444
 41
94.67473922913697
 71
     1
 72
     5
  1
\U+603B
 73
     1
 44
1.0
1001
ACAD
1000
MTEXTBEGIN
1070
    73
1070
     1
1070
    44
1040
1.0
1070
    74
1070
     0
1000
MTEXTEND
  0
MTEXT
  5
45C8
102
{ACAD_XDICTIONARY
360
4FB7
102
}
330
1F
100
AcDbEntity
  8
文字
100
AcDbMText
 10
208.2715412361395
 20
183.3898063039197
 30
0.0
 40
3.726673466812444
 41
94.67473922913697
 71
     1
 72
     5
  1
\U+53F7
 73
     1
 44
1.0
1001
ACAD
1000
MTEXTBEGIN
1070
    73
1070
     1
1070
    44
1040
1.0
1070
    74
1070
     0
1000
MTEXTEND
  0
MTEXT
  5
45C9
102
{ACAD_XDICTIONARY
360
4FB9
102
}
330
1F
100
AcDbEntity
  8
文字
100
AcDbMText
 10
208.3514883627049
 20
157.6503139943054
 30
0.0
 40
3.726673466812444
 41
94.67473922913697
 71
     1
 72
     5
  1
\U+5B57  
 73
     1
 44
1.0
1001
ACAD
1000
MTEXTBEGIN
1070
    73
1070
     1
1070
    44
1040
1.0
1070
    74
1070
     0
1000
MTEXTEND
  0
MTEXT
  5
45CA
102
{ACAD_XDICTIONARY
360
4FBB
102
}
330
1F
100
AcDbEntity
  8
文字
100
AcDbMText
 10
207.7070591208803
 20
132.6107682395997
 30
0.0
 40
3.726673466812444
 41
94.67473922913697
 71
     1
 72
     5
  1
\U+671F  
 73
     1
 44
1.0
1001
ACAD
1000
MTEXTBEGIN
1070
    73
1070
     1
1070
    44
1040
1.0
1070
    74
1070
     0
1000
MTEXTEND
  0
MTEXT
  5
45CB
330
1F
100
AcDbEntity
  8
文字
100
AcDbMText
 10
846.6744831641779
 20
129.1392172825384
 30
0.0
 40
12.36915582358109
 41
245.5956662080984
 71
     1
 72
     5
  1
{\fNSimSun|b0|i0|c134|p49;\C1;1b37}
  7
样式 8
 73
     1
 44
1.0
1001
ACAD
1000
MTEXTBEGIN
1070
    73
1070
     1
1070
    44
1040
1.0
1070
    74
1070
     0
1000
MTEXTEND
  0
LINE
  5
45CC
330
1F
100
AcDbEntity
  8
粗实线
100
AcDbLine
 10
593.0881224565054
 20
192.8351072574742
 30
0.0
 11
593.0881224565054
 21
110.517229959334
 31
0.0
  0
MTEXT
  5
45CD
330
1F
100
AcDbEntity
  8
文字
100
AcDbMText
 10
788.9851610564483
 20
212.1000800641175
 30
0.0
 40
8.589691544153533
 41
170.5525459778461
 71
     1
 72
     5
  1
{\fSimSun|b0|i0|c134|p2;\C1;注：图纸上标注尺寸不用印刷}
  7
样式 8
 73
     1
 44
1.0
1001
ACAD
1000
MTEXTBEGIN
1070
    73
1070
     1
1070
    44
1040
1.0
1070
    74
1070
     0
1000
MTEXTEND
  0
ENDSEC
  0
SECTION
  2
OBJECTS
  0
DICTIONARY
  5
C
330
0
100
AcDbDictionary
281
     1
  3
ACAD_2007HEADERVARS_RT
350
4F85
  3
ACAD_COLOR
350
3513
  3
ACAD_GROUP
350
D
  3
ACAD_LAYOUT
350
1A
  3
ACAD_MATERIAL
350
350F
  3
ACAD_MLINESTYLE
350
17
  3
ACAD_PLOTSETTINGS
350
19
  3
ACAD_PLOTSTYLENAME
350
E
  3
ACAD_TABLESTYLE
350
E9
  3
ACAD_VISUALSTYLE
350
28
  3
AcDbVariableDictionary
350
366A
  3
DWGPROPS
350
4F84
  0
DICTIONARY
  5
36E2
330
2
100
AcDbDictionary
280
     1
281
     1
  3
ACAD_LAYERSTATES
360
36E3
  0
DICTIONARY
  5
4F95
330
41B6
100
AcDbDictionary
280
     1
281
     1
  3
ACAD_MTEXT_RT
360
4F96
  0
DICTIONARY
  5
4F97
330
41B8
100
AcDbDictionary
280
     1
281
     1
  3
ACAD_MTEXT_RT
360
4F98
  0
DICTIONARY
  5
4F99
330
45B9
100
AcDbDictionary
280
     1
281
     1
  3
ACAD_MTEXT_RT
360
4F9A
  0
DICTIONARY
  5
4F9B
330
45BA
100
AcDbDictionary
280
     1
281
     1
  3
ACAD_MTEXT_RT
360
4F9C
  0
DICTIONARY
  5
4F9D
330
45BB
100
AcDbDictionary
280
     1
281
     1
  3
ACAD_MTEXT_RT
360
4F9E
  0
DICTIONARY
  5
4F9F
330
45BC
100
AcDbDictionary
280
     1
281
     1
  3
ACAD_MTEXT_RT
360
4FA0
  0
DICTIONARY
  5
4FA1
330
45BD
100
AcDbDictionary
280
     1
281
     1
  3
ACAD_MTEXT_RT
360
4FA2
  0
DICTIONARY
  5
4FA3
330
45BE
100
AcDbDictionary
280
     1
281
     1
  3
ACAD_MTEXT_RT
360
4FA4
  0
DICTIONARY
  5
4FA5
330
45BF
100
AcDbDictionary
280
     1
281
     1
  3
ACAD_MTEXT_RT
360
4FA6
  0
DICTIONARY
  5
4FA7
330
45C0
100
AcDbDictionary
280
     1
281
     1
  3
ACAD_MTEXT_RT
360
4FA8
  0
DICTIONARY
  5
4FA9
330
45C1
100
AcDbDictionary
280
     1
281
     1
  3
ACAD_MTEXT_RT
360
4FAA
  0
DICTIONARY
  5
4FAB
330
45C2
100
AcDbDictionary
280
     1
281
     1
  3
ACAD_MTEXT_RT
360
4FAC
  0
DICTIONARY
  5
4FAD
330
45C3
100
AcDbDictionary
280
     1
281
     1
  3
ACAD_MTEXT_RT
360
4FAE
  0
DICTIONARY
  5
4FAF
330
45C4
100
AcDbDictionary
280
     1
281
     1
  3
ACAD_MTEXT_RT
360
4FB0
  0
DICTIONARY
  5
4FB1
330
45C5
100
AcDbDictionary
280
     1
281
     1
  3
ACAD_MTEXT_RT
360
4FB2
  0
DICTIONARY
  5
4FB3
330
45C6
100
AcDbDictionary
280
     1
281
     1
  3
ACAD_MTEXT_RT
360
4FB4
  0
DICTIONARY
  5
4FB5
330
45C7
100
AcDbDictionary
280
     1
281
     1
  3
ACAD_MTEXT_RT
360
4FB6
  0
DICTIONARY
  5
4FB7
330
45C8
100
AcDbDictionary
280
     1
281
     1
  3
ACAD_MTEXT_RT
360
4FB8
  0
DICTIONARY
  5
4FB9
330
45C9
100
AcDbDictionary
280
     1
281
     1
  3
ACAD_MTEXT_RT
360
4FBA
  0
DICTIONARY
  5
4FBB
330
45CA
100
AcDbDictionary
280
     1
281
     1
  3
ACAD_MTEXT_RT
360
4FBC
  0
DICTIONARY
  5
4F85
102
{ACAD_REACTORS
330
C
102
}
330
C
100
AcDbDictionary
281
     1
  3
INTERFERECOLOR
350
4F86
  0
DICTIONARY
  5
3513
102
{ACAD_REACTORS
330
C
102
}
330
C
100
AcDbDictionary
281
     1
  0
DICTIONARY
  5
D
102
{ACAD_REACTORS
330
C
102
}
330
C
100
AcDbDictionary
281
     1
  0
DICTIONARY
  5
1A
102
{ACAD_REACTORS
330
C
102
}
330
C
100
AcDbDictionary
281
     1
  3
Layout1
350
1E
  3
Layout2
350
24
  3
Model
350
22
  0
DICTIONARY
  5
350F
102
{ACAD_REACTORS
330
C
102
}
330
C
100
AcDbDictionary
281
     1
  3
ByBlock
350
3511
  3
ByLayer
350
3510
  3
Global
350
3512
  0
DICTIONARY
  5
17
102
{ACAD_REACTORS
330
C
102
}
330
C
100
AcDbDictionary
281
     1
  3
Standard
350
18
  0
DICTIONARY
  5
19
102
{ACAD_REACTORS
330
C
102
}
330
C
100
AcDbDictionary
281
     1
  0
ACDBDICTIONARYWDFLT
  5
E
102
{ACAD_REACTORS
330
C
102
}
330
C
100
AcDbDictionary
281
     1
  3
Normal
350
F
100
AcDbDictionaryWithDefault
340
F
  0
DICTIONARY
  5
E9
102
{ACAD_REACTORS
330
C
102
}
330
C
100
AcDbDictionary
281
     1
  3
Standard
350
3514
  0
DICTIONARY
  5
28
102
{ACAD_REACTORS
330
C
102
}
330
C
100
AcDbDictionary
281
     1
  3
2dWireframe
350
2D
  3
3D Hidden
350
2F
  3
3dWireframe
350
2E
  3
Basic
350
30
  3
Brighten
350
34
  3
ColorChange
350
38
  3
Conceptual
350
32
  3
Dim
350
33
  3
Facepattern
350
37
  3
Flat
350
29
  3
FlatWithEdges
350
2A
  3
Gouraud
350
2B
  3
GouraudWithEdges
350
2C
  3
Linepattern
350
36
  3
Realistic
350
31
  3
Thicken
350
35
  0
DICTIONARY
  5
366A
102
{ACAD_REACTORS
330
C
102
}
330
C
100
AcDbDictionary
281
     1
  3
CTABLESTYLE
350
366B
  3
DGNFRAME
350
4F83
  3
DIMASSOC
350
4F82
  3
HIDETEXT
350
4F81
  3
INDEXCTL
350
4F80
  3
SORTENTS
350
4F7F
  0
XRECORD
  5
4F84
102
{ACAD_REACTORS
330
C
102
}
330
C
100
AcDbXrecord
280
     1
  1
DWGPROPS COOKIE
  2

  3

  4

  6

  7

  8
Administrator
  9

300
=
301
=
302
=
303
=
304
=
305
=
306
=
307
=
308
=
309
=
 40
0.0296654513888889
 41
2455841.60680022
 42
2459756.629889861
  1

 90
        0
  0
DICTIONARY
  5
36E3
102
{ACAD_REACTORS
330
36E2
102
}
330
36E2
100
AcDbDictionary
281
     1
  0
XRECORD
  5
4F96
102
{ACAD_REACTORS
330
4F95
102
}
330
4F95
100
AcDbXrecord
280
     1
 40
708060.0
  1
\fArial|b0|i0|c0|p34;Use outside line for reveal mount cut:\PSink rim is \U+00BC” revealed from the countertop opening.
  0
XRECORD
  5
4F98
102
{ACAD_REACTORS
330
4F97
102
}
330
4F97
100
AcDbXrecord
280
     1
 40
922857.0
  1
\fArial|b0|i0|c0|p34;Use inside line for negative reveal mount cut:\PSink wall is covered \U+00BC” inside the edge of countertop opening.
  0
XRECORD
  5
4F9A
102
{ACAD_REACTORS
330
4F99
102
}
330
4F99
100
AcDbXrecord
280
     1
 40
2521.0
  1
日   
  0
XRECORD
  5
4F9C
102
{ACAD_REACTORS
330
4F9B
102
}
330
4F9B
100
AcDbXrecord
280
     1
 40
2618.0
  1
签   
  0
XRECORD
  5
4F9E
102
{ACAD_REACTORS
330
4F9D
102
}
330
4F9D
100
AcDbXrecord
280
     1
 40
1661.0
  1
底
  0
XRECORD
  5
4FA0
102
{ACAD_REACTORS
330
4F9F
102
}
330
4F9F
100
AcDbXrecord
280
     1
 40
1671.0
  1
旧
  0
XRECORD
  5
4FA2
102
{ACAD_REACTORS
330
4FA1
102
}
330
4FA1
100
AcDbXrecord
280
     1
 40
2618.0
  1
描   
  0
XRECORD
  5
4FA4
102
{ACAD_REACTORS
330
4FA3
102
}
330
4FA3
100
AcDbXrecord
280
     1
 40
249260.0
  1
\ftxt.shx,gbcbig.shx;\H1x;\C1;借（通）用件登记
  0
XRECORD
  5
4FA6
102
{ACAD_REACTORS
330
4FA5
102
}
330
4FA5
100
AcDbXrecord
280
     1
 40
2640.0
  1
图   
  0
XRECORD
  5
4FA8
102
{ACAD_REACTORS
330
4FA7
102
}
330
4FA7
100
AcDbXrecord
280
     1
 40
2618.0
  1
描   
  0
XRECORD
  5
4FAA
102
{ACAD_REACTORS
330
4FA9
102
}
330
4FA9
100
AcDbXrecord
280
     1
 40
2394.0
  1
校   
  0
XRECORD
  5
4FAC
102
{ACAD_REACTORS
330
4FAB
102
}
330
4FAB
100
AcDbXrecord
280
     1
 40
1661.0
  1
底
  0
XRECORD
  5
4FAE
102
{ACAD_REACTORS
330
4FAD
102
}
330
4FAD
100
AcDbXrecord
280
     1
 40
1776.0
  1
图
  0
XRECORD
  5
4FB0
102
{ACAD_REACTORS
330
4FAF
102
}
330
4FAF
100
AcDbXrecord
280
     1
 40
1615.0
  1
总
  0
XRECORD
  5
4FB2
102
{ACAD_REACTORS
330
4FB1
102
}
330
4FB1
100
AcDbXrecord
280
     1
 40
1663.0
  1
号
  0
XRECORD
  5
4FB4
102
{ACAD_REACTORS
330
4FB3
102
}
330
4FB3
100
AcDbXrecord
280
     1
 40
1776.0
  1
图
  0
XRECORD
  5
4FB6
102
{ACAD_REACTORS
330
4FB5
102
}
330
4FB5
100
AcDbXrecord
280
     1
 40
1615.0
  1
总
  0
XRECORD
  5
4FB8
102
{ACAD_REACTORS
330
4FB7
102
}
330
4FB7
100
AcDbXrecord
280
     1
 40
1663.0
  1
号
  0
XRECORD
  5
4FBA
102
{ACAD_REACTORS
330
4FB9
102
}
330
4FB9
100
AcDbXrecord
280
     1
 40
2180.0
  1
字  
  0
XRECORD
  5
4FBC
102
{ACAD_REACTORS
330
4FBB
102
}
330
4FBB
100
AcDbXrecord
280
     1
 40
2210.0
  1
期  
  0
XRECORD
  5
4F86
102
{ACAD_REACTORS
330
4F85
102
}
330
4F85
100
AcDbXrecord
280
     1
1004
1800000001000000000000C0000000000000000000000000
  0
LAYOUT
  5
1E
102
{ACAD_XDICTIONARY
360
4F87
102
}
102
{ACAD_REACTORS
330
1A
102
}
330
1A
100
AcDbPlotSettings
  1

  2
none_device
  4

  6

 40
0.0
 41
0.0
 42
0.0
 43
0.0
 44
0.0
 45
0.0
 46
0.0
 47
0.0
 48
0.0
 49
0.0
140
0.0
141
0.0
142
1.0
143
1.0
 70
   688
 72
     0
 73
     0
 74
     5
  7

 75
    16
147
1.0
148
0.0
149
0.0
100
AcDbLayout
  1
Layout1
 70
     1
 71
     1
 10
0.0
 20
0.0
 11
12.0
 21
9.0
 12
0.0
 22
0.0
 32
0.0
 14
1.000000000000000E+20
 24
1.000000000000000E+20
 34
1.000000000000000E+20
 15
-1.000000000000000E+20
 25
-1.000000000000000E+20
 35
-1.000000000000000E+20
146
0.0
 13
0.0
 23
0.0
 33
0.0
 16
1.0
 26
0.0
 36
0.0
 17
0.0
 27
1.0
 37
0.0
 76
     0
330
1B
  0
LAYOUT
  5
24
102
{ACAD_XDICTIONARY
360
4F8B
102
}
102
{ACAD_REACTORS
330
1A
102
}
330
1A
100
AcDbPlotSettings
  1

  2
none_device
  4

  6

 40
0.0
 41
0.0
 42
0.0
 43
0.0
 44
0.0
 45
0.0
 46
0.0
 47
0.0
 48
0.0
 49
0.0
140
0.0
141
0.0
142
1.0
143
1.0
 70
   688
 72
     0
 73
     0
 74
     5
  7

 75
    16
147
1.0
148
0.0
149
0.0
100
AcDbLayout
  1
Layout2
 70
     1
 71
     2
 10
0.0
 20
0.0
 11
0.0
 21
0.0
 12
0.0
 22
0.0
 32
0.0
 14
0.0
 24
0.0
 34
0.0
 15
0.0
 25
0.0
 35
0.0
146
0.0
 13
0.0
 23
0.0
 33
0.0
 16
1.0
 26
0.0
 36
0.0
 17
0.0
 27
1.0
 37
0.0
 76
     0
330
23
  0
LAYOUT
  5
22
102
{ACAD_XDICTIONARY
360
4F89
102
}
102
{ACAD_REACTORS
330
1A
102
}
330
1A
100
AcDbPlotSettings
  1

  2
Microsoft Print to PDF
  4
A4
  6

 40
3.174999952316284
 41
3.174999952316284
 42
3.175003051757812
 43
3.17498779296875
 44
210.0156707763672
 45
297.0106506347656
 46
0.0
 47
1.324303726957566
 48
132.551140607319
 49
-1119.930365399159
140
884.1491507207534
141
-588.4432011046577
142
1.0
143
2.60960607699834
 70
  3764
 72
     1
 73
     1
 74
     4
  7
Monochrome.ctb
 75
     0
147
0.3831995981363727
148
-132.551140607319
149
1119.930365399159
100
AcDbLayout
  1
Model
 70
     1
 71
     0
 10
0.0
 20
0.0
 11
12.0
 21
9.0
 12
0.0
 22
0.0
 32
0.0
 14
276.9918144611188
 24
-822.98903328034
 34
0.0
 15
2004.699985005774
 25
891.8792008321688
 35
0.0
146
0.0
 13
0.0
 23
0.0
 33
0.0
 16
1.0
 26
0.0
 36
0.0
 17
0.0
 27
1.0
 37
0.0
 76
     0
330
1F
331
27
1001
ACAD_PSEXT
1000
Microsoft Print to PDF
1000
Microsoft Print To PDF
1000
PORTPROMPT:
1000

1070
     0
  0
MATERIAL
  5
3511
102
{ACAD_XDICTIONARY
360
4F8F
102
}
102
{ACAD_REACTORS
330
350F
102
}
330
350F
100
AcDbMaterial
  1
ByBlock
  0
MATERIAL
  5
3510
102
{ACAD_XDICTIONARY
360
4F8D
102
}
102
{ACAD_REACTORS
330
350F
102
}
330
350F
100
AcDbMaterial
  1
ByLayer
  0
MATERIAL
  5
3512
102
{ACAD_XDICTIONARY
360
4F91
102
}
102
{ACAD_REACTORS
330
350F
102
}
330
350F
100
AcDbMaterial
  1
Global
  0
MLINESTYLE
  5
18
102
{ACAD_REACTORS
330
17
102
}
330
17
100
AcDbMlineStyle
  2
STANDARD
 70
     0
  3

 62
   256
 51
90.0
 52
90.0
 71
     2
 49
0.5
 62
   256
  6
BYLAYER
 49
-0.5
 62
   256
  6
BYLAYER
  0
ACDBPLACEHOLDER
  5
F
102
{ACAD_REACTORS
330
E
102
}
330
E
  0
TABLESTYLE
  5
3514
102
{ACAD_XDICTIONARY
360
4F93
102
}
102
{ACAD_REACTORS
330
E9
102
}
330
E9
100
AcDbTableStyle
  3
Standard
 70
     0
 71
     0
 40
0.06
 41
0.06
280
     0
281
     0
  7
Standard
140
0.18
170
     2
 62
     0
 63
     7
283
     0
274
    -2
284
     1
 64
     0
275
    -2
285
     1
 65
     0
276
    -2
286
     1
 66
     0
277
    -2
287
     1
 67
     0
278
    -2
288
     1
 68
     0
279
    -2
289
     1
 69
     0
  7
Standard
140
0.25
170
     5
 62
     0
 63
     7
283
     0
274
    -2
284
     1
 64
     0
275
    -2
285
     1
 65
     0
276
    -2
286
     1
 66
     0
277
    -2
287
     1
 67
     0
278
    -2
288
     1
 68
     0
279
    -2
289
     1
 69
     0
  7
Standard
140
0.18
170
     5
 62
     0
 63
     7
283
     0
274
    -2
284
     1
 64
     0
275
    -2
285
     1
 65
     0
276
    -2
286
     1
 66
     0
277
    -2
287
     1
 67
     0
278
    -2
288
     1
 68
     0
279
    -2
289
     1
 69
     0
  0
VISUALSTYLE
  5
2D
102
{ACAD_REACTORS
330
28
102
}
330
28
100
AcDbVisualStyle
  2
2dWireframe
 70
     4
 71
     0
 72
     2
 73
     0
 90
        0
 40
-0.6
 41
-30.0
 62
     5
 63
     7
 74
     1
 91
        4
 64
     7
 65
   257
 75
     1
175
     1
 42
1.0
 92
        0
 66
   257
 43
1.0
 76
     1
 77
     6
 78
     2
 67
     7
 79
     5
170
     0
171
     0
290
     0
174
     0
 93
        1
 44
0.0
173
     0
291
     0
 45
0.0
1001
ACAD
1000
AcDbSavedByObjectVersion
1070
     0
  0
VISUALSTYLE
  5
2F
102
{ACAD_REACTORS
330
28
102
}
330
28
100
AcDbVisualStyle
  2
3D Hidden
 70
     6
 71
     1
 72
     2
 73
     2
 90
        0
 40
-0.6
 41
-30.0
 62
     5
 63
     7
 74
     2
 91
        2
 64
     7
 65
   257
 75
     2
175
     1
 42
40.0
 92
        0
 66
   257
 43
1.0
 76
     1
 77
     6
 78
     2
 67
     7
 79
     3
170
     0
171
     0
290
     0
174
     0
 93
        1
 44
0.0
173
     0
291
     0
 45
0.0
1001
ACAD
1000
AcDbSavedByObjectVersion
1070
     0
  0
VISUALSTYLE
  5
2E
102
{ACAD_REACTORS
330
28
102
}
330
28
100
AcDbVisualStyle
  2
3dWireframe
 70
     5
 71
     0
 72
     2
 73
     0
 90
        0
 40
-0.6
 41
-30.0
 62
     5
 63
     7
 74
     1
 91
        4
 64
     7
 65
   257
 75
     1
175
     1
 42
1.0
 92
        0
 66
   257
 43
1.0
 76
     1
 77
     6
 78
     2
 67
     7
 79
     5
170
     0
171
     0
290
     0
174
     0
 93
        1
 44
0.0
173
     0
291
     0
 45
0.0
1001
ACAD
1000
AcDbSavedByObjectVersion
1070
     0
  0
VISUALSTYLE
  5
30
102
{ACAD_REACTORS
330
28
102
}
330
28
100
AcDbVisualStyle
  2
Basic
 70
     7
 71
     1
 72
     0
 73
     1
 90
        0
 40
-0.6
 41
-30.0
 62
     5
 63
     7
 74
     0
 91
        4
 64
     7
 65
   257
 75
     1
175
     1
 42
1.0
 92
        8
 66
     7
 43
1.0
 76
     1
 77
     6
 78
     2
 67
     7
 79
     5
170
     0
171
     0
290
     0
174
     0
 93
        1
 44
0.0
173
     0
291
     1
 45
0.0
1001
ACAD
1000
AcDbSavedByObjectVersion
1070
     0
  0
VISUALSTYLE
  5
34
102
{ACAD_REACTORS
330
28
102
}
330
28
100
AcDbVisualStyle
  2
Brighten
 70
    12
 71
     2
 72
     2
 73
     0
 90
        0
 40
-0.6
 41
-30.0
 62
     5
 63
     7
 74
     1
 91
        4
 64
     7
 65
   257
 75
     1
175
     1
 42
1.0
 92
        8
 66
     7
 43
1.0
 76
     1
 77
     6
 78
     2
 67
     7
 79
     5
170
     0
171
     0
290
     0
174
     0
 93
        1
 44
50.0
173
     0
291
     1
 45
0.0
1001
ACAD
1000
AcDbSavedByObjectVersion
1070
     0
  0
VISUALSTYLE
  5
38
102
{ACAD_REACTORS
330
28
102
}
330
28
100
AcDbVisualStyle
  2
ColorChange
 70
    16
 71
     2
 72
     2
 73
     3
 90
        0
 40
-0.6
 41
-30.0
 62
     5
 63
     8
 74
     1
 91
        4
 64
     7
 65
   257
 75
     1
175
     1
 42
1.0
 92
        8
 66
     8
 43
1.0
 76
     1
 77
     6
 78
     2
 67
     7
 79
     5
170
     0
171
     0
290
     0
174
     0
 93
        1
 44
0.0
173
     0
291
     1
 45
0.0
1001
ACAD
1000
AcDbSavedByObjectVersion
1070
     0
  0
VISUALSTYLE
  5
32
102
{ACAD_REACTORS
330
28
102
}
330
28
100
AcDbVisualStyle
  2
Conceptual
 70
     9
 71
     3
 72
     2
 73
     0
 90
        0
 40
-0.6
 41
-30.0
 62
     5
 63
     7
 74
     2
 91
        2
 64
     7
 65
   257
 75
     1
175
     1
 42
40.0
 92
        8
 66
     7
 43
1.0
 76
     1
 77
     6
 78
     2
 67
     7
 79
     3
170
     0
171
     0
290
     0
174
     0
 93
        1
 44
0.0
173
     0
291
     0
 45
0.0
1001
ACAD
1000
AcDbSavedByObjectVersion
1070
     0
  0
VISUALSTYLE
  5
33
102
{ACAD_REACTORS
330
28
102
}
330
28
100
AcDbVisualStyle
  2
Dim
 70
    11
 71
     2
 72
     2
 73
     0
 90
        0
 40
-0.6
 41
-30.0
 62
     5
 63
     7
 74
     1
 91
        4
 64
     7
 65
   257
 75
     1
175
     1
 42
1.0
 92
        8
 66
     7
 43
1.0
 76
     1
 77
     6
 78
     2
 67
     7
 79
     5
170
     0
171
     0
290
     0
174
     0
 93
        1
 44
-50.0
173
     0
291
     1
 45
0.0
1001
ACAD
1000
AcDbSavedByObjectVersion
1070
     0
  0
VISUALSTYLE
  5
37
102
{ACAD_REACTORS
330
28
102
}
330
28
100
AcDbVisualStyle
  2
Facepattern
 70
    15
 71
     2
 72
     2
 73
     0
 90
        0
 40
-0.6
 41
-30.0
 62
     5
 63
     7
 74
     1
 91
        4
 64
     7
 65
   257
 75
     1
175
     1
 42
1.0
 92
        8
 66
     7
 43
1.0
 76
     1
 77
     6
 78
     2
 67
     7
 79
     5
170
     0
171
     0
290
     0
174
     0
 93
        1
 44
0.0
173
     0
291
     1
 45
0.0
1001
ACAD
1000
AcDbSavedByObjectVersion
1070
     0
  0
VISUALSTYLE
  5
29
102
{ACAD_REACTORS
330
28
102
}
330
28
100
AcDbVisualStyle
  2
Flat
 70
     0
 71
     2
 72
     1
 73
     1
 90
        2
 40
-0.6
 41
30.0
 62
     5
 63
     7
 74
     0
 91
        4
 64
     7
 65
   257
 75
     1
175
     1
 42
1.0
 92
        8
 66
     7
 43
1.0
 76
     1
 77
     6
 78
     2
 67
     7
 79
     5
170
     0
171
     0
290
     0
174
     0
 93
       13
 44
0.0
173
     0
291
     1
 45
0.0
1001
ACAD
1000
AcDbSavedByObjectVersion
1070
     0
  0
VISUALSTYLE
  5
2A
102
{ACAD_REACTORS
330
28
102
}
330
28
100
AcDbVisualStyle
  2
FlatWithEdges
 70
     1
 71
     2
 72
     1
 73
     1
 90
        2
 40
-0.6
 41
30.0
 62
     5
 63
     7
 74
     1
 91
        4
 64
     7
 65
   257
 75
     1
175
     1
 42
1.0
 92
        0
 66
   257
 43
1.0
 76
     1
 77
     6
 78
     2
 67
     7
 79
     5
170
     0
171
     0
290
     0
174
     0
 93
       13
 44
0.0
173
     0
291
     1
 45
0.0
1001
ACAD
1000
AcDbSavedByObjectVersion
1070
     0
  0
VISUALSTYLE
  5
2B
102
{ACAD_REACTORS
330
28
102
}
330
28
100
AcDbVisualStyle
  2
Gouraud
 70
     2
 71
     2
 72
     2
 73
     1
 90
        2
 40
-0.6
 41
30.0
 62
     5
 63
     7
 74
     0
 91
        4
 64
     7
 65
   257
 75
     1
175
     1
 42
1.0
 92
        0
 66
     7
 43
1.0
 76
     1
 77
     6
 78
     2
 67
     7
 79
     5
170
     0
171
     0
290
     0
174
     0
 93
       13
 44
0.0
173
     0
291
     1
 45
0.0
1001
ACAD
1000
AcDbSavedByObjectVersion
1070
     0
  0
VISUALSTYLE
  5
2C
102
{ACAD_REACTORS
330
28
102
}
330
28
100
AcDbVisualStyle
  2
GouraudWithEdges
 70
     3
 71
     2
 72
     2
 73
     1
 90
        2
 40
-0.6
 41
30.0
 62
     5
 63
     7
 74
     1
 91
        4
 64
     7
 65
   257
 75
     1
175
     1
 42
1.0
 92
        0
 66
   257
 43
1.0
 76
     1
 77
     6
 78
     2
 67
     7
 79
     5
170
     0
171
     0
290
     0
174
     0
 93
       13
 44
0.0
173
     0
291
     1
 45
0.0
1001
ACAD
1000
AcDbSavedByObjectVersion
1070
     0
  0
VISUALSTYLE
  5
36
102
{ACAD_REACTORS
330
28
102
}
330
28
100
AcDbVisualStyle
  2
Linepattern
 70
    14
 71
     2
 72
     2
 73
     0
 90
        0
 40
-0.6
 41
-30.0
 62
     5
 63
     7
 74
     1
 91
        4
 64
     7
 65
   257
 75
     7
175
     7
 42
1.0
 92
        8
 66
     7
 43
1.0
 76
     1
 77
     6
 78
     2
 67
     7
 79
     5
170
     0
171
     0
290
     0
174
     0
 93
        1
 44
0.0
173
     0
291
     1
 45
0.0
1001
ACAD
1000
AcDbSavedByObjectVersion
1070
     0
  0
VISUALSTYLE
  5
31
102
{ACAD_REACTORS
330
28
102
}
330
28
100
AcDbVisualStyle
  2
Realistic
 70
     8
 71
     2
 72
     2
 73
     0
 90
        0
 40
-0.6
 41
-30.0
 62
     5
 63
     7
 74
     1
 91
        0
 64
     7
 65
   257
 75
     1
175
     1
 42
1.0
 92
        8
 66
     8
 43
1.0
 76
     1
 77
     6
 78
     2
 67
     7
 79
     5
170
     0
171
     0
290
     0
174
     0
 93
       13
 44
0.0
173
     0
291
     0
 45
0.0
1001
ACAD
1000
AcDbSavedByObjectVersion
1070
     0
  0
VISUALSTYLE
  5
35
102
{ACAD_REACTORS
330
28
102
}
330
28
100
AcDbVisualStyle
  2
Thicken
 70
    13
 71
     2
 72
     2
 73
     0
 90
        0
 40
-0.6
 41
-30.0
 62
     5
 63
     7
 74
     1
 91
        4
 64
     7
 65
   257
 75
     1
175
     1
 42
1.0
 92
       12
 66
     7
 43
1.0
 76
     1
 77
     6
 78
     2
 67
     7
 79
     5
170
     0
171
     0
290
     0
174
     0
 93
        1
 44
0.0
173
     0
291
     1
 45
0.0
1001
ACAD
1000
AcDbSavedByObjectVersion
1070
     0
  0
DICTIONARYVAR
  5
366B
102
{ACAD_REACTORS
330
366A
102
}
330
366A
100
DictionaryVariables
280
     0
  1
STANDARD
  0
DICTIONARYVAR
  5
4F83
102
{ACAD_REACTORS
330
366A
102
}
330
366A
100
DictionaryVariables
280
     0
  1
2
  0
DICTIONARYVAR
  5
4F82
102
{ACAD_REACTORS
330
366A
102
}
330
366A
100
DictionaryVariables
280
     0
  1
2
  0
DICTIONARYVAR
  5
4F81
102
{ACAD_REACTORS
330
366A
102
}
330
366A
100
DictionaryVariables
280
     0
  1
1
  0
DICTIONARYVAR
  5
4F80
102
{ACAD_REACTORS
330
366A
102
}
330
366A
100
DictionaryVariables
280
     0
  1
0
  0
DICTIONARYVAR
  5
4F7F
102
{ACAD_REACTORS
330
366A
102
}
330
366A
100
DictionaryVariables
280
     0
  1
127
  0
DICTIONARY
  5
4F87
330
1E
100
AcDbDictionary
280
     1
281
     1
  3
ACAD_XREC_ROUNDTRIP
360
4F88
  0
DICTIONARY
  5
4F8B
330
24
100
AcDbDictionary
280
     1
281
     1
  3
ACAD_XREC_ROUNDTRIP
360
4F8C
  0
DICTIONARY
  5
4F89
330
22
100
AcDbDictionary
280
     1
281
     1
  3
ACAD_XREC_ROUNDTRIP
360
4F8A
  0
DICTIONARY
  5
4F8F
330
3511
100
AcDbDictionary
280
     1
281
     1
  3
ACAD_XREC_ROUNDTRIP
360
4F90
  0
DICTIONARY
  5
4F8D
330
3510
100
AcDbDictionary
280
     1
281
     1
  3
ACAD_XREC_ROUNDTRIP
360
4F8E
  0
DICTIONARY
  5
4F91
330
3512
100
AcDbDictionary
280
     1
281
     1
  3
ACAD_XREC_ROUNDTRIP
360
4F92
  0
DICTIONARY
  5
4F93
330
3514
100
AcDbDictionary
280
     1
281
     1
  3
ACAD_XREC_ROUNDTRIP
360
4F94
  0
XRECORD
  5
4F88
102
{ACAD_REACTORS
330
4F87
102
}
330
4F87
100
AcDbXrecord
280
     1
102
SHADEPLOT
 70
     0
102
SHADEPLOTRESLEVEL
 70
     2
102
SHADEPLOTCUSTOMDPI
 70
   300
  0
XRECORD
  5
4F8C
102
{ACAD_REACTORS
330
4F8B
102
}
330
4F8B
100
AcDbXrecord
280
     1
102
SHADEPLOT
 70
     0
102
SHADEPLOTRESLEVEL
 70
     2
102
SHADEPLOTCUSTOMDPI
 70
   300
  0
XRECORD
  5
4F8A
102
{ACAD_REACTORS
330
4F89
102
}
330
4F89
100
AcDbXrecord
280
     1
102
SHADEPLOT
 70
     0
102
SHADEPLOTRESLEVEL
 70
     2
102
SHADEPLOTCUSTOMDPI
 70
   300
  0
XRECORD
  5
4F90
102
{ACAD_REACTORS
330
4F8F
102
}
330
4F8F
100
AcDbXrecord
280
     1
102
MATERIAL
148
0.0
149
0.0
149
0.0
 93
        0
 94
       63
282
     0
 72
     1
 77
     1
171
     1
175
     1
179
     1
273
     0
  0
XRECORD
  5
4F8E
102
{ACAD_REACTORS
330
4F8D
102
}
330
4F8D
100
AcDbXrecord
280
     1
102
MATERIAL
148
0.0
149
0.0
149
0.0
 93
        0
 94
       63
282
     0
 72
     1
 77
     1
171
     1
175
     1
179
     1
273
     0
  0
XRECORD
  5
4F92
102
{ACAD_REACTORS
330
4F91
102
}
330
4F91
100
AcDbXrecord
280
     1
102
MATERIAL
148
0.0
149
0.0
149
0.0
 93
        0
 94
       63
282
     0
 72
     1
 77
     1
171
     1
175
     1
179
     1
273
     0
  0
XRECORD
  5
4F94
102
{ACAD_REACTORS
330
4F93
102
}
330
4F93
100
AcDbXrecord
280
     1
102
ACAD_ROUNDTRIP_PRE2007_TABLESTYLE
 90
      512
 91
        0
  1

 92
      512
 93
        0
  2

 94
      512
 95
        0
  3

  0
ENDSEC
  0
EOF
